999
DXF file: fg-002185-2d-A.dxf
999
Pro/ENGINEER 2016130 by Parametric Technology Corporation
  0
SECTION
  2
HEADER
  9
$ACADVER
  1
AC1015
  9
$DWGCODEPAGE
  3
ANSI_1252
  9
$EXTMAX
 10
170.0
 20
110.0
 30
0.0
  9
$EXTMIN
 10
0.0
 20
0.0
 30
0.0
  9
$LIMMIN
 10
0.0
 20
0.0
  9
$LIMMAX
 10
170.0
 20
110.0
  9
$VIEWCTR
 10
85.0
 20
55.0
  9
$VIEWSIZE
 40
110.0
  9
$CLAYER
  8
0
  9
$LTSCALE
 40
9.35
  9
$CELTYPE
  6
BYLAYER
  9
$DIMSCALE
 40
1.0
  9
$DIMASZ
 40
0.9375
  9
$DIMEXO
 40
0.0625
  9
$DIMDLI
 40
6.46
  9
$DIMEXE
 40
0.125
  9
$DIMCEN
 40
1.53
  9
$DIMLFAC
 40
1.0
  9
$DIMBLK
  1
_FILLED
  9
$DIMALT
 70
0
  9
$DIMALTF
 40
25.4
  9
$DIMTXT
 40
0.78125
  9
$DIMTOL
 70
1
  9
$DIMLIM
 70
0
  9
$DIMTFAC
 40
1.0
  9
$DIMTP
 40
0.01
  9
$DIMTM
 40
0.01
  9
$DIMGAP
 40
0.09
  9
$DIMDSEP
 70
46
  9
$AUNITS
 70
0
  9
$PDMODE
 70
3
  9
$PDSIZE
 40
0.3125
  9
$HANDSEED
  5
675
  9
$TILEMODE
 70
1
  9
$MEASUREMENT
 70
0
  9
$INSUNITS
 70
1
  0
ENDSEC
  0
SECTION
  2
CLASSES
  0
CLASS
  1
ACDBDICTIONARYWDFLT
  2
AcDbDictionaryWithDefault
  3
AutoCAD 2000
 90
0
280
0
281
0
  0
CLASS
  1
ACDBPLACEHOLDER
  2
AcDbPlaceHolder
  3
AutoCAD 2000
 90
0
280
0
281
0
  0
CLASS
  1
LAYOUT
  2
AcDbLayout
  3
AutoCAD 2000
 90
0
280
0
281
0
  0
ENDSEC
  0
SECTION
  2
TABLES
  0
TABLE
  2
VPORT
  5
8
100
AcDbSymbolTable
 70
2
  0
VPORT
  5
1F4
100
AcDbSymbolTableRecord
100
AcDbViewportTableRecord
  2
*ACTIVE
 70
0
 10
0.0
 20
0.0
 11
1.0
 21
1.0
 12
85.0
 22
55.0
 13
0.0
 23
0.0
 14
1.0
 24
1.0
 15
0.0
 25
0.0
 16
0.0
 26
0.0
 36
1.0
 17
0.0
 27
0.0
 37
0.0
 40
110.0
 41
1.5454545455
 42
50.0
 43
0.0
 44
0.0
 50
0.0
 51
0.0
 71
0
 72
100
 73
1
 74
1
 75
0
 76
0
 77
0
 78
0
  0
ENDTAB
  0
TABLE
  2
LTYPE
  5
5
100
AcDbSymbolTable
 70
6
  0
LTYPE
  5
14
100
AcDbSymbolTableRecord
100
AcDbLinetypeTableRecord
  2
BYBLOCK
 70
0
  3

 72
65
 73
0
 40
0.0
  0
LTYPE
  5
15
100
AcDbSymbolTableRecord
100
AcDbLinetypeTableRecord
  2
BYLAYER
 70
0
  3

 72
65
 73
0
 40
0.0
  0
LTYPE
  5
16
100
AcDbSymbolTableRecord
100
AcDbLinetypeTableRecord
  2
CONTINUOUS
 70
64
  3
Solid line
 72
65
 73
0
 40
0.0
  0
LTYPE
  5
1F5
100
AcDbSymbolTableRecord
100
AcDbLinetypeTableRecord
  2
CENTER
 70
64
  3
____ _ ____ _ ____ _ ____ _ ____ _ ____ _ ____
 72
65
 73
4
 40
0.6
 49
0.375
 74
0
 49
-0.075
 74
0
 49
0.075
 74
0
 49
-0.075
 74
0
  0
LTYPE
  5
1F6
100
AcDbSymbolTableRecord
100
AcDbLinetypeTableRecord
  2
HIDDEN
 70
64
  3
- - - - - - - - - - - - - - - - - - - -
 72
65
 73
2
 40
0.2
 49
0.1
 74
0
 49
-0.1
 74
0
  0
LTYPE
  5
1F7
100
AcDbSymbolTableRecord
100
AcDbLinetypeTableRecord
  2
PHANTOM
 70
64
  3
_____ _ _ _____ _ _ _____ _ _ _____
 72
65
 73
6
 40
0.8
 49
0.45
 74
0
 49
-0.05
 74
0
 49
0.1
 74
0
 49
-0.05
 74
0
 49
0.1
 74
0
 49
-0.05
 74
0
  0
LTYPE
  5
1F8
100
AcDbSymbolTableRecord
100
AcDbLinetypeTableRecord
  2
DOT
 70
64
  3
. . . . . . . . . . . . . . . . . . . .
 72
65
 73
2
 40
0.2
 49
0.1
 74
0
 49
-0.1
 74
0
  0
LTYPE
  5
1F9
100
AcDbSymbolTableRecord
100
AcDbLinetypeTableRecord
  2
DASHED
 70
64
  3
- - - - - - - - - - - - - - - - - - - -
 72
65
 73
2
 40
0.2
 49
0.1
 74
0
 49
-0.1
 74
0
  0
ENDTAB
  0
TABLE
  2
LAYER
  5
2
100
AcDbSymbolTable
 70
36
  0
LAYER
  5
10
100
AcDbSymbolTableRecord
100
AcDbLayerTableRecord
  2
0
 70
0
 62
7
  6
CONTINUOUS
370
-3
390
F
  0
LAYER
  5
1FA
100
AcDbSymbolTableRecord
100
AcDbLayerTableRecord
  2
DEFAULT_1
 70
0
 62
7
  6
CENTER
370
-3
390
F
  0
LAYER
  5
1FB
100
AcDbSymbolTableRecord
100
AcDbLayerTableRecord
  2
DEFAULT_2
 70
0
 62
8
  6
HIDDEN
370
-3
390
F
  0
LAYER
  5
1FC
100
AcDbSymbolTableRecord
100
AcDbLayerTableRecord
  2
DEFAULT_3
 70
0
 62
7
  6
PHANTOM
370
-3
390
F
  0
LAYER
  5
1FD
100
AcDbSymbolTableRecord
100
AcDbLayerTableRecord
  2
1_ALL_PLANES
 70
0
 62
7
  6
CONTINUOUS
370
-3
390
F
  0
LAYER
  5
1FE
100
AcDbSymbolTableRecord
100
AcDbLayerTableRecord
  2
1__DEF_PLANES
 70
0
 62
7
  6
CONTINUOUS
370
-3
390
F
  0
LAYER
  5
1FF
100
AcDbSymbolTableRecord
100
AcDbLayerTableRecord
  2
2_ALL_CSYS
 70
0
 62
7
  6
CONTINUOUS
370
-3
390
F
  0
LAYER
  5
200
100
AcDbSymbolTableRecord
100
AcDbLayerTableRecord
  2
2__DEF_CSYS
 70
0
 62
7
  6
CONTINUOUS
370
-3
390
F
  0
LAYER
  5
201
100
AcDbSymbolTableRecord
100
AcDbLayerTableRecord
  2
3_ALL_AXES
 70
0
 62
7
  6
CONTINUOUS
370
-3
390
F
  0
LAYER
  5
202
100
AcDbSymbolTableRecord
100
AcDbLayerTableRecord
  2
3_AXES_OTHER
 70
0
 62
7
  6
CONTINUOUS
370
-3
390
F
  0
LAYER
  5
203
100
AcDbSymbolTableRecord
100
AcDbLayerTableRecord
  2
3_HOLES
 70
0
 62
7
  6
CONTINUOUS
370
-3
390
F
  0
LAYER
  5
204
100
AcDbSymbolTableRecord
100
AcDbLayerTableRecord
  2
4_ALL_POINTS
 70
0
 62
7
  6
CONTINUOUS
370
-3
390
F
  0
LAYER
  5
205
100
AcDbSymbolTableRecord
100
AcDbLayerTableRecord
  2
5_ALL_CURVES
 70
0
 62
7
  6
CONTINUOUS
370
-3
390
F
  0
LAYER
  5
206
100
AcDbSymbolTableRecord
100
AcDbLayerTableRecord
  2
6_ALL_SURFS
 70
0
 62
7
  6
CONTINUOUS
370
-3
390
F
  0
LAYER
  5
207
100
AcDbSymbolTableRecord
100
AcDbLayerTableRecord
  2
6_COPYGEOM
 70
0
 62
7
  6
CONTINUOUS
370
-3
390
F
  0
LAYER
  5
208
100
AcDbSymbolTableRecord
100
AcDbLayerTableRecord
  2
7_ALL_ROUNDS
 70
0
 62
7
  6
CONTINUOUS
370
-3
390
F
  0
LAYER
  5
209
100
AcDbSymbolTableRecord
100
AcDbLayerTableRecord
  2
7_MERGES
 70
0
 62
7
  6
CONTINUOUS
370
-3
390
F
  0
LAYER
  5
20A
100
AcDbSymbolTableRecord
100
AcDbLayerTableRecord
  2
8_GDT
 70
0
 62
7
  6
CONTINUOUS
370
-3
390
F
  0
LAYER
  5
20B
100
AcDbSymbolTableRecord
100
AcDbLayerTableRecord
  2
8_SET_DATUMS
 70
0
 62
7
  6
CONTINUOUS
370
-3
390
F
  0
LAYER
  5
20C
100
AcDbSymbolTableRecord
100
AcDbLayerTableRecord
  2
9_COSMETICS
 70
0
 62
7
  6
CONTINUOUS
370
-3
390
F
  0
LAYER
  5
20D
100
AcDbSymbolTableRecord
100
AcDbLayerTableRecord
  2
9_THREADS
 70
0
 62
7
  6
CONTINUOUS
370
-3
390
F
  0
ENDTAB
  0
TABLE
  2
STYLE
  5
3
100
AcDbSymbolTable
 70
1
  0
STYLE
  5
11
100
AcDbSymbolTableRecord
100
AcDbTextStyleTableRecord
  2
STANDARD
 70
0
 40
0.0
 41
0.8
 50
0.0
 71
0
 42
0.2
  3
txt
  4

  0
STYLE
  5
20E
100
AcDbSymbolTableRecord
100
AcDbTextStyleTableRecord
  2
TEXTSTYLE_1
 70
0
 40
0.0
 41
0.8
 50
0.0
 71
0
 42
0.2
  3
gdt
  4

  0
ENDTAB
  0
TABLE
  2
VIEW
  5
6
100
AcDbSymbolTable
 70
0
  0
ENDTAB
  0
TABLE
  2
UCS
  5
7
100
AcDbSymbolTable
 70
0
  0
ENDTAB
  0
TABLE
  2
APPID
  5
9
100
AcDbSymbolTable
 70
1
  0
APPID
  5
20F
100
AcDbSymbolTableRecord
100
AcDbRegAppTableRecord
  2
ACAD
 70
0
  0
ENDTAB
  0
TABLE
  2
BLOCK_RECORD
  5
1
100
AcDbSymbolTable
 70
0
  0
BLOCK_RECORD
  5
210
100
AcDbSymbolTableRecord
100
AcDbBlockTableRecord
  2
*Model_Space
  0
BLOCK_RECORD
  5
211
100
AcDbSymbolTableRecord
100
AcDbBlockTableRecord
  2
*Paper_Space
  0
BLOCK_RECORD
  5
212
100
AcDbSymbolTableRecord
100
AcDbBlockTableRecord
  2
_FILLED
  0
BLOCK_RECORD
  5
213
100
AcDbSymbolTableRecord
100
AcDbBlockTableRecord
  2
*D0
  0
BLOCK_RECORD
  5
214
100
AcDbSymbolTableRecord
100
AcDbBlockTableRecord
  2
*D1
  0
BLOCK_RECORD
  5
215
100
AcDbSymbolTableRecord
100
AcDbBlockTableRecord
  2
*D2
  0
BLOCK_RECORD
  5
216
100
AcDbSymbolTableRecord
100
AcDbBlockTableRecord
  2
*D3
  0
BLOCK_RECORD
  5
217
100
AcDbSymbolTableRecord
100
AcDbBlockTableRecord
  2
*D4
  0
BLOCK_RECORD
  5
218
100
AcDbSymbolTableRecord
100
AcDbBlockTableRecord
  2
*D5
  0
BLOCK_RECORD
  5
219
100
AcDbSymbolTableRecord
100
AcDbBlockTableRecord
  2
*D6
  0
BLOCK_RECORD
  5
21A
100
AcDbSymbolTableRecord
100
AcDbBlockTableRecord
  2
*D7
  0
BLOCK_RECORD
  5
21B
100
AcDbSymbolTableRecord
100
AcDbBlockTableRecord
  2
*D8
  0
BLOCK_RECORD
  5
21C
100
AcDbSymbolTableRecord
100
AcDbBlockTableRecord
  2
*D9
  0
BLOCK_RECORD
  5
21D
100
AcDbSymbolTableRecord
100
AcDbBlockTableRecord
  2
*D10
  0
BLOCK_RECORD
  5
21E
100
AcDbSymbolTableRecord
100
AcDbBlockTableRecord
  2
*D11
  0
BLOCK_RECORD
  5
21F
100
AcDbSymbolTableRecord
100
AcDbBlockTableRecord
  2
RD010411_BL0
  0
ENDTAB
  0
TABLE
  2
DIMSTYLE
  5
A
100
AcDbSymbolTable
 70
1
100
AcDbDimStyleTable
 71
0
  0
DIMSTYLE
105
220
100
AcDbSymbolTableRecord
100
AcDbDimStyleTableRecord
  2
STANDARD
 70
0
  3

  4

 40
1.0
 41
0.9375
 42
0.0625
 43
0.38
 44
0.125
 45
0.0
 46
0.0
 47
0.01
 48
0.01
140
0.78125
141
0.09
142
0.0
143
25.4
144
1.0
145
0.0
146
1.0
147
0.09
 71
1.0
 72
0.0
 73
1
 74
1
 75
0
 76
0
 77
0
 78
4
170
0
171
2
172
0
173
0
174
0
175
0
176
0
177
0
178
0
270
2
271
3
272
3
273
2
274
2
275
0
280
0
281
0
282
0
283
1
284
4
285
0
286
0
287
3
288
0
340
11
278
46
341
212
342
212
343
212
344
212
  0
DIMSTYLE
105
221
100
AcDbSymbolTableRecord
100
AcDbDimStyleTableRecord
  2
DIMSTYLE_1
 70
0
  3

  4

 40
1.0
 41
0.9375
 42
0.0625
 43
0.38
 44
0.125
 45
0.0
 46
0.0
 47
0.0
 48
0.0
140
0.78125
141
0.09
142
0.0
143
25.4
144
1.0
145
0.0
146
1.0
147
0.078125
 71
0.0
 72
0.0
 73
1
 74
1
 75
0
 76
0
 77
0
 78
4
170
0
171
2
172
0
173
0
174
0
175
0
176
0
177
0
178
0
270
2
271
0
272
0
273
2
274
2
275
0
280
0
281
0
282
0
283
1
284
4
285
0
286
0
287
3
288
0
340
11
278
46
341
212
342
212
343
212
344
212
  0
ENDTAB
  0
ENDSEC
  0
SECTION
  2
BLOCKS
  0
BLOCK
  5
20
100
AcDbEntity
  8
0
100
AcDbBlockBegin
  2
*Model_Space
 70
0
 10
0.0
 20
0.0
 30
0.0
  3
*Model_Space
  1

  0
ENDBLK
  5
21
100
AcDbEntity
  8
0
100
AcDbBlockEnd
  0
BLOCK
  5
1C
100
AcDbEntity
  8
0
100
AcDbBlockBegin
  2
*Paper_Space
 70
0
 10
0.0
 20
0.0
 30
0.0
  3
*Paper_Space
  1

  0
ENDBLK
  5
1D
100
AcDbEntity
  8
0
100
AcDbBlockEnd
  0
BLOCK
  5
222
100
AcDbEntity
  8
0
100
AcDbBlockBegin
 62
7
  6
CONTINUOUS
  2
RD010411_BL0
 70
64
 10
144.444101494
 20
13.5055533259
  3
RD010411_BL0
  1

  0
ARC
  5
223
100
AcDbEntity
  8
0
100
AcDbCircle
 62
7
  6
CONTINUOUS
 10
147.7049093422
 20
14.0074381135
 40
0.0618575663
100
AcDbArc
 50
270.0
 51
360.0
  0
LINE
  5
224
100
AcDbEntity
  8
0
100
AcDbLine
 62
7
  6
CONTINUOUS
 10
147.7667669086
 20
14.0074381135
 11
147.7667669086
 21
14.1311957595
  0
ARC
  5
225
100
AcDbEntity
  8
0
100
AcDbCircle
 62
7
  6
CONTINUOUS
 10
147.7049093422
 20
14.1311957595
 40
0.0618575663
100
AcDbArc
 50
0.0
 51
90.0
  0
LINE
  5
226
100
AcDbEntity
  8
0
100
AcDbLine
 62
7
  6
CONTINUOUS
 10
147.7049093422
 20
14.1930533259
 11
146.0419426811
 21
14.1930533259
  0
SPLINE
  5
227
100
AcDbEntity
  8
0
100
AcDbSpline
 62
7
  6
CONTINUOUS
 70
0
 71
3
 72
13
 73
9
 74
0
 42
0.0000001
 43
0.0000001
 44
0.0000000001
 40
0.0
 40
0.0
 40
0.0
 40
0.0
 40
0.1310616762
 40
0.2699656353
 40
0.4157607805
 40
0.5899807757
 40
0.76586761
 40
0.9948829976
 40
0.9948829976
 40
0.9948829976
 40
0.9948829976
 10
146.0419426811
 20
14.1930533259
 30
0.0
 10
146.0069856086
 20
14.1904497
 30
0.0
 10
145.9349797527
 20
14.1850866566
 30
0.0
 10
145.8373974785
 20
14.1246191173
 30
0.0
 10
145.7673450503
 20
14.0231050097
 30
0.0
 10
145.7217933421
 20
13.8989756016
 30
0.0
 10
145.696135839
 20
13.7472378627
 30
0.0
 10
145.6937734767
 20
13.6400173118
 30
0.0
 10
145.6925491194
 20
13.5793646899
 30
0.0
  0
LINE
  5
228
100
AcDbEntity
  8
0
100
AcDbLine
 62
7
  6
CONTINUOUS
 10
145.6925491194
 20
13.5793646899
 11
145.6926576861
 21
13.5699525454
  0
SPLINE
  5
229
100
AcDbEntity
  8
0
100
AcDbSpline
 62
7
  6
CONTINUOUS
 70
0
 71
3
 72
13
 73
9
 74
0
 42
0.0000001
 43
0.0000001
 44
0.0000000001
 40
0.0
 40
0.0
 40
0.0
 40
0.0
 40
0.2222860645
 40
0.3981728988
 40
0.572392894
 40
0.7181880393
 40
0.8570919984
 40
0.9881536746
 40
0.9881536746
 40
0.9881536746
 40
0.9881536746
 10
145.6926576861
 20
13.5699525454
 30
0.0
 10
145.6938579132
 20
13.5110829022
 30
0.0
 10
145.6964334481
 20
13.4056639025
 30
0.0
 10
145.7217933212
 20
13.2556850787
 30
0.0
 10
145.7673455747
 20
13.1315695534
 30
0.0
 10
145.8373958179
 20
13.0300123634
 30
0.0
 10
145.9349855397
 20
12.9696893671
 30
0.0
 10
146.0069738404
 20
12.963985971
 30
0.0
 10
146.0419426811
 20
12.9613814696
 30
0.0
  0
LINE
  5
22A
100
AcDbEntity
  8
0
100
AcDbLine
 62
7
  6
CONTINUOUS
 10
146.0419426811
 20
12.9613814696
 11
147.7050443526
 21
12.9650113582
  0
ARC
  5
22B
100
AcDbEntity
  8
0
100
AcDbCircle
 62
7
  6
CONTINUOUS
 10
147.7049093422
 20
13.0268687771
 40
0.0618575662
100
AcDbArc
 50
270.125053868
 51
360.0
  0
LINE
  5
22C
100
AcDbEntity
  8
0
100
AcDbLine
 62
7
  6
CONTINUOUS
 10
147.7667669086
 20
13.0268687771
 11
147.7667669086
 21
13.1457946733
  0
ARC
  5
22D
100
AcDbEntity
  8
0
100
AcDbCircle
 62
7
  6
CONTINUOUS
 10
147.7049093422
 20
13.1457946733
 40
0.0618575663
100
AcDbArc
 50
0.0
 51
90.0
  0
LINE
  5
22E
100
AcDbEntity
  8
0
100
AcDbLine
 62
7
  6
CONTINUOUS
 10
147.7049093422
 20
13.2076522397
 11
146.2795196262
 21
13.2076522397
  0
LINE
  5
22F
100
AcDbEntity
  8
0
100
AcDbLine
 62
7
  6
CONTINUOUS
 10
146.2176620599
 20
13.269509806
 11
146.2176620599
 21
13.8837229808
  0
ARC
  5
230
100
AcDbEntity
  8
0
100
AcDbCircle
 62
7
  6
CONTINUOUS
 10
146.2795196268
 20
13.8837229808
 40
0.0618575663
100
AcDbArc
 50
90.0
 51
180.0
  0
LINE
  5
231
100
AcDbEntity
  8
0
100
AcDbLine
 62
7
  6
CONTINUOUS
 10
146.2795196262
 20
13.9455805472
 11
147.7049093422
 21
13.9455805472
  0
LINE
  5
232
100
AcDbEntity
  8
0
100
AcDbLine
 62
7
  6
CONTINUOUS
 10
143.7379231651
 20
13.4523155029
 11
144.9259828361
 21
13.4523155029
  0
ARC
  5
233
100
AcDbEntity
  8
0
100
AcDbCircle
 62
7
  6
CONTINUOUS
 10
144.925982836
 20
13.3904579367
 40
0.0618575663
100
AcDbArc
 50
0.0
 51
90.0
  0
LINE
  5
234
100
AcDbEntity
  8
0
100
AcDbLine
 62
7
  6
CONTINUOUS
 10
144.9878404025
 20
13.3904579366
 11
144.9878404025
 21
13.2641511755
  0
LINE
  5
235
100
AcDbEntity
  8
0
100
AcDbLine
 62
7
  6
CONTINUOUS
 10
144.9259828361
 20
13.2022936091
 11
143.5410821368
 21
13.2022936091
  0
ARC
  5
236
100
AcDbEntity
  8
0
100
AcDbCircle
 62
7
  6
CONTINUOUS
 10
143.5410821368
 20
13.1404360428
 40
0.0618575663
100
AcDbArc
 50
90.0
 51
180.0
  0
LINE
  5
237
100
AcDbEntity
  8
0
100
AcDbLine
 62
7
  6
CONTINUOUS
 10
143.4792245704
 20
13.1404360428
 11
143.4792245704
 21
13.0232384117
  0
ARC
  5
238
100
AcDbEntity
  8
0
100
AcDbCircle
 62
7
  6
CONTINUOUS
 10
143.5410821368
 20
13.0232384117
 40
0.0618575663
100
AcDbArc
 50
180.0
 51
270.0
  0
LINE
  5
239
100
AcDbEntity
  8
0
100
AcDbLine
 62
7
  6
CONTINUOUS
 10
143.5410821368
 20
12.9613808453
 11
145.260365722
 21
12.9613808453
  0
SPLINE
  5
23A
100
AcDbEntity
  8
0
100
AcDbSpline
 62
7
  6
CONTINUOUS
 70
0
 71
3
 72
13
 73
9
 74
0
 42
0.0000001
 43
0.0000001
 44
0.0000000001
 40
0.0
 40
0.0
 40
0.0
 40
0.0
 40
0.1604571392
 40
0.3334692485
 40
0.4767982758
 40
0.6242014838
 40
0.7505998515
 40
1.0
 40
1.0
 40
1.0
 40
1.0
 10
145.260365722
 20
12.9613808453
 30
0.0
 10
145.2893530579
 20
12.9627765338
 30
0.0
 10
145.3495958429
 20
12.965677115
 30
0.0
 10
145.4306053246
 20
13.0008477171
 30
0.0
 10
145.4916486379
 20
13.0599665635
 30
0.0
 10
145.5260489457
 20
13.1277440369
 30
0.0
 10
145.5524231487
 20
13.218668212
 30
0.0
 10
145.5534934149
 20
13.2867115511
 30
0.0
 10
145.5542037006
 20
13.3318687775
 30
0.0
  0
SPLINE
  5
23B
100
AcDbEntity
  8
0
100
AcDbSpline
 62
7
  6
CONTINUOUS
 70
0
 71
3
 72
13
 73
9
 74
0
 42
0.0000001
 43
0.0000001
 44
0.0000000001
 40
0.0
 40
0.0
 40
0.0
 40
0.0
 40
0.2494001485
 40
0.3757985162
 40
0.5232017242
 40
0.6665307515
 40
0.8395428608
 40
1.0
 40
1.0
 40
1.0
 40
1.0
 10
145.5542037006
 20
13.3318687775
 30
0.0
 10
145.5534934149
 20
13.3770260047
 30
0.0
 10
145.5524231487
 20
13.4450693429
 30
0.0
 10
145.5260489457
 20
13.535993519
 30
0.0
 10
145.4916486379
 20
13.6037709924
 30
0.0
 10
145.4306053246
 20
13.6628898378
 30
0.0
 10
145.3495958429
 20
13.6980604399
 30
0.0
 10
145.2893530579
 20
13.700961022
 30
0.0
 10
145.260365722
 20
13.7023567096
 30
0.0
  0
LINE
  5
23C
100
AcDbEntity
  8
0
100
AcDbLine
 62
7
  6
CONTINUOUS
 10
145.260365722
 20
13.7023567096
 11
144.0881420999
 21
13.7023567096
  0
LINE
  5
23D
100
AcDbEntity
  8
0
100
AcDbLine
 62
7
  6
CONTINUOUS
 10
144.0262845336
 20
13.7642142759
 11
144.0262845336
 21
13.8812549972
  0
ARC
  5
23E
100
AcDbEntity
  8
0
100
AcDbCircle
 62
7
  6
CONTINUOUS
 10
144.0881420994
 20
13.8812549972
 40
0.0618575663
100
AcDbArc
 50
90.0
 51
180.0
  0
LINE
  5
23F
100
AcDbEntity
  8
0
100
AcDbLine
 62
7
  6
CONTINUOUS
 10
144.0881420999
 20
13.9431125635
 11
145.4749225984
 21
13.9431125635
  0
ARC
  5
240
100
AcDbEntity
  8
0
100
AcDbCircle
 62
7
  6
CONTINUOUS
 10
145.4749225984
 20
14.0049701299
 40
0.0618575663
100
AcDbArc
 50
270.0
 51
360.0
  0
LINE
  5
241
100
AcDbEntity
  8
0
100
AcDbLine
 62
7
  6
CONTINUOUS
 10
145.5367801648
 20
14.0049701299
 11
145.5367801648
 21
14.1311957595
  0
ARC
  5
242
100
AcDbEntity
  8
0
100
AcDbCircle
 62
7
  6
CONTINUOUS
 10
145.4749225984
 20
14.1311957595
 40
0.0618575663
100
AcDbArc
 50
0.0
 51
90.0
  0
LINE
  5
243
100
AcDbEntity
  8
0
100
AcDbLine
 62
7
  6
CONTINUOUS
 10
145.4749225984
 20
14.1930533259
 11
143.7379231651
 21
14.1930533259
  0
SPLINE
  5
244
100
AcDbEntity
  8
0
100
AcDbSpline
 62
7
  6
CONTINUOUS
 70
0
 71
3
 72
13
 73
9
 74
0
 42
0.0000001
 43
0.0000001
 44
0.0000000001
 40
0.0
 40
0.0
 40
0.0
 40
0.0
 40
0.1133740464
 40
0.2392044088
 40
0.3655787964
 40
0.4912154373
 40
0.7445390876
 40
1.0
 40
1.0
 40
1.0
 40
1.0
 10
143.7379231651
 20
14.1930533259
 30
0.0
 10
143.7180800343
 20
14.1920759592
 30
0.0
 10
143.6762136248
 20
14.190013842
 30
0.0
 10
143.6140252147
 20
14.1714338028
 30
0.0
 10
143.5583916215
 20
14.1339149173
 30
0.0
 10
143.5015614099
 20
14.0648036986
 30
0.0
 10
143.4658002357
 20
13.9563082803
 30
0.0
 10
143.4619219309
 20
13.8673502661
 30
0.0
 10
143.4599746338
 20
13.8226844144
 30
0.0
  0
SPLINE
  5
245
100
AcDbEntity
  8
0
100
AcDbSpline
 62
7
  6
CONTINUOUS
 70
0
 71
3
 72
13
 73
9
 74
0
 42
0.0000001
 43
0.0000001
 44
0.0000000001
 40
0.0
 40
0.0
 40
0.0
 40
0.0
 40
0.2554609124
 40
0.5087845627
 40
0.6344212036
 40
0.7607955912
 40
0.8866259536
 40
1.0
 40
1.0
 40
1.0
 40
1.0
 10
143.4599746338
 20
13.8226844144
 30
0.0
 10
143.4619219309
 20
13.7780185627
 30
0.0
 10
143.4658002357
 20
13.6890605475
 30
0.0
 10
143.5015614099
 20
13.5805651302
 30
0.0
 10
143.5583916215
 20
13.5114539115
 30
0.0
 10
143.6140252147
 20
13.4739350259
 30
0.0
 10
143.6762136248
 20
13.4553549867
 30
0.0
 10
143.7180800343
 20
13.4532928696
 30
0.0
 10
143.7379231651
 20
13.4523155029
 30
0.0
  0
LINE
  5
246
100
AcDbEntity
  8
0
100
AcDbLine
 62
7
  6
CONTINUOUS
 10
141.452354029
 20
12.9613808453
 11
142.4134915133
 21
12.9613808453
  0
LINE
  5
247
100
AcDbEntity
  8
0
100
AcDbLine
 62
7
  6
CONTINUOUS
 10
142.4134915133
 20
12.9613808453
 11
142.4134915133
 21
12.8418446975
  0
ARC
  5
248
100
AcDbEntity
  8
0
100
AcDbCircle
 62
7
  6
CONTINUOUS
 10
142.437282885
 20
12.8418446975
 40
0.0237913717
100
AcDbArc
 50
180.0
 51
270.0
  0
LINE
  5
249
100
AcDbEntity
  8
0
100
AcDbLine
 62
7
  6
CONTINUOUS
 10
142.437282885
 20
12.8180533259
 11
142.8077387397
 21
12.8180533259
  0
ARC
  5
24A
100
AcDbEntity
  8
0
100
AcDbCircle
 62
7
  6
CONTINUOUS
 10
142.8077387397
 20
12.8418446975
 40
0.0237913717
100
AcDbArc
 50
270.0
 51
360.0
  0
LINE
  5
24B
100
AcDbEntity
  8
0
100
AcDbLine
 62
7
  6
CONTINUOUS
 10
142.8315301113
 20
12.8418446975
 11
142.8315301113
 21
12.9613808453
  0
LINE
  5
24C
100
AcDbEntity
  8
0
100
AcDbLine
 62
7
  6
CONTINUOUS
 10
142.8315301113
 20
12.9613808453
 11
143.0205257131
 21
12.9613808453
  0
SPLINE
  5
24D
100
AcDbEntity
  8
0
100
AcDbSpline
 62
7
  6
CONTINUOUS
 70
0
 71
3
 72
12
 73
8
 74
0
 42
0.0000001
 43
0.0000001
 44
0.0000000001
 40
0.0
 40
0.0
 40
0.0
 40
0.0
 40
0.2415790084
 40
0.4893269843
 40
0.7378634303
 40
0.8656387112
 40
1.0
 40
1.0
 40
1.0
 40
1.0
 10
143.0205257131
 20
12.9613808453
 30
0.0
 10
143.0544144865
 20
12.9624344091
 30
0.0
 10
143.1230574186
 20
12.9645684409
 30
0.0
 10
143.2235091873
 20
13.0003922132
 30
0.0
 10
143.284515524
 20
13.0680180147
 30
0.0
 10
143.3113928907
 20
13.1355887002
 30
0.0
 10
143.3118772602
 20
13.1726037788
 30
0.0
 10
143.3121255298
 20
13.1915763071
 30
0.0
  0
LINE
  5
24E
100
AcDbEntity
  8
0
100
AcDbLine
 62
7
  6
CONTINUOUS
 10
143.3121255298
 20
13.1915763071
 11
143.3121255298
 21
13.9614132597
  0
SPLINE
  5
24F
100
AcDbEntity
  8
0
100
AcDbSpline
 62
7
  6
CONTINUOUS
 70
0
 71
3
 72
12
 73
8
 74
0
 42
0.0000001
 43
0.0000001
 44
0.0000000001
 40
0.0
 40
0.0
 40
0.0
 40
0.0
 40
0.1343612888
 40
0.2621365697
 40
0.5106730157
 40
0.7584209916
 40
1.0
 40
1.0
 40
1.0
 40
1.0
 10
143.3121255298
 20
13.9614132597
 30
0.0
 10
143.3118772602
 20
13.9803857889
 30
0.0
 10
143.3113928907
 20
14.0174008675
 30
0.0
 10
143.284515524
 20
14.084971553
 30
0.0
 10
143.2235091873
 20
14.1525973545
 30
0.0
 10
143.1230574186
 20
14.1884211258
 30
0.0
 10
143.0544144865
 20
14.1905551576
 30
0.0
 10
143.0205257131
 20
14.1916087214
 30
0.0
  0
LINE
  5
250
100
AcDbEntity
  8
0
100
AcDbLine
 62
7
  6
CONTINUOUS
 10
143.0205257131
 20
14.1916087214
 11
141.452354029
 21
14.1916087214
  0
SPLINE
  5
251
100
AcDbEntity
  8
0
100
AcDbSpline
 62
7
  6
CONTINUOUS
 70
0
 71
3
 72
12
 73
8
 74
0
 42
0.0000001
 43
0.0000001
 44
0.0000000001
 40
0.0
 40
0.0
 40
0.0
 40
0.0
 40
0.1341799809
 40
0.290831959
 40
0.5815217441
 40
0.760783857
 40
1.0
 40
1.0
 40
1.0
 40
1.0
 10
141.452354029
 20
14.1916087214
 30
0.0
 10
141.4181494204
 20
14.1857628293
 30
0.0
 10
141.3440117349
 20
14.1730919939
 30
0.0
 10
141.2192128396
 20
14.0798550291
 30
0.0
 10
141.1601017491
 20
13.9229931988
 30
0.0
 10
141.1255163787
 20
13.7451758569
 30
0.0
 10
141.1229201634
 20
13.6376238237
 30
0.0
 10
141.1214360795
 20
13.5761434904
 30
0.0
  0
SPLINE
  5
252
100
AcDbEntity
  8
0
100
AcDbSpline
 62
7
  6
CONTINUOUS
 70
0
 71
3
 72
12
 73
8
 74
0
 42
0.0000001
 43
0.0000001
 44
0.0000000001
 40
0.0
 40
0.0
 40
0.0
 40
0.0
 40
0.2392679579
 40
0.4185688994
 40
0.7093216488
 40
0.8660075581
 40
1.0
 40
1.0
 40
1.0
 40
1.0
 10
141.1214360795
 20
13.5761434904
 30
0.0
 10
141.1229207562
 20
13.5146655535
 30
0.0
 10
141.1255180079
 20
13.4071177123
 30
0.0
 10
141.1600959155
 20
13.2292701953
 30
0.0
 10
141.2192431212
 20
13.0725544012
 30
0.0
 10
141.3439120833
 20
12.979014677
 30
0.0
 10
141.418138346
 20
12.9669446851
 30
0.0
 10
141.452354029
 20
12.9613808453
 30
0.0
  0
LINE
  5
253
100
AcDbEntity
  8
0
100
AcDbLine
 62
7
  6
CONTINUOUS
 10
142.995355758
 20
13.2781122921
 11
142.995355758
 21
13.8949272837
  0
ARC
  5
254
100
AcDbEntity
  8
0
100
AcDbCircle
 62
7
  6
CONTINUOUS
 10
141.6976060735
 20
13.2781122921
 40
0.0618575663
100
AcDbArc
 50
180.0
 51
270.0
  0
LINE
  5
255
100
AcDbEntity
  8
0
100
AcDbLine
 62
7
  6
CONTINUOUS
 10
141.6976060735
 20
13.2162547258
 11
142.4080805389
 21
13.2162547258
  0
LINE
  5
256
100
AcDbEntity
  8
0
100
AcDbLine
 62
7
  6
CONTINUOUS
 10
142.4080805389
 20
13.2162547258
 11
142.4080805389
 21
13.3354204981
  0
ARC
  5
257
100
AcDbEntity
  8
0
100
AcDbCircle
 62
7
  6
CONTINUOUS
 10
142.431871911
 20
13.3354204981
 40
0.0237913717
100
AcDbArc
 50
90.0
 51
180.0
  0
LINE
  5
258
100
AcDbEntity
  8
0
100
AcDbLine
 62
7
  6
CONTINUOUS
 10
142.4318719106
 20
13.3592118697
 11
142.800439839
 21
13.3592118697
  0
ARC
  5
259
100
AcDbEntity
  8
0
100
AcDbCircle
 62
7
  6
CONTINUOUS
 10
142.8004398381
 20
13.3354204989
 40
0.0237913717
100
AcDbArc
 50
0.0
 51
90.0
  0
LINE
  5
25A
100
AcDbEntity
  8
0
100
AcDbLine
 62
7
  6
CONTINUOUS
 10
142.8242312107
 20
13.2162547258
 11
142.9334981917
 21
13.2162547258
  0
ARC
  5
25B
100
AcDbEntity
  8
0
100
AcDbCircle
 62
7
  6
CONTINUOUS
 10
142.9334981917
 20
13.2781122921
 40
0.0618575663
100
AcDbArc
 50
270.0
 51
360.0
  0
LINE
  5
25C
100
AcDbEntity
  8
0
100
AcDbLine
 62
7
  6
CONTINUOUS
 10
142.8242312107
 20
13.2162547258
 11
142.8242312107
 21
13.3354204981
  0
LINE
  5
25D
100
AcDbEntity
  8
0
100
AcDbLine
 62
7
  6
CONTINUOUS
 10
141.6357485071
 20
13.2781122921
 11
141.6357485071
 21
13.8949272837
  0
ARC
  5
25E
100
AcDbEntity
  8
0
100
AcDbCircle
 62
7
  6
CONTINUOUS
 10
141.6976060743
 20
13.8949272837
 40
0.0618575663
100
AcDbArc
 50
90.0
 51
180.0
  0
LINE
  5
25F
100
AcDbEntity
  8
0
100
AcDbLine
 62
7
  6
CONTINUOUS
 10
141.6976060735
 20
13.9567848501
 11
142.9334981917
 21
13.9567848501
  0
ARC
  5
260
100
AcDbEntity
  8
0
100
AcDbCircle
 62
7
  6
CONTINUOUS
 10
142.9334981922
 20
13.8949272832
 40
0.0618575663
100
AcDbArc
 50
0.0000000277
 51
90.0000000277
  0
ARC
  5
261
100
AcDbEntity
  8
0
100
AcDbCircle
 62
7
  6
CONTINUOUS
 10
144.0881420999
 20
13.7642142759
 40
0.0618575663
100
AcDbArc
 50
180.0
 51
270.0
  0
ARC
  5
262
100
AcDbEntity
  8
0
100
AcDbCircle
 62
7
  6
CONTINUOUS
 10
144.9259828361
 20
13.2641511755
 40
0.0618575663
100
AcDbArc
 50
270.0
 51
360.0
  0
ARC
  5
263
100
AcDbEntity
  8
0
100
AcDbCircle
 62
7
  6
CONTINUOUS
 10
146.2795196262
 20
13.269509806
 40
0.0618575663
100
AcDbArc
 50
180.0
 51
270.0
  0
ENDBLK
  5
264
100
AcDbEntity
  8
0
  6
BYBLOCK
 62
0
100
AcDbBlockEnd
  0
BLOCK
  5
265
100
AcDbEntity
  8
0
100
AcDbBlockBegin
  2
_FILLED
 70
64
 10
0.0
 20
0.0
  3
_FILLED
  1

  0
SOLID
  5
266
100
AcDbEntity
  8
0
  6
BYBLOCK
 62
0
100
AcDbTrace
 10
0.0
 20
0.0
 11
-1.0
 21
0.1666666667
 12
-1.0
 22
-0.1666666667
 13
-1.0
 23
-0.1666666667
  0
ENDBLK
  5
267
100
AcDbEntity
  8
0
  6
BYBLOCK
 62
0
100
AcDbBlockEnd
  0
BLOCK
  5
268
100
AcDbEntity
  8
0
100
AcDbBlockBegin
 62
2
  6
CONTINUOUS
  2
*D0
 70
65
 10
0.0
 20
0.0
  3
*D0
  1

  0
MTEXT
  5
269
100
AcDbEntity
  8
0
100
AcDbMText
 62
2
  6
CONTINUOUS
  7
STANDARD
 71
2
 72
1
 10
25.5925659633
 20
61.1124719947
 30
0.0
 11
1.0
 21
0.0
 31
0.0
 44
0.9
  1
832\P[32.8]
 40
0.78125
 41
4.3526785714
  0
LINE
  5
26A
100
AcDbEntity
  8
0
100
AcDbLine
 62
2
  6
CONTINUOUS
 10
29.77342404
 20
77.0968469947
 11
25.5256016776
 21
77.0968469947
  0
LINE
  5
26B
100
AcDbEntity
  8
0
100
AcDbLine
 62
2
  6
CONTINUOUS
 10
29.77342404
 20
44.3468469947
 11
25.5256016776
 21
44.3468469947
  0
LINE
  5
26C
100
AcDbEntity
  8
0
100
AcDbLine
 62
2
  6
CONTINUOUS
 10
26.1506016776
 20
77.0968469947
 11
26.1506016776
 21
61.5030969947
  0
LINE
  5
26D
100
AcDbEntity
  8
0
100
AcDbLine
 62
2
  6
CONTINUOUS
 10
26.1506016776
 20
44.3468469947
 11
26.1506016776
 21
58.7687219947
  0
INSERT
  5
26E
100
AcDbEntity
  8
0
100
AcDbBlockReference
 62
2
  6
CONTINUOUS
  2
_FILLED
 10
26.1506016776
 20
77.0968469947
 41
0.9375
 42
0.9375
 43
0.9375
 50
90.0
  0
INSERT
  5
26F
100
AcDbEntity
  8
0
100
AcDbBlockReference
 62
2
  6
CONTINUOUS
  2
_FILLED
 10
26.1506016776
 20
44.3468469947
 41
0.9375
 42
0.9375
 43
0.9375
 50
270.0
  0
ENDBLK
  5
270
100
AcDbEntity
  8
0
  6
BYBLOCK
 62
0
100
AcDbBlockEnd
  0
BLOCK
  5
271
100
AcDbEntity
  8
0
100
AcDbBlockBegin
 62
2
  6
CONTINUOUS
  2
*D1
 70
65
 10
0.0
 20
0.0
  3
*D1
  1

  0
MTEXT
  5
272
100
AcDbEntity
  8
0
100
AcDbMText
 62
2
  6
CONTINUOUS
  7
STANDARD
 71
2
 72
1
 10
21.6862215814
 20
58.3732121522
 30
0.0
 11
1.0
 21
0.0
 31
0.0
 44
0.9
  1
842\P[33.1]
 40
0.78125
 41
4.0178571429
  0
LINE
  5
273
100
AcDbEntity
  8
0
100
AcDbLine
 62
2
  6
CONTINUOUS
 10
32.4112193156
 20
43.9570832151
 11
21.4797483672
 21
43.9570832151
  0
LINE
  5
274
100
AcDbEntity
  8
0
100
AcDbLine
 62
2
  6
CONTINUOUS
 10
29.77342404
 20
77.0968469947
 11
21.4797483672
 21
77.0968469947
  0
LINE
  5
275
100
AcDbEntity
  8
0
100
AcDbLine
 62
2
  6
CONTINUOUS
 10
22.1047483672
 20
43.9570832151
 11
22.1047483672
 21
56.0294621522
  0
LINE
  5
276
100
AcDbEntity
  8
0
100
AcDbLine
 62
2
  6
CONTINUOUS
 10
22.1047483672
 20
77.0968469947
 11
22.1047483672
 21
58.7638371522
  0
INSERT
  5
277
100
AcDbEntity
  8
0
100
AcDbBlockReference
 62
2
  6
CONTINUOUS
  2
_FILLED
 10
22.1047483672
 20
43.9570832151
 41
0.9375
 42
0.9375
 43
0.9375
 50
270.0
  0
INSERT
  5
278
100
AcDbEntity
  8
0
100
AcDbBlockReference
 62
2
  6
CONTINUOUS
  2
_FILLED
 10
22.1047483672
 20
77.0968469947
 41
0.9375
 42
0.9375
 43
0.9375
 50
90.0
  0
ENDBLK
  5
279
100
AcDbEntity
  8
0
  6
BYBLOCK
 62
0
100
AcDbBlockEnd
  0
BLOCK
  5
27A
100
AcDbEntity
  8
0
100
AcDbBlockBegin
 62
2
  6
CONTINUOUS
  2
*D2
 70
65
 10
0.0
 20
0.0
  3
*D2
  1

  0
MTEXT
  5
27B
100
AcDbEntity
  8
0
100
AcDbMText
 62
2
  6
CONTINUOUS
  7
STANDARD
 71
2
 72
1
 10
51.0290043972
 20
103.6161719056
 30
0.0
 11
1.0
 21
0.0
 31
0.0
 44
0.9
  1
1080\P[42.5]
 40
0.78125
 41
4.3526785714
  0
LINE
  5
27C
100
AcDbEntity
  8
0
100
AcDbLine
 62
2
  6
CONTINUOUS
 10
30.08592404
 20
100.1506756004
 11
30.08592404
 21
103.8505469056
  0
LINE
  5
27D
100
AcDbEntity
  8
0
100
AcDbLine
 62
2
  6
CONTINUOUS
 10
72.58592404
 20
100.1506756004
 11
72.58592404
 21
103.8505469056
  0
LINE
  5
27E
100
AcDbEntity
  8
0
100
AcDbLine
 62
2
  6
CONTINUOUS
 10
30.08592404
 20
103.2255469056
 11
49.4944061829
 21
103.2255469056
  0
LINE
  5
27F
100
AcDbEntity
  8
0
100
AcDbLine
 62
2
  6
CONTINUOUS
 10
72.58592404
 20
103.2255469056
 11
53.1774418972
 21
103.2255469056
  0
INSERT
  5
280
100
AcDbEntity
  8
0
100
AcDbBlockReference
 62
2
  6
CONTINUOUS
  2
_FILLED
 10
30.08592404
 20
103.2255469056
 41
0.9375
 42
0.9375
 43
0.9375
 50
180.0
  0
INSERT
  5
281
100
AcDbEntity
  8
0
100
AcDbBlockReference
 62
2
  6
CONTINUOUS
  2
_FILLED
 10
72.58592404
 20
103.2255469056
 41
0.9375
 42
0.9375
 43
0.9375
  0
ENDBLK
  5
282
100
AcDbEntity
  8
0
  6
BYBLOCK
 62
0
100
AcDbBlockEnd
  0
BLOCK
  5
283
100
AcDbEntity
  8
0
100
AcDbBlockBegin
 62
2
  6
CONTINUOUS
  2
*D3
 70
65
 10
0.0
 20
0.0
  3
*D3
  1

  0
MTEXT
  5
284
100
AcDbEntity
  8
0
100
AcDbMText
 62
2
  6
CONTINUOUS
  7
STANDARD
 71
2
 72
1
 10
88.3950577287
 20
48.7857987663
 30
0.0
 11
1.0
 21
0.0
 31
0.0
 44
0.9
  1
206\P[8.1]
 40
0.78125
 41
3.2645089286
  0
LINE
  5
285
100
AcDbEntity
  8
0
100
AcDbLine
 62
2
  6
CONTINUOUS
 10
91.0119962376
 20
44.3468469947
 11
87.937468443
 21
44.3468469947
  0
LINE
  5
286
100
AcDbEntity
  8
0
100
AcDbLine
 62
2
  6
CONTINUOUS
 10
97.4295552927
 20
52.443500538
 11
87.937468443
 21
52.443500538
  0
LINE
  5
287
100
AcDbEntity
  8
0
100
AcDbLine
 62
2
  6
CONTINUOUS
 10
88.562468443
 20
44.3468469947
 11
88.562468443
 21
46.4420487663
  0
LINE
  5
288
100
AcDbEntity
  8
0
100
AcDbLine
 62
2
  6
CONTINUOUS
 10
88.562468443
 20
52.443500538
 11
88.562468443
 21
49.1764237663
  0
INSERT
  5
289
100
AcDbEntity
  8
0
100
AcDbBlockReference
 62
2
  6
CONTINUOUS
  2
_FILLED
 10
88.562468443
 20
44.3468469947
 41
0.9375
 42
0.9375
 43
0.9375
 50
270.0
  0
INSERT
  5
28A
100
AcDbEntity
  8
0
100
AcDbBlockReference
 62
2
  6
CONTINUOUS
  2
_FILLED
 10
88.562468443
 20
52.443500538
 41
0.9375
 42
0.9375
 43
0.9375
 50
90.0
  0
ENDBLK
  5
28B
100
AcDbEntity
  8
0
  6
BYBLOCK
 62
0
100
AcDbBlockEnd
  0
BLOCK
  5
28C
100
AcDbEntity
  8
0
100
AcDbBlockBegin
 62
2
  6
CONTINUOUS
  2
*D4
 70
65
 10
0.0
 20
0.0
  3
*D4
  1

  0
MTEXT
  5
28D
100
AcDbEntity
  8
0
100
AcDbMText
 62
2
  6
CONTINUOUS
  7
STANDARD
 71
2
 72
1
 10
88.2276470144
 20
57.0949453646
 30
0.0
 11
1.0
 21
0.0
 31
0.0
 44
0.9
  1
181\P[7.1]
 40
0.78125
 41
3.2645089286
  0
LINE
  5
28E
100
AcDbEntity
  8
0
100
AcDbLine
 62
2
  6
CONTINUOUS
 10
97.4295552927
 20
52.443500538
 11
87.937468443
 21
52.443500538
  0
LINE
  5
28F
100
AcDbEntity
  8
0
100
AcDbLine
 62
2
  6
CONTINUOUS
 10
97.4295552927
 20
59.5513745537
 11
87.937468443
 21
59.5513745537
  0
LINE
  5
290
100
AcDbEntity
  8
0
100
AcDbLine
 62
2
  6
CONTINUOUS
 10
88.562468443
 20
52.443500538
 11
88.562468443
 21
54.7511953646
  0
LINE
  5
291
100
AcDbEntity
  8
0
100
AcDbLine
 62
2
  6
CONTINUOUS
 10
88.562468443
 20
59.5513745537
 11
88.562468443
 21
57.4855703646
  0
INSERT
  5
292
100
AcDbEntity
  8
0
100
AcDbBlockReference
 62
2
  6
CONTINUOUS
  2
_FILLED
 10
88.562468443
 20
52.443500538
 41
0.9375
 42
0.9375
 43
0.9375
 50
270.0
  0
INSERT
  5
293
100
AcDbEntity
  8
0
100
AcDbBlockReference
 62
2
  6
CONTINUOUS
  2
_FILLED
 10
88.562468443
 20
59.5513745537
 41
0.9375
 42
0.9375
 43
0.9375
 50
90.0
  0
ENDBLK
  5
294
100
AcDbEntity
  8
0
  6
BYBLOCK
 62
0
100
AcDbBlockEnd
  0
BLOCK
  5
295
100
AcDbEntity
  8
0
100
AcDbBlockBegin
 62
2
  6
CONTINUOUS
  2
*D5
 70
65
 10
0.0
 20
0.0
  3
*D5
  1

  0
MTEXT
  5
296
100
AcDbEntity
  8
0
100
AcDbMText
 62
2
  6
CONTINUOUS
  7
STANDARD
 71
3
 72
1
 10
88.0690983277
 20
40.0808125525
 30
0.0
 11
1.0
 21
0.0
 31
0.0
 44
0.9
  1
158\P[6.2]
 40
0.78125
 41
3.515625
  0
LINE
  5
297
100
AcDbEntity
  8
0
100
AcDbLine
 62
2
  6
CONTINUOUS
 10
91.3244962376
 20
44.0343469947
 11
91.3244962376
 21
39.0651875525
  0
LINE
  5
298
100
AcDbEntity
  8
0
100
AcDbLine
 62
2
  6
CONTINUOUS
 10
97.5255198597
 20
52.347535971
 11
97.5255198597
 21
39.0651875525
  0
LINE
  5
299
100
AcDbEntity
  8
0
100
AcDbLine
 62
2
  6
CONTINUOUS
 10
91.3244962376
 20
39.6901875525
 11
94.4250080486
 21
39.6901875525
  0
LINE
  5
29A
100
AcDbEntity
  8
0
100
AcDbLine
 62
2
  6
CONTINUOUS
 10
94.4250080486
 20
39.6901875525
 11
89.1851697562
 21
39.6901875525
  0
LINE
  5
29B
100
AcDbEntity
  8
0
100
AcDbLine
 62
2
  6
CONTINUOUS
 10
97.5255198597
 20
39.6901875525
 11
94.4250080486
 21
39.6901875525
  0
INSERT
  5
29C
100
AcDbEntity
  8
0
100
AcDbBlockReference
 62
2
  6
CONTINUOUS
  2
_FILLED
 10
91.3244962376
 20
39.6901875525
 41
0.9375
 42
0.9375
 43
0.9375
 50
180.0
  0
INSERT
  5
29D
100
AcDbEntity
  8
0
100
AcDbBlockReference
 62
2
  6
CONTINUOUS
  2
_FILLED
 10
97.5255198597
 20
39.6901875525
 41
0.9375
 42
0.9375
 43
0.9375
  0
ENDBLK
  5
29E
100
AcDbEntity
  8
0
  6
BYBLOCK
 62
0
100
AcDbBlockEnd
  0
BLOCK
  5
29F
100
AcDbEntity
  8
0
100
AcDbBlockBegin
 62
2
  6
CONTINUOUS
  2
*D6
 70
65
 10
0.0
 20
0.0
  3
*D6
  1

  0
MTEXT
  5
2A0
100
AcDbEntity
  8
0
100
AcDbMText
 62
2
  6
CONTINUOUS
  7
STANDARD
 71
1
 72
1
 10
104.7931996417
 20
40.0808125525
 30
0.0
 11
1.0
 21
0.0
 31
0.0
 44
0.9
  1
129\P[5.1]
 40
0.78125
 41
3.1808035714
  0
LINE
  5
2A1
100
AcDbEntity
  8
0
100
AcDbLine
 62
2
  6
CONTINUOUS
 10
97.5255198597
 20
52.347535971
 11
97.5255198597
 21
39.0651875525
  0
LINE
  5
2A2
100
AcDbEntity
  8
0
100
AcDbLine
 62
2
  6
CONTINUOUS
 10
102.6235513557
 20
52.347535971
 11
102.6235513557
 21
39.0651875525
  0
LINE
  5
2A3
100
AcDbEntity
  8
0
100
AcDbLine
 62
2
  6
CONTINUOUS
 10
97.5255198597
 20
39.6901875525
 11
100.0745356077
 21
39.6901875525
  0
LINE
  5
2A4
100
AcDbEntity
  8
0
100
AcDbLine
 62
2
  6
CONTINUOUS
 10
102.6235513557
 20
39.6901875525
 11
100.0745356077
 21
39.6901875525
  0
LINE
  5
2A5
100
AcDbEntity
  8
0
100
AcDbLine
 62
2
  6
CONTINUOUS
 10
100.0745356077
 20
39.6901875525
 11
104.4025746417
 21
39.6901875525
  0
INSERT
  5
2A6
100
AcDbEntity
  8
0
100
AcDbBlockReference
 62
2
  6
CONTINUOUS
  2
_FILLED
 10
97.5255198597
 20
39.6901875525
 41
0.9375
 42
0.9375
 43
0.9375
 50
180.0
  0
INSERT
  5
2A7
100
AcDbEntity
  8
0
100
AcDbBlockReference
 62
2
  6
CONTINUOUS
  2
_FILLED
 10
102.6235513557
 20
39.6901875525
 41
0.9375
 42
0.9375
 43
0.9375
  0
ENDBLK
  5
2A8
100
AcDbEntity
  8
0
  6
BYBLOCK
 62
0
100
AcDbBlockEnd
  0
BLOCK
  5
2A9
100
AcDbEntity
  8
0
100
AcDbBlockBegin
 62
2
  6
CONTINUOUS
  2
*D7
 70
65
 10
0.0
 20
0.0
  3
*D7
  1

  0
MTEXT
  5
2AA
100
AcDbEntity
  8
0
100
AcDbMText
 62
2
  6
CONTINUOUS
  7
STANDARD
 71
3
 72
1
 10
26.9035651854
 20
38.8095655766
 30
0.0
 11
1.0
 21
0.0
 31
0.0
 44
0.9
  1
85\P[3.3]
 40
0.78125
 41
3.3482142857
  0
LINE
  5
2AB
100
AcDbEntity
  8
0
100
AcDbLine
 62
2
  6
CONTINUOUS
 10
30.08592404
 20
34.1243111667
 11
30.08592404
 21
39.0439405766
  0
LINE
  5
2AC
100
AcDbEntity
  8
0
100
AcDbLine
 62
2
  6
CONTINUOUS
 10
33.432380733
 20
31.8849410879
 11
33.432380733
 21
39.0439405766
  0
LINE
  5
2AD
100
AcDbEntity
  8
0
100
AcDbLine
 62
2
  6
CONTINUOUS
 10
30.08592404
 20
38.4189405766
 11
31.7591523865
 21
38.4189405766
  0
LINE
  5
2AE
100
AcDbEntity
  8
0
100
AcDbLine
 62
2
  6
CONTINUOUS
 10
31.7591523865
 20
38.4189405766
 11
28.3544580426
 21
38.4189405766
  0
LINE
  5
2AF
100
AcDbEntity
  8
0
100
AcDbLine
 62
2
  6
CONTINUOUS
 10
33.432380733
 20
38.4189405766
 11
31.7591523865
 21
38.4189405766
  0
INSERT
  5
2B0
100
AcDbEntity
  8
0
100
AcDbBlockReference
 62
2
  6
CONTINUOUS
  2
_FILLED
 10
30.08592404
 20
38.4189405766
 41
0.9375
 42
0.9375
 43
0.9375
 50
180.0
  0
INSERT
  5
2B1
100
AcDbEntity
  8
0
100
AcDbBlockReference
 62
2
  6
CONTINUOUS
  2
_FILLED
 10
33.432380733
 20
38.4189405766
 41
0.9375
 42
0.9375
 43
0.9375
  0
ENDBLK
  5
2B2
100
AcDbEntity
  8
0
  6
BYBLOCK
 62
0
100
AcDbBlockEnd
  0
BLOCK
  5
2B3
100
AcDbEntity
  8
0
100
AcDbBlockBegin
 62
2
  6
CONTINUOUS
  2
*D8
 70
65
 10
0.0
 20
0.0
  3
*D8
  1

  0
MTEXT
  5
2B4
100
AcDbEntity
  8
0
100
AcDbMText
 62
2
  6
CONTINUOUS
  7
STANDARD
 71
2
 72
1
 10
50.74998654
 20
38.803623646
 30
0.0
 11
1.0
 21
0.0
 31
0.0
 44
0.9
  1
910\P[35.8]
 40
0.78125
 41
4.2689732143
  0
LINE
  5
2B5
100
AcDbEntity
  8
0
100
AcDbLine
 62
2
  6
CONTINUOUS
 10
33.432380733
 20
31.8849410879
 11
33.432380733
 21
39.037998646
  0
LINE
  5
2B6
100
AcDbEntity
  8
0
100
AcDbLine
 62
2
  6
CONTINUOUS
 10
69.2394673471
 20
31.8849410879
 11
69.2394673471
 21
39.037998646
  0
LINE
  5
2B7
100
AcDbEntity
  8
0
100
AcDbLine
 62
2
  6
CONTINUOUS
 10
33.432380733
 20
38.412998646
 11
49.5223079686
 21
38.412998646
  0
LINE
  5
2B8
100
AcDbEntity
  8
0
100
AcDbLine
 62
2
  6
CONTINUOUS
 10
69.2394673471
 20
38.412998646
 11
53.1495401115
 21
38.412998646
  0
INSERT
  5
2B9
100
AcDbEntity
  8
0
100
AcDbBlockReference
 62
2
  6
CONTINUOUS
  2
_FILLED
 10
33.432380733
 20
38.412998646
 41
0.9375
 42
0.9375
 43
0.9375
 50
180.0
  0
INSERT
  5
2BA
100
AcDbEntity
  8
0
100
AcDbBlockReference
 62
2
  6
CONTINUOUS
  2
_FILLED
 10
69.2394673471
 20
38.412998646
 41
0.9375
 42
0.9375
 43
0.9375
  0
ENDBLK
  5
2BB
100
AcDbEntity
  8
0
  6
BYBLOCK
 62
0
100
AcDbBlockEnd
  0
BLOCK
  5
2BC
100
AcDbEntity
  8
0
100
AcDbBlockBegin
 62
2
  6
CONTINUOUS
  2
*D9
 70
65
 10
0.0
 20
0.0
  3
*D9
  1

  0
MTEXT
  5
2BD
100
AcDbEntity
  8
0
100
AcDbMText
 62
2
  6
CONTINUOUS
  7
STANDARD
 71
2
 72
1
 10
21.6146904386
 20
38.5247515112
 30
0.0
 11
1.0
 21
0.0
 31
0.0
 44
0.9
  1
75\P[3.0]
 40
0.78125
 41
3.4319196429
  0
LINE
  5
2BE
100
AcDbEntity
  8
0
100
AcDbLine
 62
2
  6
CONTINUOUS
 10
29.77342404
 20
33.8118111667
 11
21.5477261529
 21
33.8118111667
  0
LINE
  5
2BF
100
AcDbEntity
  8
0
100
AcDbLine
 62
2
  6
CONTINUOUS
 10
32.4033452999
 20
30.8559056549
 11
21.5477261529
 21
30.8559056549
  0
LINE
  5
2C0
100
AcDbEntity
  8
0
100
AcDbLine
 62
2
  6
CONTINUOUS
 10
22.1727261529
 20
33.8118111667
 11
22.1727261529
 21
32.3338584108
  0
LINE
  5
2C1
100
AcDbEntity
  8
0
100
AcDbLine
 62
2
  6
CONTINUOUS
 10
22.1727261529
 20
32.3338584108
 11
22.1727261529
 21
36.1810015112
  0
LINE
  5
2C2
100
AcDbEntity
  8
0
100
AcDbLine
 62
2
  6
CONTINUOUS
 10
22.1727261529
 20
30.8559056549
 11
22.1727261529
 21
32.3338584108
  0
INSERT
  5
2C3
100
AcDbEntity
  8
0
100
AcDbBlockReference
 62
2
  6
CONTINUOUS
  2
_FILLED
 10
22.1727261529
 20
33.8118111667
 41
0.9375
 42
0.9375
 43
0.9375
 50
90.0
  0
INSERT
  5
2C4
100
AcDbEntity
  8
0
100
AcDbBlockReference
 62
2
  6
CONTINUOUS
  2
_FILLED
 10
22.1727261529
 20
30.8559056549
 41
0.9375
 42
0.9375
 43
0.9375
 50
270.0
  0
ENDBLK
  5
2C5
100
AcDbEntity
  8
0
  6
BYBLOCK
 62
0
100
AcDbBlockEnd
  0
BLOCK
  5
2C6
100
AcDbEntity
  8
0
100
AcDbBlockBegin
 62
2
  6
CONTINUOUS
  2
*D10
 70
65
 10
0.0
 20
0.0
  3
*D10
  1

  0
MTEXT
  5
2C7
100
AcDbEntity
  8
0
100
AcDbMText
 62
2
  6
CONTINUOUS
  7
STANDARD
 71
2
 72
1
 10
21.7821011529
 20
25.4526330171
 30
0.0
 11
1.0
 21
0.0
 31
0.0
 44
0.9
  1
294\P[11.6]
 40
0.78125
 41
3.9341517857
  0
LINE
  5
2C8
100
AcDbEntity
  8
0
100
AcDbLine
 62
2
  6
CONTINUOUS
 10
32.4033452999
 20
30.8559056549
 11
21.5477261529
 21
30.8559056549
  0
LINE
  5
2C9
100
AcDbEntity
  8
0
100
AcDbLine
 62
2
  6
CONTINUOUS
 10
32.4033452999
 20
19.2681103793
 11
21.5477261529
 21
19.2681103793
  0
LINE
  5
2CA
100
AcDbEntity
  8
0
100
AcDbLine
 62
2
  6
CONTINUOUS
 10
22.1727261529
 20
30.8559056549
 11
22.1727261529
 21
25.8432580171
  0
LINE
  5
2CB
100
AcDbEntity
  8
0
100
AcDbLine
 62
2
  6
CONTINUOUS
 10
22.1727261529
 20
19.2681103793
 11
22.1727261529
 21
23.1088830171
  0
INSERT
  5
2CC
100
AcDbEntity
  8
0
100
AcDbBlockReference
 62
2
  6
CONTINUOUS
  2
_FILLED
 10
22.1727261529
 20
30.8559056549
 41
0.9375
 42
0.9375
 43
0.9375
 50
90.0
  0
INSERT
  5
2CD
100
AcDbEntity
  8
0
100
AcDbBlockReference
 62
2
  6
CONTINUOUS
  2
_FILLED
 10
22.1727261529
 20
19.2681103793
 41
0.9375
 42
0.9375
 43
0.9375
 50
270.0
  0
ENDBLK
  5
2CE
100
AcDbEntity
  8
0
  6
BYBLOCK
 62
0
100
AcDbBlockEnd
  0
BLOCK
  5
2CF
100
AcDbEntity
  8
0
100
AcDbBlockBegin
 62
2
  6
CONTINUOUS
  2
*D11
 70
65
 10
0.0
 20
0.0
  3
*D11
  1

  0
MTEXT
  5
2D0
100
AcDbEntity
  8
0
100
AcDbMText
 62
2
  6
CONTINUOUS
  7
STANDARD
 71
2
 72
1
 10
25.5001162459
 20
93.2737014298
 30
0.0
 11
1.0
 21
0.0
 31
0.0
 44
0.9
  1
419\P[16.5]
 40
0.78125
 41
4.1015625
  0
LINE
  5
2D1
100
AcDbEntity
  8
0
100
AcDbLine
 62
2
  6
CONTINUOUS
 10
29.77342404
 20
99.8381756004
 11
25.4052501745
 21
99.8381756004
  0
LINE
  5
2D2
100
AcDbEntity
  8
0
100
AcDbLine
 62
2
  6
CONTINUOUS
 10
29.77342404
 20
83.3381756004
 11
25.4052501745
 21
83.3381756004
  0
LINE
  5
2D3
100
AcDbEntity
  8
0
100
AcDbLine
 62
2
  6
CONTINUOUS
 10
26.0302501745
 20
99.8381756004
 11
26.0302501745
 21
93.6643264298
  0
LINE
  5
2D4
100
AcDbEntity
  8
0
100
AcDbLine
 62
2
  6
CONTINUOUS
 10
26.0302501745
 20
83.3381756004
 11
26.0302501745
 21
90.9299514298
  0
INSERT
  5
2D5
100
AcDbEntity
  8
0
100
AcDbBlockReference
 62
2
  6
CONTINUOUS
  2
_FILLED
 10
26.0302501745
 20
99.8381756004
 41
0.9375
 42
0.9375
 43
0.9375
 50
90.0
  0
INSERT
  5
2D6
100
AcDbEntity
  8
0
100
AcDbBlockReference
 62
2
  6
CONTINUOUS
  2
_FILLED
 10
26.0302501745
 20
83.3381756004
 41
0.9375
 42
0.9375
 43
0.9375
 50
270.0
  0
ENDBLK
  5
2D7
100
AcDbEntity
  8
0
  6
BYBLOCK
 62
0
100
AcDbBlockEnd
  0
ENDSEC
  0
SECTION
  2
ENTITIES
  0
MTEXT
  5
2D8
100
AcDbEntity
  8
0
100
AcDbMText
 62
2
  6
CONTINUOUS
  7
STANDARD
 71
1
 72
1
 10
12.3145387237
 20
1.8245834178
 30
0.0
 11
1.0
 21
0.0
 31
0.0
 44
0.9
  1
8
 40
0.78125
 41
0.9207589286
  0
MTEXT
  5
2D9
100
AcDbEntity
  8
0
100
AcDbMText
 62
2
  6
CONTINUOUS
  7
STANDARD
 71
1
 72
1
 10
32.6270387237
 20
1.8245834178
 30
0.0
 11
1.0
 21
0.0
 31
0.0
 44
0.9
  1
7
 40
0.78125
 41
0.9207589286
  0
MTEXT
  5
2DA
100
AcDbEntity
  8
0
100
AcDbMText
 62
2
  6
CONTINUOUS
  7
STANDARD
 71
1
 72
1
 10
52.9395387237
 20
1.8245834178
 30
0.0
 11
1.0
 21
0.0
 31
0.0
 44
0.9
  1
6
 40
0.78125
 41
0.9207589286
  0
MTEXT
  5
2DB
100
AcDbEntity
  8
0
100
AcDbMText
 62
2
  6
CONTINUOUS
  7
STANDARD
 71
1
 72
1
 10
73.2520387237
 20
1.8245834178
 30
0.0
 11
1.0
 21
0.0
 31
0.0
 44
0.9
  1
5
 40
0.78125
 41
0.8370535714
  0
MTEXT
  5
2DC
100
AcDbEntity
  8
0
100
AcDbMText
 62
2
  6
CONTINUOUS
  7
STANDARD
 71
1
 72
1
 10
93.5645387237
 20
1.8245834178
 30
0.0
 11
1.0
 21
0.0
 31
0.0
 44
0.9
  1
4
 40
0.78125
 41
0.9207589286
  0
MTEXT
  5
2DD
100
AcDbEntity
  8
0
100
AcDbMText
 62
2
  6
CONTINUOUS
  7
STANDARD
 71
1
 72
1
 10
113.8770387237
 20
1.8245834178
 30
0.0
 11
1.0
 21
0.0
 31
0.0
 44
0.9
  1
3
 40
0.78125
 41
0.8370535714
  0
MTEXT
  5
2DE
100
AcDbEntity
  8
0
100
AcDbMText
 62
2
  6
CONTINUOUS
  7
STANDARD
 71
1
 72
1
 10
134.1895387237
 20
1.8245834178
 30
0.0
 11
1.0
 21
0.0
 31
0.0
 44
0.9
  1
2
 40
0.78125
 41
0.9207589286
  0
MTEXT
  5
2DF
100
AcDbEntity
  8
0
100
AcDbMText
 62
2
  6
CONTINUOUS
  7
STANDARD
 71
1
 72
1
 10
154.5020387237
 20
1.8245834178
 30
0.0
 11
1.0
 21
0.0
 31
0.0
 44
0.9
  1
1
 40
0.78125
 41
0.6696428571
  0
MTEXT
  5
2E0
100
AcDbEntity
  8
0
100
AcDbMText
 62
2
  6
CONTINUOUS
  7
STANDARD
 71
1
 72
1
 10
12.3145387237
 20
109.3245834178
 30
0.0
 11
1.0
 21
0.0
 31
0.0
 44
0.9
  1
8
 40
0.78125
 41
1.1439732143
  0
MTEXT
  5
2E1
100
AcDbEntity
  8
0
100
AcDbMText
 62
2
  6
CONTINUOUS
  7
STANDARD
 71
1
 72
1
 10
32.6270387237
 20
109.3245834178
 30
0.0
 11
1.0
 21
0.0
 31
0.0
 44
0.9
  1
7
 40
0.78125
 41
0.9207589286
  0
MTEXT
  5
2E2
100
AcDbEntity
  8
0
100
AcDbMText
 62
2
  6
CONTINUOUS
  7
STANDARD
 71
1
 72
1
 10
52.9395387237
 20
109.3245834178
 30
0.0
 11
1.0
 21
0.0
 31
0.0
 44
0.9
  1
6
 40
0.78125
 41
0.9207589286
  0
MTEXT
  5
2E3
100
AcDbEntity
  8
0
100
AcDbMText
 62
2
  6
CONTINUOUS
  7
STANDARD
 71
1
 72
1
 10
73.2520387237
 20
109.3245834178
 30
0.0
 11
1.0
 21
0.0
 31
0.0
 44
0.9
  1
5
 40
0.78125
 41
0.8370535714
  0
MTEXT
  5
2E4
100
AcDbEntity
  8
0
100
AcDbMText
 62
2
  6
CONTINUOUS
  7
STANDARD
 71
1
 72
1
 10
93.5645387237
 20
109.3245834178
 30
0.0
 11
1.0
 21
0.0
 31
0.0
 44
0.9
  1
4
 40
0.78125
 41
0.9207589286
  0
MTEXT
  5
2E5
100
AcDbEntity
  8
0
100
AcDbMText
 62
2
  6
CONTINUOUS
  7
STANDARD
 71
1
 72
1
 10
113.8770387237
 20
109.3245834178
 30
0.0
 11
1.0
 21
0.0
 31
0.0
 44
0.9
  1
3
 40
0.78125
 41
0.8370535714
  0
MTEXT
  5
2E6
100
AcDbEntity
  8
0
100
AcDbMText
 62
2
  6
CONTINUOUS
  7
STANDARD
 71
1
 72
1
 10
134.1895387237
 20
109.3245834178
 30
0.0
 11
1.0
 21
0.0
 31
0.0
 44
0.9
  1
2
 40
0.78125
 41
0.9207589286
  0
MTEXT
  5
2E7
100
AcDbEntity
  8
0
100
AcDbMText
 62
2
  6
CONTINUOUS
  7
STANDARD
 71
1
 72
1
 10
154.5020387237
 20
109.3245834178
 30
0.0
 11
1.0
 21
0.0
 31
0.0
 44
0.9
  1
1
 40
0.78125
 41
0.6696428571
  0
MTEXT
  5
2E8
100
AcDbEntity
  8
0
100
AcDbMText
 62
2
  6
CONTINUOUS
  7
STANDARD
 71
1
 72
1
 10
0.9910965464
 20
16.0974497462
 30
0.0
 11
1.0
 21
0.0
 31
0.0
 44
0.9
  1
A
 40
0.78125
 41
1.0044642857
  0
MTEXT
  5
2E9
100
AcDbEntity
  8
0
100
AcDbMText
 62
2
  6
CONTINUOUS
  7
STANDARD
 71
1
 72
1
 10
0.9910965464
 20
42.3474497462
 30
0.0
 11
1.0
 21
0.0
 31
0.0
 44
0.9
  1
B
 40
0.78125
 41
0.9207589286
  0
MTEXT
  5
2EA
100
AcDbEntity
  8
0
100
AcDbMText
 62
2
  6
CONTINUOUS
  7
STANDARD
 71
1
 72
1
 10
0.9910965464
 20
68.5974497462
 30
0.0
 11
1.0
 21
0.0
 31
0.0
 44
0.9
  1
C
 40
0.78125
 41
0.9765625
  0
MTEXT
  5
2EB
100
AcDbEntity
  8
0
100
AcDbMText
 62
2
  6
CONTINUOUS
  7
STANDARD
 71
1
 72
1
 10
0.9910965464
 20
94.8474497462
 30
0.0
 11
1.0
 21
0.0
 31
0.0
 44
0.9
  1
D
 40
0.78125
 41
1.0602678571
  0
MTEXT
  5
2EC
100
AcDbEntity
  8
0
100
AcDbMText
 62
2
  6
CONTINUOUS
  7
STANDARD
 71
1
 72
1
 10
165.9910965464
 20
16.0974497462
 30
0.0
 11
1.0
 21
0.0
 31
0.0
 44
0.9
  1
A
 40
0.78125
 41
1.0044642857
  0
MTEXT
  5
2ED
100
AcDbEntity
  8
0
100
AcDbMText
 62
2
  6
CONTINUOUS
  7
STANDARD
 71
1
 72
1
 10
165.9910965464
 20
42.3474497462
 30
0.0
 11
1.0
 21
0.0
 31
0.0
 44
0.9
  1
B
 40
0.78125
 41
0.9207589286
  0
MTEXT
  5
2EE
100
AcDbEntity
  8
0
100
AcDbMText
 62
2
  6
CONTINUOUS
  7
STANDARD
 71
1
 72
1
 10
165.9910965464
 20
68.5974497462
 30
0.0
 11
1.0
 21
0.0
 31
0.0
 44
0.9
  1
C
 40
0.78125
 41
0.9765625
  0
MTEXT
  5
2EF
100
AcDbEntity
  8
0
100
AcDbMText
 62
2
  6
CONTINUOUS
  7
STANDARD
 71
1
 72
1
 10
165.9910965464
 20
94.8474497462
 30
0.0
 11
1.0
 21
0.0
 31
0.0
 44
0.9
  1
D
 40
0.78125
 41
1.0602678571
  0
MTEXT
  5
2F0
100
AcDbEntity
  8
0
100
AcDbMText
 62
5
  6
CONTINUOUS
  7
STANDARD
 71
1
 72
1
 10
2.831448053
 20
107.2809105769
 30
0.0
 11
1.0
 21
0.0
 31
0.0
 44
0.9
  1
THIS DOCUMENT CONTAINS PROPRIETARY INFORMATION\PWHICH IS THE PROPERTY OF QSC, LLC, THAT MAY NOT BE\PDISCLOSED, REPRODUCED OR USED WITHOUT EXPRESS\PWRITTEN CONSENT FROM QSC, LLC.
 40
0.375
 41
22.21875
  0
MTEXT
  5
2F1
100
AcDbEntity
  8
0
100
AcDbMText
 62
2
  6
CONTINUOUS
  7
STANDARD
 71
2
 72
1
 10
121.2465705269
 20
14.8912873265
 30
0.0
 11
1.0
 21
0.0
 31
0.0
 44
0.9
  1
UNLESS OTHERWISE SPECIFIED\PDIMENSIONS IN MILLIMETERS [IN]
 40
0.5
 41
16.4285714286
  0
MTEXT
  5
2F2
100
AcDbEntity
  8
0
100
AcDbMText
 62
2
  6
CONTINUOUS
  7
STANDARD
 71
2
 72
1
 10
121.1747363959
 20
12.9599274931
 30
0.0
 11
1.0
 21
0.0
 31
0.0
 44
0.9
  1
TOLERANCES ARE:
 40
0.45
 41
7.7303571429
  0
MTEXT
  5
2F3
100
AcDbEntity
  8
0
100
AcDbMText
 62
2
  6
CONTINUOUS
  7
STANDARD
 71
2
 72
1
 10
117.4963832043
 20
11.8185278637
 30
0.0
 11
1.0
 21
0.0
 31
0.0
 44
0.9
  1
DECIMALS\P.X\Fgdt;{\Fgdt;`}\Ftxt;.5[.02]
 40
0.45
 41
4.6446428571
  0
MTEXT
  5
2F4
100
AcDbEntity
  8
0
100
AcDbMText
 62
2
  6
CONTINUOUS
  7
STANDARD
 71
2
 72
1
 10
121.875
 20
11.7875
 30
0.0
 11
1.0
 21
0.0
 31
0.0
 44
0.9
  1
DECIMALS\P.XX\Fgdt;{\Fgdt;`}\Ftxt;.25[.010]
 40
0.45
 41
6.1392857143
  0
MTEXT
  5
2F5
100
AcDbEntity
  8
0
100
AcDbMText
 62
2
  6
CONTINUOUS
  7
STANDARD
 71
2
 72
1
 10
125.6464849719
 20
11.8125034731
 30
0.0
 11
1.0
 21
0.0
 31
0.0
 44
0.9
  1
ANGLES\P\Fgdt;{\Fgdt;`}\Ftxt; 1/2
 40
0.45
 41
3.2142857143
  0
MTEXT
  5
2F6
100
AcDbEntity
  8
0
100
AcDbMText
 62
2
  6
CONTINUOUS
  7
STANDARD
 71
2
 72
1
 10
121.25
 20
9.9125
 30
0.0
 11
1.0
 21
0.0
 31
0.0
 44
0.9
  1
DEBURR EDGES .25 [.010] R MAX
 40
0.45
 41
14.7053571429
  0
MTEXT
  5
2F7
100
AcDbEntity
  8
0
100
AcDbMText
 62
2
  6
CONTINUOUS
  7
STANDARD
 71
2
 72
1
 10
117.294622404
 20
8.4310995878
 30
0.0
 11
1.0
 21
0.0
 31
0.0
 44
0.9
  1
MATERIAL
 40
0.45
 41
4.3232142857
  0
MTEXT
  5
2F8
100
AcDbEntity
  8
0
100
AcDbMText
 62
2
  6
CONTINUOUS
  7
STANDARD
 71
2
 72
1
 10
116.8156985801
 20
5.3857331347
 30
0.0
 11
1.0
 21
0.0
 31
0.0
 44
0.9
  1
FINISH
 40
0.45
 41
3.0696428571
  0
MTEXT
  5
2F9
100
AcDbEntity
  8
0
100
AcDbMText
 62
2
  6
CONTINUOUS
  7
STANDARD
 71
2
 72
1
 10
151.348961574
 20
3.4045128087
 30
0.0
 11
1.0
 21
0.0
 31
0.0
 44
0.9
  1
DO NOT SCALE DRAWING
 40
0.625
 41
15.5803571429
  0
MTEXT
  5
2FA
100
AcDbEntity
  8
0
100
AcDbMText
 62
2
  6
CONTINUOUS
  7
STANDARD
 71
2
 72
1
 10
128.6051832214
 20
15.0446805907
 30
0.0
 11
1.0
 21
0.0
 31
0.0
 44
0.9
  1
DESIGNER
 40
0.45
 41
4.2589285714
  0
MTEXT
  5
2FB
100
AcDbEntity
  8
0
100
AcDbMText
 62
2
  6
CONTINUOUS
  7
STANDARD
 71
2
 72
1
 10
128.4292064956
 20
12.4829999269
 30
0.0
 11
1.0
 21
0.0
 31
0.0
 44
0.9
  1
ENGINEER
 40
0.45
 41
4.1303571429
  0
MTEXT
  5
2FC
100
AcDbEntity
  8
0
100
AcDbMText
 62
2
  6
CONTINUOUS
  7
STANDARD
 71
2
 72
1
 10
130.3492138855
 20
9.8731256468
 30
0.0
 11
1.0
 21
0.0
 31
0.0
 44
0.9
  1
TECHNICAL DIRECTOR
 40
0.45
 41
9.6107142857
  0
MTEXT
  5
2FD
100
AcDbEntity
  8
0
100
AcDbMText
 62
2
  6
CONTINUOUS
  7
STANDARD
 71
2
 72
1
 10
131.0158063949
 20
7.2615596389
 30
0.0
 11
1.0
 21
0.0
 31
0.0
 44
0.9
  1
MANUFACTURING ENGINEER
 40
0.45
 41
11.6357142857
  0
MTEXT
  5
2FE
100
AcDbEntity
  8
0
100
AcDbMText
 62
2
  6
CONTINUOUS
  7
STANDARD
 71
2
 72
1
 10
129.7826175019
 20
3.3800123443
 30
0.0
 11
1.0
 21
0.0
 31
0.0
 44
0.9
  1
MODEL INFO:
 40
0.45
 41
5.5125
  0
MTEXT
  5
2FF
100
AcDbEntity
  8
0
100
AcDbMText
 62
2
  6
CONTINUOUS
  7
STANDARD
 71
2
 72
1
 10
129.3192544664
 20
4.5918052075
 30
0.0
 11
1.0
 21
0.0
 31
0.0
 44
0.9
  1
DRAWING INFO:
 40
0.45
 41
7.0071428571
  0
MTEXT
  5
300
100
AcDbEntity
  8
0
100
AcDbMText
 62
2
  6
CONTINUOUS
  7
STANDARD
 71
2
 72
1
 10
141.1968229069
 20
3.3351016511
 30
0.0
 11
1.0
 21
0.0
 31
0.0
 44
0.9
  1
SCALE:
 40
0.45
 41
2.9571428571
  0
MTEXT
  5
301
100
AcDbEntity
  8
0
100
AcDbMText
 62
2
  6
CONTINUOUS
  7
STANDARD
 71
2
 72
1
 10
158.0812136714
 20
3.3434044326
 30
0.0
 11
1.0
 21
0.0
 31
0.0
 44
0.9
  1
SHEET
 40
0.45
 41
2.7321428571
  0
MTEXT
  5
302
100
AcDbEntity
  8
0
100
AcDbMText
 62
2
  6
CONTINUOUS
  7
STANDARD
 71
2
 72
1
 10
141.2098972539
 20
6.0516483366
 30
0.0
 11
1.0
 21
0.0
 31
0.0
 44
0.9
  1
SIZE
 40
0.45
 41
2.1053571429
  0
MTEXT
  5
303
100
AcDbEntity
  8
0
100
AcDbMText
 62
2
  6
CONTINUOUS
  7
STANDARD
 71
2
 72
1
 10
144.9184880433
 20
6.0570822155
 30
0.0
 11
1.0
 21
0.0
 31
0.0
 44
0.9
  1
CAGE CODE
 40
0.45
 41
4.9982142857
  0
MTEXT
  5
304
100
AcDbEntity
  8
0
100
AcDbMText
 62
2
  6
CONTINUOUS
  7
STANDARD
 71
2
 72
1
 10
149.7047487402
 20
6.0466648286
 30
0.0
 11
1.0
 21
0.0
 31
0.0
 44
0.9
  1
DRAWING NO.
 40
0.45
 41
6.2357142857
  0
MTEXT
  5
305
100
AcDbEntity
  8
0
100
AcDbMText
 62
2
  6
CONTINUOUS
  7
STANDARD
 71
2
 72
1
 10
163.8106632972
 20
6.0533695334
 30
0.0
 11
1.0
 21
0.0
 31
0.0
 44
0.9
  1
REV
 40
0.45
 41
1.7035714286
  0
MTEXT
  5
306
100
AcDbEntity
  8
0
100
AcDbMText
 62
2
  6
CONTINUOUS
  7
STANDARD
 71
2
 72
1
 10
152.0857075023
 20
14.9675890133
 30
0.0
 11
1.0
 21
0.0
 31
0.0
 44
0.9
  1
QSC, LLC
 40
0.78125
 41
7.1986607143
  0
MTEXT
  5
307
100
AcDbEntity
  8
0
100
AcDbMText
 62
2
  6
CONTINUOUS
  7
STANDARD
 71
1
 72
1
 10
149.560662069
 20
13.7714508194
 30
0.0
 11
1.0
 21
0.0
 31
0.0
 44
0.9
  1
1675  MACARTHUR BOULEVARD\PCOSTA MESA, CA  92626
 40
0.625
 41
18.6607142857
  0
MTEXT
  5
308
100
AcDbEntity
  8
0
100
AcDbMText
 62
2
  6
CONTINUOUS
  7
STANDARD
 71
1
 72
1
 10
143.1505424446
 20
4.9813824589
 30
0.0
 11
1.0
 21
0.0
 31
0.0
 44
0.9
  1
00PW4
 40
0.78125
 41
5.4966517857
  0
INSERT
  5
309
100
AcDbEntity
  8
0
100
AcDbBlockReference
 62
7
  6
CONTINUOUS
  2
RD010411_BL0
 10
144.444101494
 20
13.5055533259
  0
DIMENSION
  5
30A
100
AcDbEntity
  8
0
100
AcDbDimension
 62
2
  6
CONTINUOUS
  2
*D0
 10
26.1506016776
 20
44.3468469947
 11
26.1506016776
 21
60.1359094947
 70
160
 71
2
 42
831.85
  3
DIMSTYLE_1
100
AcDbAlignedDimension
 13
29.83592404
 23
77.0968469947
 14
29.83592404
 24
44.3468469947
 50
270.0
100
AcDbRotatedDimension
  0
DIMENSION
  5
30B
100
AcDbEntity
  8
0
100
AcDbDimension
 62
2
  6
CONTINUOUS
  2
*D1
 10
22.1047483672
 20
77.0968469947
 11
22.1047483672
 21
57.3966496522
 70
160
 71
2
 42
841.75
  3
DIMSTYLE_1
100
AcDbAlignedDimension
 13
32.4737193156
 23
43.9570832151
 14
29.83592404
 24
77.0968469947
 50
90.0
100
AcDbRotatedDimension
  0
DIMENSION
  5
30C
100
AcDbEntity
  8
0
100
AcDbDimension
 62
2
  6
CONTINUOUS
  2
*D2
 10
72.58592404
 20
103.2255469056
 11
51.33592404
 21
102.6396094056
 70
160
 71
2
 42
1079.5
  3
DIMSTYLE_1
100
AcDbAlignedDimension
 13
30.08592404
 23
100.0881756004
 14
72.58592404
 24
100.0881756004
100
AcDbRotatedDimension
  0
DIMENSION
  5
30D
100
AcDbEntity
  8
0
100
AcDbDimension
 62
2
  6
CONTINUOUS
  2
*D3
 10
88.562468443
 20
52.443500538
 11
88.562468443
 21
47.8092362663
 70
160
 71
2
 42
205.655
  3
DIMSTYLE_1
100
AcDbAlignedDimension
 13
91.0744962376
 23
44.3468469947
 14
97.4920552927
 24
52.443500538
 50
90.0
100
AcDbRotatedDimension
  0
DIMENSION
  5
30E
100
AcDbEntity
  8
0
100
AcDbDimension
 62
2
  6
CONTINUOUS
  2
*D4
 10
88.562468443
 20
59.5513745537
 11
88.562468443
 21
56.1183828646
 70
160
 71
2
 42
180.54
  3
DIMSTYLE_1
100
AcDbAlignedDimension
 13
97.4920552927
 23
52.443500538
 14
97.4920552927
 24
59.5513745537
 50
90.0
100
AcDbRotatedDimension
  0
DIMENSION
  5
30F
100
AcDbEntity
  8
0
100
AcDbDimension
 62
2
  6
CONTINUOUS
  2
*D5
 10
97.5255198597
 20
39.6901875525
 11
87.6226697562
 21
39.1042500525
 70
160
 71
3
 42
157.506
  3
DIMSTYLE_1
100
AcDbAlignedDimension
 13
91.3244962376
 23
44.0968469947
 14
97.5255198597
 24
52.410035971
100
AcDbRotatedDimension
  0
DIMENSION
  5
310
100
AcDbEntity
  8
0
100
AcDbDimension
 62
2
  6
CONTINUOUS
  2
*D6
 10
102.6235513557
 20
39.6901875525
 11
105.8534674988
 21
39.1042500525
 70
160
 71
1
 42
129.49
  3
DIMSTYLE_1
100
AcDbAlignedDimension
 13
97.5255198597
 23
52.410035971
 14
102.6235513557
 24
52.410035971
100
AcDbRotatedDimension
  0
DIMENSION
  5
311
100
AcDbEntity
  8
0
100
AcDbDimension
 62
2
  6
CONTINUOUS
  2
*D7
 10
33.432380733
 20
38.4189405766
 11
26.847761614
 21
37.8330030766
 70
160
 71
3
 42
85.0
  3
DIMSTYLE_1
100
AcDbAlignedDimension
 13
30.08592404
 23
34.0618111667
 14
33.432380733
 24
31.8224410879
100
AcDbRotatedDimension
  0
DIMENSION
  5
312
100
AcDbEntity
  8
0
100
AcDbDimension
 62
2
  6
CONTINUOUS
  2
*D8
 10
69.2394673471
 20
38.412998646
 11
51.33592404
 21
37.827061146
 70
160
 71
2
 42
909.5
  3
DIMSTYLE_1
100
AcDbAlignedDimension
 13
33.432380733
 23
31.8224410879
 14
69.2394673471
 24
31.8224410879
100
AcDbRotatedDimension
  0
DIMENSION
  5
313
100
AcDbEntity
  8
0
100
AcDbDimension
 62
2
  6
CONTINUOUS
  2
*D9
 10
22.1727261529
 20
30.8559056549
 11
22.1727261529
 21
37.5481890112
 70
160
 71
2
 42
75.08
  3
DIMSTYLE_1
100
AcDbAlignedDimension
 13
29.83592404
 23
33.8118111667
 14
32.4658452999
 24
30.8559056549
 50
270.0
100
AcDbRotatedDimension
  0
DIMENSION
  5
314
100
AcDbEntity
  8
0
100
AcDbDimension
 62
2
  6
CONTINUOUS
  2
*D10
 10
22.1727261529
 20
19.2681103793
 11
22.1727261529
 21
24.4760705171
 70
160
 71
2
 42
294.33
  3
DIMSTYLE_1
100
AcDbAlignedDimension
 13
32.4658452999
 23
30.8559056549
 14
32.4658452999
 24
19.2681103793
 50
270.0
100
AcDbRotatedDimension
  0
DIMENSION
  5
315
100
AcDbEntity
  8
0
100
AcDbDimension
 62
2
  6
CONTINUOUS
  2
*D11
 10
26.0302501745
 20
83.3381756004
 11
26.0302501745
 21
92.2971389298
 70
160
 71
2
 42
419.1
  3
DIMSTYLE_1
100
AcDbAlignedDimension
 13
29.83592404
 23
99.8381756004
 14
29.83592404
 24
83.3381756004
 50
270.0
100
AcDbRotatedDimension
  0
LINE
  5
316
100
AcDbEntity
  8
0
100
AcDbLine
 62
2
  6
CONTINUOUS
 10
115.625
 20
8.75
 11
126.875
 21
8.75
  0
LINE
  5
317
100
AcDbEntity
  8
0
100
AcDbLine
 62
2
  6
CONTINUOUS
 10
115.625
 20
8.75
 11
115.625
 21
5.625
  0
LINE
  5
318
100
AcDbEntity
  8
0
100
AcDbLine
 62
2
  6
CONTINUOUS
 10
115.625
 20
5.625
 11
126.875
 21
5.625
  0
LINE
  5
319
100
AcDbEntity
  8
0
100
AcDbLine
 62
2
  6
CONTINUOUS
 10
126.875
 20
8.75
 11
126.875
 21
5.625
  0
LINE
  5
31A
100
AcDbEntity
  8
0
100
AcDbLine
 62
2
  6
CONTINUOUS
 10
115.625
 20
5.625
 11
126.875
 21
5.625
  0
LINE
  5
31B
100
AcDbEntity
  8
0
100
AcDbLine
 62
2
  6
CONTINUOUS
 10
115.625
 20
5.625
 11
115.625
 21
2.5
  0
LINE
  5
31C
100
AcDbEntity
  8
0
100
AcDbLine
 62
2
  6
CONTINUOUS
 10
115.625
 20
2.5
 11
126.875
 21
2.5
  0
LINE
  5
31D
100
AcDbEntity
  8
0
100
AcDbLine
 62
2
  6
CONTINUOUS
 10
126.875
 20
5.625
 11
126.875
 21
2.5
  0
LINE
  5
31E
100
AcDbEntity
  8
0
100
AcDbLine
 62
2
  6
CONTINUOUS
 10
126.875
 20
15.3227194398
 11
140.0
 21
15.3227194398
  0
LINE
  5
31F
100
AcDbEntity
  8
0
100
AcDbLine
 62
2
  6
CONTINUOUS
 10
126.875
 20
15.3227194398
 11
126.875
 21
12.8227194398
  0
LINE
  5
320
100
AcDbEntity
  8
0
100
AcDbLine
 62
2
  6
CONTINUOUS
 10
126.875
 20
12.8227194398
 11
140.0
 21
12.8227194398
  0
LINE
  5
321
100
AcDbEntity
  8
0
100
AcDbLine
 62
2
  6
CONTINUOUS
 10
140.0
 20
15.3227194398
 11
140.0
 21
12.8227194398
  0
MTEXT
  5
322
100
AcDbEntity
  8
0
100
AcDbMText
 62
2
  6
CONTINUOUS
  7
STANDARD
 71
1
 72
1
 10
127.1875
 20
13.9945944398
 30
0.0
 11
1.0
 21
0.0
 31
0.0
 44
0.9
  1
ENGINEERING SERVICES
 40
0.78125
 41
17.8292410714
  0
LINE
  5
323
100
AcDbEntity
  8
0
100
AcDbLine
 62
2
  6
CONTINUOUS
 10
126.875
 20
12.7730892169
 11
140.0
 21
12.7730892169
  0
LINE
  5
324
100
AcDbEntity
  8
0
100
AcDbLine
 62
2
  6
CONTINUOUS
 10
126.875
 20
12.7730892169
 11
126.875
 21
10.1230892169
  0
LINE
  5
325
100
AcDbEntity
  8
0
100
AcDbLine
 62
2
  6
CONTINUOUS
 10
126.875
 20
10.1230892169
 11
140.0
 21
10.1230892169
  0
LINE
  5
326
100
AcDbEntity
  8
0
100
AcDbLine
 62
2
  6
CONTINUOUS
 10
140.0
 20
12.7730892169
 11
140.0
 21
10.1230892169
  0
LINE
  5
327
100
AcDbEntity
  8
0
100
AcDbLine
 62
2
  6
CONTINUOUS
 10
126.875
 20
10.1236353846
 11
140.0
 21
10.1236353846
  0
LINE
  5
328
100
AcDbEntity
  8
0
100
AcDbLine
 62
2
  6
CONTINUOUS
 10
126.875
 20
10.1236353846
 11
126.875
 21
7.5486353846
  0
LINE
  5
329
100
AcDbEntity
  8
0
100
AcDbLine
 62
2
  6
CONTINUOUS
 10
126.875
 20
7.5486353846
 11
140.0
 21
7.5486353846
  0
LINE
  5
32A
100
AcDbEntity
  8
0
100
AcDbLine
 62
2
  6
CONTINUOUS
 10
140.0
 20
10.1236353846
 11
140.0
 21
7.5486353846
  0
LINE
  5
32B
100
AcDbEntity
  8
0
100
AcDbLine
 62
2
  6
CONTINUOUS
 10
126.875
 20
7.5486352808
 11
140.0
 21
7.5486352808
  0
LINE
  5
32C
100
AcDbEntity
  8
0
100
AcDbLine
 62
2
  6
CONTINUOUS
 10
126.875
 20
7.5486352808
 11
126.875
 21
4.9986352808
  0
LINE
  5
32D
100
AcDbEntity
  8
0
100
AcDbLine
 62
2
  6
CONTINUOUS
 10
126.875
 20
4.9986352808
 11
140.0
 21
4.9986352808
  0
LINE
  5
32E
100
AcDbEntity
  8
0
100
AcDbLine
 62
2
  6
CONTINUOUS
 10
140.0
 20
7.5486352808
 11
140.0
 21
4.9986352808
  0
LINE
  5
32F
100
AcDbEntity
  8
0
100
AcDbLine
 62
2
  6
CONTINUOUS
 10
126.875
 20
5.0
 11
140.0
 21
5.0
  0
LINE
  5
330
100
AcDbEntity
  8
0
100
AcDbLine
 62
2
  6
CONTINUOUS
 10
126.875
 20
5.0
 11
126.875
 21
3.75
  0
LINE
  5
331
100
AcDbEntity
  8
0
100
AcDbLine
 62
2
  6
CONTINUOUS
 10
126.875
 20
3.75
 11
140.0
 21
3.75
  0
LINE
  5
332
100
AcDbEntity
  8
0
100
AcDbLine
 62
2
  6
CONTINUOUS
 10
140.0
 20
5.0
 11
140.0
 21
3.75
  0
MTEXT
  5
333
100
AcDbEntity
  8
0
100
AcDbMText
 62
2
  6
CONTINUOUS
  7
STANDARD
 71
3
 72
1
 10
139.6875
 20
4.690625
 30
0.0
 11
1.0
 21
0.0
 31
0.0
 44
0.9
  1
FG-002185-2D.A.0
 40
0.55
 41
9.7625
  0
LINE
  5
334
100
AcDbEntity
  8
0
100
AcDbLine
 62
2
  6
CONTINUOUS
 10
126.875
 20
3.75
 11
140.0
 21
3.75
  0
LINE
  5
335
100
AcDbEntity
  8
0
100
AcDbLine
 62
2
  6
CONTINUOUS
 10
126.875
 20
3.75
 11
126.875
 21
2.5
  0
LINE
  5
336
100
AcDbEntity
  8
0
100
AcDbLine
 62
2
  6
CONTINUOUS
 10
126.875
 20
2.5
 11
140.0
 21
2.5
  0
LINE
  5
337
100
AcDbEntity
  8
0
100
AcDbLine
 62
2
  6
CONTINUOUS
 10
140.0
 20
3.75
 11
140.0
 21
2.5
  0
MTEXT
  5
338
100
AcDbEntity
  8
0
100
AcDbMText
 62
2
  6
CONTINUOUS
  7
STANDARD
 71
3
 72
1
 10
139.6875
 20
3.440625
 30
0.0
 11
1.0
 21
0.0
 31
0.0
 44
0.9
  1
FG-002185-3DA.0
 40
0.55
 41
9.2321428571
  0
LINE
  5
339
100
AcDbEntity
  8
0
100
AcDbLine
 62
2
  6
CONTINUOUS
 10
140.0
 20
11.875
 11
165.0
 21
11.875
  0
LINE
  5
33A
100
AcDbEntity
  8
0
100
AcDbLine
 62
2
  6
CONTINUOUS
 10
140.0
 20
11.875
 11
140.0
 21
6.25
  0
LINE
  5
33B
100
AcDbEntity
  8
0
100
AcDbLine
 62
2
  6
CONTINUOUS
 10
140.0
 20
6.25
 11
165.0
 21
6.25
  0
LINE
  5
33C
100
AcDbEntity
  8
0
100
AcDbLine
 62
2
  6
CONTINUOUS
 10
165.0
 20
11.875
 11
165.0
 21
6.25
  0
MTEXT
  5
33D
100
AcDbEntity
  8
0
100
AcDbMText
 62
2
  6
CONTINUOUS
  7
STANDARD
 71
2
 72
1
 10
152.5
 20
10.5875
 30
0.0
 11
1.0
 21
0.0
 31
0.0
 44
1.02
  1
SPEAKER, FINISHED,\PSB-2180 
 40
1.0
 41
20.0
  0
LINE
  5
33E
100
AcDbEntity
  8
0
100
AcDbLine
 62
2
  6
CONTINUOUS
 10
140.0054615147
 20
6.2397023375
 11
142.5054615147
 21
6.2397023375
  0
LINE
  5
33F
100
AcDbEntity
  8
0
100
AcDbLine
 62
2
  6
CONTINUOUS
 10
140.0054615147
 20
6.2397023375
 11
140.0054615147
 21
3.7397023375
  0
LINE
  5
340
100
AcDbEntity
  8
0
100
AcDbLine
 62
2
  6
CONTINUOUS
 10
140.0054615147
 20
3.7397023375
 11
142.5054615147
 21
3.7397023375
  0
LINE
  5
341
100
AcDbEntity
  8
0
100
AcDbLine
 62
2
  6
CONTINUOUS
 10
142.5054615147
 20
6.2397023375
 11
142.5054615147
 21
3.7397023375
  0
MTEXT
  5
342
100
AcDbEntity
  8
0
100
AcDbMText
 62
2
  6
CONTINUOUS
  7
STANDARD
 71
2
 72
1
 10
141.2554615147
 20
5.1303273375
 30
0.0
 11
1.0
 21
0.0
 31
0.0
 44
0.9
  1
D
 40
1.0
 41
1.3571428571
  0
LINE
  5
343
100
AcDbEntity
  8
0
100
AcDbLine
 62
2
  6
CONTINUOUS
 10
147.502587488
 20
6.2248729456
 11
162.502587488
 21
6.2248729456
  0
LINE
  5
344
100
AcDbEntity
  8
0
100
AcDbLine
 62
2
  6
CONTINUOUS
 10
147.502587488
 20
6.2248729456
 11
147.502587488
 21
3.7248729456
  0
LINE
  5
345
100
AcDbEntity
  8
0
100
AcDbLine
 62
2
  6
CONTINUOUS
 10
147.502587488
 20
3.7248729456
 11
162.502587488
 21
3.7248729456
  0
LINE
  5
346
100
AcDbEntity
  8
0
100
AcDbLine
 62
2
  6
CONTINUOUS
 10
162.502587488
 20
6.2248729456
 11
162.502587488
 21
3.7248729456
  0
MTEXT
  5
347
100
AcDbEntity
  8
0
100
AcDbMText
 62
2
  6
CONTINUOUS
  7
STANDARD
 71
2
 72
1
 10
155.002587488
 20
5.2654979456
 30
0.0
 11
1.0
 21
0.0
 31
0.0
 44
0.9
  1
FG-002185-2D
 40
1.15
 41
15.6071428571
  0
LINE
  5
348
100
AcDbEntity
  8
0
100
AcDbLine
 62
2
  6
CONTINUOUS
 10
162.4934994813
 20
6.2414391131
 11
164.9934994813
 21
6.2414391131
  0
LINE
  5
349
100
AcDbEntity
  8
0
100
AcDbLine
 62
2
  6
CONTINUOUS
 10
162.4934994813
 20
6.2414391131
 11
162.4934994813
 21
3.7414391131
  0
LINE
  5
34A
100
AcDbEntity
  8
0
100
AcDbLine
 62
2
  6
CONTINUOUS
 10
162.4934994813
 20
3.7414391131
 11
164.9934994813
 21
3.7414391131
  0
LINE
  5
34B
100
AcDbEntity
  8
0
100
AcDbLine
 62
2
  6
CONTINUOUS
 10
164.9934994813
 20
6.2414391131
 11
164.9934994813
 21
3.7414391131
  0
MTEXT
  5
34C
100
AcDbEntity
  8
0
100
AcDbMText
 62
2
  6
CONTINUOUS
  7
STANDARD
 71
2
 72
1
 10
163.7434994813
 20
5.0320641131
 30
0.0
 11
1.0
 21
0.0
 31
0.0
 44
0.9
  1
A
 40
0.9
 41
1.1571428571
  0
LINE
  5
34D
100
AcDbEntity
  8
0
100
AcDbLine
 62
2
  6
CONTINUOUS
 10
156.8781030969
 20
3.7146444181
 11
165.0031030969
 21
3.7146444181
  0
LINE
  5
34E
100
AcDbEntity
  8
0
100
AcDbLine
 62
2
  6
CONTINUOUS
 10
156.8781030969
 20
3.7146444181
 11
156.8781030969
 21
2.4646444181
  0
LINE
  5
34F
100
AcDbEntity
  8
0
100
AcDbLine
 62
2
  6
CONTINUOUS
 10
156.8781030969
 20
2.4646444181
 11
165.0031030969
 21
2.4646444181
  0
LINE
  5
350
100
AcDbEntity
  8
0
100
AcDbLine
 62
2
  6
CONTINUOUS
 10
165.0031030969
 20
3.7146444181
 11
165.0031030969
 21
2.4646444181
  0
MTEXT
  5
351
100
AcDbEntity
  8
0
100
AcDbMText
 62
2
  6
CONTINUOUS
  7
STANDARD
 71
3
 72
1
 10
164.6906030969
 20
3.5552694181
 30
0.0
 11
1.0
 21
0.0
 31
0.0
 44
0.9
  1
1 OF 1
 40
0.7
 41
4.425
  0
LINE
  5
352
100
AcDbEntity
  8
0
100
AcDbLine
 62
2
  6
CONTINUOUS
 10
139.9912990605
 20
3.7441160845
 11
145.9312990605
 21
3.7441160845
  0
LINE
  5
353
100
AcDbEntity
  8
0
100
AcDbLine
 62
2
  6
CONTINUOUS
 10
139.9912990605
 20
3.7441160845
 11
139.9912990605
 21
2.4745848345
  0
LINE
  5
354
100
AcDbEntity
  8
0
100
AcDbLine
 62
2
  6
CONTINUOUS
 10
139.9912990605
 20
2.4745848345
 11
145.9312990605
 21
2.4745848345
  0
LINE
  5
355
100
AcDbEntity
  8
0
100
AcDbLine
 62
2
  6
CONTINUOUS
 10
145.9312990605
 20
3.7441160845
 11
145.9312990605
 21
2.4745848345
  0
MTEXT
  5
356
100
AcDbEntity
  8
0
100
AcDbMText
 62
2
  6
CONTINUOUS
  7
STANDARD
 71
3
 72
1
 10
145.6187990605
 20
3.4152098345
 30
0.0
 11
1.0
 21
0.0
 31
0.0
 44
0.9
  1
0.200
 40
0.55
 41
3.0642857143
  0
LWPOLYLINE
  5
357
100
AcDbEntity
  8
0
100
AcDbPolyline
 62
2
  6
CONTINUOUS
 90
2
 70
0
 43
0.1
 10
165.0566026097
 20
107.4581301741
 10
114.6441026097
 20
107.4581301741
  0
LWPOLYLINE
  5
358
100
AcDbEntity
  8
0
100
AcDbPolyline
 62
2
  6
CONTINUOUS
 90
2
 70
0
 43
0.1
 10
165.0066026097
 20
107.4581301741
 10
165.0066026097
 20
99.6456301741
  0
LWPOLYLINE
  5
359
100
AcDbEntity
  8
0
100
AcDbPolyline
 62
2
  6
CONTINUOUS
 90
2
 70
0
 43
0.1
 10
165.0066026097
 20
105.8956301741
 10
114.6941026097
 20
105.8956301741
  0
LWPOLYLINE
  5
35A
100
AcDbEntity
  8
0
100
AcDbPolyline
 62
2
  6
CONTINUOUS
 90
2
 70
0
 43
0.1
 10
165.0066026097
 20
104.3331301741
 10
114.6941026097
 20
104.3331301741
  0
LWPOLYLINE
  5
35B
100
AcDbEntity
  8
0
100
AcDbPolyline
 62
2
  6
CONTINUOUS
 90
2
 70
0
 43
0.1
 10
165.0066026097
 20
102.7706301741
 10
114.6941026097
 20
102.7706301741
  0
LWPOLYLINE
  5
35C
100
AcDbEntity
  8
0
100
AcDbPolyline
 62
2
  6
CONTINUOUS
 90
2
 70
0
 43
0.1
 10
165.0066026097
 20
101.2081301741
 10
114.6941026097
 20
101.2081301741
  0
LWPOLYLINE
  5
35D
100
AcDbEntity
  8
0
100
AcDbPolyline
 62
2
  6
CONTINUOUS
 90
2
 70
0
 43
0.1
 10
165.0566026097
 20
99.6456301741
 10
114.6441026097
 20
99.6456301741
  0
LWPOLYLINE
  5
35E
100
AcDbEntity
  8
0
100
AcDbPolyline
 62
2
  6
CONTINUOUS
 90
2
 70
0
 43
0.1
 10
158.7566026097
 20
105.8956301741
 10
158.7566026097
 20
99.6456301741
  0
LWPOLYLINE
  5
35F
100
AcDbEntity
  8
0
100
AcDbPolyline
 62
2
  6
CONTINUOUS
 90
2
 70
0
 43
0.1
 10
156.2566026097
 20
105.8956301741
 10
156.2566026097
 20
99.6456301741
  0
LWPOLYLINE
  5
360
100
AcDbEntity
  8
0
100
AcDbPolyline
 62
2
  6
CONTINUOUS
 90
2
 70
0
 43
0.1
 10
117.1941026097
 20
105.8956301741
 10
117.1941026097
 20
99.6456301741
  0
LWPOLYLINE
  5
361
100
AcDbEntity
  8
0
100
AcDbPolyline
 62
2
  6
CONTINUOUS
 90
2
 70
0
 43
0.1
 10
114.6941026097
 20
107.4581301741
 10
114.6941026097
 20
99.6456301741
  0
MTEXT
  5
362
100
AcDbEntity
  8
0
100
AcDbMText
 62
2
  6
CONTINUOUS
  7
STANDARD
 71
2
 72
1
 10
139.8503526097
 20
107.0675051741
 30
0.0
 11
1.0
 21
0.0
 31
0.0
 44
0.9
  1
REVISIONS
 40
0.78125
 41
8.1473214286
  0
MTEXT
  5
363
100
AcDbEntity
  8
0
100
AcDbMText
 62
2
  6
CONTINUOUS
  7
STANDARD
 71
2
 72
1
 10
161.8816026097
 20
105.5050051741
 30
0.0
 11
1.0
 21
0.0
 31
0.0
 44
0.9
  1
DATE 
 40
0.78125
 41
5.0502232143
  0
MTEXT
  5
364
100
AcDbEntity
  8
0
100
AcDbMText
 62
2
  6
CONTINUOUS
  7
STANDARD
 71
2
 72
1
 10
157.5066026097
 20
105.5050051741
 30
0.0
 11
1.0
 21
0.0
 31
0.0
 44
0.9
  1
BY
 40
0.78125
 41
2.1484375
  0
MTEXT
  5
365
100
AcDbEntity
  8
0
100
AcDbMText
 62
2
  6
CONTINUOUS
  7
STANDARD
 71
2
 72
1
 10
136.7253526097
 20
105.5043801741
 30
0.0
 11
1.0
 21
0.0
 31
0.0
 44
0.9
  1
DESCRIPTION
 40
0.78
 41
10.1957142857
  0
MTEXT
  5
366
100
AcDbEntity
  8
0
100
AcDbMText
 62
2
  6
CONTINUOUS
  7
STANDARD
 71
2
 72
1
 10
115.9441026097
 20
105.5043801741
 30
0.0
 11
1.0
 21
0.0
 31
0.0
 44
0.9
  1
REV
 40
0.78
 41
2.9528571429
  0
MTEXT
  5
367
100
AcDbEntity
  8
0
100
AcDbMText
 62
2
  6
CONTINUOUS
  7
STANDARD
 71
2
 72
1
 10
161.8816026097
 20
103.9425051741
 30
0.0
 11
1.0
 21
0.0
 31
0.0
 44
0.9
  1
28-OCT-15
 40
0.78125
 41
8.1473214286
  0
MTEXT
  5
368
100
AcDbEntity
  8
0
100
AcDbMText
 62
2
  6
CONTINUOUS
  7
STANDARD
 71
2
 72
1
 10
157.5066026097
 20
103.9425051741
 30
0.0
 11
1.0
 21
0.0
 31
0.0
 44
0.9
  1
ES
 40
0.78125
 41
1.9810267857
  0
MTEXT
  5
369
100
AcDbEntity
  8
0
100
AcDbMText
 62
2
  6
CONTINUOUS
  7
STANDARD
 71
1
 72
1
 10
117.5066026097
 20
103.9425051741
 30
0.0
 11
1.0
 21
0.0
 31
0.0
 44
0.9
  1
 RELEASE FOR SALES AND MARKETING
 40
0.78125
 41
29.3247767857
  0
MTEXT
  5
36A
100
AcDbEntity
  8
0
100
AcDbMText
 62
2
  6
CONTINUOUS
  7
STANDARD
 71
2
 72
1
 10
115.9441026097
 20
103.9425051741
 30
0.0
 11
1.0
 21
0.0
 31
0.0
 44
0.9
  1
A
 40
0.78125
 41
1.2276785714
  0
MTEXT
  5
36B
100
AcDbEntity
  8
0
100
AcDbMText
 62
2
  6
CONTINUOUS
  7
STANDARD
 71
1
 72
1
 10
3.4584107715
 20
10.5649043063
 30
0.0
 11
1.0
 21
0.0
 31
0.0
 44
1.2
  3
3. PARTS ARE SYMMETRICAL ABOUT CENTER LINES UNLESS OTHERWISE NOTED. \P2. TOLERANCES (MM): X \Fgdt;{\Fgdt;`}\Ftxt; 5, ANGLES: \Fgdt;{\Fgdt;`}\Ftxt; 1\Fgdt;{\Fgdt;~}\Ftxt;.\P1. NET WEIGHT APPROX 84.82 KG (187 LBS).\P \PNOTE:  UNLESS OTHERWISE SPECIFIED
 40
0.78125
 41
62.5
  0
MTEXT
  5
36C
100
AcDbEntity
  8
0
100
AcDbMText
 62
2
  6
CONTINUOUS
  7
TEXTSTYLE_1
 71
1
 72
1
 10
50.914950415
 20
43.0723289963
 30
0.0
 11
1.0
 21
0.0
 31
0.0
 44
0.9
  1
{\Fgdt;q}
 40
0.78125
 41
1.2369791667
  0
MTEXT
  5
36D
100
AcDbEntity
  8
0
100
AcDbMText
 62
2
  6
CONTINUOUS
  7
TEXTSTYLE_1
 71
1
 72
1
 10
50.9170887119
 20
82.1205200959
 30
0.0
 11
1.0
 21
0.0
 31
0.0
 44
0.9
  1
{\Fgdt;q}
 40
0.78125
 41
1.2369791667
  0
LINE
  5
36E
100
AcDbEntity
  8
DEFAULT_3
100
AcDbLine
 62
7
  6
PHANTOM
 10
0.0
 20
-0.0
 11
0.0
 21
110.0
  0
LWPOLYLINE
  5
36F
100
AcDbEntity
  8
0
100
AcDbPolyline
 62
7
  6
CONTINUOUS
 90
2
 70
0
 43
0.1000000042
 10
1.3123136106
 20
54.1567255533
 10
1.3123136106
 20
55.8432744467
  0
LWPOLYLINE
  5
370
100
AcDbEntity
  8
0
100
AcDbPolyline
 62
7
  6
CONTINUOUS
 90
2
 70
0
 43
0.1500000012
 10
2.5
 20
107.5
 10
2.5
 20
2.5
  0
LWPOLYLINE
  5
371
100
AcDbEntity
  8
0
100
AcDbPolyline
 62
7
  6
CONTINUOUS
 90
2
 70
0
 43
0.1500000012
 10
17.8125
 20
107.5
 10
17.8125
 20
105.0
  0
LWPOLYLINE
  5
372
100
AcDbEntity
  8
0
100
AcDbPolyline
 62
7
  6
CONTINUOUS
 90
2
 70
0
 43
0.1000000042
 10
22.8125
 20
2.5
 10
22.8125
 20
-0.0
  0
LWPOLYLINE
  5
373
100
AcDbEntity
  8
0
100
AcDbPolyline
 62
7
  6
CONTINUOUS
 90
2
 70
0
 43
0.1000000042
 10
22.8125
 20
107.5
 10
22.8125
 20
110.0
  0
LINE
  5
374
100
AcDbEntity
  8
0
100
AcDbLine
 62
7
  6
CONTINUOUS
 10
115.6240285178
 20
2.5020547242
 11
126.890703568
 21
5.6235626741
  0
LINE
  5
375
100
AcDbEntity
  8
0
100
AcDbLine
 62
7
  6
CONTINUOUS
 10
115.6246420164
 20
5.6277404605
 11
126.8705682332
 21
8.7471966881
  0
LINE
  5
376
100
AcDbEntity
  8
DEFAULT_3
100
AcDbLine
 62
7
  6
PHANTOM
 10
0.0
 20
-0.0
 11
170.0
 21
-0.0
  0
LWPOLYLINE
  5
377
100
AcDbEntity
  8
0
100
AcDbPolyline
 62
7
  6
CONTINUOUS
 90
2
 70
0
 43
0.1000000042
 10
82.9067255533
 20
1.3123136106
 10
84.5932744467
 20
1.3123136106
  0
LWPOLYLINE
  5
378
100
AcDbEntity
  8
0
100
AcDbPolyline
 62
7
  6
CONTINUOUS
 90
2
 70
0
 43
0.1000000042
 10
2.5
 20
55.0
 10
1.3123136106
 20
54.1567255533
  0
LWPOLYLINE
  5
379
100
AcDbEntity
  8
0
100
AcDbPolyline
 62
7
  6
CONTINUOUS
 90
2
 70
0
 43
0.1500000012
 10
2.5
 20
2.5
 10
165.0
 20
2.5
  0
LWPOLYLINE
  5
37A
100
AcDbEntity
  8
0
100
AcDbPolyline
 62
7
  6
CONTINUOUS
 90
2
 70
0
 43
0.1000000042
 10
126.875
 20
3.75
 10
165.0
 20
3.75
  0
LWPOLYLINE
  5
37B
100
AcDbEntity
  8
0
100
AcDbPolyline
 62
7
  6
CONTINUOUS
 90
2
 70
0
 43
0.1000000042
 10
126.875
 20
5.0
 10
140.0
 20
5.0
  0
LWPOLYLINE
  5
37C
100
AcDbEntity
  8
0
100
AcDbPolyline
 62
7
  6
CONTINUOUS
 90
2
 70
0
 43
0.1000000042
 10
126.875
 20
5.625
 10
115.625
 20
5.625
  0
LWPOLYLINE
  5
37D
100
AcDbEntity
  8
0
100
AcDbPolyline
 62
7
  6
CONTINUOUS
 90
2
 70
0
 43
0.1000000042
 10
140.0
 20
6.25
 10
165.0
 20
6.25
  0
LWPOLYLINE
  5
37E
100
AcDbEntity
  8
0
100
AcDbPolyline
 62
7
  6
CONTINUOUS
 90
2
 70
0
 43
0.1000000042
 10
126.9078470836
 20
7.5586767249
 10
140.0328470836
 20
7.5586767249
  0
LWPOLYLINE
  5
37F
100
AcDbEntity
  8
0
100
AcDbPolyline
 62
7
  6
CONTINUOUS
 90
2
 70
0
 43
0.1000000042
 10
2.5
 20
55.0
 10
1.3123136106
 20
55.8432744467
  0
LWPOLYLINE
  5
380
100
AcDbEntity
  8
0
100
AcDbPolyline
 62
7
  6
CONTINUOUS
 90
2
 70
0
 43
0.1000000042
 10
43.125
 20
2.5
 10
43.125
 20
-0.0
  0
LWPOLYLINE
  5
381
100
AcDbEntity
  8
0
100
AcDbPolyline
 62
7
  6
CONTINUOUS
 90
2
 70
0
 43
0.1000000042
 10
43.125
 20
107.5
 10
43.125
 20
110.0
  0
LWPOLYLINE
  5
382
100
AcDbEntity
  8
0
100
AcDbPolyline
 62
7
  6
CONTINUOUS
 90
2
 70
0
 43
0.1000000042
 10
115.625
 20
8.75
 10
126.875
 20
8.75
  0
LWPOLYLINE
  5
383
100
AcDbEntity
  8
0
100
AcDbPolyline
 62
7
  6
CONTINUOUS
 90
2
 70
0
 43
0.1000000042
 10
126.9147155356
 20
10.1295951772
 10
140.0397155356
 20
10.1295951772
  0
LWPOLYLINE
  5
384
100
AcDbEntity
  8
0
100
AcDbPolyline
 62
7
  6
CONTINUOUS
 90
2
 70
0
 43
0.1000000042
 10
140.0
 20
11.875
 10
165.0
 20
11.875
  0
LWPOLYLINE
  5
385
100
AcDbEntity
  8
0
100
AcDbPolyline
 62
7
  6
CONTINUOUS
 90
2
 70
0
 43
0.1000000042
 10
126.875
 20
12.7876491426
 10
140.0
 20
12.7876491426
  0
LWPOLYLINE
  5
386
100
AcDbEntity
  8
0
100
AcDbPolyline
 62
7
  6
CONTINUOUS
 90
2
 70
0
 43
0.1000000042
 10
115.625
 20
15.3125
 10
165.0
 20
15.3125
  0
LWPOLYLINE
  5
387
100
AcDbEntity
  8
0
100
AcDbPolyline
 62
7
  6
CONTINUOUS
 90
2
 70
0
 43
0.1000000042
 10
83.75
 20
107.5
 10
84.5932744467
 20
108.6876863894
  0
LWPOLYLINE
  5
388
100
AcDbEntity
  8
0
100
AcDbPolyline
 62
7
  6
CONTINUOUS
 90
2
 70
0
 43
0.1000000042
 10
83.75
 20
2.5
 10
84.5932744467
 20
1.3123136106
  0
LWPOLYLINE
  5
389
100
AcDbEntity
  8
0
100
AcDbPolyline
 62
7
  6
CONTINUOUS
 90
2
 70
0
 43
0.1000000042
 10
2.5
 20
28.75
 10
0.0
 20
28.75
  0
LWPOLYLINE
  5
38A
100
AcDbEntity
  8
0
100
AcDbPolyline
 62
7
  6
CONTINUOUS
 90
2
 70
0
 43
0.1000000042
 10
165.0329692542
 20
28.7542052047
 10
167.5329692542
 20
28.7542052047
  0
LWPOLYLINE
  5
38B
100
AcDbEntity
  8
0
100
AcDbPolyline
 62
7
  6
CONTINUOUS
 90
2
 70
0
 43
0.1000000042
 10
63.4375
 20
2.5
 10
63.4375
 20
-0.0
  0
LWPOLYLINE
  5
38C
100
AcDbEntity
  8
0
100
AcDbPolyline
 62
7
  6
CONTINUOUS
 90
2
 70
0
 43
0.1000000042
 10
63.4375
 20
107.5
 10
63.4375
 20
110.0
  0
LINE
  5
38D
100
AcDbEntity
  8
0
100
AcDbLine
 62
7
  6
CONTINUOUS
 10
115.6424851049
 20
15.2929009961
 11
126.8750607734
 21
8.7546917781
  0
LWPOLYLINE
  5
38E
100
AcDbEntity
  8
0
100
AcDbPolyline
 62
7
  6
CONTINUOUS
 90
2
 70
0
 43
0.1000000042
 10
83.75
 20
2.5
 10
83.75
 20
-0.0
  0
LWPOLYLINE
  5
38F
100
AcDbEntity
  8
0
100
AcDbPolyline
 62
7
  6
CONTINUOUS
 90
2
 70
0
 43
0.1000000042
 10
83.75
 20
107.5
 10
83.75
 20
110.0
  0
LWPOLYLINE
  5
390
100
AcDbEntity
  8
0
100
AcDbPolyline
 62
7
  6
CONTINUOUS
 90
2
 70
0
 43
0.1000000042
 10
2.5
 20
55.0
 10
-0.0
 20
55.0
  0
LWPOLYLINE
  5
391
100
AcDbEntity
  8
0
100
AcDbPolyline
 62
7
  6
CONTINUOUS
 90
2
 70
0
 43
0.1000000042
 10
165.0053967298
 20
55.0067989907
 10
167.5053967298
 20
55.0067989907
  0
LWPOLYLINE
  5
392
100
AcDbEntity
  8
0
100
AcDbPolyline
 62
7
  6
CONTINUOUS
 90
2
 70
0
 43
0.1000000042
 10
104.0625
 20
2.5
 10
104.0625
 20
-0.0
  0
LWPOLYLINE
  5
393
100
AcDbEntity
  8
0
100
AcDbPolyline
 62
7
  6
CONTINUOUS
 90
2
 70
0
 43
0.1000000042
 10
104.0625
 20
107.5
 10
104.0625
 20
110.0
  0
LWPOLYLINE
  5
394
100
AcDbEntity
  8
0
100
AcDbPolyline
 62
7
  6
CONTINUOUS
 90
2
 70
0
 43
0.1000000042
 10
83.75
 20
2.5
 10
82.9067255533
 20
1.3123136106
  0
LWPOLYLINE
  5
395
100
AcDbEntity
  8
0
100
AcDbPolyline
 62
7
  6
CONTINUOUS
 90
2
 70
0
 43
0.1000000042
 10
2.5
 20
81.25
 10
0.0
 20
81.25
  0
LWPOLYLINE
  5
396
100
AcDbEntity
  8
0
100
AcDbPolyline
 62
7
  6
CONTINUOUS
 90
2
 70
0
 43
0.1000000042
 10
165.0
 20
81.25
 10
167.5
 20
81.25
  0
LWPOLYLINE
  5
397
100
AcDbEntity
  8
0
100
AcDbPolyline
 62
7
  6
CONTINUOUS
 90
2
 70
0
 43
0.1000000042
 10
83.75
 20
107.5
 10
82.9067255533
 20
108.6876863894
  0
LWPOLYLINE
  5
398
100
AcDbEntity
  8
0
100
AcDbPolyline
 62
7
  6
CONTINUOUS
 90
2
 70
0
 43
0.1000000042
 10
115.625
 20
2.5
 10
115.625
 20
15.3125
  0
LWPOLYLINE
  5
399
100
AcDbEntity
  8
0
100
AcDbPolyline
 62
7
  6
CONTINUOUS
 90
2
 70
0
 43
0.1000000042
 10
124.375
 20
2.5
 10
124.375
 20
-0.0
  0
LWPOLYLINE
  5
39A
100
AcDbEntity
  8
0
100
AcDbPolyline
 62
7
  6
CONTINUOUS
 90
2
 70
0
 43
0.1000000042
 10
124.375
 20
107.5
 10
124.375
 20
110.0
  0
LWPOLYLINE
  5
39B
100
AcDbEntity
  8
0
100
AcDbPolyline
 62
7
  6
CONTINUOUS
 90
2
 70
0
 43
0.1000000042
 10
126.875
 20
2.5
 10
126.875
 20
15.3125
  0
LWPOLYLINE
  5
39C
100
AcDbEntity
  8
0
100
AcDbPolyline
 62
7
  6
CONTINUOUS
 90
2
 70
0
 43
0.1000000042
 10
165.0053967298
 20
55.0067989907
 10
166.1930831192
 20
55.8500734374
  0
LWPOLYLINE
  5
39D
100
AcDbEntity
  8
0
100
AcDbPolyline
 62
7
  6
CONTINUOUS
 90
2
 70
0
 43
0.1000000042
 10
165.0053967298
 20
55.0067989907
 10
166.1930831192
 20
54.1635245441
  0
LWPOLYLINE
  5
39E
100
AcDbEntity
  8
0
100
AcDbPolyline
 62
7
  6
CONTINUOUS
 90
2
 70
0
 43
0.1500000012
 10
17.8125
 20
105.0
 10
2.5
 20
105.0
  0
LWPOLYLINE
  5
39F
100
AcDbEntity
  8
0
100
AcDbPolyline
 62
7
  6
CONTINUOUS
 90
2
 70
0
 43
0.1500000012
 10
165.0
 20
107.5
 10
2.5
 20
107.5
  0
LWPOLYLINE
  5
3A0
100
AcDbEntity
  8
0
100
AcDbPolyline
 62
7
  6
CONTINUOUS
 90
2
 70
0
 43
0.1000000042
 10
82.9067255533
 20
108.6876863894
 10
84.5932744467
 20
108.6876863894
  0
LWPOLYLINE
  5
3A1
100
AcDbEntity
  8
0
100
AcDbPolyline
 62
7
  6
CONTINUOUS
 90
2
 70
0
 43
0.1000000042
 10
140.0
 20
2.5
 10
140.0
 20
15.3125
  0
LWPOLYLINE
  5
3A2
100
AcDbEntity
  8
0
100
AcDbPolyline
 62
7
  6
CONTINUOUS
 90
2
 70
0
 43
0.1000000042
 10
142.5
 20
3.75
 10
142.5
 20
6.25
  0
LWPOLYLINE
  5
3A3
100
AcDbEntity
  8
0
100
AcDbPolyline
 62
7
  6
CONTINUOUS
 90
2
 70
0
 43
0.1000000042
 10
144.6875
 20
2.5
 10
144.6875
 20
-0.0
  0
LWPOLYLINE
  5
3A4
100
AcDbEntity
  8
0
100
AcDbPolyline
 62
7
  6
CONTINUOUS
 90
2
 70
0
 43
0.1000000042
 10
144.6875
 20
107.5
 10
144.6875
 20
110.0
  0
LINE
  5
3A5
100
AcDbEntity
  8
0
100
AcDbLine
 62
7
  6
CONTINUOUS
 10
126.8738765597
 20
15.323967347
 11
115.6677305573
 21
8.7706188339
  0
LINE
  5
3A6
100
AcDbEntity
  8
DEFAULT_3
100
AcDbLine
 62
7
  6
PHANTOM
 10
0.0
 20
110.0
 11
170.0
 21
110.0
  0
LWPOLYLINE
  5
3A7
100
AcDbEntity
  8
0
100
AcDbPolyline
 62
7
  6
CONTINUOUS
 90
2
 70
0
 43
0.1000000042
 10
145.9181448327
 20
2.5237507778
 10
145.9181448327
 20
3.7737507778
  0
LWPOLYLINE
  5
3A8
100
AcDbEntity
  8
0
100
AcDbPolyline
 62
7
  6
CONTINUOUS
 90
2
 70
0
 43
0.1000000042
 10
147.5
 20
3.75
 10
147.5
 20
6.25
  0
LWPOLYLINE
  5
3A9
100
AcDbEntity
  8
0
100
AcDbPolyline
 62
7
  6
CONTINUOUS
 90
2
 70
0
 43
0.1000000042
 10
156.875
 20
2.5
 10
156.875
 20
3.75
  0
LWPOLYLINE
  5
3AA
100
AcDbEntity
  8
0
100
AcDbPolyline
 62
7
  6
CONTINUOUS
 90
2
 70
0
 43
0.1000000042
 10
162.5
 20
3.75
 10
162.5
 20
6.25
  0
LWPOLYLINE
  5
3AB
100
AcDbEntity
  8
0
100
AcDbPolyline
 62
7
  6
CONTINUOUS
 90
2
 70
0
 43
0.1500000012
 10
165.0
 20
107.5
 10
165.0
 20
2.5
  0
LWPOLYLINE
  5
3AC
100
AcDbEntity
  8
0
100
AcDbPolyline
 62
7
  6
CONTINUOUS
 90
2
 70
0
 43
0.1000000042
 10
166.1930831192
 20
54.1635245441
 10
166.1930831192
 20
55.8500734374
  0
LINE
  5
3AD
100
AcDbEntity
  8
DEFAULT_3
100
AcDbLine
 62
7
  6
PHANTOM
 10
170.0
 20
-0.0
 11
170.0
 21
110.0
  0
LINE
  5
3AE
100
AcDbEntity
  8
3_AXES_OTHER
100
AcDbLine
 62
7
  6
CONTINUOUS
 10
30.08592404
 20
77.0968469947
 11
30.08592404
 21
44.3468469947
  0
LINE
  5
3AF
100
AcDbEntity
  8
3_AXES_OTHER
100
AcDbLine
 62
7
  6
CONTINUOUS
 10
30.83592404
 20
76.3468469947
 11
30.83592404
 21
45.0968469947
  0
LINE
  5
3B0
100
AcDbEntity
  8
3_AXES_OTHER
100
AcDbLine
 62
7
  6
CONTINUOUS
 10
30.83592404
 20
69.8507840025
 11
37.3319870322
 21
76.3468469947
  0
LINE
  5
3B1
100
AcDbEntity
  8
3_ALL_AXES
100
AcDbLine
 62
7
  6
CONTINUOUS
 10
32.6843492369
 20
44.3468469947
 11
32.6843492369
 21
43.9964532939
  0
LINE
  5
3B2
100
AcDbEntity
  8
7_ALL_ROUNDS
100
AcDbLine
 62
7
  6
CONTINUOUS
 10
32.6843492369
 20
44.3468469947
 11
32.6843492369
 21
43.9964532939
  0
LINE
  5
3B3
100
AcDbEntity
  8
3_ALL_AXES
100
AcDbLine
 62
7
  6
CONTINUOUS
 10
34.180412229
 20
44.3468469947
 11
34.180412229
 21
43.9964532939
  0
LINE
  5
3B4
100
AcDbEntity
  8
7_ALL_ROUNDS
100
AcDbLine
 62
7
  6
CONTINUOUS
 10
34.180412229
 20
44.3468469947
 11
34.180412229
 21
43.9964532939
  0
LINE
  5
3B5
100
AcDbEntity
  8
7_ALL_ROUNDS
100
AcDbLine
 62
7
  6
CONTINUOUS
 10
69.9481287645
 20
43.9570832151
 11
68.5308059298
 21
43.9570832151
  0
LINE
  5
3B6
100
AcDbEntity
  8
7_ALL_ROUNDS
100
AcDbLine
 62
7
  6
CONTINUOUS
 10
34.1410421503
 20
43.9570832151
 11
32.7237193156
 21
43.9570832151
  0
LINE
  5
3B7
100
AcDbEntity
  8
7_ALL_ROUNDS
100
AcDbLine
 62
9
  6
CONTINUOUS
 10
69.9874988432
 20
43.9964532939
 11
68.4914358511
 21
43.9964532939
  0
LINE
  5
3B8
100
AcDbEntity
  8
7_ALL_ROUNDS
100
AcDbLine
 62
9
  6
CONTINUOUS
 10
34.180412229
 20
43.9964532939
 11
32.6843492369
 21
43.9964532939
  0
LINE
  5
3B9
100
AcDbEntity
  8
3_AXES_OTHER
100
AcDbLine
 62
7
  6
CONTINUOUS
 10
30.08592404
 20
44.3468469947
 11
72.58592404
 21
44.3468469947
  0
LINE
  5
3BA
100
AcDbEntity
  8
3_AXES_OTHER
100
AcDbLine
 62
7
  6
CONTINUOUS
 10
30.83592404
 20
45.0968469947
 11
71.83592404
 21
45.0968469947
  0
LINE
  5
3BB
100
AcDbEntity
  8
3_AXES_OTHER
100
AcDbLine
 62
7
  6
CONTINUOUS
 10
58.2172608117
 20
45.0968469947
 11
51.71092404
 21
51.5681068372
  0
LINE
  5
3BC
100
AcDbEntity
  8
3_AXES_OTHER
100
AcDbLine
 62
7
  6
CONTINUOUS
 10
50.96092404
 20
45.0968469947
 11
50.96092404
 21
51.5681068372
  0
LINE
  5
3BD
100
AcDbEntity
  8
3_ALL_AXES
100
AcDbLine
 62
7
  6
CENTER
 10
51.33592404
 20
60.7218469947
 11
51.33592404
 21
43.5662494319
  0
LINE
  5
3BE
100
AcDbEntity
  8
3_ALL_AXES
100
AcDbLine
 62
7
  6
CENTER
 10
51.33592404
 20
60.7218469947
 11
51.33592404
 21
77.7642654319
  0
LINE
  5
3BF
100
AcDbEntity
  8
3_ALL_AXES
100
AcDbLine
 62
7
  6
CENTER
 10
51.33592404
 20
60.7218469947
 11
50.7614813225
 21
60.7218469947
  0
LINE
  5
3C0
100
AcDbEntity
  8
3_ALL_AXES
100
AcDbLine
 62
7
  6
CENTER
 10
51.33592404
 20
60.7218469947
 11
51.9181102642
 21
60.7218469947
  0
LINE
  5
3C1
100
AcDbEntity
  8
3_AXES_OTHER
100
AcDbLine
 62
7
  6
CONTINUOUS
 10
51.71092404
 20
45.0968469947
 11
51.71092404
 21
51.5681068372
  0
LINE
  5
3C2
100
AcDbEntity
  8
3_AXES_OTHER
100
AcDbLine
 62
7
  6
CONTINUOUS
 10
50.96092404
 20
51.5681068372
 11
44.4545872684
 21
45.0968469947
  0
LINE
  5
3C3
100
AcDbEntity
  8
3_AXES_OTHER
100
AcDbLine
 62
7
  6
CONTINUOUS
 10
71.83592404
 20
76.3468469947
 11
30.83592404
 21
76.3468469947
  0
LINE
  5
3C4
100
AcDbEntity
  8
3_ALL_AXES
100
AcDbLine
 62
7
  6
CONTINUOUS
 10
68.4914358511
 20
44.3468469947
 11
68.4914358511
 21
43.9964532939
  0
LINE
  5
3C5
100
AcDbEntity
  8
7_ALL_ROUNDS
100
AcDbLine
 62
7
  6
CONTINUOUS
 10
68.4914358511
 20
44.3468469947
 11
68.4914358511
 21
43.9964532939
  0
LINE
  5
3C6
100
AcDbEntity
  8
3_AXES_OTHER
100
AcDbLine
 62
7
  6
CONTINUOUS
 10
72.58592404
 20
77.0968469947
 11
30.08592404
 21
77.0968469947
  0
LINE
  5
3C7
100
AcDbEntity
  8
3_ALL_AXES
100
AcDbLine
 62
7
  6
CONTINUOUS
 10
69.9874988432
 20
44.3468469947
 11
69.9874988432
 21
43.9964532939
  0
LINE
  5
3C8
100
AcDbEntity
  8
7_ALL_ROUNDS
100
AcDbLine
 62
7
  6
CONTINUOUS
 10
69.9874988432
 20
44.3468469947
 11
69.9874988432
 21
43.9964532939
  0
LINE
  5
3C9
100
AcDbEntity
  8
3_AXES_OTHER
100
AcDbLine
 62
7
  6
CONTINUOUS
 10
71.83592404
 20
45.0968469947
 11
71.83592404
 21
76.3468469947
  0
LINE
  5
3CA
100
AcDbEntity
  8
3_AXES_OTHER
100
AcDbLine
 62
7
  6
CONTINUOUS
 10
72.58592404
 20
44.3468469947
 11
72.58592404
 21
77.0968469947
  0
LINE
  5
3CB
100
AcDbEntity
  8
3_AXES_OTHER
100
AcDbLine
 62
7
  6
CONTINUOUS
 10
65.3398610479
 20
76.3468469947
 11
71.83592404
 21
69.8507840025
  0
LINE
  5
3CC
100
AcDbEntity
  8
7_ALL_ROUNDS
100
AcDbLine
 62
7
  6
CONTINUOUS
 10
106.5768584423
 20
43.9570832151
 11
105.1595356077
 21
43.9570832151
  0
LINE
  5
3CD
100
AcDbEntity
  8
7_ALL_ROUNDS
100
AcDbLine
 62
7
  6
CONTINUOUS
 10
94.9890631667
 20
43.9570832151
 11
93.5717403321
 21
43.9570832151
  0
LINE
  5
3CE
100
AcDbEntity
  8
7_ALL_ROUNDS
100
AcDbLine
 62
9
  6
CONTINUOUS
 10
106.6162285211
 20
43.9964532939
 11
105.120165529
 21
43.9964532939
  0
LINE
  5
3CF
100
AcDbEntity
  8
7_ALL_ROUNDS
100
AcDbLine
 62
9
  6
CONTINUOUS
 10
95.0284332455
 20
43.9964532939
 11
93.5323702534
 21
43.9964532939
  0
LINE
  5
3D0
100
AcDbEntity
  8
3_AXES_OTHER
100
AcDbLine
 62
7
  6
CONTINUOUS
 10
107.8244962376
 20
44.3468469947
 11
91.3244962376
 21
44.3468469947
  0
LINE
  5
3D1
100
AcDbEntity
  8
3_AXES_OTHER
100
AcDbLine
 62
7
  6
CONTINUOUS
 10
91.3244962376
 20
44.3468469947
 11
91.3244962376
 21
77.0968469947
  0
LINE
  5
3D2
100
AcDbEntity
  8
7_ALL_ROUNDS
100
AcDbLine
 62
7
  6
CONTINUOUS
 10
97.7420552927
 20
52.443500538
 11
102.4070159227
 21
52.443500538
  0
LINE
  5
3D3
100
AcDbEntity
  8
7_ALL_ROUNDS
100
AcDbLine
 62
7
  6
CONTINUOUS
 10
102.4070159227
 20
52.5025556561
 11
97.7420552927
 21
52.5025556561
  0
LINE
  5
3D4
100
AcDbEntity
  8
7_ALL_ROUNDS
100
AcDbLine
 62
7
  6
CONTINUOUS
 10
98.4330001746
 20
53.1738154986
 11
101.7160710408
 21
53.1738154986
  0
LINE
  5
3D5
100
AcDbEntity
  8
3_ALL_AXES
100
AcDbLine
 62
7
  6
CONTINUOUS
 10
93.5323702534
 20
44.3468469947
 11
93.5323702534
 21
43.9964532939
  0
LINE
  5
3D6
100
AcDbEntity
  8
3_AXES_OTHER
100
AcDbLine
 62
7
  6
CONTINUOUS
 10
98.9796143479
 20
53.3903509317
 11
99.7296143479
 21
53.3903509317
  0
LINE
  5
3D7
100
AcDbEntity
  8
3_AXES_OTHER
100
AcDbLine
 62
7
  6
CONTINUOUS
 10
100.0398505683
 20
53.441532034
 11
101.0394568675
 21
53.441532034
  0
LINE
  5
3D8
100
AcDbEntity
  8
3_AXES_OTHER
100
AcDbLine
 62
7
  6
CONTINUOUS
 10
99.4678033242
 20
53.7053115616
 11
99.6646537179
 21
53.7053115616
  0
LINE
  5
3D9
100
AcDbEntity
  8
3_AXES_OTHER
100
AcDbLine
 62
7
  6
CONTINUOUS
 10
99.6646537179
 20
53.7753903018
 11
99.4678033242
 21
53.7753903018
  0
LINE
  5
3DA
100
AcDbEntity
  8
3_AXES_OTHER
100
AcDbLine
 62
7
  6
CONTINUOUS
 10
99.7296143479
 20
54.0903509317
 11
98.9796143479
 21
54.0903509317
  0
LINE
  5
3DB
100
AcDbEntity
  8
3_AXES_OTHER
100
AcDbLine
 62
7
  6
CONTINUOUS
 10
101.0394568675
 20
55.441532034
 11
100.0398505683
 21
55.441532034
  0
LINE
  5
3DC
100
AcDbEntity
  8
3_ALL_AXES
100
AcDbLine
 62
7
  6
CONTINUOUS
 10
95.0284332455
 20
44.3468469947
 11
95.0284332455
 21
43.9964532939
  0
LINE
  5
3DD
100
AcDbEntity
  8
3_AXES_OTHER
100
AcDbLine
 62
7
  6
CONTINUOUS
 10
98.4843387573
 20
57.2269651049
 11
101.6744962376
 21
57.2269651049
  0
LINE
  5
3DE
100
AcDbEntity
  8
3_AXES_OTHER
100
AcDbLine
 62
7
  6
CONTINUOUS
 10
98.6087482061
 20
57.3269651049
 11
98.9839450565
 21
57.3269651049
  0
LINE
  5
3DF
100
AcDbEntity
  8
3_AXES_OTHER
100
AcDbLine
 62
7
  6
CONTINUOUS
 10
99.1091419069
 20
57.3269651049
 11
99.4843387573
 21
57.3269651049
  0
LINE
  5
3E0
100
AcDbEntity
  8
3_AXES_OTHER
100
AcDbLine
 62
7
  6
CONTINUOUS
 10
99.6095356077
 20
57.3269651049
 11
100.0170159227
 21
57.3269651049
  0
LINE
  5
3E1
100
AcDbEntity
  8
3_AXES_OTHER
100
AcDbLine
 62
7
  6
CONTINUOUS
 10
100.1422127731
 20
57.3269651049
 11
100.549693088
 21
57.3269651049
  0
LINE
  5
3E2
100
AcDbEntity
  8
3_AXES_OTHER
100
AcDbLine
 62
7
  6
CONTINUOUS
 10
100.6744962376
 20
57.3269651049
 11
101.049693088
 21
57.3269651049
  0
LINE
  5
3E3
100
AcDbEntity
  8
3_AXES_OTHER
100
AcDbLine
 62
7
  6
CONTINUOUS
 10
101.1744962376
 20
57.3269651049
 11
101.549693088
 21
57.3269651049
  0
LINE
  5
3E4
100
AcDbEntity
  8
3_AXES_OTHER
100
AcDbLine
 62
7
  6
CONTINUOUS
 10
101.549693088
 20
57.8269651049
 11
101.1744962376
 21
57.8269651049
  0
LINE
  5
3E5
100
AcDbEntity
  8
3_AXES_OTHER
100
AcDbLine
 62
7
  6
CONTINUOUS
 10
101.049693088
 20
57.8269651049
 11
100.6744962376
 21
57.8269651049
  0
LINE
  5
3E6
100
AcDbEntity
  8
3_AXES_OTHER
100
AcDbLine
 62
7
  6
CONTINUOUS
 10
100.549693088
 20
57.8269651049
 11
100.1422127731
 21
57.8269651049
  0
LINE
  5
3E7
100
AcDbEntity
  8
3_AXES_OTHER
100
AcDbLine
 62
7
  6
CONTINUOUS
 10
100.0170159227
 20
57.8269651049
 11
99.6095356077
 21
57.8269651049
  0
LINE
  5
3E8
100
AcDbEntity
  8
3_AXES_OTHER
100
AcDbLine
 62
7
  6
CONTINUOUS
 10
99.4843387573
 20
57.8269651049
 11
99.1091419069
 21
57.8269651049
  0
LINE
  5
3E9
100
AcDbEntity
  8
3_AXES_OTHER
100
AcDbLine
 62
7
  6
CONTINUOUS
 10
98.9839450565
 20
57.8269651049
 11
98.6087482061
 21
57.8269651049
  0
LINE
  5
3EA
100
AcDbEntity
  8
3_AXES_OTHER
100
AcDbLine
 62
7
  6
CONTINUOUS
 10
98.4843387573
 20
57.9269651049
 11
101.6744962376
 21
57.9269651049
  0
LINE
  5
3EB
100
AcDbEntity
  8
7_ALL_ROUNDS
100
AcDbLine
 62
7
  6
CONTINUOUS
 10
97.5255198597
 20
59.3348391207
 11
97.5255198597
 21
52.660035971
  0
LINE
  5
3EC
100
AcDbEntity
  8
7_ALL_ROUNDS
100
AcDbLine
 62
7
  6
CONTINUOUS
 10
97.5845749778
 20
52.660035971
 11
97.5845749778
 21
59.3348391207
  0
LINE
  5
3ED
100
AcDbEntity
  8
7_ALL_ROUNDS
100
AcDbLine
 62
7
  6
CONTINUOUS
 10
98.2558348203
 20
58.6438942388
 11
98.2558348203
 21
53.3509808529
  0
LINE
  5
3EE
100
AcDbEntity
  8
3_AXES_OTHER
100
AcDbLine
 62
7
  6
CONTINUOUS
 10
98.4843387573
 20
57.9269651049
 11
98.4843387573
 21
57.2269651049
  0
LINE
  5
3EF
100
AcDbEntity
  8
7_ALL_ROUNDS
100
AcDbLine
 62
7
  6
CONTINUOUS
 10
101.7160710408
 20
58.8210595931
 11
98.4330001746
 21
58.8210595931
  0
LINE
  5
3F0
100
AcDbEntity
  8
3_AXES_OTHER
100
AcDbLine
 62
7
  6
CONTINUOUS
 10
98.6087482061
 20
57.9269651049
 11
98.6087482061
 21
57.2269651049
  0
LINE
  5
3F1
100
AcDbEntity
  8
3_AXES_OTHER
100
AcDbLine
 62
7
  6
CONTINUOUS
 10
98.9796143479
 20
54.0903509317
 11
98.9796143479
 21
53.3903509317
  0
LINE
  5
3F2
100
AcDbEntity
  8
3_AXES_OTHER
100
AcDbLine
 62
7
  6
CONTINUOUS
 10
98.9839450565
 20
57.2269651049
 11
98.9839450565
 21
57.9269651049
  0
LINE
  5
3F3
100
AcDbEntity
  8
3_AXES_OTHER
100
AcDbLine
 62
7
  6
CONTINUOUS
 10
99.1091419069
 20
57.2269651049
 11
99.1091419069
 21
57.9269651049
  0
LINE
  5
3F4
100
AcDbEntity
  8
3_AXES_OTHER
100
AcDbLine
 62
7
  6
CONTINUOUS
 10
99.3146537179
 20
53.4702721836
 11
99.3146537179
 21
53.5403509238
  0
LINE
  5
3F5
100
AcDbEntity
  8
3_AXES_OTHER
100
AcDbLine
 62
7
  6
CONTINUOUS
 10
99.3146537179
 20
53.9403509238
 11
99.3146537179
 21
54.0104296639
  0
LINE
  5
3F6
100
AcDbEntity
  8
3_AXES_OTHER
100
AcDbLine
 62
7
  6
CONTINUOUS
 10
99.4843387573
 20
57.2269651049
 11
99.4843387573
 21
57.9269651049
  0
LINE
  5
3F7
100
AcDbEntity
  8
3_AXES_OTHER
100
AcDbLine
 62
7
  6
CONTINUOUS
 10
99.6095356077
 20
57.2269651049
 11
99.6095356077
 21
57.9269651049
  0
LINE
  5
3F8
100
AcDbEntity
  8
3_AXES_OTHER
100
AcDbLine
 62
7
  6
CONTINUOUS
 10
99.6646537179
 20
53.4702721994
 11
99.6646537179
 21
53.5403509396
  0
LINE
  5
3F9
100
AcDbEntity
  8
3_AXES_OTHER
100
AcDbLine
 62
7
  6
CONTINUOUS
 10
99.6646537179
 20
53.7053115616
 11
99.6646537179
 21
53.7753903018
  0
LINE
  5
3FA
100
AcDbEntity
  8
3_AXES_OTHER
100
AcDbLine
 62
7
  6
CONTINUOUS
 10
99.6646537179
 20
53.9403509238
 11
99.6646537179
 21
54.0104296639
  0
LINE
  5
3FB
100
AcDbEntity
  8
3_AXES_OTHER
100
AcDbLine
 62
7
  6
CONTINUOUS
 10
99.7296143479
 20
53.3903509317
 11
99.7296143479
 21
54.0903509317
  0
LINE
  5
3FC
100
AcDbEntity
  8
7_ALL_ROUNDS
100
AcDbLine
 62
7
  6
CONTINUOUS
 10
97.7420552927
 20
59.4923194356
 11
102.4070159227
 21
59.4923194356
  0
LINE
  5
3FD
100
AcDbEntity
  8
7_ALL_ROUNDS
100
AcDbLine
 62
7
  6
CONTINUOUS
 10
102.4070159227
 20
59.5513745537
 11
97.7420552927
 21
59.5513745537
  0
LINE
  5
3FE
100
AcDbEntity
  8
3_AXES_OTHER
100
AcDbLine
 62
7
  6
CONTINUOUS
 10
99.9146537179
 20
55.3163351836
 11
99.9146537179
 21
53.5667288844
  0
LINE
  5
3FF
100
AcDbEntity
  8
3_AXES_OTHER
100
AcDbLine
 62
7
  6
CONTINUOUS
 10
100.0170159227
 20
57.2269651049
 11
100.0170159227
 21
57.9269651049
  0
LINE
  5
400
100
AcDbEntity
  8
3_AXES_OTHER
100
AcDbLine
 62
7
  6
CONTINUOUS
 10
100.1422127731
 20
57.2269651049
 11
100.1422127731
 21
57.9269651049
  0
LINE
  5
401
100
AcDbEntity
  8
3_AXES_OTHER
100
AcDbLine
 62
7
  6
CONTINUOUS
 10
100.549693088
 20
57.2269651049
 11
100.549693088
 21
57.9269651049
  0
LINE
  5
402
100
AcDbEntity
  8
3_AXES_OTHER
100
AcDbLine
 62
7
  6
CONTINUOUS
 10
100.6744962376
 20
57.2269651049
 11
100.6744962376
 21
57.9269651049
  0
LINE
  5
403
100
AcDbEntity
  8
3_AXES_OTHER
100
AcDbLine
 62
7
  6
CONTINUOUS
 10
101.049693088
 20
57.2269651049
 11
101.049693088
 21
57.9269651049
  0
LINE
  5
404
100
AcDbEntity
  8
3_AXES_OTHER
100
AcDbLine
 62
7
  6
CONTINUOUS
 10
101.1646537179
 20
53.5667288844
 11
101.1646537179
 21
55.3163351836
  0
LINE
  5
405
100
AcDbEntity
  8
3_AXES_OTHER
100
AcDbLine
 62
7
  6
CONTINUOUS
 10
101.1744962376
 20
57.2269651049
 11
101.1744962376
 21
57.9269651049
  0
LINE
  5
406
100
AcDbEntity
  8
3_AXES_OTHER
100
AcDbLine
 62
7
  6
CONTINUOUS
 10
101.549693088
 20
57.2269651049
 11
101.549693088
 21
57.9269651049
  0
LINE
  5
407
100
AcDbEntity
  8
3_AXES_OTHER
100
AcDbLine
 62
7
  6
CONTINUOUS
 10
101.6744962376
 20
57.2269651049
 11
101.6744962376
 21
57.9269651049
  0
LINE
  5
408
100
AcDbEntity
  8
7_ALL_ROUNDS
100
AcDbLine
 62
7
  6
CONTINUOUS
 10
101.8932363951
 20
53.3509808529
 11
101.8932363951
 21
58.6438942388
  0
LINE
  5
409
100
AcDbEntity
  8
7_ALL_ROUNDS
100
AcDbLine
 62
7
  6
CONTINUOUS
 10
102.5644962376
 20
59.3348391207
 11
102.5644962376
 21
52.660035971
  0
LINE
  5
40A
100
AcDbEntity
  8
7_ALL_ROUNDS
100
AcDbLine
 62
7
  6
CONTINUOUS
 10
102.6235513557
 20
52.660035971
 11
102.6235513557
 21
59.3348391207
  0
LINE
  5
40B
100
AcDbEntity
  8
3_ALL_AXES
100
AcDbLine
 62
7
  6
CONTINUOUS
 10
105.120165529
 20
44.3468469947
 11
105.120165529
 21
43.9964532939
  0
LINE
  5
40C
100
AcDbEntity
  8
3_ALL_AXES
100
AcDbLine
 62
7
  6
CONTINUOUS
 10
106.6162285211
 20
44.3468469947
 11
106.6162285211
 21
43.9964532939
  0
LINE
  5
40D
100
AcDbEntity
  8
3_AXES_OTHER
100
AcDbLine
 62
7
  6
CONTINUOUS
 10
107.8244962376
 20
44.3468469947
 11
107.8244962376
 21
77.0968469947
  0
LINE
  5
40E
100
AcDbEntity
  8
3_AXES_OTHER
100
AcDbLine
 62
7
  6
CONTINUOUS
 10
107.8244962376
 20
77.0968469947
 11
91.3244962376
 21
77.0968469947
  0
LINE
  5
40F
100
AcDbEntity
  8
3_AXES_OTHER
100
AcDbLine
 62
7
  6
CONTINUOUS
 10
30.08592404
 20
99.8381756004
 11
30.08592404
 21
83.3381756004
  0
LINE
  5
410
100
AcDbEntity
  8
3_AXES_OTHER
100
AcDbLine
 62
7
  6
CONTINUOUS
 10
72.58592404
 20
83.3381756004
 11
30.08592404
 21
83.3381756004
  0
LINE
  5
411
100
AcDbEntity
  8
3_ALL_AXES
100
AcDbLine
 62
7
  6
CENTER
 10
51.33592404
 20
82.8381756004
 11
51.33592404
 21
100.3381756004
  0
LINE
  5
412
100
AcDbEntity
  8
3_AXES_OTHER
100
AcDbLine
 62
7
  6
CONTINUOUS
 10
72.58592404
 20
99.8381756004
 11
30.08592404
 21
99.8381756004
  0
LINE
  5
413
100
AcDbEntity
  8
3_AXES_OTHER
100
AcDbLine
 62
7
  6
CONTINUOUS
 10
72.58592404
 20
99.8381756004
 11
72.58592404
 21
83.3381756004
  0
LINE
  5
414
100
AcDbEntity
  8
3_AXES_OTHER
100
AcDbLine
 62
7
  6
CONTINUOUS
 10
30.08592404
 20
17.3118111667
 11
30.08592404
 21
33.8118111667
  0
LINE
  5
415
100
AcDbEntity
  8
3_ALL_AXES
100
AcDbLine
 62
7
  6
CENTER
 10
33.432380733
 20
30.8559056549
 11
33.432380733
 21
30.1393702218
  0
LINE
  5
416
100
AcDbEntity
  8
3_ALL_AXES
100
AcDbLine
 62
7
  6
CENTER
 10
33.432380733
 20
19.2681103793
 11
33.432380733
 21
18.5515749462
  0
LINE
  5
417
100
AcDbEntity
  8
3_ALL_AXES
100
AcDbLine
 62
7
  6
CENTER
 10
33.432380733
 20
19.2681103793
 11
33.432380733
 21
19.9846458123
  0
LINE
  5
418
100
AcDbEntity
  8
3_ALL_AXES
100
AcDbLine
 62
7
  6
CENTER
 10
33.432380733
 20
30.8559056549
 11
33.432380733
 21
31.5724410879
  0
LINE
  5
419
100
AcDbEntity
  8
3_AXES_OTHER
100
AcDbLine
 62
7
  6
CONTINUOUS
 10
30.08592404
 20
17.3118111667
 11
72.58592404
 21
17.3118111667
  0
LINE
  5
41A
100
AcDbEntity
  8
3_ALL_AXES
100
AcDbLine
 62
7
  6
CENTER
 10
69.2394673471
 20
19.2681103793
 11
68.5229319141
 21
19.2681103793
  0
LINE
  5
41B
100
AcDbEntity
  8
3_ALL_AXES
100
AcDbLine
 62
7
  6
CENTER
 10
33.432380733
 20
19.2681103793
 11
32.7158452999
 21
19.2681103793
  0
LINE
  5
41C
100
AcDbEntity
  8
3_ALL_AXES
100
AcDbLine
 62
7
  6
CENTER
 10
33.432380733
 20
19.2681103793
 11
34.148916166
 21
19.2681103793
  0
LINE
  5
41D
100
AcDbEntity
  8
3_ALL_AXES
100
AcDbLine
 62
7
  6
CENTER
 10
69.2394673471
 20
19.2681103793
 11
69.9560027802
 21
19.2681103793
  0
LINE
  5
41E
100
AcDbEntity
  8
3_ALL_AXES
100
AcDbLine
 62
7
  6
CENTER
 10
69.2394673471
 20
30.8559056549
 11
68.5229319141
 21
30.8559056549
  0
LINE
  5
41F
100
AcDbEntity
  8
3_ALL_AXES
100
AcDbLine
 62
7
  6
CENTER
 10
33.432380733
 20
30.8559056549
 11
32.7158452999
 21
30.8559056549
  0
LINE
  5
420
100
AcDbEntity
  8
3_ALL_AXES
100
AcDbLine
 62
7
  6
CENTER
 10
33.432380733
 20
30.8559056549
 11
34.148916166
 21
30.8559056549
  0
LINE
  5
421
100
AcDbEntity
  8
3_ALL_AXES
100
AcDbLine
 62
7
  6
CENTER
 10
69.2394673471
 20
30.8559056549
 11
69.9560027802
 21
30.8559056549
  0
LINE
  5
422
100
AcDbEntity
  8
3_AXES_OTHER
100
AcDbLine
 62
7
  6
CONTINUOUS
 10
30.08592404
 20
33.8118111667
 11
72.58592404
 21
33.8118111667
  0
LINE
  5
423
100
AcDbEntity
  8
3_ALL_AXES
100
AcDbLine
 62
7
  6
CENTER
 10
69.2394673471
 20
30.8559056549
 11
69.2394673471
 21
30.1393702218
  0
LINE
  5
424
100
AcDbEntity
  8
3_ALL_AXES
100
AcDbLine
 62
7
  6
CENTER
 10
69.2394673471
 20
19.2681103793
 11
69.2394673471
 21
18.5515749462
  0
LINE
  5
425
100
AcDbEntity
  8
3_ALL_AXES
100
AcDbLine
 62
7
  6
CENTER
 10
69.2394673471
 20
19.2681103793
 11
69.2394673471
 21
19.9846458123
  0
LINE
  5
426
100
AcDbEntity
  8
3_ALL_AXES
100
AcDbLine
 62
7
  6
CENTER
 10
69.2394673471
 20
30.8559056549
 11
69.2394673471
 21
31.5724410879
  0
LINE
  5
427
100
AcDbEntity
  8
3_AXES_OTHER
100
AcDbLine
 62
7
  6
CONTINUOUS
 10
72.58592404
 20
17.3118111667
 11
72.58592404
 21
33.8118111667
  0
LINE
  5
428
100
AcDbEntity
  8
3_AXES_OTHER
100
AcDbLine
 62
7
  6
CONTINUOUS
 10
130.664592258
 20
98.3189688996
 11
118.9973303684
 21
91.5811080987
  0
LINE
  5
429
100
AcDbEntity
  8
3_AXES_OTHER
100
AcDbLine
 62
7
  6
CONTINUOUS
 10
118.9973303684
 20
91.5811080987
 11
118.9973303684
 21
64.8443470502
  0
LINE
  5
42A
100
AcDbEntity
  8
3_AXES_OTHER
100
AcDbLine
 62
7
  6
CONTINUOUS
 10
119.5276604543
 20
90.6625494609
 11
119.5276604543
 21
65.1503728879
  0
LINE
  5
42B
100
AcDbEntity
  8
3_AXES_OTHER
100
AcDbLine
 62
7
  6
CONTINUOUS
 10
120.2347672355
 20
85.7675860663
 11
120.2347672355
 21
65.558728088
  0
LINE
  5
42C
100
AcDbEntity
  8
3_AXES_OTHER
100
AcDbLine
 62
7
  6
CONTINUOUS
 10
120.2347672355
 20
85.7675860663
 11
124.1207928332
 21
88.0100087961
  0
LINE
  5
42D
100
AcDbEntity
  8
3_AXES_OTHER
100
AcDbLine
 62
7
  6
CONTINUOUS
 10
118.9973303684
 20
64.8443470502
 11
149.0493685688
 21
47.4892510479
  0
LINE
  5
42E
100
AcDbEntity
  8
3_ALL_AXES
100
AcDbLine
 62
7
  6
CONTINUOUS
 10
122.7842504507
 20
81.9792213645
 11
122.4483747297
 21
81.7852526445
  0
LINE
  5
42F
100
AcDbEntity
  8
3_AXES_OTHER
100
AcDbLine
 62
7
  6
CONTINUOUS
 10
119.5276604543
 20
65.1503728879
 11
148.5190384829
 21
48.4078096857
  0
LINE
  5
430
100
AcDbEntity
  8
3_AXES_OTHER
100
AcDbLine
 62
7
  6
CONTINUOUS
 10
120.2347672355
 20
65.558728088
 11
129.8646163549
 21
59.9974761409
  0
LINE
  5
431
100
AcDbEntity
  8
3_AXES_OTHER
100
AcDbLine
 62
7
  6
CONTINUOUS
 10
134.4652912068
 20
57.3405796869
 11
134.9956212927
 21
57.0343132868
  0
LINE
  5
432
100
AcDbEntity
  8
3_AXES_OTHER
100
AcDbLine
 62
7
  6
CONTINUOUS
 10
139.5962961446
 20
54.3774168328
 11
148.5190384829
 21
49.2245200858
  0
LINE
  5
433
100
AcDbEntity
  8
3_AXES_OTHER
100
AcDbLine
 62
7
  6
CONTINUOUS
 10
139.5962961446
 20
54.3774168328
 11
134.9956212927
 21
62.3173828469
  0
LINE
  5
434
100
AcDbEntity
  8
7_ALL_ROUNDS
100
AcDbLine
 62
7
  6
CONTINUOUS
 10
153.4319857102
 20
56.8045173952
 11
153.5085124744
 21
56.7603230769
  0
LINE
  5
435
100
AcDbEntity
  8
7_ALL_ROUNDS
100
AcDbLine
 62
9
  6
CONTINUOUS
 10
153.5872680954
 20
56.7199188148
 11
153.5217555695
 21
56.7577523943
  0
LINE
  5
436
100
AcDbEntity
  8
7_ALL_ROUNDS
100
AcDbLine
 62
9
  6
CONTINUOUS
 10
153.4341544223
 20
56.8565036603
 11
153.4759126967
 21
56.8323881958
  0
LINE
  5
437
100
AcDbEntity
  8
3_AXES_OTHER
100
AcDbLine
 62
7
  6
CONTINUOUS
 10
134.4652912068
 20
57.3405796869
 11
134.4652912068
 21
62.6236492469
  0
LINE
  5
438
100
AcDbEntity
  8
3_AXES_OTHER
100
AcDbLine
 62
7
  6
CONTINUOUS
 10
134.9956212927
 20
57.0343132868
 11
134.9956212927
 21
62.3173828469
  0
LINE
  5
439
100
AcDbEntity
  8
3_ALL_AXES
100
AcDbLine
 62
7
  6
CONTINUOUS
 10
154.4250060294
 20
57.3731739849
 11
154.4605349547
 21
57.3526559787
  0
LINE
  5
43A
100
AcDbEntity
  8
7_ALL_ROUNDS
100
AcDbLine
 62
9
  6
CONTINUOUS
 10
154.0758399068
 20
57.5982913256
 11
153.9505896928
 21
57.6706235073
  0
LINE
  5
43B
100
AcDbEntity
  8
3_ALL_AXES
100
AcDbLine
 62
7
  6
CONTINUOUS
 10
154.5637231013
 20
57.6113100667
 11
154.5705184438
 21
57.6073857464
  0
LINE
  5
43C
100
AcDbEntity
  8
3_ALL_AXES
100
AcDbLine
 62
7
  6
CONTINUOUS
 10
153.4988075015
 20
58.2419046355
 11
153.5343364267
 21
58.2213866292
  0
LINE
  5
43D
100
AcDbEntity
  8
3_ALL_AXES
100
AcDbLine
 62
7
  6
CONTINUOUS
 10
153.6375245734
 20
58.4800407172
 11
153.6443199159
 21
58.476116397
  0
LINE
  5
43E
100
AcDbEntity
  8
3_AXES_OTHER
100
AcDbLine
 62
7
  6
CONTINUOUS
 10
153.9647960837
 20
58.6140333431
 11
153.9728693501
 21
58.6093710199
  0
LINE
  5
43F
100
AcDbEntity
  8
3_AXES_OTHER
100
AcDbLine
 62
7
  6
CONTINUOUS
 10
154.0728889887
 20
58.5620752726
 11
154.0648157223
 21
58.5667375958
  0
LINE
  5
440
100
AcDbEntity
  8
3_AXES_OTHER
100
AcDbLine
 62
7
  6
CONTINUOUS
 10
154.212323261
 20
58.7569806564
 11
154.2203965274
 21
58.7523183332
  0
LINE
  5
441
100
AcDbEntity
  8
3_AXES_OTHER
100
AcDbLine
 62
7
  6
CONTINUOUS
 10
154.3203763621
 20
58.7049996056
 11
154.3123030957
 21
58.7096619287
  0
LINE
  5
442
100
AcDbEntity
  8
3_AXES_OTHER
100
AcDbLine
 62
7
  6
CONTINUOUS
 10
154.1811821138
 20
58.8164984264
 11
154.1731088474
 21
58.8211607495
  0
LINE
  5
443
100
AcDbEntity
  8
3_AXES_OTHER
100
AcDbLine
 62
7
  6
CONTINUOUS
 10
154.1811821138
 20
58.8737099845
 11
154.1731088474
 21
58.8783723077
  0
LINE
  5
444
100
AcDbEntity
  8
3_AXES_OTHER
100
AcDbLine
 62
7
  6
CONTINUOUS
 10
154.0728889887
 20
58.9458426909
 11
154.0648157223
 21
58.9505050141
  0
LINE
  5
445
100
AcDbEntity
  8
3_AXES_OTHER
100
AcDbLine
 62
7
  6
CONTINUOUS
 10
154.3203763621
 20
58.8968833083
 11
154.3123030957
 21
58.9015456314
  0
LINE
  5
446
100
AcDbEntity
  8
3_AXES_OTHER
100
AcDbLine
 62
7
  6
CONTINUOUS
 10
154.5147182257
 20
58.8333659684
 11
154.5230698806
 21
58.8285428755
  0
LINE
  5
447
100
AcDbEntity
  8
3_AXES_OTHER
100
AcDbLine
 62
9
  6
CONTINUOUS
 10
154.4888014025
 20
58.8906577378
 11
154.4971530574
 21
58.8858346449
  0
LINE
  5
448
100
AcDbEntity
  8
3_ALL_AXES
100
AcDbLine
 62
7
  6
CONTINUOUS
 10
155.8392195918
 20
58.1898843851
 11
155.874748517
 21
58.1693663788
  0
LINE
  5
449
100
AcDbEntity
  8
3_AXES_OTHER
100
AcDbLine
 62
7
  6
CONTINUOUS
 10
154.3203763621
 20
59.0887670109
 11
154.3123030957
 21
59.0934293341
  0
LINE
  5
44A
100
AcDbEntity
  8
3_AXES_OTHER
100
AcDbLine
 62
7
  6
CONTINUOUS
 10
154.3579588091
 20
59.2425755689
 11
154.366310464
 21
59.237752476
  0
LINE
  5
44B
100
AcDbEntity
  8
3_ALL_AXES
100
AcDbLine
 62
7
  6
CONTINUOUS
 10
155.9779366637
 20
58.4280204668
 11
155.9847320062
 21
58.4240961465
  0
LINE
  5
44C
100
AcDbEntity
  8
3_AXES_OTHER
100
AcDbLine
 62
7
  6
CONTINUOUS
 10
119.5276604543
 20
65.1503728879
 11
120.2347672355
 21
65.558728088
  0
LINE
  5
44D
100
AcDbEntity
  8
7_ALL_ROUNDS
100
AcDbLine
 62
9
  6
CONTINUOUS
 10
156.8858933907
 20
58.6248797461
 11
156.8441515161
 21
58.6489857397
  0
LINE
  5
44E
100
AcDbEntity
  8
7_ALL_ROUNDS
100
AcDbLine
 62
9
  6
CONTINUOUS
 10
156.3973215793
 20
58.938950386
 11
155.7625958072
 21
59.3055054474
  0
LINE
  5
44F
100
AcDbEntity
  8
3_ALL_AXES
100
AcDbLine
 62
7
  6
CONTINUOUS
 10
153.4988075015
 20
60.8228530183
 11
153.5343364267
 21
60.802335012
  0
LINE
  5
450
100
AcDbEntity
  8
3_AXES_OTHER
100
AcDbLine
 62
9
  6
CONTINUOUS
 10
154.4888014025
 20
60.3190182127
 11
154.4971530574
 21
60.3141951198
  0
LINE
  5
451
100
AcDbEntity
  8
7_ALL_ROUNDS
100
AcDbLine
 62
9
  6
CONTINUOUS
 10
156.5225964028
 20
59.1559327413
 11
155.8878706307
 21
59.5224878028
  0
LINE
  5
452
100
AcDbEntity
  8
7_ALL_ROUNDS
100
AcDbLine
 62
9
  6
CONTINUOUS
 10
157.0390070638
 20
58.8900804027
 11
156.9972487893
 21
58.9141958672
  0
LINE
  5
453
100
AcDbEntity
  8
3_AXES_OTHER
100
AcDbLine
 62
9
  6
CONTINUOUS
 10
154.5773289444
 20
60.4723524105
 11
154.5856805993
 21
60.4675293176
  0
LINE
  5
454
100
AcDbEntity
  8
3_ALL_AXES
100
AcDbLine
 62
7
  6
CONTINUOUS
 10
153.6375245734
 20
61.0609891
 11
153.6443199159
 21
61.0570647797
  0
LINE
  5
455
100
AcDbEntity
  8
3_AXES_OTHER
100
AcDbLine
 62
7
  6
CONTINUOUS
 10
153.9505650833
 20
61.0215158636
 11
154.064314623
 21
60.9558253381
  0
LINE
  5
456
100
AcDbEntity
  8
3_AXES_OTHER
100
AcDbLine
 62
7
  6
CONTINUOUS
 10
154.4175896251
 20
61.1598421683
 11
154.1522853879
 21
61.3130557532
  0
LINE
  5
457
100
AcDbEntity
  8
3_AXES_OTHER
100
AcDbLine
 62
7
  6
CONTINUOUS
 10
153.9505650833
 20
61.5929886188
 11
154.064314623
 21
61.5272980933
  0
LINE
  5
458
100
AcDbEntity
  8
3_AXES_OTHER
100
AcDbLine
 62
9
  6
CONTINUOUS
 10
155.2841573371
 20
60.8805468408
 11
155.292508992
 21
60.8757237479
  0
LINE
  5
459
100
AcDbEntity
  8
3_AXES_OTHER
100
AcDbLine
 62
7
  6
CONTINUOUS
 10
155.3467680558
 20
60.8867539822
 11
155.3551197107
 21
60.8819308893
  0
LINE
  5
45A
100
AcDbEntity
  8
3_AXES_OTHER
100
AcDbLine
 62
7
  6
CONTINUOUS
 10
154.1522853879
 20
61.5781013387
 11
153.9505650833
 21
61.6945951095
  0
LINE
  5
45B
100
AcDbEntity
  8
3_ALL_AXES
100
AcDbLine
 62
7
  6
CONTINUOUS
 10
154.0761658204
 20
61.6764208901
 11
154.1541145995
 21
61.6314053563
  0
LINE
  5
45C
100
AcDbEntity
  8
3_ALL_AXES
100
AcDbLine
 62
7
  6
CONTINUOUS
 10
156.7654181198
 20
60.128377044
 11
156.800947045
 21
60.1078590377
  0
LINE
  5
45D
100
AcDbEntity
  8
3_AXES_OTHER
100
AcDbLine
 62
7
  6
CONTINUOUS
 10
154.7714214042
 20
61.3641805381
 11
154.506117167
 21
61.517394123
  0
LINE
  5
45E
100
AcDbEntity
  8
3_AXES_OTHER
100
AcDbLine
 62
7
  6
CONTINUOUS
 10
153.9544346834
 20
61.9171486146
 11
154.1276758448
 21
61.8171015906
  0
LINE
  5
45F
100
AcDbEntity
  8
3_AXES_OTHER
100
AcDbLine
 62
7
  6
CONTINUOUS
 10
154.4175896251
 20
61.7313149236
 11
153.9544346834
 21
61.9987875796
  0
LINE
  5
460
100
AcDbEntity
  8
7_ALL_ROUNDS
100
AcDbLine
 62
9
  6
CONTINUOUS
 10
153.4410848362
 20
62.3017415455
 11
153.4759126967
 21
62.2816284051
  0
LINE
  5
461
100
AcDbEntity
  8
3_ALL_AXES
100
AcDbLine
 62
7
  6
CONTINUOUS
 10
156.9041351916
 20
60.3665131257
 11
156.9109305342
 21
60.3625888054
  0
LINE
  5
462
100
AcDbEntity
  8
3_AXES_OTHER
100
AcDbLine
 62
7
  6
CONTINUOUS
 10
154.506117167
 20
61.7824397085
 11
154.0429622253
 21
62.0499123645
  0
LINE
  5
463
100
AcDbEntity
  8
3_ALL_AXES
100
AcDbLine
 62
7
  6
CONTINUOUS
 10
154.4165276445
 20
61.8577560086
 11
154.5507108999
 21
61.7802649824
  0
LINE
  5
464
100
AcDbEntity
  8
7_ALL_ROUNDS
100
AcDbLine
 62
9
  6
CONTINUOUS
 10
153.5524493749
 20
62.4946094719
 11
153.5872680954
 21
62.4745016099
  0
LINE
  5
465
100
AcDbEntity
  8
3_AXES_OTHER
100
AcDbLine
 62
7
  6
CONTINUOUS
 10
155.14808104
 20
61.5817020286
 11
154.8599489461
 21
61.7480987341
  0
LINE
  5
466
100
AcDbEntity
  8
3_AXES_OTHER
100
AcDbLine
 62
7
  6
CONTINUOUS
 10
154.3082664625
 20
62.1214869844
 11
154.4815076239
 21
62.0214399604
  0
LINE
  5
467
100
AcDbEntity
  8
3_AXES_OTHER
100
AcDbLine
 62
7
  6
CONTINUOUS
 10
154.7714214042
 20
61.9356532934
 11
154.3082664625
 21
62.2031259494
  0
LINE
  5
468
100
AcDbEntity
  8
3_AXES_OTHER
100
AcDbLine
 62
7
  6
CONTINUOUS
 10
154.8599489461
 20
61.9867780783
 11
154.3967940044
 21
62.2542507343
  0
LINE
  5
469
100
AcDbEntity
  8
3_ALL_AXES
100
AcDbLine
 62
7
  6
CONTINUOUS
 10
154.7814949635
 20
62.0685251689
 11
154.9156782188
 21
61.9910341428
  0
LINE
  5
46A
100
AcDbEntity
  8
3_ALL_AXES
100
AcDbLine
 62
7
  6
CONTINUOUS
 10
137.7743852737
 20
73.3223965859
 11
137.4385095527
 21
73.1284278658
  0
LINE
  5
46B
100
AcDbEntity
  8
3_AXES_OTHER
100
AcDbLine
 62
7
  6
CONTINUOUS
 10
155.5247406758
 20
61.799223519
 11
155.2366085819
 21
61.9656202245
  0
LINE
  5
46C
100
AcDbEntity
  8
3_AXES_OTHER
100
AcDbLine
 62
7
  6
CONTINUOUS
 10
154.6849260983
 20
62.3390084748
 11
154.8581672597
 21
62.2389614508
  0
LINE
  5
46D
100
AcDbEntity
  8
3_AXES_OTHER
100
AcDbLine
 62
7
  6
CONTINUOUS
 10
155.14808104
 20
62.1531747838
 11
154.6849260983
 21
62.4206474398
  0
LINE
  5
46E
100
AcDbEntity
  8
3_AXES_OTHER
100
AcDbLine
 62
7
  6
CONTINUOUS
 10
155.2366085819
 20
62.2042995687
 11
154.7734536402
 21
62.4717722247
  0
LINE
  5
46F
100
AcDbEntity
  8
3_ALL_AXES
100
AcDbLine
 62
7
  6
CONTINUOUS
 10
155.1581545993
 20
62.2860466593
 11
155.2923378546
 21
62.2085556332
  0
LINE
  5
470
100
AcDbEntity
  8
3_ALL_AXES
100
AcDbLine
 62
7
  6
CONTINUOUS
 10
154.4250060294
 20
62.7600600242
 11
154.4605349547
 21
62.7395420179
  0
LINE
  5
471
100
AcDbEntity
  8
3_AXES_OTHER
100
AcDbLine
 62
7
  6
CONTINUOUS
 10
155.8782940664
 20
62.003401119
 11
155.6129898292
 21
62.1566147039
  0
LINE
  5
472
100
AcDbEntity
  8
3_AXES_OTHER
100
AcDbLine
 62
7
  6
CONTINUOUS
 10
155.0615857341
 20
62.5565299652
 11
155.2348268955
 21
62.4564829412
  0
LINE
  5
473
100
AcDbEntity
  8
3_AXES_OTHER
100
AcDbLine
 62
7
  6
CONTINUOUS
 10
155.5247406758
 20
62.3706962742
 11
155.0615857341
 21
62.6381689302
  0
LINE
  5
474
100
AcDbEntity
  8
3_ALL_AXES
100
AcDbLine
 62
7
  6
CONTINUOUS
 10
154.5637231013
 20
62.9981961059
 11
154.5705184438
 21
62.9942717856
  0
LINE
  5
475
100
AcDbEntity
  8
3_AXES_OTHER
100
AcDbLine
 62
7
  6
CONTINUOUS
 10
155.6129898292
 20
62.4216602893
 11
155.1498348875
 21
62.6891329454
  0
LINE
  5
476
100
AcDbEntity
  8
3_ALL_AXES
100
AcDbLine
 62
7
  6
CONTINUOUS
 10
155.5231219182
 20
62.4968158197
 11
155.6573051736
 21
62.4193247935
  0
LINE
  5
477
100
AcDbEntity
  8
3_AXES_OTHER
100
AcDbLine
 62
7
  6
CONTINUOUS
 10
156.231847457
 20
62.207578719
 11
155.9665432198
 21
62.3607923039
  0
LINE
  5
478
100
AcDbEntity
  8
3_AXES_OTHER
100
AcDbLine
 62
7
  6
CONTINUOUS
 10
155.4151391247
 20
62.7607075652
 11
155.5883802861
 21
62.6606605412
  0
LINE
  5
479
100
AcDbEntity
  8
3_AXES_OTHER
100
AcDbLine
 62
7
  6
CONTINUOUS
 10
155.8782940664
 20
62.5748738742
 11
155.4151391247
 21
62.8423465303
  0
LINE
  5
47A
100
AcDbEntity
  8
3_AXES_OTHER
100
AcDbLine
 62
7
  6
CONTINUOUS
 10
155.9665432198
 20
62.6258378894
 11
155.5033882781
 21
62.8933105454
  0
LINE
  5
47B
100
AcDbEntity
  8
3_ALL_AXES
100
AcDbLine
 62
7
  6
CONTINUOUS
 10
155.889894642
 20
62.7238519366
 11
155.967843421
 21
62.6788364027
  0
LINE
  5
47C
100
AcDbEntity
  8
3_AXES_OTHER
100
AcDbLine
 62
7
  6
CONTINUOUS
 10
155.7686925153
 20
62.9648851653
 11
155.9419336767
 21
62.8648381413
  0
LINE
  5
47D
100
AcDbEntity
  8
3_AXES_OTHER
100
AcDbLine
 62
7
  6
CONTINUOUS
 10
156.231847457
 20
62.7790514743
 11
155.7686925153
 21
63.0465241303
  0
LINE
  5
47E
100
AcDbEntity
  8
3_AXES_OTHER
100
AcDbLine
 62
7
  6
CONTINUOUS
 10
155.733197982
 20
63.1689503054
 11
156.3200966104
 21
62.8300154894
  0
LINE
  5
47F
100
AcDbEntity
  8
3_ALL_AXES
100
AcDbLine
 62
7
  6
CONTINUOUS
 10
156.7654181198
 20
62.7093254267
 11
156.800947045
 21
62.6888074204
  0
LINE
  5
480
100
AcDbEntity
  8
3_ALL_AXES
100
AcDbLine
 62
7
  6
CONTINUOUS
 10
156.9041351916
 20
62.9474615084
 11
156.9109305342
 21
62.9435371882
  0
LINE
  5
481
100
AcDbEntity
  8
3_ALL_AXES
100
AcDbLine
 62
7
  6
CONTINUOUS
 10
155.8392195918
 20
63.5767704243
 11
155.874748517
 21
63.556252418
  0
LINE
  5
482
100
AcDbEntity
  8
7_ALL_ROUNDS
100
AcDbLine
 62
9
  6
CONTINUOUS
 10
156.5225964028
 20
63.4770124496
 11
156.3973461888
 21
63.5493446313
  0
LINE
  5
483
100
AcDbEntity
  8
3_ALL_AXES
100
AcDbLine
 62
7
  6
CONTINUOUS
 10
155.9779366637
 20
63.814906506
 11
155.9847320062
 21
63.8109821857
  0
LINE
  5
484
100
AcDbEntity
  8
3_ALL_AXES
100
AcDbLine
 62
7
  6
CONTINUOUS
 10
131.6859982877
 20
66.5649784234
 11
131.3501225666
 21
66.3710097034
  0
LINE
  5
485
100
AcDbEntity
  8
7_ALL_ROUNDS
100
AcDbLine
 62
9
  6
CONTINUOUS
 10
156.8441515161
 20
64.4035685348
 11
156.8858933907
 21
64.3794625412
  0
LINE
  5
486
100
AcDbEntity
  8
7_ALL_ROUNDS
100
AcDbLine
 62
9
  6
CONTINUOUS
 10
157.0390070638
 20
64.339320612
 11
156.973384214
 21
64.3772179038
  0
LINE
  5
487
100
AcDbEntity
  8
7_ALL_ROUNDS
100
AcDbLine
 62
7
  6
CONTINUOUS
 10
156.8880921811
 20
64.4314819479
 11
156.9646490117
 21
64.3872702663
  0
LINE
  5
488
100
AcDbEntity
  8
3_AXES_OTHER
100
AcDbLine
 62
7
  6
CONTINUOUS
 10
160.7166304584
 20
80.9638728973
 11
149.0493685688
 21
74.2260120964
  0
LINE
  5
489
100
AcDbEntity
  8
3_AXES_OTHER
100
AcDbLine
 62
7
  6
CONTINUOUS
 10
134.4652912068
 20
62.6236492469
 11
129.8646163549
 21
59.9974761409
  0
LINE
  5
48A
100
AcDbEntity
  8
3_AXES_OTHER
100
AcDbLine
 62
7
  6
CONTINUOUS
 10
148.5190384829
 20
73.9199862586
 11
119.5276604543
 21
90.6625494609
  0
LINE
  5
48B
100
AcDbEntity
  8
3_AXES_OTHER
100
AcDbLine
 62
7
  6
CONTINUOUS
 10
149.0493685688
 20
74.2260120964
 11
118.9973303684
 21
91.5811080987
  0
LINE
  5
48C
100
AcDbEntity
  8
3_AXES_OTHER
100
AcDbLine
 62
7
  6
CONTINUOUS
 10
145.3401196664
 20
75.7558165234
 11
148.5190384829
 21
70.2497677144
  0
LINE
  5
48D
100
AcDbEntity
  8
3_AXES_OTHER
100
AcDbLine
 62
7
  6
CONTINUOUS
 10
148.5190384829
 20
48.4078096857
 11
148.5190384829
 21
73.9199862586
  0
LINE
  5
48E
100
AcDbEntity
  8
3_AXES_OTHER
100
AcDbLine
 62
7
  6
CONTINUOUS
 10
149.0493685688
 20
47.4892510479
 11
149.0493685688
 21
74.2260120964
  0
LINE
  5
48F
100
AcDbEntity
  8
3_AXES_OTHER
100
AcDbLine
 62
7
  6
CONTINUOUS
 10
134.9956212927
 20
57.0343132868
 11
137.2892893798
 21
58.3589099609
  0
LINE
  5
490
100
AcDbEntity
  8
7_ALL_ROUNDS
100
AcDbLine
 62
7
  6
CONTINUOUS
 10
153.4341544223
 20
62.2575129406
 11
153.4341544223
 21
56.8082727312
  0
LINE
  5
491
100
AcDbEntity
  8
7_ALL_ROUNDS
100
AcDbLine
 62
7
  6
CONTINUOUS
 10
153.4759126967
 20
56.8323881958
 11
153.4759126967
 21
62.2816284051
  0
LINE
  5
492
100
AcDbEntity
  8
7_ALL_ROUNDS
100
AcDbLine
 62
7
  6
CONTINUOUS
 10
153.9505650833
 20
61.9916606019
 11
153.9505650833
 21
57.6705808936
  0
LINE
  5
493
100
AcDbEntity
  8
3_AXES_OTHER
100
AcDbLine
 62
7
  6
CONTINUOUS
 10
154.064314623
 20
61.5272980933
 11
154.064314623
 21
60.9558253381
  0
LINE
  5
494
100
AcDbEntity
  8
3_AXES_OTHER
100
AcDbLine
 62
7
  6
CONTINUOUS
 10
154.0648157223
 20
58.5667375958
 11
154.0648157223
 21
58.6164785667
  0
LINE
  5
495
100
AcDbEntity
  8
3_AXES_OTHER
100
AcDbLine
 62
7
  6
CONTINUOUS
 10
154.0648157223
 20
58.9505050141
 11
154.0648157223
 21
58.9965378669
  0
LINE
  5
496
100
AcDbEntity
  8
3_AXES_OTHER
100
AcDbLine
 62
7
  6
CONTINUOUS
 10
154.0728889887
 20
58.5620752726
 11
154.0728889887
 21
58.6192868308
  0
LINE
  5
497
100
AcDbEntity
  8
3_AXES_OTHER
100
AcDbLine
 62
7
  6
CONTINUOUS
 10
154.0728889887
 20
58.9458426909
 11
154.0728889887
 21
59.0030542491
  0
LINE
  5
498
100
AcDbEntity
  8
3_AXES_OTHER
100
AcDbLine
 62
7
  6
CONTINUOUS
 10
154.1276758448
 20
61.6466737757
 11
154.1276758448
 21
61.8171015906
  0
LINE
  5
499
100
AcDbEntity
  8
3_AXES_OTHER
100
AcDbLine
 62
7
  6
CONTINUOUS
 10
154.1522853879
 20
61.5781013387
 11
154.1522853879
 21
61.0066285834
  0
LINE
  5
49A
100
AcDbEntity
  8
3_AXES_OTHER
100
AcDbLine
 62
7
  6
CONTINUOUS
 10
154.3082664625
 20
62.1214869844
 11
154.3082664625
 21
62.2031259494
  0
LINE
  5
49B
100
AcDbEntity
  8
3_AXES_OTHER
100
AcDbLine
 62
7
  6
CONTINUOUS
 10
154.3123030957
 20
58.7096619287
 11
154.3123030957
 21
58.759192859
  0
LINE
  5
49C
100
AcDbEntity
  8
3_AXES_OTHER
100
AcDbLine
 62
7
  6
CONTINUOUS
 10
154.3123030957
 20
58.9015456314
 11
154.3123030957
 21
58.9494325433
  0
LINE
  5
49D
100
AcDbEntity
  8
3_AXES_OTHER
100
AcDbLine
 62
7
  6
CONTINUOUS
 10
154.3123030957
 20
59.0934293341
 11
154.3123030957
 21
59.1394621869
  0
LINE
  5
49E
100
AcDbEntity
  8
3_AXES_OTHER
100
AcDbLine
 62
7
  6
CONTINUOUS
 10
154.3203763621
 20
58.7049996056
 11
154.3203763621
 21
58.7622111637
  0
LINE
  5
49F
100
AcDbEntity
  8
3_AXES_OTHER
100
AcDbLine
 62
7
  6
CONTINUOUS
 10
154.3203763621
 20
58.8968833083
 11
154.3203763621
 21
58.9540948664
  0
LINE
  5
4A0
100
AcDbEntity
  8
3_AXES_OTHER
100
AcDbLine
 62
7
  6
CONTINUOUS
 10
154.3203763621
 20
59.0887670109
 11
154.3203763621
 21
59.1459785691
  0
LINE
  5
4A1
100
AcDbEntity
  8
3_AXES_OTHER
100
AcDbLine
 62
7
  6
CONTINUOUS
 10
154.366310464
 20
58.6662797208
 11
154.366310464
 21
59.237752476
  0
LINE
  5
4A2
100
AcDbEntity
  8
3_AXES_OTHER
100
AcDbLine
 62
7
  6
CONTINUOUS
 10
154.4175896251
 20
61.1598421683
 11
154.4175896251
 21
61.7313149236
  0
LINE
  5
4A3
100
AcDbEntity
  8
3_AXES_OTHER
100
AcDbLine
 62
7
  6
CONTINUOUS
 10
154.4815076239
 20
61.8202299755
 11
154.4815076239
 21
62.0214399604
  0
LINE
  5
4A4
100
AcDbEntity
  8
3_AXES_OTHER
100
AcDbLine
 62
7
  6
CONTINUOUS
 10
154.4888014025
 20
60.3190182127
 11
154.4888014025
 21
58.8906577378
  0
LINE
  5
4A5
100
AcDbEntity
  8
3_AXES_OTHER
100
AcDbLine
 62
7
  6
CONTINUOUS
 10
154.4971530574
 20
60.3141951198
 11
154.4971530574
 21
58.8858346449
  0
LINE
  5
4A6
100
AcDbEntity
  8
3_AXES_OTHER
100
AcDbLine
 62
7
  6
CONTINUOUS
 10
154.506117167
 20
61.2109669532
 11
154.506117167
 21
61.7824397085
  0
LINE
  5
4A7
100
AcDbEntity
  8
3_AXES_OTHER
100
AcDbLine
 62
7
  6
CONTINUOUS
 10
154.6849260983
 20
62.3390084748
 11
154.6849260983
 21
62.4206474398
  0
LINE
  5
4A8
100
AcDbEntity
  8
3_AXES_OTHER
100
AcDbLine
 62
7
  6
CONTINUOUS
 10
154.7714214042
 20
61.3641805381
 11
154.7714214042
 21
61.9356532934
  0
LINE
  5
4A9
100
AcDbEntity
  8
3_AXES_OTHER
100
AcDbLine
 62
7
  6
CONTINUOUS
 10
154.8581672597
 20
62.0242468057
 11
154.8581672597
 21
62.2389614508
  0
LINE
  5
4AA
100
AcDbEntity
  8
3_AXES_OTHER
100
AcDbLine
 62
7
  6
CONTINUOUS
 10
154.8599489461
 20
61.415305323
 11
154.8599489461
 21
61.9867780783
  0
LINE
  5
4AB
100
AcDbEntity
  8
3_AXES_OTHER
100
AcDbLine
 62
7
  6
CONTINUOUS
 10
155.0615857341
 20
62.5565299652
 11
155.0615857341
 21
62.6381689302
  0
LINE
  5
4AC
100
AcDbEntity
  8
3_AXES_OTHER
100
AcDbLine
 62
7
  6
CONTINUOUS
 10
155.14808104
 20
61.5817020286
 11
155.14808104
 21
62.1531747838
  0
LINE
  5
4AD
100
AcDbEntity
  8
3_AXES_OTHER
100
AcDbLine
 62
7
  6
CONTINUOUS
 10
155.2348268955
 20
62.2417682962
 11
155.2348268955
 21
62.4564829412
  0
LINE
  5
4AE
100
AcDbEntity
  8
3_AXES_OTHER
100
AcDbLine
 62
7
  6
CONTINUOUS
 10
155.2366085819
 20
61.6328268134
 11
155.2366085819
 21
62.2042995687
  0
LINE
  5
4AF
100
AcDbEntity
  8
3_AXES_OTHER
100
AcDbLine
 62
7
  6
CONTINUOUS
 10
155.3810365339
 20
59.396278645
 11
155.3810365339
 21
60.8246391198
  0
LINE
  5
4B0
100
AcDbEntity
  8
3_AXES_OTHER
100
AcDbLine
 62
7
  6
CONTINUOUS
 10
155.4151391247
 20
62.7607075652
 11
155.4151391247
 21
62.8423465303
  0
LINE
  5
4B1
100
AcDbEntity
  8
3_AXES_OTHER
100
AcDbLine
 62
7
  6
CONTINUOUS
 10
155.5247406758
 20
61.799223519
 11
155.5247406758
 21
62.3706962742
  0
LINE
  5
4B2
100
AcDbEntity
  8
3_AXES_OTHER
100
AcDbLine
 62
7
  6
CONTINUOUS
 10
155.5883802861
 20
62.4591290168
 11
155.5883802861
 21
62.6606605412
  0
LINE
  5
4B3
100
AcDbEntity
  8
3_AXES_OTHER
100
AcDbLine
 62
7
  6
CONTINUOUS
 10
155.6129898292
 20
61.8501875341
 11
155.6129898292
 21
62.4216602893
  0
LINE
  5
4B4
100
AcDbEntity
  8
3_AXES_OTHER
100
AcDbLine
 62
7
  6
CONTINUOUS
 10
155.7686925153
 20
62.9648851653
 11
155.7686925153
 21
63.0465241303
  0
LINE
  5
4B5
100
AcDbEntity
  8
3_AXES_OTHER
100
AcDbLine
 62
7
  6
CONTINUOUS
 10
155.8782940664
 20
62.003401119
 11
155.8782940664
 21
62.5748738742
  0
LINE
  5
4B6
100
AcDbEntity
  8
7_ALL_ROUNDS
100
AcDbLine
 62
7
  6
CONTINUOUS
 10
155.8878706307
 20
59.5224878028
 11
155.8878706307
 21
62.003401119
  0
LINE
  5
4B7
100
AcDbEntity
  8
7_ALL_ROUNDS
100
AcDbLine
 62
7
  6
CONTINUOUS
 10
155.8878706307
 20
63.0796266247
 11
155.8878706307
 21
63.2550933499
  0
LINE
  5
4B8
100
AcDbEntity
  8
3_AXES_OTHER
100
AcDbLine
 62
7
  6
CONTINUOUS
 10
155.9419336767
 20
62.6937993179
 11
155.9419336767
 21
62.8648381413
  0
LINE
  5
4B9
100
AcDbEntity
  8
3_AXES_OTHER
100
AcDbLine
 62
7
  6
CONTINUOUS
 10
155.9665432198
 20
62.0543651341
 11
155.9665432198
 21
62.6258378894
  0
LINE
  5
4BA
100
AcDbEntity
  8
3_AXES_OTHER
100
AcDbLine
 62
7
  6
CONTINUOUS
 10
156.231847457
 20
62.207578719
 11
156.231847457
 21
62.7790514743
  0
LINE
  5
4BB
100
AcDbEntity
  8
3_AXES_OTHER
100
AcDbLine
 62
7
  6
CONTINUOUS
 10
156.3200966104
 20
62.2585427342
 11
156.3200966104
 21
62.8300154894
  0
LINE
  5
4BC
100
AcDbEntity
  8
7_ALL_ROUNDS
100
AcDbLine
 62
7
  6
CONTINUOUS
 10
156.5225964028
 20
59.1559327413
 11
156.5225964028
 21
63.4770124496
  0
LINE
  5
4BD
100
AcDbEntity
  8
7_ALL_ROUNDS
100
AcDbLine
 62
7
  6
CONTINUOUS
 10
156.9972487893
 20
64.3152051475
 11
156.9972487893
 21
58.8659649381
  0
LINE
  5
4BE
100
AcDbEntity
  8
7_ALL_ROUNDS
100
AcDbLine
 62
7
  6
CONTINUOUS
 10
157.0390070638
 20
58.8900804027
 11
157.0390070638
 21
64.339320612
  0
LINE
  5
4BF
100
AcDbEntity
  8
7_ALL_ROUNDS
100
AcDbLine
 62
7
  6
CONTINUOUS
 10
156.8858933907
 20
64.4276745284
 11
153.5872680954
 21
62.5227135971
  0
LINE
  5
4C0
100
AcDbEntity
  8
7_ALL_ROUNDS
100
AcDbLine
 62
7
  6
CONTINUOUS
 10
153.5872680954
 20
62.4745016099
 11
156.8858933907
 21
64.3794625412
  0
LINE
  5
4C1
100
AcDbEntity
  8
7_ALL_ROUNDS
100
AcDbLine
 62
7
  6
CONTINUOUS
 10
156.3973215793
 20
63.5493020176
 11
154.0758399068
 21
62.2086429573
  0
LINE
  5
4C2
100
AcDbEntity
  8
3_ALL_AXES
100
AcDbLine
 62
7
  6
CONTINUOUS
 10
146.6761331107
 20
57.9081536448
 11
146.3402573896
 21
57.7141849247
  0
LINE
  5
4C3
100
AcDbEntity
  8
3_AXES_OTHER
100
AcDbLine
 62
7
  6
CONTINUOUS
 10
154.0429622253
 20
62.0499123645
 11
154.3082664625
 21
62.2031259494
  0
LINE
  5
4C4
100
AcDbEntity
  8
3_AXES_OTHER
100
AcDbLine
 62
7
  6
CONTINUOUS
 10
154.3967940044
 20
62.2542507343
 11
154.6849260983
 21
62.4206474398
  0
LINE
  5
4C5
100
AcDbEntity
  8
3_AXES_OTHER
100
AcDbLine
 62
7
  6
CONTINUOUS
 10
154.7734536402
 20
62.4717722247
 11
155.0615857341
 21
62.6381689302
  0
LINE
  5
4C6
100
AcDbEntity
  8
3_AXES_OTHER
100
AcDbLine
 62
7
  6
CONTINUOUS
 10
155.1498348875
 20
62.6891329454
 11
155.4151391247
 21
62.8423465303
  0
LINE
  5
4C7
100
AcDbEntity
  8
3_AXES_OTHER
100
AcDbLine
 62
7
  6
CONTINUOUS
 10
155.5033882781
 20
62.8933105454
 11
155.7686925153
 21
63.0465241303
  0
LINE
  5
4C8
100
AcDbEntity
  8
3_AXES_OTHER
100
AcDbLine
 62
7
  6
CONTINUOUS
 10
155.7686925153
 20
62.9648851653
 11
155.5740711858
 21
62.8524910629
  0
LINE
  5
4C9
100
AcDbEntity
  8
3_AXES_OTHER
100
AcDbLine
 62
7
  6
CONTINUOUS
 10
155.4151391247
 20
62.7607075652
 11
155.2205177952
 21
62.6483134629
  0
LINE
  5
4CA
100
AcDbEntity
  8
3_AXES_OTHER
100
AcDbLine
 62
7
  6
CONTINUOUS
 10
155.0615857341
 20
62.5565299652
 11
154.8441365479
 21
62.4309527422
  0
LINE
  5
4CB
100
AcDbEntity
  8
3_AXES_OTHER
100
AcDbLine
 62
7
  6
CONTINUOUS
 10
154.6849260983
 20
62.3390084748
 11
154.4674769121
 21
62.2134312518
  0
LINE
  5
4CC
100
AcDbEntity
  8
3_AXES_OTHER
100
AcDbLine
 62
7
  6
CONTINUOUS
 10
154.3082664625
 20
62.1214869844
 11
154.113645133
 21
62.009092882
  0
LINE
  5
4CD
100
AcDbEntity
  8
3_AXES_OTHER
100
AcDbLine
 62
7
  6
CONTINUOUS
 10
155.9419336767
 20
62.8648381413
 11
155.7473123472
 21
62.7524440389
  0
LINE
  5
4CE
100
AcDbEntity
  8
3_AXES_OTHER
100
AcDbLine
 62
7
  6
CONTINUOUS
 10
155.5883802861
 20
62.6606605412
 11
155.3937589566
 21
62.5482664388
  0
LINE
  5
4CF
100
AcDbEntity
  8
3_AXES_OTHER
100
AcDbLine
 62
7
  6
CONTINUOUS
 10
155.2348268955
 20
62.4564829412
 11
155.0173777093
 21
62.3309057182
  0
LINE
  5
4D0
100
AcDbEntity
  8
3_AXES_OTHER
100
AcDbLine
 62
7
  6
CONTINUOUS
 10
154.8581672597
 20
62.2389614508
 11
154.6407180734
 21
62.1133842278
  0
LINE
  5
4D1
100
AcDbEntity
  8
3_AXES_OTHER
100
AcDbLine
 62
7
  6
CONTINUOUS
 10
154.4815076239
 20
62.0214399604
 11
154.2868862944
 21
61.909045858
  0
LINE
  5
4D2
100
AcDbEntity
  8
3_AXES_OTHER
100
AcDbLine
 62
7
  6
CONTINUOUS
 10
154.1276758448
 20
61.8171015906
 11
153.9505650833
 21
61.7148198668
  0
LINE
  5
4D3
100
AcDbEntity
  8
3_AXES_OTHER
100
AcDbLine
 62
7
  6
CONTINUOUS
 10
156.3200966104
 20
62.8300154894
 11
156.231847457
 21
62.7790514743
  0
LINE
  5
4D4
100
AcDbEntity
  8
3_AXES_OTHER
100
AcDbLine
 62
7
  6
CONTINUOUS
 10
155.9665432198
 20
62.6258378894
 11
155.8782940664
 21
62.5748738742
  0
LINE
  5
4D5
100
AcDbEntity
  8
3_AXES_OTHER
100
AcDbLine
 62
7
  6
CONTINUOUS
 10
155.6129898292
 20
62.4216602893
 11
155.5247406758
 21
62.3706962742
  0
LINE
  5
4D6
100
AcDbEntity
  8
3_AXES_OTHER
100
AcDbLine
 62
7
  6
CONTINUOUS
 10
155.2366085819
 20
62.2042995687
 11
155.14808104
 21
62.1531747838
  0
LINE
  5
4D7
100
AcDbEntity
  8
3_AXES_OTHER
100
AcDbLine
 62
7
  6
CONTINUOUS
 10
154.8599489461
 20
61.9867780783
 11
154.7714214042
 21
61.9356532934
  0
LINE
  5
4D8
100
AcDbEntity
  8
3_AXES_OTHER
100
AcDbLine
 62
7
  6
CONTINUOUS
 10
154.506117167
 20
61.7824397085
 11
154.4175896251
 21
61.7313149236
  0
LINE
  5
4D9
100
AcDbEntity
  8
3_AXES_OTHER
100
AcDbLine
 62
7
  6
CONTINUOUS
 10
154.1522853879
 20
61.5781013387
 11
154.064314623
 21
61.5272980933
  0
LINE
  5
4DA
100
AcDbEntity
  8
3_AXES_OTHER
100
AcDbLine
 62
7
  6
CONTINUOUS
 10
154.064314623
 20
60.9558253381
 11
154.1522853879
 21
61.0066285834
  0
LINE
  5
4DB
100
AcDbEntity
  8
3_AXES_OTHER
100
AcDbLine
 62
7
  6
CONTINUOUS
 10
154.4175896251
 20
61.1598421683
 11
154.506117167
 21
61.2109669532
  0
LINE
  5
4DC
100
AcDbEntity
  8
3_AXES_OTHER
100
AcDbLine
 62
7
  6
CONTINUOUS
 10
154.7714214042
 20
61.3641805381
 11
154.8599489461
 21
61.415305323
  0
LINE
  5
4DD
100
AcDbEntity
  8
3_AXES_OTHER
100
AcDbLine
 62
7
  6
CONTINUOUS
 10
155.14808104
 20
61.5817020286
 11
155.2366085819
 21
61.6328268134
  0
LINE
  5
4DE
100
AcDbEntity
  8
3_AXES_OTHER
100
AcDbLine
 62
7
  6
CONTINUOUS
 10
155.5247406758
 20
61.799223519
 11
155.6129898292
 21
61.8501875341
  0
LINE
  5
4DF
100
AcDbEntity
  8
3_AXES_OTHER
100
AcDbLine
 62
7
  6
CONTINUOUS
 10
155.8782940664
 20
62.003401119
 11
155.9665432198
 21
62.0543651341
  0
LINE
  5
4E0
100
AcDbEntity
  8
3_AXES_OTHER
100
AcDbLine
 62
7
  6
CONTINUOUS
 10
156.231847457
 20
62.207578719
 11
156.3200966104
 21
62.2585427342
  0
LINE
  5
4E1
100
AcDbEntity
  8
3_AXES_OTHER
100
AcDbLine
 62
7
  6
CONTINUOUS
 10
160.7166304584
 20
80.9638728973
 11
130.664592258
 21
98.3189688996
  0
LINE
  5
4E2
100
AcDbEntity
  8
3_AXES_OTHER
100
AcDbLine
 62
7
  6
CONTINUOUS
 10
155.2841573371
 20
60.8805468408
 11
154.5773289444
 21
60.4723524105
  0
LINE
  5
4E3
100
AcDbEntity
  8
3_AXES_OTHER
100
AcDbLine
 62
7
  6
CONTINUOUS
 10
155.292508992
 20
60.8757237479
 11
154.5856805993
 21
60.4675293176
  0
LINE
  5
4E4
100
AcDbEntity
  8
3_AXES_OTHER
100
AcDbLine
 62
7
  6
CONTINUOUS
 10
154.3579588091
 20
59.2425755689
 11
153.9505650833
 21
59.0073050966
  0
LINE
  5
4E5
100
AcDbEntity
  8
3_AXES_OTHER
100
AcDbLine
 62
7
  6
CONTINUOUS
 10
154.366310464
 20
59.237752476
 11
153.9505650833
 21
58.9976589107
  0
LINE
  5
4E6
100
AcDbEntity
  8
3_AXES_OTHER
100
AcDbLine
 62
7
  6
CONTINUOUS
 10
154.3203763621
 20
58.9540948664
 11
154.1811821138
 21
58.8737099845
  0
LINE
  5
4E7
100
AcDbEntity
  8
3_AXES_OTHER
100
AcDbLine
 62
7
  6
CONTINUOUS
 10
154.1731088474
 20
58.8211607495
 11
154.3123030957
 21
58.9015456314
  0
LINE
  5
4E8
100
AcDbEntity
  8
3_AXES_OTHER
100
AcDbLine
 62
7
  6
CONTINUOUS
 10
154.1811821138
 20
58.8164984264
 11
154.3203763621
 21
58.8968833083
  0
LINE
  5
4E9
100
AcDbEntity
  8
3_AXES_OTHER
100
AcDbLine
 62
7
  6
CONTINUOUS
 10
154.5856805993
 20
58.8347500169
 11
155.292508992
 21
59.2429444472
  0
LINE
  5
4EA
100
AcDbEntity
  8
3_AXES_OTHER
100
AcDbLine
 62
7
  6
CONTINUOUS
 10
153.9505650833
 20
58.4261861555
 11
154.366310464
 21
58.6662797208
  0
LINE
  5
4EB
100
AcDbEntity
  8
7_ALL_ROUNDS
100
AcDbLine
 62
7
  6
CONTINUOUS
 10
153.9505650833
 20
58.2590550548
 11
155.7625958072
 21
59.3055054474
  0
LINE
  5
4EC
100
AcDbEntity
  8
3_AXES_OTHER
100
AcDbLine
 62
7
  6
CONTINUOUS
 10
160.7166304584
 20
54.2271118488
 11
160.7166304584
 21
80.9638728973
  0
LINE
  5
4ED
100
AcDbEntity
  8
7_ALL_ROUNDS
100
AcDbLine
 62
7
  6
CONTINUOUS
 10
154.0758399068
 20
57.5982913256
 11
156.3973215793
 21
58.938950386
  0
LINE
  5
4EE
100
AcDbEntity
  8
7_ALL_ROUNDS
100
AcDbLine
 62
7
  6
CONTINUOUS
 10
156.8858933907
 20
58.6730917333
 11
153.5872680954
 21
56.768130802
  0
LINE
  5
4EF
100
AcDbEntity
  8
7_ALL_ROUNDS
100
AcDbLine
 62
7
  6
CONTINUOUS
 10
153.5872680954
 20
56.7199188148
 11
156.8858933907
 21
58.6248797461
  0
LINE
  5
4F0
100
AcDbEntity
  8
3_AXES_OTHER
100
AcDbLine
 62
7
  6
CONTINUOUS
 10
160.7166304584
 20
54.2271118488
 11
149.0493685688
 21
47.4892510479
  0
ARC
  5
4F1
100
AcDbEntity
  8
7_ALL_ROUNDS
100
AcDbCircle
 62
7
  6
CONTINUOUS
 10
32.7237193156
 20
43.9964532939
 40
0.0393700787
100
AcDbArc
 50
180.0
 51
269.99999999
  0
ARC
  5
4F2
100
AcDbEntity
  8
7_ALL_ROUNDS
100
AcDbCircle
 62
7
  6
CONTINUOUS
 10
34.1410421503
 20
43.9964532939
 40
0.0393700787
100
AcDbArc
 50
270.0
 51
360.0
  0
CIRCLE
  5
4F3
100
AcDbEntity
  8
3_ALL_AXES
100
AcDbCircle
 62
7
  6
CONTINUOUS
 10
40.73592404
 20
60.7218469947
 40
8.9
  0
CIRCLE
  5
4F4
100
AcDbEntity
  8
3_ALL_AXES
100
AcDbCircle
 62
7
  6
CONTINUOUS
 10
40.73592404
 20
60.7218469947
 40
6.6984251969
  0
CIRCLE
  5
4F5
100
AcDbEntity
  8
3_ALL_AXES
100
AcDbCircle
 62
7
  6
CONTINUOUS
 10
40.73592404
 20
60.7218469947
 40
1.279037393
  0
ARC
  5
4F6
100
AcDbEntity
  8
7_ALL_ROUNDS
100
AcDbCircle
 62
7
  6
CONTINUOUS
 10
68.5308059298
 20
43.9964532939
 40
0.0393700787
100
AcDbArc
 50
180.0
 51
269.99999999
  0
ARC
  5
4F7
100
AcDbEntity
  8
7_ALL_ROUNDS
100
AcDbCircle
 62
7
  6
CONTINUOUS
 10
69.9481287645
 20
43.9964532939
 40
0.0393700787
100
AcDbArc
 50
270.0
 51
360.0
  0
CIRCLE
  5
4F8
100
AcDbEntity
  8
3_ALL_AXES
100
AcDbCircle
 62
7
  6
CONTINUOUS
 10
61.9351760086
 20
60.7218469947
 40
8.9
  0
CIRCLE
  5
4F9
100
AcDbEntity
  8
3_ALL_AXES
100
AcDbCircle
 62
7
  6
CONTINUOUS
 10
61.9351760086
 20
60.7218469947
 40
6.6984251969
  0
CIRCLE
  5
4FA
100
AcDbEntity
  8
3_ALL_AXES
100
AcDbCircle
 62
7
  6
CONTINUOUS
 10
61.9351760086
 20
60.7218469947
 40
1.279037393
  0
ARC
  5
4FB
100
AcDbEntity
  8
7_ALL_ROUNDS
100
AcDbCircle
 62
7
  6
CONTINUOUS
 10
94.9890631668
 20
43.9964532939
 40
0.0393700787
100
AcDbArc
 50
270.0
 51
360.0
  0
ARC
  5
4FC
100
AcDbEntity
  8
7_ALL_ROUNDS
100
AcDbCircle
 62
7
  6
CONTINUOUS
 10
93.5717403321
 20
43.9964532939
 40
0.0393700787
100
AcDbArc
 50
180.0
 51
270.0
  0
ARC
  5
4FD
100
AcDbEntity
  8
7_ALL_ROUNDS
100
AcDbCircle
 62
7
  6
CONTINUOUS
 10
97.7420552927
 20
52.660035971
 40
0.2165354331
100
AcDbArc
 50
180.0
 51
270.0
  0
ARC
  5
4FE
100
AcDbEntity
  8
7_ALL_ROUNDS
100
AcDbCircle
 62
7
  6
CONTINUOUS
 10
98.4330001746
 20
53.3509808529
 40
0.1771653543
100
AcDbArc
 50
180.0
 51
270.0
  0
CIRCLE
  5
4FF
100
AcDbEntity
  8
3_ALL_AXES
100
AcDbCircle
 62
7
  6
CONTINUOUS
 10
97.7646537179
 20
54.417516286
 40
0.157480315
  0
ARC
  5
500
100
AcDbEntity
  8
7_ALL_ROUNDS
100
AcDbCircle
 62
7
  6
CONTINUOUS
 10
97.7420552927
 20
52.660035971
 40
0.157480315
100
AcDbArc
 50
180.0
 51
270.0
  0
CIRCLE
  5
501
100
AcDbEntity
  8
3_ALL_AXES
100
AcDbCircle
 62
7
  6
CONTINUOUS
 10
97.7646537179
 20
54.417516286
 40
0.1377952756
  0
CIRCLE
  5
502
100
AcDbEntity
  8
3_ALL_AXES
100
AcDbCircle
 62
7
  6
CONTINUOUS
 10
97.7646537179
 20
54.417516286
 40
0.0787401575
  0
ARC
  5
503
100
AcDbEntity
  8
7_ALL_ROUNDS
100
AcDbCircle
 62
7
  6
CONTINUOUS
 10
97.7420552927
 20
59.3348391207
 40
0.2165354331
100
AcDbArc
 50
90.0
 51
180.0
  0
ARC
  5
504
100
AcDbEntity
  8
7_ALL_ROUNDS
100
AcDbCircle
 62
7
  6
CONTINUOUS
 10
98.4330001746
 20
58.6438942388
 40
0.1771653543
100
AcDbArc
 50
90.0
 51
180.0
  0
CIRCLE
  5
505
100
AcDbEntity
  8
3_ALL_AXES
100
AcDbCircle
 62
7
  6
CONTINUOUS
 10
98.7969371825
 20
57.5769651049
 40
0.1614173228
  0
ARC
  5
506
100
AcDbEntity
  8
7_ALL_ROUNDS
100
AcDbCircle
 62
7
  6
CONTINUOUS
 10
97.7420552927
 20
59.3348391207
 40
0.157480315
100
AcDbArc
 50
90.0
 51
180.0
  0
CIRCLE
  5
507
100
AcDbEntity
  8
3_ALL_AXES
100
AcDbCircle
 62
7
  6
CONTINUOUS
 10
97.7646537179
 20
57.5789336088
 40
0.157480315
  0
CIRCLE
  5
508
100
AcDbEntity
  8
3_ALL_AXES
100
AcDbCircle
 62
7
  6
CONTINUOUS
 10
97.7646537179
 20
57.5789336088
 40
0.1377952756
  0
CIRCLE
  5
509
100
AcDbEntity
  8
3_ALL_AXES
100
AcDbCircle
 62
7
  6
CONTINUOUS
 10
97.7646537179
 20
57.5789336088
 40
0.0787401575
  0
CIRCLE
  5
50A
100
AcDbEntity
  8
3_ALL_AXES
100
AcDbCircle
 62
7
  6
CONTINUOUS
 10
98.7969371825
 20
57.5769651049
 40
0.0787401575
  0
ARC
  5
50B
100
AcDbEntity
  8
3_AXES_OTHER
100
AcDbCircle
 62
7
  6
CONTINUOUS
 10
99.3146537179
 20
53.7403509238
 40
0.2700787402
100
AcDbArc
 50
90.0
 51
270.0
  0
ARC
  5
50C
100
AcDbEntity
  8
3_AXES_OTHER
100
AcDbCircle
 62
7
  6
CONTINUOUS
 10
99.6646537179
 20
53.7403509317
 40
0.2700787322
100
AcDbArc
 50
90.0
 51
270.0
  0
ARC
  5
50D
100
AcDbEntity
  8
3_AXES_OTHER
100
AcDbCircle
 62
7
  6
CONTINUOUS
 10
99.6647100091
 20
53.7403509317
 40
0.2
100
AcDbArc
 50
90.0161262309
 51
169.9098862159
  0
ARC
  5
50E
100
AcDbEntity
  8
3_AXES_OTHER
100
AcDbCircle
 62
7
  6
CONTINUOUS
 10
99.6647100091
 20
53.7403509317
 40
0.2
100
AcDbArc
 50
190.0901137841
 51
269.9838737691
  0
ARC
  5
50F
100
AcDbEntity
  8
3_AXES_OTHER
100
AcDbCircle
 62
7
  6
CONTINUOUS
 10
99.3146537179
 20
53.7403509238
 40
0.2
100
AcDbArc
 50
90.0
 51
270.0
  0
CIRCLE
  5
510
100
AcDbEntity
  8
3_ALL_AXES
100
AcDbCircle
 62
7
  6
CONTINUOUS
 10
99.0744962376
 20
52.6982249474
 40
0.157480315
  0
CIRCLE
  5
511
100
AcDbEntity
  8
3_ALL_AXES
100
AcDbCircle
 62
7
  6
CONTINUOUS
 10
99.0744962376
 20
52.6982249474
 40
0.1377952756
  0
ARC
  5
512
100
AcDbEntity
  8
3_AXES_OTHER
100
AcDbCircle
 62
7
  6
CONTINUOUS
 10
100.0398505683
 20
55.3163351836
 40
0.1251968504
100
AcDbArc
 50
90.0
 51
180.0
  0
ARC
  5
513
100
AcDbEntity
  8
3_AXES_OTHER
100
AcDbCircle
 62
7
  6
CONTINUOUS
 10
100.0398505683
 20
53.5667288844
 40
0.1251968504
100
AcDbArc
 50
180.0
 51
270.0
  0
CIRCLE
  5
514
100
AcDbEntity
  8
3_ALL_AXES
100
AcDbCircle
 62
7
  6
CONTINUOUS
 10
99.0744962376
 20
52.6982249474
 40
0.0787401575
  0
CIRCLE
  5
515
100
AcDbEntity
  8
3_ALL_AXES
100
AcDbCircle
 62
7
  6
CONTINUOUS
 10
99.0744962376
 20
59.2966501443
 40
0.157480315
  0
CIRCLE
  5
516
100
AcDbEntity
  8
3_ALL_AXES
100
AcDbCircle
 62
7
  6
CONTINUOUS
 10
99.0744962376
 20
59.2966501443
 40
0.1377952756
  0
CIRCLE
  5
517
100
AcDbEntity
  8
3_ALL_AXES
100
AcDbCircle
 62
7
  6
CONTINUOUS
 10
99.8130789148
 20
57.5769651049
 40
0.1350393701
  0
CIRCLE
  5
518
100
AcDbEntity
  8
3_ALL_AXES
100
AcDbCircle
 62
7
  6
CONTINUOUS
 10
99.2969371825
 20
57.5769651049
 40
0.1350393701
  0
CIRCLE
  5
519
100
AcDbEntity
  8
3_ALL_AXES
100
AcDbCircle
 62
7
  6
CONTINUOUS
 10
99.0744962376
 20
59.2966501443
 40
0.0787401575
  0
ARC
  5
51A
100
AcDbEntity
  8
7_ALL_ROUNDS
100
AcDbCircle
 62
7
  6
CONTINUOUS
 10
105.1595356077
 20
43.9964532939
 40
0.0393700787
100
AcDbArc
 50
180.0
 51
270.0
  0
ARC
  5
51B
100
AcDbEntity
  8
7_ALL_ROUNDS
100
AcDbCircle
 62
7
  6
CONTINUOUS
 10
106.5768584423
 20
43.9964532939
 40
0.0393700787
100
AcDbArc
 50
270.0
 51
360.0
  0
CIRCLE
  5
51C
100
AcDbEntity
  8
3_ALL_AXES
100
AcDbCircle
 62
7
  6
CONTINUOUS
 10
101.0744962376
 20
52.6982249474
 40
0.157480315
  0
CIRCLE
  5
51D
100
AcDbEntity
  8
3_ALL_AXES
100
AcDbCircle
 62
7
  6
CONTINUOUS
 10
101.0744962376
 20
52.6982249474
 40
0.1377952756
  0
ARC
  5
51E
100
AcDbEntity
  8
3_AXES_OTHER
100
AcDbCircle
 62
7
  6
CONTINUOUS
 10
101.0394568675
 20
55.3163351836
 40
0.1251968504
100
AcDbArc
 50
0.0
 51
90.0
  0
ARC
  5
51F
100
AcDbEntity
  8
3_AXES_OTHER
100
AcDbCircle
 62
7
  6
CONTINUOUS
 10
101.0394568675
 20
53.5667288844
 40
0.1251968504
100
AcDbArc
 50
270.0
 51
360.0
  0
CIRCLE
  5
520
100
AcDbEntity
  8
3_ALL_AXES
100
AcDbCircle
 62
7
  6
CONTINUOUS
 10
101.0744962376
 20
52.6982249474
 40
0.0787401575
  0
CIRCLE
  5
521
100
AcDbEntity
  8
3_ALL_AXES
100
AcDbCircle
 62
7
  6
CONTINUOUS
 10
101.3619370804
 20
57.5769651049
 40
0.1614173228
  0
CIRCLE
  5
522
100
AcDbEntity
  8
3_ALL_AXES
100
AcDbCircle
 62
7
  6
CONTINUOUS
 10
101.0744962376
 20
59.2966501443
 40
0.157480315
  0
CIRCLE
  5
523
100
AcDbEntity
  8
3_ALL_AXES
100
AcDbCircle
 62
7
  6
CONTINUOUS
 10
101.0744962376
 20
59.2966501443
 40
0.1377952756
  0
CIRCLE
  5
524
100
AcDbEntity
  8
3_ALL_AXES
100
AcDbCircle
 62
7
  6
CONTINUOUS
 10
100.8618978124
 20
57.5769651049
 40
0.1350393701
  0
CIRCLE
  5
525
100
AcDbEntity
  8
3_ALL_AXES
100
AcDbCircle
 62
7
  6
CONTINUOUS
 10
100.3457560801
 20
57.5769651049
 40
0.1350393701
  0
CIRCLE
  5
526
100
AcDbEntity
  8
3_ALL_AXES
100
AcDbCircle
 62
7
  6
CONTINUOUS
 10
101.0744962376
 20
59.2966501443
 40
0.0787401575
  0
CIRCLE
  5
527
100
AcDbEntity
  8
3_ALL_AXES
100
AcDbCircle
 62
7
  6
CONTINUOUS
 10
101.3619370804
 20
57.5769651049
 40
0.0787401575
  0
ARC
  5
528
100
AcDbEntity
  8
7_ALL_ROUNDS
100
AcDbCircle
 62
7
  6
CONTINUOUS
 10
102.4070159227
 20
52.660035971
 40
0.2165354331
100
AcDbArc
 50
270.0
 51
360.0
  0
ARC
  5
529
100
AcDbEntity
  8
7_ALL_ROUNDS
100
AcDbCircle
 62
7
  6
CONTINUOUS
 10
101.7160710408
 20
53.3509808529
 40
0.1771653543
100
AcDbArc
 50
270.0
 51
360.0
  0
ARC
  5
52A
100
AcDbEntity
  8
7_ALL_ROUNDS
100
AcDbCircle
 62
7
  6
CONTINUOUS
 10
102.4070159227
 20
52.660035971
 40
0.157480315
100
AcDbArc
 50
270.0
 51
360.0
  0
CIRCLE
  5
52B
100
AcDbEntity
  8
3_ALL_AXES
100
AcDbCircle
 62
7
  6
CONTINUOUS
 10
102.3843387573
 20
54.417516286
 40
0.157480315
  0
CIRCLE
  5
52C
100
AcDbEntity
  8
3_ALL_AXES
100
AcDbCircle
 62
7
  6
CONTINUOUS
 10
102.3843387573
 20
54.417516286
 40
0.1377952756
  0
CIRCLE
  5
52D
100
AcDbEntity
  8
3_ALL_AXES
100
AcDbCircle
 62
7
  6
CONTINUOUS
 10
102.3843387573
 20
54.417516286
 40
0.0787401575
  0
ARC
  5
52E
100
AcDbEntity
  8
7_ALL_ROUNDS
100
AcDbCircle
 62
7
  6
CONTINUOUS
 10
102.4070159227
 20
59.3348391207
 40
0.2165354331
100
AcDbArc
 50
0.0
 51
90.0
  0
ARC
  5
52F
100
AcDbEntity
  8
7_ALL_ROUNDS
100
AcDbCircle
 62
7
  6
CONTINUOUS
 10
101.7160710408
 20
58.6438942388
 40
0.1771653543
100
AcDbArc
 50
0.0
 51
90.0
  0
ARC
  5
530
100
AcDbEntity
  8
7_ALL_ROUNDS
100
AcDbCircle
 62
7
  6
CONTINUOUS
 10
102.4070159227
 20
59.3348391207
 40
0.157480315
100
AcDbArc
 50
0.0
 51
90.0
  0
CIRCLE
  5
531
100
AcDbEntity
  8
3_ALL_AXES
100
AcDbCircle
 62
7
  6
CONTINUOUS
 10
102.3843387573
 20
57.5789336088
 40
0.157480315
  0
CIRCLE
  5
532
100
AcDbEntity
  8
3_ALL_AXES
100
AcDbCircle
 62
7
  6
CONTINUOUS
 10
102.3843387573
 20
57.5789336088
 40
0.1377952756
  0
CIRCLE
  5
533
100
AcDbEntity
  8
3_ALL_AXES
100
AcDbCircle
 62
7
  6
CONTINUOUS
 10
102.3843387573
 20
57.5789336088
 40
0.0787401575
  0
CIRCLE
  5
534
100
AcDbEntity
  8
7_ALL_ROUNDS
100
AcDbCircle
 62
7
  6
CONTINUOUS
 10
33.432380733
 20
19.2681103793
 40
0.7480314961
  0
CIRCLE
  5
535
100
AcDbEntity
  8
7_ALL_ROUNDS
100
AcDbCircle
 62
9
  6
CONTINUOUS
 10
33.432380733
 20
19.2681103793
 40
0.7086614173
  0
CIRCLE
  5
536
100
AcDbEntity
  8
3_ALL_AXES
100
AcDbCircle
 62
7
  6
CONTINUOUS
 10
33.432380733
 20
19.2681103793
 40
0.2165354331
  0
CIRCLE
  5
537
100
AcDbEntity
  8
7_ALL_ROUNDS
100
AcDbCircle
 62
7
  6
CONTINUOUS
 10
33.432380733
 20
30.8559056549
 40
0.7480314961
  0
CIRCLE
  5
538
100
AcDbEntity
  8
7_ALL_ROUNDS
100
AcDbCircle
 62
9
  6
CONTINUOUS
 10
33.432380733
 20
30.8559056549
 40
0.7086614173
  0
CIRCLE
  5
539
100
AcDbEntity
  8
3_ALL_AXES
100
AcDbCircle
 62
7
  6
CONTINUOUS
 10
33.432380733
 20
30.8559056549
 40
0.2165354331
  0
CIRCLE
  5
53A
100
AcDbEntity
  8
7_ALL_ROUNDS
100
AcDbCircle
 62
7
  6
CONTINUOUS
 10
69.2394673471
 20
19.2681103793
 40
0.7480314961
  0
CIRCLE
  5
53B
100
AcDbEntity
  8
7_ALL_ROUNDS
100
AcDbCircle
 62
9
  6
CONTINUOUS
 10
69.2394673471
 20
19.2681103793
 40
0.7086614173
  0
CIRCLE
  5
53C
100
AcDbEntity
  8
3_ALL_AXES
100
AcDbCircle
 62
7
  6
CONTINUOUS
 10
69.2394673471
 20
19.2681103793
 40
0.2165354331
  0
CIRCLE
  5
53D
100
AcDbEntity
  8
7_ALL_ROUNDS
100
AcDbCircle
 62
7
  6
CONTINUOUS
 10
69.2394673471
 20
30.8559056549
 40
0.7480314961
  0
CIRCLE
  5
53E
100
AcDbEntity
  8
7_ALL_ROUNDS
100
AcDbCircle
 62
9
  6
CONTINUOUS
 10
69.2394673471
 20
30.8559056549
 40
0.7086614173
  0
CIRCLE
  5
53F
100
AcDbEntity
  8
3_ALL_AXES
100
AcDbCircle
 62
7
  6
CONTINUOUS
 10
69.2394673471
 20
30.8559056549
 40
0.2165354331
  0
ARC
  5
540
100
AcDbEntity
  8
3_ALL_AXES
100
AcDbCircle
 62
7
  6
CONTINUOUS
 10
125.0324237004
 20
78.0970237295
 40
2.2849028395
100
AcDbArc
 50
128.6053269165
 51
129.6423250173
  0
ARC
  5
541
100
AcDbEntity
  8
3_ALL_AXES
100
AcDbCircle
 62
7
  6
CONTINUOUS
 10
140.0225585232
 20
69.4401989511
 40
2.2849028391
100
AcDbArc
 50
128.6053269164
 51
129.6423250173
  0
ARC
  5
542
100
AcDbEntity
  8
3_ALL_AXES
100
AcDbCircle
 62
7
  6
CONTINUOUS
 10
129.4471732281
 20
70.4524395544
 40
2.2847860084
100
AcDbArc
 50
290.3877624004
 51
291.3690423664
  0
ARC
  5
543
100
AcDbEntity
  8
3_ALL_AXES
100
AcDbCircle
 62
7
  6
CONTINUOUS
 10
144.4373080511
 20
61.7956147757
 40
2.2847860084
100
AcDbArc
 50
290.3877624004
 51
291.3690423664
  0
ARC
  5
544
100
AcDbEntity
  8
3_ALL_AXES
100
AcDbCircle
 62
7
  6
CONTINUOUS
 10
140.0111939258
 20
69.4545071064
 40
2.2666305871
100
AcDbArc
 50
126.131526169
 51
128.6065048522
  0
ARC
  5
545
100
AcDbEntity
  8
3_ALL_AXES
100
AcDbCircle
 62
7
  6
CONTINUOUS
 10
125.0210591028
 20
78.111331885
 40
2.2666305871
100
AcDbArc
 50
126.131526169
 51
128.6065048523
  0
ARC
  5
546
100
AcDbEntity
  8
3_ALL_AXES
100
AcDbCircle
 62
7
  6
CONTINUOUS
 10
129.4556980868
 20
70.4310087978
 40
2.2617223255
100
AcDbArc
 50
291.3657492199
 51
295.3306273674
  0
ARC
  5
547
100
AcDbEntity
  8
3_ALL_AXES
100
AcDbCircle
 62
7
  6
CONTINUOUS
 10
144.4458329098
 20
61.7741840192
 40
2.2617223255
100
AcDbArc
 50
291.3657492199
 51
295.3306273674
  0
ARC
  5
548
100
AcDbEntity
  8
3_ALL_AXES
100
AcDbCircle
 62
7
  6
CONTINUOUS
 10
130.9002204885
 20
76.7642472034
 40
1.1588457678
100
AcDbArc
 50
177.9548951527
 51
180.0089449542
  0
ARC
  5
549
100
AcDbEntity
  8
3_ALL_AXES
100
AcDbCircle
 62
7
  6
CONTINUOUS
 10
145.8903553116
 20
68.1074224248
 40
1.1588457678
100
AcDbArc
 50
177.9548951527
 51
180.0089449541
  0
ARC
  5
54A
100
AcDbEntity
  8
3_AXES_OTHER
100
AcDbCircle
 62
7
  6
CONTINUOUS
 10
154.5874330278
 20
58.7713429698
 40
0.4642605305
100
AcDbArc
 50
150.0085458422
 51
155.3795989061
  0
ARC
  5
54B
100
AcDbEntity
  8
3_AXES_OTHER
100
AcDbCircle
 62
7
  6
CONTINUOUS
 10
154.5077313278
 20
58.7996107809
 40
0.3795885566
100
AcDbArc
 50
163.4127470855
 51
167.8525208822
  0
ARC
  5
54C
100
AcDbEntity
  8
3_ALL_AXES
100
AcDbCircle
 62
7
  6
CONTINUOUS
 10
153.9192681178
 20
61.581118484
 40
0.2713974426
100
AcDbArc
 50
330.3197126289
 51
338.7645302156
  0
ARC
  5
54D
100
AcDbEntity
  8
3_ALL_AXES
100
AcDbCircle
 62
7
  6
CONTINUOUS
 10
155.7332686339
 20
62.6284302218
 40
0.2711009826
100
AcDbArc
 50
330.5445509168
 51
338.767235283
  0
ARC
  5
54E
100
AcDbEntity
  8
3_AXES_OTHER
100
AcDbCircle
 62
7
  6
CONTINUOUS
 10
154.3737168333
 20
58.8151572007
 40
0.2443149781
100
AcDbArc
 50
179.9897207183
 51
182.1462634096
  0
ARC
  5
54F
100
AcDbEntity
  8
3_AXES_OTHER
100
AcDbCircle
 62
7
  6
CONTINUOUS
 10
154.2301873062
 20
58.9184177368
 40
0.1803733885
100
AcDbArc
 50
297.9712284628
 51
300.0008662489
  0
ARC
  5
550
100
AcDbEntity
  8
3_AXES_OTHER
100
AcDbCircle
 62
7
  6
CONTINUOUS
 10
153.9831737244
 20
58.774582719
 40
0.1793478228
100
AcDbArc
 50
297.8982486285
 51
300.0152558153
  0
ARC
  5
551
100
AcDbEntity
  8
3_AXES_OTHER
100
AcDbCircle
 62
7
  6
CONTINUOUS
 10
153.9898609995
 20
58.7617219203
 40
0.1648527473
100
AcDbArc
 50
293.2101624767
 51
297.935619425
  0
ARC
  5
552
100
AcDbEntity
  8
3_AXES_OTHER
100
AcDbCircle
 62
7
  6
CONTINUOUS
 10
154.2374890824
 20
58.9043674805
 40
0.1645397599
100
AcDbArc
 50
292.8321491443
 51
298.0203826431
  0
ARC
  5
553
100
AcDbEntity
  8
3_AXES_OTHER
100
AcDbCircle
 62
7
  6
CONTINUOUS
 10
153.995845934
 20
58.7480048645
 40
0.1498872129
100
AcDbArc
 50
290.7421924597
 51
293.1740056282
  0
ARC
  5
554
100
AcDbEntity
  8
3_AXES_OTHER
100
AcDbCircle
 62
7
  6
CONTINUOUS
 10
154.2439073482
 20
58.889450276
 40
0.1483009413
100
AcDbArc
 50
290.4339658385
 51
292.7830822731
  0
ARC
  5
555
100
AcDbEntity
  8
3_AXES_OTHER
100
AcDbCircle
 62
7
  6
CONTINUOUS
 10
154.2360039079
 20
58.7759470024
 40
0.0985590526
100
AcDbArc
 50
220.9209679726
 51
226.0932076978
  0
ARC
  5
556
100
AcDbEntity
  8
3_AXES_OTHER
100
AcDbCircle
 62
7
  6
CONTINUOUS
 10
154.2322077484
 20
58.771955948
 40
0.0930510396
100
AcDbArc
 50
226.0730541034
 51
234.387613375
  0
ARC
  5
557
100
AcDbEntity
  8
3_AXES_OTHER
100
AcDbCircle
 62
7
  6
CONTINUOUS
 10
154.2302335685
 20
58.7692743722
 40
0.0897214339
100
AcDbArc
 50
234.415379836
 51
239.9544987366
  0
ARC
  5
558
100
AcDbEntity
  8
3_AXES_OTHER
100
AcDbCircle
 62
7
  6
CONTINUOUS
 10
154.2539036583
 20
58.8103153466
 40
0.0669778054
100
AcDbArc
 50
240.048930091
 51
248.707665734
  0
SPLINE
  5
559
100
AcDbEntity
  8
7_ALL_ROUNDS
100
AcDbSpline
 62
7
  6
CONTINUOUS
 70
0
 71
3
 72
9
 73
5
 74
0
 42
0.0000001
 43
0.0000001
 44
0.0000000001
 40
0.0
 40
0.0
 40
0.0
 40
0.0
 40
0.7050361712
 40
1.0
 40
1.0
 40
1.0
 40
1.0
 10
153.9872402762
 20
57.5895073791
 30
0.0
 10
153.9687031231
 20
57.6002124701
 30
0.0
 10
153.9525728996
 20
57.631668661
 30
0.0
 10
153.9505650833
 20
57.6616252508
 30
0.0
 10
153.9505650833
 20
57.6705808936
 30
0.0
  0
SPLINE
  5
55A
100
AcDbEntity
  8
3_ALL_AXES
100
AcDbSpline
 62
7
  6
CONTINUOUS
 70
0
 71
3
 72
9
 73
5
 74
0
 42
0.0000001
 43
0.0000001
 44
0.0000000001
 40
0.0
 40
0.0
 40
0.0
 40
0.0
 40
0.2338651611
 40
1.0
 40
1.0
 40
1.0
 40
1.0
 10
153.6032475951
 20
58.4692783248
 30
0.0
 10
153.5898351063
 20
58.4615325929
 30
0.0
 10
153.5378966181
 20
58.4197949583
 30
0.0
 10
153.5035554388
 20
58.3565839497
 30
0.0
 10
153.4946841088
 20
58.3066259239
 30
0.0
  0
SPLINE
  5
55B
100
AcDbEntity
  8
3_ALL_AXES
100
AcDbSpline
 62
7
  6
CONTINUOUS
 70
0
 71
3
 72
8
 73
4
 74
0
 42
0.0000001
 43
0.0000001
 44
0.0000000001
 40
0.0
 40
0.0
 40
0.0
 40
0.0
 40
1.0
 40
1.0
 40
1.0
 40
1.0
 10
153.4946841088
 20
58.3066259239
 30
0.0
 10
153.4908191981
 20
58.284861058
 30
0.0
 10
153.4902389131
 20
58.2613461057
 30
0.0
 10
153.4971733747
 20
58.2403565806
 30
0.0
  0
SPLINE
  5
55C
100
AcDbEntity
  8
3_ALL_AXES
100
AcDbSpline
 62
7
  6
CONTINUOUS
 70
0
 71
3
 72
8
 73
4
 74
0
 42
0.0000001
 43
0.0000001
 44
0.0000000001
 40
0.0
 40
0.0
 40
0.0
 40
0.0
 40
1.0
 40
1.0
 40
1.0
 40
1.0
 10
153.4971733747
 20
58.2403565806
 30
0.0
 10
153.501887766
 20
58.2260868594
 30
0.0
 10
153.5113810667
 20
58.2119480086
 30
0.0
 10
153.5243796125
 20
58.2044055796
 30
0.0
  0
SPLINE
  5
55D
100
AcDbEntity
  8
3_ALL_AXES
100
AcDbSpline
 62
7
  6
CONTINUOUS
 70
0
 71
3
 72
9
 73
5
 74
0
 42
0.0000001
 43
0.0000001
 44
0.0000000001
 40
0.0
 40
0.0
 40
0.0
 40
0.0
 40
0.2883133887
 40
1.0
 40
1.0
 40
1.0
 40
1.0
 10
153.6032475951
 20
58.2282183887
 30
0.0
 10
153.6245517948
 20
58.2405215952
 30
0.0
 10
153.6841932202
 20
58.2945653843
 30
0.0
 10
153.7247827162
 20
58.4295039479
 30
0.0
 10
153.6722570798
 20
58.4599820407
 30
0.0
  0
SPLINE
  5
55E
100
AcDbEntity
  8
3_ALL_AXES
100
AcDbSpline
 62
7
  6
CONTINUOUS
 70
0
 71
3
 72
8
 73
4
 74
0
 42
0.0000001
 43
0.0000001
 44
0.0000000001
 40
0.0
 40
0.0
 40
0.0
 40
0.0
 40
1.0
 40
1.0
 40
1.0
 40
1.0
 10
153.6032475951
 20
58.4049956752
 30
0.0
 10
153.5810313754
 20
58.3921657758
 30
0.0
 10
153.564300397
 20
58.3689291921
 30
0.0
 10
153.555029293
 20
58.3450082104
 30
0.0
  0
SPLINE
  5
55F
100
AcDbEntity
  8
3_ALL_AXES
100
AcDbSpline
 62
7
  6
CONTINUOUS
 70
0
 71
3
 72
9
 73
5
 74
0
 42
0.0000001
 43
0.0000001
 44
0.0000000001
 40
0.0
 40
0.0
 40
0.0
 40
0.0
 40
0.3192140114
 40
1.0
 40
1.0
 40
1.0
 40
1.0
 10
153.555029293
 20
58.3450082104
 30
0.0
 10
153.5521208619
 20
58.337503977
 30
0.0
 10
153.5448676665
 20
58.3144107286
 30
0.0
 10
153.549010828
 20
58.2811189246
 30
0.0
 10
153.5638711827
 20
58.2725293871
 30
0.0
  0
SPLINE
  5
560
100
AcDbEntity
  8
3_ALL_AXES
100
AcDbSpline
 62
7
  6
CONTINUOUS
 70
0
 71
3
 72
8
 73
4
 74
0
 42
0.0000001
 43
0.0000001
 44
0.0000000001
 40
0.0
 40
0.0
 40
0.0
 40
0.0
 40
1.0
 40
1.0
 40
1.0
 40
1.0
 10
153.6032475951
 20
60.9859440579
 30
0.0
 10
153.5810313754
 20
60.9731141586
 30
0.0
 10
153.564300397
 20
60.9498775748
 30
0.0
 10
153.555029293
 20
60.9259565932
 30
0.0
  0
SPLINE
  5
561
100
AcDbEntity
  8
3_ALL_AXES
100
AcDbSpline
 62
7
  6
CONTINUOUS
 70
0
 71
3
 72
9
 73
5
 74
0
 42
0.0000001
 43
0.0000001
 44
0.0000000001
 40
0.0
 40
0.0
 40
0.0
 40
0.0
 40
0.3192140114
 40
1.0
 40
1.0
 40
1.0
 40
1.0
 10
153.555029293
 20
60.9259565932
 30
0.0
 10
153.5521208619
 20
60.9184523598
 30
0.0
 10
153.5448676665
 20
60.8953591113
 30
0.0
 10
153.549010828
 20
60.8620673074
 30
0.0
 10
153.5638711827
 20
60.8534777699
 30
0.0
  0
SPLINE
  5
562
100
AcDbEntity
  8
3_ALL_AXES
100
AcDbSpline
 62
7
  6
CONTINUOUS
 70
0
 71
3
 72
8
 73
4
 74
0
 42
0.0000001
 43
0.0000001
 44
0.0000000001
 40
0.0
 40
0.0
 40
0.0
 40
0.0
 40
1.0
 40
1.0
 40
1.0
 40
1.0
 10
154.529446123
 20
62.9231510638
 30
0.0
 10
154.5072299034
 20
62.9103211645
 30
0.0
 10
154.4904989249
 20
62.8870845807
 30
0.0
 10
154.481227821
 20
62.8631635991
 30
0.0
  0
SPLINE
  5
563
100
AcDbEntity
  8
3_ALL_AXES
100
AcDbSpline
 62
7
  6
CONTINUOUS
 70
0
 71
3
 72
9
 73
5
 74
0
 42
0.0000001
 43
0.0000001
 44
0.0000000001
 40
0.0
 40
0.0
 40
0.0
 40
0.0
 40
0.3192140114
 40
1.0
 40
1.0
 40
1.0
 40
1.0
 10
154.481227821
 20
62.8631635991
 30
0.0
 10
154.4783193898
 20
62.8556593657
 30
0.0
 10
154.4710661944
 20
62.8325661172
 30
0.0
 10
154.4752093559
 20
62.7992743133
 30
0.0
 10
154.4900697107
 20
62.7906847758
 30
0.0
  0
SPLINE
  5
564
100
AcDbEntity
  8
3_ALL_AXES
100
AcDbSpline
 62
7
  6
CONTINUOUS
 70
0
 71
3
 72
8
 73
4
 74
0
 42
0.0000001
 43
0.0000001
 44
0.0000000001
 40
0.0
 40
0.0
 40
0.0
 40
0.0
 40
1.0
 40
1.0
 40
1.0
 40
1.0
 10
155.9436596854
 20
63.7398614639
 30
0.0
 10
155.9214434658
 20
63.7270315646
 30
0.0
 10
155.9047124873
 20
63.7037949808
 30
0.0
 10
155.8954413834
 20
63.6798739992
 30
0.0
  0
SPLINE
  5
565
100
AcDbEntity
  8
3_ALL_AXES
100
AcDbSpline
 62
7
  6
CONTINUOUS
 70
0
 71
3
 72
9
 73
5
 74
0
 42
0.0000001
 43
0.0000001
 44
0.0000000001
 40
0.0
 40
0.0
 40
0.0
 40
0.0
 40
0.3192140114
 40
1.0
 40
1.0
 40
1.0
 40
1.0
 10
155.8954413834
 20
63.6798739992
 30
0.0
 10
155.8925329522
 20
63.6723697658
 30
0.0
 10
155.8852797568
 20
63.6492765173
 30
0.0
 10
155.8894229183
 20
63.6159847134
 30
0.0
 10
155.9042832731
 20
63.6073951759
 30
0.0
  0
SPLINE
  5
566
100
AcDbEntity
  8
3_ALL_AXES
100
AcDbSpline
 62
7
  6
CONTINUOUS
 70
0
 71
3
 72
8
 73
4
 74
0
 42
0.0000001
 43
0.0000001
 44
0.0000000001
 40
0.0
 40
0.0
 40
0.0
 40
0.0
 40
1.0
 40
1.0
 40
1.0
 40
1.0
 10
156.8698582133
 20
62.8724164664
 30
0.0
 10
156.8476419937
 20
62.859586567
 30
0.0
 10
156.8309110153
 20
62.8363499833
 30
0.0
 10
156.8216399113
 20
62.8124290016
 30
0.0
  0
SPLINE
  5
567
100
AcDbEntity
  8
3_ALL_AXES
100
AcDbSpline
 62
7
  6
CONTINUOUS
 70
0
 71
3
 72
9
 73
5
 74
0
 42
0.0000001
 43
0.0000001
 44
0.0000000001
 40
0.0
 40
0.0
 40
0.0
 40
0.0
 40
0.3192140114
 40
1.0
 40
1.0
 40
1.0
 40
1.0
 10
156.8216399113
 20
62.8124290016
 30
0.0
 10
156.8187314802
 20
62.8049247682
 30
0.0
 10
156.8114782848
 20
62.7818315198
 30
0.0
 10
156.8156214462
 20
62.7485397158
 30
0.0
 10
156.830481801
 20
62.7399501783
 30
0.0
  0
SPLINE
  5
568
100
AcDbEntity
  8
3_ALL_AXES
100
AcDbSpline
 62
7
  6
CONTINUOUS
 70
0
 71
3
 72
8
 73
4
 74
0
 42
0.0000001
 43
0.0000001
 44
0.0000000001
 40
0.0
 40
0.0
 40
0.0
 40
0.0
 40
1.0
 40
1.0
 40
1.0
 40
1.0
 10
156.8698582133
 20
60.2914680836
 30
0.0
 10
156.8476419937
 20
60.2786381843
 30
0.0
 10
156.8309110153
 20
60.2554016005
 30
0.0
 10
156.8216399113
 20
60.2314806189
 30
0.0
  0
SPLINE
  5
569
100
AcDbEntity
  8
3_ALL_AXES
100
AcDbSpline
 62
7
  6
CONTINUOUS
 70
0
 71
3
 72
9
 73
5
 74
0
 42
0.0000001
 43
0.0000001
 44
0.0000000001
 40
0.0
 40
0.0
 40
0.0
 40
0.0
 40
0.3192140114
 40
1.0
 40
1.0
 40
1.0
 40
1.0
 10
156.8216399113
 20
60.2314806189
 30
0.0
 10
156.8187314802
 20
60.2239763855
 30
0.0
 10
156.8114782848
 20
60.200883137
 30
0.0
 10
156.8156214462
 20
60.1675913331
 30
0.0
 10
156.830481801
 20
60.1590017956
 30
0.0
  0
SPLINE
  5
56A
100
AcDbEntity
  8
3_ALL_AXES
100
AcDbSpline
 62
7
  6
CONTINUOUS
 70
0
 71
3
 72
8
 73
4
 74
0
 42
0.0000001
 43
0.0000001
 44
0.0000000001
 40
0.0
 40
0.0
 40
0.0
 40
0.0
 40
1.0
 40
1.0
 40
1.0
 40
1.0
 10
155.9436596854
 20
58.3529754247
 30
0.0
 10
155.9214434658
 20
58.3401455254
 30
0.0
 10
155.9047124873
 20
58.3169089416
 30
0.0
 10
155.8954413834
 20
58.29298796
 30
0.0
  0
SPLINE
  5
56B
100
AcDbEntity
  8
3_ALL_AXES
100
AcDbSpline
 62
7
  6
CONTINUOUS
 70
0
 71
3
 72
9
 73
5
 74
0
 42
0.0000001
 43
0.0000001
 44
0.0000000001
 40
0.0
 40
0.0
 40
0.0
 40
0.0
 40
0.3192140114
 40
1.0
 40
1.0
 40
1.0
 40
1.0
 10
155.8954413834
 20
58.29298796
 30
0.0
 10
155.8925329522
 20
58.2854837266
 30
0.0
 10
155.8852797568
 20
58.2623904781
 30
0.0
 10
155.8894229183
 20
58.2290986742
 30
0.0
 10
155.9042832731
 20
58.2205091367
 30
0.0
  0
SPLINE
  5
56C
100
AcDbEntity
  8
3_ALL_AXES
100
AcDbSpline
 62
7
  6
CONTINUOUS
 70
0
 71
3
 72
8
 73
4
 74
0
 42
0.0000001
 43
0.0000001
 44
0.0000000001
 40
0.0
 40
0.0
 40
0.0
 40
0.0
 40
1.0
 40
1.0
 40
1.0
 40
1.0
 10
154.529446123
 20
57.5362650246
 30
0.0
 10
154.5072299034
 20
57.5234351253
 30
0.0
 10
154.4904989249
 20
57.5001985415
 30
0.0
 10
154.481227821
 20
57.4762775599
 30
0.0
  0
SPLINE
  5
56D
100
AcDbEntity
  8
3_ALL_AXES
100
AcDbSpline
 62
7
  6
CONTINUOUS
 70
0
 71
3
 72
9
 73
5
 74
0
 42
0.0000001
 43
0.0000001
 44
0.0000000001
 40
0.0
 40
0.0
 40
0.0
 40
0.0
 40
0.3192140114
 40
1.0
 40
1.0
 40
1.0
 40
1.0
 10
154.481227821
 20
57.4762775599
 30
0.0
 10
154.4783193898
 20
57.4687733265
 30
0.0
 10
154.4710661944
 20
57.445680078
 30
0.0
 10
154.4752093559
 20
57.4123882741
 30
0.0
 10
154.4900697107
 20
57.4037987366
 30
0.0
  0
SPLINE
  5
56E
100
AcDbEntity
  8
7_ALL_ROUNDS
100
AcDbSpline
 62
7
  6
CONTINUOUS
 70
0
 71
3
 72
8
 73
4
 74
0
 42
0.0000001
 43
0.0000001
 44
0.0000000001
 40
0.0
 40
0.0
 40
0.0
 40
0.0
 40
1.0
 40
1.0
 40
1.0
 40
1.0
 10
156.9972487893
 20
64.3152051475
 30
0.0
 10
156.9972487893
 20
64.3302412258
 30
0.0
 10
156.9949614835
 20
64.3458065817
 30
0.0
 10
156.9887723643
 20
64.3595098096
 30
0.0
  0
SPLINE
  5
56F
100
AcDbEntity
  8
7_ALL_ROUNDS
100
AcDbSpline
 62
7
  6
CONTINUOUS
 70
0
 71
3
 72
8
 73
4
 74
0
 42
0.0000001
 43
0.0000001
 44
0.0000000001
 40
0.0
 40
0.0
 40
0.0
 40
0.0
 40
1.0
 40
1.0
 40
1.0
 40
1.0
 10
156.9887723643
 20
64.3595098096
 30
0.0
 10
156.9837262229
 20
64.3706823893
 30
0.0
 10
156.9752648107
 20
64.3811397082
 30
0.0
 10
156.9646486179
 20
64.3872704937
 30
0.0
  0
SPLINE
  5
570
100
AcDbEntity
  8
7_ALL_ROUNDS
100
AcDbSpline
 62
7
  6
CONTINUOUS
 70
0
 71
3
 72
8
 73
4
 74
0
 42
0.0000001
 43
0.0000001
 44
0.0000000001
 40
0.0
 40
0.0
 40
0.0
 40
0.0
 40
1.0
 40
1.0
 40
1.0
 40
1.0
 10
156.8858933907
 20
58.6730917333
 30
0.0
 10
156.9017011819
 20
58.6822207558
 30
0.0
 10
156.915949381
 20
58.6942391666
 30
0.0
 10
156.9285072569
 20
58.707487754
 30
0.0
  0
SPLINE
  5
571
100
AcDbEntity
  8
7_ALL_ROUNDS
100
AcDbSpline
 62
7
  6
CONTINUOUS
 70
0
 71
3
 72
9
 73
5
 74
0
 42
0.0000001
 43
0.0000001
 44
0.0000000001
 40
0.0
 40
0.0
 40
0.0
 40
0.0
 40
0.769326097
 40
1.0
 40
1.0
 40
1.0
 40
1.0
 10
156.9285072569
 20
58.707487754
 30
0.0
 10
156.9593667678
 20
58.7400446075
 30
0.0
 10
156.9894088294
 20
58.7943912731
 30
0.0
 10
156.9972487893
 20
58.852514704
 30
0.0
 10
156.9972487893
 20
58.8659649381
 30
0.0
  0
SPLINE
  5
572
100
AcDbEntity
  8
3_ALL_AXES
100
AcDbSpline
 62
7
  6
CONTINUOUS
 70
0
 71
3
 72
9
 73
5
 74
0
 42
0.0000001
 43
0.0000001
 44
0.0000000001
 40
0.0
 40
0.0
 40
0.0
 40
0.0
 40
0.2883133887
 40
1.0
 40
1.0
 40
1.0
 40
1.0
 10
153.6032475951
 20
60.8091667714
 30
0.0
 10
153.6245517948
 20
60.8214699779
 30
0.0
 10
153.6841932202
 20
60.875513767
 30
0.0
 10
153.7247827162
 20
61.0104523307
 30
0.0
 10
153.6722570798
 20
61.0409304235
 30
0.0
  0
SPLINE
  5
573
100
AcDbEntity
  8
3_ALL_AXES
100
AcDbSpline
 62
7
  6
CONTINUOUS
 70
0
 71
3
 72
9
 73
5
 74
0
 42
0.0000001
 43
0.0000001
 44
0.0000000001
 40
0.0
 40
0.0
 40
0.0
 40
0.0
 40
0.2338651611
 40
1.0
 40
1.0
 40
1.0
 40
1.0
 10
153.6032475951
 20
61.0502267075
 30
0.0
 10
153.5898351063
 20
61.0424809757
 30
0.0
 10
153.5378966181
 20
61.000743341
 30
0.0
 10
153.5035554388
 20
60.9375323324
 30
0.0
 10
153.4946841088
 20
60.8875743067
 30
0.0
  0
SPLINE
  5
574
100
AcDbEntity
  8
3_ALL_AXES
100
AcDbSpline
 62
7
  6
CONTINUOUS
 70
0
 71
3
 72
8
 73
4
 74
0
 42
0.0000001
 43
0.0000001
 44
0.0000000001
 40
0.0
 40
0.0
 40
0.0
 40
0.0
 40
1.0
 40
1.0
 40
1.0
 40
1.0
 10
153.4946841088
 20
60.8875743067
 30
0.0
 10
153.4908191981
 20
60.8658094408
 30
0.0
 10
153.4902389131
 20
60.8422944885
 30
0.0
 10
153.4971733747
 20
60.8213049633
 30
0.0
  0
SPLINE
  5
575
100
AcDbEntity
  8
3_ALL_AXES
100
AcDbSpline
 62
7
  6
CONTINUOUS
 70
0
 71
3
 72
8
 73
4
 74
0
 42
0.0000001
 43
0.0000001
 44
0.0000000001
 40
0.0
 40
0.0
 40
0.0
 40
0.0
 40
1.0
 40
1.0
 40
1.0
 40
1.0
 10
153.4971733747
 20
60.8213049633
 30
0.0
 10
153.501887766
 20
60.8070352422
 30
0.0
 10
153.5113810667
 20
60.7928963914
 30
0.0
 10
153.5243796125
 20
60.7853539624
 30
0.0
  0
SPLINE
  5
576
100
AcDbEntity
  8
3_ALL_AXES
100
AcDbSpline
 62
7
  6
CONTINUOUS
 70
0
 71
3
 72
9
 73
5
 74
0
 42
0.0000001
 43
0.0000001
 44
0.0000000001
 40
0.0
 40
0.0
 40
0.0
 40
0.0
 40
0.2883133887
 40
1.0
 40
1.0
 40
1.0
 40
1.0
 10
154.529446123
 20
62.7463737773
 30
0.0
 10
154.5507503228
 20
62.7586769839
 30
0.0
 10
154.6103917482
 20
62.812720773
 30
0.0
 10
154.6509812441
 20
62.9476593366
 30
0.0
 10
154.5984556077
 20
62.9781374294
 30
0.0
  0
SPLINE
  5
577
100
AcDbEntity
  8
3_ALL_AXES
100
AcDbSpline
 62
7
  6
CONTINUOUS
 70
0
 71
3
 72
9
 73
5
 74
0
 42
0.0000001
 43
0.0000001
 44
0.0000000001
 40
0.0
 40
0.0
 40
0.0
 40
0.0
 40
0.2338651611
 40
1.0
 40
1.0
 40
1.0
 40
1.0
 10
154.529446123
 20
62.9874337135
 30
0.0
 10
154.5160336342
 20
62.9796879816
 30
0.0
 10
154.4640951461
 20
62.9379503469
 30
0.0
 10
154.4297539668
 20
62.8747393383
 30
0.0
 10
154.4208826367
 20
62.8247813126
 30
0.0
  0
SPLINE
  5
578
100
AcDbEntity
  8
3_ALL_AXES
100
AcDbSpline
 62
7
  6
CONTINUOUS
 70
0
 71
3
 72
8
 73
4
 74
0
 42
0.0000001
 43
0.0000001
 44
0.0000000001
 40
0.0
 40
0.0
 40
0.0
 40
0.0
 40
1.0
 40
1.0
 40
1.0
 40
1.0
 10
154.4208826367
 20
62.8247813126
 30
0.0
 10
154.417017726
 20
62.8030164467
 30
0.0
 10
154.416437441
 20
62.7795014944
 30
0.0
 10
154.4233719027
 20
62.7585119692
 30
0.0
  0
SPLINE
  5
579
100
AcDbEntity
  8
3_ALL_AXES
100
AcDbSpline
 62
7
  6
CONTINUOUS
 70
0
 71
3
 72
8
 73
4
 74
0
 42
0.0000001
 43
0.0000001
 44
0.0000000001
 40
0.0
 40
0.0
 40
0.0
 40
0.0
 40
1.0
 40
1.0
 40
1.0
 40
1.0
 10
154.4233719027
 20
62.7585119692
 30
0.0
 10
154.4280862939
 20
62.7442422481
 30
0.0
 10
154.4375795947
 20
62.7301033973
 30
0.0
 10
154.4505781405
 20
62.7225609683
 30
0.0
  0
SPLINE
  5
57A
100
AcDbEntity
  8
3_ALL_AXES
100
AcDbSpline
 62
7
  6
CONTINUOUS
 70
0
 71
3
 72
9
 73
5
 74
0
 42
0.0000001
 43
0.0000001
 44
0.0000000001
 40
0.0
 40
0.0
 40
0.0
 40
0.0
 40
0.2883133887
 40
1.0
 40
1.0
 40
1.0
 40
1.0
 10
155.9436596854
 20
63.5630841774
 30
0.0
 10
155.9649638852
 20
63.575387384
 30
0.0
 10
156.0246053105
 20
63.6294311731
 30
0.0
 10
156.0651948065
 20
63.7643697367
 30
0.0
 10
156.0126691701
 20
63.7948478295
 30
0.0
  0
SPLINE
  5
57B
100
AcDbEntity
  8
3_ALL_AXES
100
AcDbSpline
 62
7
  6
CONTINUOUS
 70
0
 71
3
 72
9
 73
5
 74
0
 42
0.0000001
 43
0.0000001
 44
0.0000000001
 40
0.0
 40
0.0
 40
0.0
 40
0.0
 40
0.2338651611
 40
1.0
 40
1.0
 40
1.0
 40
1.0
 10
155.9436596854
 20
63.8041441136
 30
0.0
 10
155.9302471966
 20
63.7963983817
 30
0.0
 10
155.8783087084
 20
63.7546607471
 30
0.0
 10
155.8439675291
 20
63.6914497384
 30
0.0
 10
155.8350961991
 20
63.6414917127
 30
0.0
  0
SPLINE
  5
57C
100
AcDbEntity
  8
3_ALL_AXES
100
AcDbSpline
 62
7
  6
CONTINUOUS
 70
0
 71
3
 72
8
 73
4
 74
0
 42
0.0000001
 43
0.0000001
 44
0.0000000001
 40
0.0
 40
0.0
 40
0.0
 40
0.0
 40
1.0
 40
1.0
 40
1.0
 40
1.0
 10
155.8350961991
 20
63.6414917127
 30
0.0
 10
155.8312312884
 20
63.6197268468
 30
0.0
 10
155.8306510034
 20
63.5962118945
 30
0.0
 10
155.837585465
 20
63.5752223694
 30
0.0
  0
SPLINE
  5
57D
100
AcDbEntity
  8
3_ALL_AXES
100
AcDbSpline
 62
7
  6
CONTINUOUS
 70
0
 71
3
 72
8
 73
4
 74
0
 42
0.0000001
 43
0.0000001
 44
0.0000000001
 40
0.0
 40
0.0
 40
0.0
 40
0.0
 40
1.0
 40
1.0
 40
1.0
 40
1.0
 10
155.837585465
 20
63.5752223694
 30
0.0
 10
155.8422998563
 20
63.5609526482
 30
0.0
 10
155.8517931571
 20
63.5468137974
 30
0.0
 10
155.8647917028
 20
63.5392713684
 30
0.0
  0
SPLINE
  5
57E
100
AcDbEntity
  8
3_ALL_AXES
100
AcDbSpline
 62
7
  6
CONTINUOUS
 70
0
 71
3
 72
9
 73
5
 74
0
 42
0.0000001
 43
0.0000001
 44
0.0000000001
 40
0.0
 40
0.0
 40
0.0
 40
0.0
 40
0.2883133887
 40
1.0
 40
1.0
 40
1.0
 40
1.0
 10
156.8698582133
 20
62.6956391799
 30
0.0
 10
156.8911624131
 20
62.7079423864
 30
0.0
 10
156.9508038385
 20
62.7619861755
 30
0.0
 10
156.9913933345
 20
62.8969247391
 30
0.0
 10
156.9388676981
 20
62.9274028319
 30
0.0
  0
SPLINE
  5
57F
100
AcDbEntity
  8
3_ALL_AXES
100
AcDbSpline
 62
7
  6
CONTINUOUS
 70
0
 71
3
 72
9
 73
5
 74
0
 42
0.0000001
 43
0.0000001
 44
0.0000000001
 40
0.0
 40
0.0
 40
0.0
 40
0.0
 40
0.2338651611
 40
1.0
 40
1.0
 40
1.0
 40
1.0
 10
156.8698582133
 20
62.936699116
 30
0.0
 10
156.8564457246
 20
62.9289533841
 30
0.0
 10
156.8045072364
 20
62.8872157495
 30
0.0
 10
156.7701660571
 20
62.8240047409
 30
0.0
 10
156.7612947271
 20
62.7740467151
 30
0.0
  0
SPLINE
  5
580
100
AcDbEntity
  8
3_ALL_AXES
100
AcDbSpline
 62
7
  6
CONTINUOUS
 70
0
 71
3
 72
8
 73
4
 74
0
 42
0.0000001
 43
0.0000001
 44
0.0000000001
 40
0.0
 40
0.0
 40
0.0
 40
0.0
 40
1.0
 40
1.0
 40
1.0
 40
1.0
 10
156.7612947271
 20
62.7740467151
 30
0.0
 10
156.7574298163
 20
62.7522818492
 30
0.0
 10
156.7568495314
 20
62.7287668969
 30
0.0
 10
156.763783993
 20
62.7077773718
 30
0.0
  0
SPLINE
  5
581
100
AcDbEntity
  8
3_ALL_AXES
100
AcDbSpline
 62
7
  6
CONTINUOUS
 70
0
 71
3
 72
8
 73
4
 74
0
 42
0.0000001
 43
0.0000001
 44
0.0000000001
 40
0.0
 40
0.0
 40
0.0
 40
0.0
 40
1.0
 40
1.0
 40
1.0
 40
1.0
 10
156.763783993
 20
62.7077773718
 30
0.0
 10
156.7684983843
 20
62.6935076506
 30
0.0
 10
156.777991685
 20
62.6793687998
 30
0.0
 10
156.7909902308
 20
62.6718263708
 30
0.0
  0
SPLINE
  5
582
100
AcDbEntity
  8
3_ALL_AXES
100
AcDbSpline
 62
7
  6
CONTINUOUS
 70
0
 71
3
 72
9
 73
5
 74
0
 42
0.0000001
 43
0.0000001
 44
0.0000000001
 40
0.0
 40
0.0
 40
0.0
 40
0.0
 40
0.2883133887
 40
1.0
 40
1.0
 40
1.0
 40
1.0
 10
156.8698582133
 20
60.1146907971
 30
0.0
 10
156.8911624131
 20
60.1269940036
 30
0.0
 10
156.9508038385
 20
60.1810377927
 30
0.0
 10
156.9913933345
 20
60.3159763564
 30
0.0
 10
156.9388676981
 20
60.3464544492
 30
0.0
  0
SPLINE
  5
583
100
AcDbEntity
  8
3_ALL_AXES
100
AcDbSpline
 62
7
  6
CONTINUOUS
 70
0
 71
3
 72
9
 73
5
 74
0
 42
0.0000001
 43
0.0000001
 44
0.0000000001
 40
0.0
 40
0.0
 40
0.0
 40
0.0
 40
0.2338651611
 40
1.0
 40
1.0
 40
1.0
 40
1.0
 10
156.8698582133
 20
60.3557507332
 30
0.0
 10
156.8564457246
 20
60.3480050014
 30
0.0
 10
156.8045072364
 20
60.3062673667
 30
0.0
 10
156.7701660571
 20
60.2430563581
 30
0.0
 10
156.7612947271
 20
60.1930983324
 30
0.0
  0
SPLINE
  5
584
100
AcDbEntity
  8
3_ALL_AXES
100
AcDbSpline
 62
7
  6
CONTINUOUS
 70
0
 71
3
 72
8
 73
4
 74
0
 42
0.0000001
 43
0.0000001
 44
0.0000000001
 40
0.0
 40
0.0
 40
0.0
 40
0.0
 40
1.0
 40
1.0
 40
1.0
 40
1.0
 10
156.7612947271
 20
60.1930983324
 30
0.0
 10
156.7574298163
 20
60.1713334665
 30
0.0
 10
156.7568495314
 20
60.1478185142
 30
0.0
 10
156.763783993
 20
60.126828989
 30
0.0
  0
SPLINE
  5
585
100
AcDbEntity
  8
3_ALL_AXES
100
AcDbSpline
 62
7
  6
CONTINUOUS
 70
0
 71
3
 72
8
 73
4
 74
0
 42
0.0000001
 43
0.0000001
 44
0.0000000001
 40
0.0
 40
0.0
 40
0.0
 40
0.0
 40
1.0
 40
1.0
 40
1.0
 40
1.0
 10
156.763783993
 20
60.126828989
 30
0.0
 10
156.7684983843
 20
60.1125592679
 30
0.0
 10
156.777991685
 20
60.0984204171
 30
0.0
 10
156.7909902308
 20
60.0908779881
 30
0.0
  0
SPLINE
  5
586
100
AcDbEntity
  8
3_ALL_AXES
100
AcDbSpline
 62
7
  6
CONTINUOUS
 70
0
 71
3
 72
9
 73
5
 74
0
 42
0.0000001
 43
0.0000001
 44
0.0000000001
 40
0.0
 40
0.0
 40
0.0
 40
0.0
 40
0.2883133887
 40
1.0
 40
1.0
 40
1.0
 40
1.0
 10
155.9436596854
 20
58.1761981382
 30
0.0
 10
155.9649638852
 20
58.1885013447
 30
0.0
 10
156.0246053105
 20
58.2425451338
 30
0.0
 10
156.0651948065
 20
58.3774836975
 30
0.0
 10
156.0126691701
 20
58.4079617903
 30
0.0
  0
SPLINE
  5
587
100
AcDbEntity
  8
3_ALL_AXES
100
AcDbSpline
 62
7
  6
CONTINUOUS
 70
0
 71
3
 72
9
 73
5
 74
0
 42
0.0000001
 43
0.0000001
 44
0.0000000001
 40
0.0
 40
0.0
 40
0.0
 40
0.0
 40
0.2338651611
 40
1.0
 40
1.0
 40
1.0
 40
1.0
 10
155.9436596854
 20
58.4172580743
 30
0.0
 10
155.9302471966
 20
58.4095123425
 30
0.0
 10
155.8783087084
 20
58.3677747078
 30
0.0
 10
155.8439675291
 20
58.3045636992
 30
0.0
 10
155.8350961991
 20
58.2546056735
 30
0.0
  0
SPLINE
  5
588
100
AcDbEntity
  8
3_ALL_AXES
100
AcDbSpline
 62
7
  6
CONTINUOUS
 70
0
 71
3
 72
8
 73
4
 74
0
 42
0.0000001
 43
0.0000001
 44
0.0000000001
 40
0.0
 40
0.0
 40
0.0
 40
0.0
 40
1.0
 40
1.0
 40
1.0
 40
1.0
 10
155.8350961991
 20
58.2546056735
 30
0.0
 10
155.8312312884
 20
58.2328408076
 30
0.0
 10
155.8306510034
 20
58.2093258553
 30
0.0
 10
155.837585465
 20
58.1883363301
 30
0.0
  0
SPLINE
  5
589
100
AcDbEntity
  8
3_ALL_AXES
100
AcDbSpline
 62
7
  6
CONTINUOUS
 70
0
 71
3
 72
8
 73
4
 74
0
 42
0.0000001
 43
0.0000001
 44
0.0000000001
 40
0.0
 40
0.0
 40
0.0
 40
0.0
 40
1.0
 40
1.0
 40
1.0
 40
1.0
 10
155.837585465
 20
58.1883363301
 30
0.0
 10
155.8422998563
 20
58.174066609
 30
0.0
 10
155.8517931571
 20
58.1599277582
 30
0.0
 10
155.8647917028
 20
58.1523853292
 30
0.0
  0
SPLINE
  5
58A
100
AcDbEntity
  8
3_ALL_AXES
100
AcDbSpline
 62
7
  6
CONTINUOUS
 70
0
 71
3
 72
9
 73
5
 74
0
 42
0.0000001
 43
0.0000001
 44
0.0000000001
 40
0.0
 40
0.0
 40
0.0
 40
0.0
 40
0.2883133887
 40
1.0
 40
1.0
 40
1.0
 40
1.0
 10
154.529446123
 20
57.3594877381
 30
0.0
 10
154.5507503228
 20
57.3717909446
 30
0.0
 10
154.6103917482
 20
57.4258347337
 30
0.0
 10
154.6509812441
 20
57.5607732974
 30
0.0
 10
154.5984556077
 20
57.5912513901
 30
0.0
  0
SPLINE
  5
58B
100
AcDbEntity
  8
3_ALL_AXES
100
AcDbSpline
 62
7
  6
CONTINUOUS
 70
0
 71
3
 72
9
 73
5
 74
0
 42
0.0000001
 43
0.0000001
 44
0.0000000001
 40
0.0
 40
0.0
 40
0.0
 40
0.0
 40
0.2338651611
 40
1.0
 40
1.0
 40
1.0
 40
1.0
 10
154.529446123
 20
57.6005476742
 30
0.0
 10
154.5160336342
 20
57.5928019424
 30
0.0
 10
154.4640951461
 20
57.5510643077
 30
0.0
 10
154.4297539668
 20
57.4878532991
 30
0.0
 10
154.4208826367
 20
57.4378952734
 30
0.0
  0
SPLINE
  5
58C
100
AcDbEntity
  8
3_ALL_AXES
100
AcDbSpline
 62
7
  6
CONTINUOUS
 70
0
 71
3
 72
8
 73
4
 74
0
 42
0.0000001
 43
0.0000001
 44
0.0000000001
 40
0.0
 40
0.0
 40
0.0
 40
0.0
 40
1.0
 40
1.0
 40
1.0
 40
1.0
 10
154.4208826367
 20
57.4378952734
 30
0.0
 10
154.417017726
 20
57.4161304074
 30
0.0
 10
154.416437441
 20
57.3926154552
 30
0.0
 10
154.4233719027
 20
57.37162593
 30
0.0
  0
SPLINE
  5
58D
100
AcDbEntity
  8
3_ALL_AXES
100
AcDbSpline
 62
7
  6
CONTINUOUS
 70
0
 71
3
 72
8
 73
4
 74
0
 42
0.0000001
 43
0.0000001
 44
0.0000000001
 40
0.0
 40
0.0
 40
0.0
 40
0.0
 40
1.0
 40
1.0
 40
1.0
 40
1.0
 10
154.4233719027
 20
57.37162593
 30
0.0
 10
154.4280862939
 20
57.3573562088
 30
0.0
 10
154.4375795947
 20
57.3432173581
 30
0.0
 10
154.4505781405
 20
57.335674929
 30
0.0
  0
SPLINE
  5
58E
100
AcDbEntity
  8
7_ALL_ROUNDS
100
AcDbSpline
 62
7
  6
CONTINUOUS
 70
0
 71
3
 72
8
 73
4
 74
0
 42
0.0000001
 43
0.0000001
 44
0.0000000001
 40
0.0
 40
0.0
 40
0.0
 40
0.0
 40
1.0
 40
1.0
 40
1.0
 40
1.0
 10
153.478979658
 20
56.7091828802
 30
0.0
 10
153.4641500793
 20
56.7177468699
 30
0.0
 10
153.4523903121
 20
56.7324585719
 30
0.0
 10
153.445466581
 20
56.7481212751
 30
0.0
  0
SPLINE
  5
58F
100
AcDbEntity
  8
7_ALL_ROUNDS
100
AcDbSpline
 62
7
  6
CONTINUOUS
 70
0
 71
3
 72
8
 73
4
 74
0
 42
0.0000001
 43
0.0000001
 44
0.0000000001
 40
0.0
 40
0.0
 40
0.0
 40
0.0
 40
1.0
 40
1.0
 40
1.0
 40
1.0
 10
153.445466581
 20
56.7481212751
 30
0.0
 10
153.4372178512
 20
56.7667813594
 30
0.0
 10
153.4341544223
 20
56.7878707634
 30
0.0
 10
153.4341544223
 20
56.8082727312
 30
0.0
  0
SPLINE
  5
590
100
AcDbEntity
  8
7_ALL_ROUNDS
100
AcDbSpline
 62
7
  6
CONTINUOUS
 70
0
 71
3
 72
8
 73
4
 74
0
 42
0.0000001
 43
0.0000001
 44
0.0000000001
 40
0.0
 40
0.0
 40
0.0
 40
0.0
 40
1.0
 40
1.0
 40
1.0
 40
1.0
 10
153.5085128682
 20
56.7603228496
 30
0.0
 10
153.5268510072
 20
56.749732688
 30
0.0
 10
153.5524977917
 20
56.7524053815
 30
0.0
 10
153.5720415551
 20
56.7605589193
 30
0.0
  0
SPLINE
  5
591
100
AcDbEntity
  8
7_ALL_ROUNDS
100
AcDbSpline
 62
7
  6
CONTINUOUS
 70
0
 71
3
 72
9
 73
5
 74
0
 42
0.0000001
 43
0.0000001
 44
0.0000000001
 40
0.0
 40
0.0
 40
0.0
 40
0.0
 40
0.4916045062
 40
1.0
 40
1.0
 40
1.0
 40
1.0
 10
153.5720415551
 20
56.7605589193
 30
0.0
 10
153.5746146707
 20
56.7616324073
 30
0.0
 10
153.5797741614
 20
56.7639983262
 30
0.0
 10
153.584771255
 20
56.7666888731
 30
0.0
 10
153.5872680954
 20
56.768130802
 30
0.0
  0
SPLINE
  5
592
100
AcDbEntity
  8
3_ALL_AXES
100
AcDbSpline
 62
7
  6
CONTINUOUS
 70
0
 71
3
 72
11
 73
7
 74
0
 42
0.0000001
 43
0.0000001
 44
0.0000000001
 40
0.0
 40
0.0
 40
0.0
 40
0.0
 40
0.2898024362
 40
0.5490431
 40
0.7822279014
 40
1.0
 40
1.0
 40
1.0
 40
1.0
 10
131.6357505281
 20
71.3427944126
 30
0.0
 10
131.6357505281
 20
71.0034504538
 30
0.0
 10
131.5845252159
 20
70.3583274613
 30
0.0
 10
131.3230199794
 20
69.4720190193
 30
0.0
 10
130.8834908807
 20
68.7526849329
 30
0.0
 10
130.4702557175
 20
68.4052499916
 30
0.0
 10
130.2494441274
 20
68.2777067229
 30
0.0
  0
SPLINE
  5
593
100
AcDbEntity
  8
3_ALL_AXES
100
AcDbSpline
 62
7
  6
CONTINUOUS
 70
0
 71
3
 72
16
 73
12
 74
0
 42
0.0000001
 43
0.0000001
 44
0.0000000001
 40
0.0
 40
0.0
 40
0.0
 40
0.0
 40
0.1287303334
 40
0.2703810282
 40
0.4176046143
 40
0.5620209081
 40
0.6957560936
 40
0.8130756443
 40
0.9124801982
 40
0.9571255718
 40
1.0
 40
1.0
 40
1.0
 40
1.0
 10
120.6059982956
 20
77.7124924544
 30
0.0
 10
120.6059982956
 20
76.9518045666
 30
0.0
 10
120.8188940721
 20
75.3522622942
 30
0.0
 10
121.6132129721
 20
73.0036189217
 30
0.0
 10
122.8376792578
 20
70.7409984864
 30
0.0
 10
124.3923436781
 20
68.7501880343
 30
0.0
 10
126.1548101031
 20
67.1913058738
 30
0.0
 10
127.9882541197
 20
66.1855301199
 30
0.0
 10
129.5446588238
 20
65.8816204069
 30
0.0
 10
130.6470773748
 20
66.0432609993
 30
0.0
 10
131.1307188897
 20
66.2443296096
 30
0.0
 10
131.3501133866
 20
66.3710307372
 30
0.0
  0
SPLINE
  5
594
100
AcDbEntity
  8
3_ALL_AXES
100
AcDbSpline
 62
7
  6
CONTINUOUS
 70
0
 71
3
 72
11
 73
7
 74
0
 42
0.0000001
 43
0.0000001
 44
0.0000000001
 40
0.0
 40
0.0
 40
0.0
 40
0.0
 40
0.2898024362
 40
0.5490431
 40
0.7822279014
 40
1.0
 40
1.0
 40
1.0
 40
1.0
 10
146.6258853511
 20
62.685969634
 30
0.0
 10
146.6258853511
 20
62.3466256752
 30
0.0
 10
146.5746600389
 20
61.7015026827
 30
0.0
 10
146.3131548024
 20
60.8151942407
 30
0.0
 10
145.8736257037
 20
60.0958601543
 30
0.0
 10
145.4603905405
 20
59.748425213
 30
0.0
 10
145.2395789504
 20
59.6208819443
 30
0.0
  0
SPLINE
  5
595
100
AcDbEntity
  8
3_ALL_AXES
100
AcDbSpline
 62
7
  6
CONTINUOUS
 70
0
 71
3
 72
16
 73
12
 74
0
 42
0.0000001
 43
0.0000001
 44
0.0000000001
 40
0.0
 40
0.0
 40
0.0
 40
0.0
 40
0.1287303334
 40
0.2703810282
 40
0.4176046143
 40
0.5620209081
 40
0.6957560936
 40
0.8130756443
 40
0.9124801982
 40
0.9571255718
 40
1.0
 40
1.0
 40
1.0
 40
1.0
 10
135.5961331186
 20
69.0556676758
 30
0.0
 10
135.5961331186
 20
68.294979788
 30
0.0
 10
135.8090288952
 20
66.6954375156
 30
0.0
 10
136.6033477951
 20
64.3467941431
 30
0.0
 10
137.8278140808
 20
62.0841737077
 30
0.0
 10
139.3824785011
 20
60.0933632557
 30
0.0
 10
141.1449449261
 20
58.5344810951
 30
0.0
 10
142.9783889427
 20
57.5287053413
 30
0.0
 10
144.5347936468
 20
57.2247956283
 30
0.0
 10
145.6372121978
 20
57.3864362206
 30
0.0
 10
146.1208537127
 20
57.587504831
 30
0.0
 10
146.3402482096
 20
57.7142059586
 30
0.0
  0
SPLINE
  5
596
100
AcDbEntity
  8
3_AXES_OTHER
100
AcDbSpline
 62
7
  6
CONTINUOUS
 70
0
 71
3
 72
9
 73
5
 74
0
 42
0.0000001
 43
0.0000001
 44
0.0000000001
 40
0.0
 40
0.0
 40
0.0
 40
0.0
 40
0.4915283938
 40
1.0
 40
1.0
 40
1.0
 40
1.0
 10
154.5230615482
 20
58.8285291139
 30
0.0
 10
154.5258029612
 20
58.8269459154
 30
0.0
 10
154.5317695388
 20
58.8243587457
 30
0.0
 10
154.5381539778
 20
58.8231612566
 30
0.0
 10
154.5414168284
 20
58.8228810893
 30
0.0
  0
SPLINE
  5
597
100
AcDbEntity
  8
3_AXES_OTHER
100
AcDbSpline
 62
7
  6
CONTINUOUS
 70
0
 71
3
 72
8
 73
4
 74
0
 42
0.0000001
 43
0.0000001
 44
0.0000000001
 40
0.0
 40
0.0
 40
0.0
 40
0.0
 40
1.0
 40
1.0
 40
1.0
 40
1.0
 10
154.5414168284
 20
58.8228810893
 30
0.0
 10
154.5566366323
 20
58.8215742282
 30
0.0
 10
154.5724522274
 20
58.8271106128
 30
0.0
 10
154.5856805993
 20
58.8347500169
 30
0.0
  0
SPLINE
  5
598
100
AcDbEntity
  8
3_ALL_AXES
100
AcDbSpline
 62
7
  6
CONTINUOUS
 70
0
 71
3
 72
8
 73
4
 74
0
 42
0.0000001
 43
0.0000001
 44
0.0000000001
 40
0.0
 40
0.0
 40
0.0
 40
0.0
 40
1.0
 40
1.0
 40
1.0
 40
1.0
 10
154.6083141055
 20
57.6082898209
 30
0.0
 10
154.5992487953
 20
57.6135499831
 30
0.0
 10
154.5882395807
 20
57.6159572318
 30
0.0
 10
154.5777614197
 20
57.6157178616
 30
0.0
  0
SPLINE
  5
599
100
AcDbEntity
  8
3_ALL_AXES
100
AcDbSpline
 62
7
  6
CONTINUOUS
 70
0
 71
3
 72
9
 73
5
 74
0
 42
0.0000001
 43
0.0000001
 44
0.0000000001
 40
0.0
 40
0.0
 40
0.0
 40
0.0
 40
0.49096342
 40
1.0
 40
1.0
 40
1.0
 40
1.0
 10
154.5777614197
 20
57.6157178616
 30
0.0
 10
154.5755653817
 20
57.6156676938
 30
0.0
 10
154.571095496
 20
57.6153527768
 30
0.0
 10
154.5666702708
 20
57.6146573084
 30
0.0
 10
154.5644357026
 20
57.6142173279
 30
0.0
  0
SPLINE
  5
59A
100
AcDbEntity
  8
3_ALL_AXES
100
AcDbSpline
 62
7
  6
CONTINUOUS
 70
0
 71
3
 72
8
 73
4
 74
0
 42
0.0000001
 43
0.0000001
 44
0.0000000001
 40
0.0
 40
0.0
 40
0.0
 40
0.0
 40
1.0
 40
1.0
 40
1.0
 40
1.0
 10
154.5644357026
 20
57.6142173279
 30
0.0
 10
154.5521499186
 20
57.6117982896
 30
0.0
 10
154.5402894979
 20
57.6068097391
 30
0.0
 10
154.529446123
 20
57.6005476742
 30
0.0
  0
SPLINE
  5
59B
100
AcDbEntity
  8
3_ALL_AXES
100
AcDbSpline
 62
7
  6
CONTINUOUS
 70
0
 71
3
 72
9
 73
5
 74
0
 42
0.0000001
 43
0.0000001
 44
0.0000000001
 40
0.0
 40
0.0
 40
0.0
 40
0.0
 40
0.7053287407
 40
1.0
 40
1.0
 40
1.0
 40
1.0
 10
154.4604366383
 20
57.3527133598
 30
0.0
 10
154.4748712459
 20
57.3443376534
 30
0.0
 10
154.5024028123
 20
57.3457001602
 30
0.0
 10
154.5234084572
 20
57.3560009773
 30
0.0
 10
154.529446123
 20
57.3594877381
 30
0.0
  0
SPLINE
  5
59C
100
AcDbEntity
  8
3_ALL_AXES
100
AcDbSpline
 62
7
  6
CONTINUOUS
 70
0
 71
3
 72
8
 73
4
 74
0
 42
0.0000001
 43
0.0000001
 44
0.0000000001
 40
0.0
 40
0.0
 40
0.0
 40
0.0
 40
1.0
 40
1.0
 40
1.0
 40
1.0
 10
156.0225276679
 20
58.425000221
 30
0.0
 10
156.0134623577
 20
58.4302603832
 30
0.0
 10
156.0024531431
 20
58.4326676319
 30
0.0
 10
155.9919749821
 20
58.4324282617
 30
0.0
  0
SPLINE
  5
59D
100
AcDbEntity
  8
3_ALL_AXES
100
AcDbSpline
 62
7
  6
CONTINUOUS
 70
0
 71
3
 72
9
 73
5
 74
0
 42
0.0000001
 43
0.0000001
 44
0.0000000001
 40
0.0
 40
0.0
 40
0.0
 40
0.0
 40
0.49096342
 40
1.0
 40
1.0
 40
1.0
 40
1.0
 10
155.9919749821
 20
58.4324282617
 30
0.0
 10
155.989778944
 20
58.4323780939
 30
0.0
 10
155.9853090584
 20
58.4320631769
 30
0.0
 10
155.9808838332
 20
58.4313677085
 30
0.0
 10
155.978649265
 20
58.430927728
 30
0.0
  0
SPLINE
  5
59E
100
AcDbEntity
  8
3_ALL_AXES
100
AcDbSpline
 62
7
  6
CONTINUOUS
 70
0
 71
3
 72
8
 73
4
 74
0
 42
0.0000001
 43
0.0000001
 44
0.0000000001
 40
0.0
 40
0.0
 40
0.0
 40
0.0
 40
1.0
 40
1.0
 40
1.0
 40
1.0
 10
155.978649265
 20
58.430927728
 30
0.0
 10
155.966363481
 20
58.4285086898
 30
0.0
 10
155.9545030603
 20
58.4235201392
 30
0.0
 10
155.9436596854
 20
58.4172580743
 30
0.0
  0
SPLINE
  5
59F
100
AcDbEntity
  8
3_ALL_AXES
100
AcDbSpline
 62
7
  6
CONTINUOUS
 70
0
 71
3
 72
9
 73
5
 74
0
 42
0.0000001
 43
0.0000001
 44
0.0000000001
 40
0.0
 40
0.0
 40
0.0
 40
0.0
 40
0.7053287407
 40
1.0
 40
1.0
 40
1.0
 40
1.0
 10
155.8746502007
 20
58.1694237599
 30
0.0
 10
155.8890848082
 20
58.1610480535
 30
0.0
 10
155.9166163747
 20
58.1624105603
 30
0.0
 10
155.9376220196
 20
58.1727113774
 30
0.0
 10
155.9436596854
 20
58.1761981382
 30
0.0
  0
SPLINE
  5
5A0
100
AcDbEntity
  8
3_ALL_AXES
100
AcDbSpline
 62
7
  6
CONTINUOUS
 70
0
 71
3
 72
8
 73
4
 74
0
 42
0.0000001
 43
0.0000001
 44
0.0000000001
 40
0.0
 40
0.0
 40
0.0
 40
0.0
 40
1.0
 40
1.0
 40
1.0
 40
1.0
 10
156.9487261959
 20
60.3634928799
 30
0.0
 10
156.9396608857
 20
60.3687530421
 30
0.0
 10
156.928651671
 20
60.3711602908
 30
0.0
 10
156.9181735101
 20
60.3709209206
 30
0.0
  0
SPLINE
  5
5A1
100
AcDbEntity
  8
3_ALL_AXES
100
AcDbSpline
 62
7
  6
CONTINUOUS
 70
0
 71
3
 72
9
 73
5
 74
0
 42
0.0000001
 43
0.0000001
 44
0.0000000001
 40
0.0
 40
0.0
 40
0.0
 40
0.0
 40
0.49096342
 40
1.0
 40
1.0
 40
1.0
 40
1.0
 10
156.9181735101
 20
60.3709209206
 30
0.0
 10
156.915977472
 20
60.3708707528
 30
0.0
 10
156.9115075864
 20
60.3705558358
 30
0.0
 10
156.9070823612
 20
60.3698603674
 30
0.0
 10
156.9048477929
 20
60.3694203869
 30
0.0
  0
SPLINE
  5
5A2
100
AcDbEntity
  8
3_ALL_AXES
100
AcDbSpline
 62
7
  6
CONTINUOUS
 70
0
 71
3
 72
8
 73
4
 74
0
 42
0.0000001
 43
0.0000001
 44
0.0000000001
 40
0.0
 40
0.0
 40
0.0
 40
0.0
 40
1.0
 40
1.0
 40
1.0
 40
1.0
 10
156.9048477929
 20
60.3694203869
 30
0.0
 10
156.8925620089
 20
60.3670013487
 30
0.0
 10
156.8807015882
 20
60.3620127981
 30
0.0
 10
156.8698582133
 20
60.3557507332
 30
0.0
  0
SPLINE
  5
5A3
100
AcDbEntity
  8
3_ALL_AXES
100
AcDbSpline
 62
7
  6
CONTINUOUS
 70
0
 71
3
 72
9
 73
5
 74
0
 42
0.0000001
 43
0.0000001
 44
0.0000000001
 40
0.0
 40
0.0
 40
0.0
 40
0.0
 40
0.7053287407
 40
1.0
 40
1.0
 40
1.0
 40
1.0
 10
156.8008487286
 20
60.1079164188
 30
0.0
 10
156.8152833362
 20
60.0995407124
 30
0.0
 10
156.8428149027
 20
60.1009032192
 30
0.0
 10
156.8638205476
 20
60.1112040363
 30
0.0
 10
156.8698582133
 20
60.1146907971
 30
0.0
  0
SPLINE
  5
5A4
100
AcDbEntity
  8
3_ALL_AXES
100
AcDbSpline
 62
7
  6
CONTINUOUS
 70
0
 71
3
 72
8
 73
4
 74
0
 42
0.0000001
 43
0.0000001
 44
0.0000000001
 40
0.0
 40
0.0
 40
0.0
 40
0.0
 40
1.0
 40
1.0
 40
1.0
 40
1.0
 10
156.9487261959
 20
62.9444412627
 30
0.0
 10
156.9396608857
 20
62.9497014248
 30
0.0
 10
156.928651671
 20
62.9521086736
 30
0.0
 10
156.9181735101
 20
62.9518693034
 30
0.0
  0
SPLINE
  5
5A5
100
AcDbEntity
  8
3_ALL_AXES
100
AcDbSpline
 62
7
  6
CONTINUOUS
 70
0
 71
3
 72
9
 73
5
 74
0
 42
0.0000001
 43
0.0000001
 44
0.0000000001
 40
0.0
 40
0.0
 40
0.0
 40
0.0
 40
0.49096342
 40
1.0
 40
1.0
 40
1.0
 40
1.0
 10
156.9181735101
 20
62.9518693034
 30
0.0
 10
156.915977472
 20
62.9518191356
 30
0.0
 10
156.9115075864
 20
62.9515042186
 30
0.0
 10
156.9070823612
 20
62.9508087502
 30
0.0
 10
156.9048477929
 20
62.9503687696
 30
0.0
  0
SPLINE
  5
5A6
100
AcDbEntity
  8
3_ALL_AXES
100
AcDbSpline
 62
7
  6
CONTINUOUS
 70
0
 71
3
 72
8
 73
4
 74
0
 42
0.0000001
 43
0.0000001
 44
0.0000000001
 40
0.0
 40
0.0
 40
0.0
 40
0.0
 40
1.0
 40
1.0
 40
1.0
 40
1.0
 10
156.9048477929
 20
62.9503687696
 30
0.0
 10
156.8925620089
 20
62.9479497314
 30
0.0
 10
156.8807015882
 20
62.9429611808
 30
0.0
 10
156.8698582133
 20
62.936699116
 30
0.0
  0
SPLINE
  5
5A7
100
AcDbEntity
  8
3_ALL_AXES
100
AcDbSpline
 62
7
  6
CONTINUOUS
 70
0
 71
3
 72
9
 73
5
 74
0
 42
0.0000001
 43
0.0000001
 44
0.0000000001
 40
0.0
 40
0.0
 40
0.0
 40
0.0
 40
0.7053287407
 40
1.0
 40
1.0
 40
1.0
 40
1.0
 10
156.8008487286
 20
62.6888648015
 30
0.0
 10
156.8152833362
 20
62.6804890952
 30
0.0
 10
156.8428149027
 20
62.681851602
 30
0.0
 10
156.8638205476
 20
62.6921524191
 30
0.0
 10
156.8698582133
 20
62.6956391799
 30
0.0
  0
SPLINE
  5
5A8
100
AcDbEntity
  8
3_ALL_AXES
100
AcDbSpline
 62
7
  6
CONTINUOUS
 70
0
 71
3
 72
8
 73
4
 74
0
 42
0.0000001
 43
0.0000001
 44
0.0000000001
 40
0.0
 40
0.0
 40
0.0
 40
0.0
 40
1.0
 40
1.0
 40
1.0
 40
1.0
 10
156.0225276679
 20
63.8118862602
 30
0.0
 10
156.0134623577
 20
63.8171464224
 30
0.0
 10
156.0024531431
 20
63.8195536711
 30
0.0
 10
155.9919749821
 20
63.8193143009
 30
0.0
  0
SPLINE
  5
5A9
100
AcDbEntity
  8
3_ALL_AXES
100
AcDbSpline
 62
7
  6
CONTINUOUS
 70
0
 71
3
 72
9
 73
5
 74
0
 42
0.0000001
 43
0.0000001
 44
0.0000000001
 40
0.0
 40
0.0
 40
0.0
 40
0.0
 40
0.49096342
 40
1.0
 40
1.0
 40
1.0
 40
1.0
 10
155.9919749821
 20
63.8193143009
 30
0.0
 10
155.989778944
 20
63.8192641332
 30
0.0
 10
155.9853090584
 20
63.8189492161
 30
0.0
 10
155.9808838332
 20
63.8182537478
 30
0.0
 10
155.978649265
 20
63.8178137672
 30
0.0
  0
SPLINE
  5
5AA
100
AcDbEntity
  8
3_ALL_AXES
100
AcDbSpline
 62
7
  6
CONTINUOUS
 70
0
 71
3
 72
8
 73
4
 74
0
 42
0.0000001
 43
0.0000001
 44
0.0000000001
 40
0.0
 40
0.0
 40
0.0
 40
0.0
 40
1.0
 40
1.0
 40
1.0
 40
1.0
 10
155.978649265
 20
63.8178137672
 30
0.0
 10
155.966363481
 20
63.815394729
 30
0.0
 10
155.9545030603
 20
63.8104061784
 30
0.0
 10
155.9436596854
 20
63.8041441136
 30
0.0
  0
SPLINE
  5
5AB
100
AcDbEntity
  8
3_ALL_AXES
100
AcDbSpline
 62
7
  6
CONTINUOUS
 70
0
 71
3
 72
9
 73
5
 74
0
 42
0.0000001
 43
0.0000001
 44
0.0000000001
 40
0.0
 40
0.0
 40
0.0
 40
0.0
 40
0.7053287407
 40
1.0
 40
1.0
 40
1.0
 40
1.0
 10
155.8746502007
 20
63.5563097991
 30
0.0
 10
155.8890848082
 20
63.5479340927
 30
0.0
 10
155.9166163747
 20
63.5492965995
 30
0.0
 10
155.9376220196
 20
63.5595974166
 30
0.0
 10
155.9436596854
 20
63.5630841774
 30
0.0
  0
SPLINE
  5
5AC
100
AcDbEntity
  8
3_ALL_AXES
100
AcDbSpline
 62
7
  6
CONTINUOUS
 70
0
 71
3
 72
8
 73
4
 74
0
 42
0.0000001
 43
0.0000001
 44
0.0000000001
 40
0.0
 40
0.0
 40
0.0
 40
0.0
 40
1.0
 40
1.0
 40
1.0
 40
1.0
 10
154.6083141055
 20
62.9951758601
 30
0.0
 10
154.5992487953
 20
63.0004360223
 30
0.0
 10
154.5882395807
 20
63.002843271
 30
0.0
 10
154.5777614197
 20
63.0026039008
 30
0.0
  0
SPLINE
  5
5AD
100
AcDbEntity
  8
3_ALL_AXES
100
AcDbSpline
 62
7
  6
CONTINUOUS
 70
0
 71
3
 72
9
 73
5
 74
0
 42
0.0000001
 43
0.0000001
 44
0.0000000001
 40
0.0
 40
0.0
 40
0.0
 40
0.0
 40
0.49096342
 40
1.0
 40
1.0
 40
1.0
 40
1.0
 10
154.5777614197
 20
63.0026039008
 30
0.0
 10
154.5755653817
 20
63.002553733
 30
0.0
 10
154.571095496
 20
63.002238816
 30
0.0
 10
154.5666702708
 20
63.0015433476
 30
0.0
 10
154.5644357026
 20
63.0011033671
 30
0.0
  0
SPLINE
  5
5AE
100
AcDbEntity
  8
3_ALL_AXES
100
AcDbSpline
 62
7
  6
CONTINUOUS
 70
0
 71
3
 72
8
 73
4
 74
0
 42
0.0000001
 43
0.0000001
 44
0.0000000001
 40
0.0
 40
0.0
 40
0.0
 40
0.0
 40
1.0
 40
1.0
 40
1.0
 40
1.0
 10
154.5644357026
 20
63.0011033671
 30
0.0
 10
154.5521499186
 20
62.9986843289
 30
0.0
 10
154.5402894979
 20
62.9936957783
 30
0.0
 10
154.529446123
 20
62.9874337135
 30
0.0
  0
SPLINE
  5
5AF
100
AcDbEntity
  8
3_ALL_AXES
100
AcDbSpline
 62
7
  6
CONTINUOUS
 70
0
 71
3
 72
9
 73
5
 74
0
 42
0.0000001
 43
0.0000001
 44
0.0000000001
 40
0.0
 40
0.0
 40
0.0
 40
0.0
 40
0.7053287407
 40
1.0
 40
1.0
 40
1.0
 40
1.0
 10
154.4604366383
 20
62.739599399
 30
0.0
 10
154.4748712459
 20
62.7312236926
 30
0.0
 10
154.5024028123
 20
62.7325861994
 30
0.0
 10
154.5234084572
 20
62.7428870165
 30
0.0
 10
154.529446123
 20
62.7463737773
 30
0.0
  0
SPLINE
  5
5B0
100
AcDbEntity
  8
3_ALL_AXES
100
AcDbSpline
 62
7
  6
CONTINUOUS
 70
0
 71
3
 72
8
 73
4
 74
0
 42
0.0000001
 43
0.0000001
 44
0.0000000001
 40
0.0
 40
0.0
 40
0.0
 40
0.0
 40
1.0
 40
1.0
 40
1.0
 40
1.0
 10
153.6821155776
 20
61.0579688542
 30
0.0
 10
153.6730502674
 20
61.0632290164
 30
0.0
 10
153.6620410527
 20
61.0656362651
 30
0.0
 10
153.6515628918
 20
61.0653968949
 30
0.0
  0
SPLINE
  5
5B1
100
AcDbEntity
  8
3_ALL_AXES
100
AcDbSpline
 62
7
  6
CONTINUOUS
 70
0
 71
3
 72
9
 73
5
 74
0
 42
0.0000001
 43
0.0000001
 44
0.0000000001
 40
0.0
 40
0.0
 40
0.0
 40
0.0
 40
0.49096342
 40
1.0
 40
1.0
 40
1.0
 40
1.0
 10
153.6515628918
 20
61.0653968949
 30
0.0
 10
153.6493668537
 20
61.0653467271
 30
0.0
 10
153.6448969681
 20
61.0650318101
 30
0.0
 10
153.6404717429
 20
61.0643363417
 30
0.0
 10
153.6382371747
 20
61.0638963612
 30
0.0
  0
SPLINE
  5
5B2
100
AcDbEntity
  8
3_ALL_AXES
100
AcDbSpline
 62
7
  6
CONTINUOUS
 70
0
 71
3
 72
8
 73
4
 74
0
 42
0.0000001
 43
0.0000001
 44
0.0000000001
 40
0.0
 40
0.0
 40
0.0
 40
0.0
 40
1.0
 40
1.0
 40
1.0
 40
1.0
 10
153.6382371747
 20
61.0638963612
 30
0.0
 10
153.6259513907
 20
61.061477323
 30
0.0
 10
153.6140909699
 20
61.0564887724
 30
0.0
 10
153.6032475951
 20
61.0502267075
 30
0.0
  0
SPLINE
  5
5B3
100
AcDbEntity
  8
3_ALL_AXES
100
AcDbSpline
 62
7
  6
CONTINUOUS
 70
0
 71
3
 72
9
 73
5
 74
0
 42
0.0000001
 43
0.0000001
 44
0.0000000001
 40
0.0
 40
0.0
 40
0.0
 40
0.0
 40
0.7053287407
 40
1.0
 40
1.0
 40
1.0
 40
1.0
 10
153.5342381103
 20
60.8023923931
 30
0.0
 10
153.5486727179
 20
60.7940166867
 30
0.0
 10
153.5762042844
 20
60.7953791935
 30
0.0
 10
153.5972099293
 20
60.8056800106
 30
0.0
 10
153.6032475951
 20
60.8091667714
 30
0.0
  0
SPLINE
  5
5B4
100
AcDbEntity
  8
3_ALL_AXES
100
AcDbSpline
 62
7
  6
CONTINUOUS
 70
0
 71
3
 72
9
 73
5
 74
0
 42
0.0000001
 43
0.0000001
 44
0.0000000001
 40
0.0
 40
0.0
 40
0.0
 40
0.0
 40
0.4915887763
 40
1.0
 40
1.0
 40
1.0
 40
1.0
 10
154.5688225353
 20
57.5401660134
 30
0.0
 10
154.567098992
 20
57.5411622507
 30
0.0
 10
154.5633495067
 20
57.5427929076
 30
0.0
 10
154.5593361296
 20
57.5435516438
 30
0.0
 10
154.5572849727
 20
57.543729759
 30
0.0
  0
SPLINE
  5
5B5
100
AcDbEntity
  8
3_ALL_AXES
100
AcDbSpline
 62
7
  6
CONTINUOUS
 70
0
 71
3
 72
8
 73
4
 74
0
 42
0.0000001
 43
0.0000001
 44
0.0000000001
 40
0.0
 40
0.0
 40
0.0
 40
0.0
 40
1.0
 40
1.0
 40
1.0
 40
1.0
 10
154.5572849727
 20
57.543729759
 30
0.0
 10
154.5477135652
 20
57.5445609057
 30
0.0
 10
154.5377658538
 20
57.5410696813
 30
0.0
 10
154.529446123
 20
57.5362650246
 30
0.0
  0
SPLINE
  5
5B6
100
AcDbEntity
  8
3_ALL_AXES
100
AcDbSpline
 62
7
  6
CONTINUOUS
 70
0
 71
3
 72
9
 73
5
 74
0
 42
0.0000001
 43
0.0000001
 44
0.0000000001
 40
0.0
 40
0.0
 40
0.0
 40
0.0
 40
0.4915887763
 40
1.0
 40
1.0
 40
1.0
 40
1.0
 10
155.9830360977
 20
58.3568764135
 30
0.0
 10
155.9813125543
 20
58.3578726508
 30
0.0
 10
155.977563069
 20
58.3595033077
 30
0.0
 10
155.973549692
 20
58.3602620439
 30
0.0
 10
155.971498535
 20
58.3604401591
 30
0.0
  0
SPLINE
  5
5B7
100
AcDbEntity
  8
3_ALL_AXES
100
AcDbSpline
 62
7
  6
CONTINUOUS
 70
0
 71
3
 72
8
 73
4
 74
0
 42
0.0000001
 43
0.0000001
 44
0.0000000001
 40
0.0
 40
0.0
 40
0.0
 40
0.0
 40
1.0
 40
1.0
 40
1.0
 40
1.0
 10
155.971498535
 20
58.3604401591
 30
0.0
 10
155.9619271276
 20
58.3612713058
 30
0.0
 10
155.9519794161
 20
58.3577800814
 30
0.0
 10
155.9436596854
 20
58.3529754247
 30
0.0
  0
SPLINE
  5
5B8
100
AcDbEntity
  8
3_ALL_AXES
100
AcDbSpline
 62
7
  6
CONTINUOUS
 70
0
 71
3
 72
9
 73
5
 74
0
 42
0.0000001
 43
0.0000001
 44
0.0000000001
 40
0.0
 40
0.0
 40
0.0
 40
0.0
 40
0.4915887763
 40
1.0
 40
1.0
 40
1.0
 40
1.0
 10
156.9092346256
 20
60.2953690724
 30
0.0
 10
156.9075110823
 20
60.2963653097
 30
0.0
 10
156.903761597
 20
60.2979959666
 30
0.0
 10
156.89974822
 20
60.2987547028
 30
0.0
 10
156.897697063
 20
60.298932818
 30
0.0
  0
SPLINE
  5
5B9
100
AcDbEntity
  8
3_ALL_AXES
100
AcDbSpline
 62
7
  6
CONTINUOUS
 70
0
 71
3
 72
8
 73
4
 74
0
 42
0.0000001
 43
0.0000001
 44
0.0000000001
 40
0.0
 40
0.0
 40
0.0
 40
0.0
 40
1.0
 40
1.0
 40
1.0
 40
1.0
 10
156.897697063
 20
60.298932818
 30
0.0
 10
156.8881256555
 20
60.2997639647
 30
0.0
 10
156.8781779441
 20
60.2962727403
 30
0.0
 10
156.8698582133
 20
60.2914680836
 30
0.0
  0
SPLINE
  5
5BA
100
AcDbEntity
  8
3_ALL_AXES
100
AcDbSpline
 62
7
  6
CONTINUOUS
 70
0
 71
3
 72
9
 73
5
 74
0
 42
0.0000001
 43
0.0000001
 44
0.0000000001
 40
0.0
 40
0.0
 40
0.0
 40
0.0
 40
0.4915887763
 40
1.0
 40
1.0
 40
1.0
 40
1.0
 10
156.9092346256
 20
62.8763174551
 30
0.0
 10
156.9075110823
 20
62.8773136925
 30
0.0
 10
156.903761597
 20
62.8789443494
 30
0.0
 10
156.89974822
 20
62.8797030856
 30
0.0
 10
156.897697063
 20
62.8798812007
 30
0.0
  0
SPLINE
  5
5BB
100
AcDbEntity
  8
3_ALL_AXES
100
AcDbSpline
 62
7
  6
CONTINUOUS
 70
0
 71
3
 72
8
 73
4
 74
0
 42
0.0000001
 43
0.0000001
 44
0.0000000001
 40
0.0
 40
0.0
 40
0.0
 40
0.0
 40
1.0
 40
1.0
 40
1.0
 40
1.0
 10
156.897697063
 20
62.8798812007
 30
0.0
 10
156.8881256555
 20
62.8807123475
 30
0.0
 10
156.8781779441
 20
62.877221123
 30
0.0
 10
156.8698582133
 20
62.8724164664
 30
0.0
  0
SPLINE
  5
5BC
100
AcDbEntity
  8
3_ALL_AXES
100
AcDbSpline
 62
7
  6
CONTINUOUS
 70
0
 71
3
 72
9
 73
5
 74
0
 42
0.0000001
 43
0.0000001
 44
0.0000000001
 40
0.0
 40
0.0
 40
0.0
 40
0.0
 40
0.4915887763
 40
1.0
 40
1.0
 40
1.0
 40
1.0
 10
155.9830360977
 20
63.7437624527
 30
0.0
 10
155.9813125543
 20
63.74475869
 30
0.0
 10
155.977563069
 20
63.7463893469
 30
0.0
 10
155.973549692
 20
63.7471480832
 30
0.0
 10
155.971498535
 20
63.7473261983
 30
0.0
  0
SPLINE
  5
5BD
100
AcDbEntity
  8
3_ALL_AXES
100
AcDbSpline
 62
7
  6
CONTINUOUS
 70
0
 71
3
 72
8
 73
4
 74
0
 42
0.0000001
 43
0.0000001
 44
0.0000000001
 40
0.0
 40
0.0
 40
0.0
 40
0.0
 40
1.0
 40
1.0
 40
1.0
 40
1.0
 10
155.971498535
 20
63.7473261983
 30
0.0
 10
155.9619271276
 20
63.748157345
 30
0.0
 10
155.9519794161
 20
63.7446661206
 30
0.0
 10
155.9436596854
 20
63.7398614639
 30
0.0
  0
SPLINE
  5
5BE
100
AcDbEntity
  8
3_ALL_AXES
100
AcDbSpline
 62
7
  6
CONTINUOUS
 70
0
 71
3
 72
9
 73
5
 74
0
 42
0.0000001
 43
0.0000001
 44
0.0000000001
 40
0.0
 40
0.0
 40
0.0
 40
0.0
 40
0.4915887763
 40
1.0
 40
1.0
 40
1.0
 40
1.0
 10
154.5688225353
 20
62.9270520526
 30
0.0
 10
154.567098992
 20
62.9280482899
 30
0.0
 10
154.5633495067
 20
62.9296789468
 30
0.0
 10
154.5593361296
 20
62.930437683
 30
0.0
 10
154.5572849727
 20
62.9306157982
 30
0.0
  0
SPLINE
  5
5BF
100
AcDbEntity
  8
3_ALL_AXES
100
AcDbSpline
 62
7
  6
CONTINUOUS
 70
0
 71
3
 72
8
 73
4
 74
0
 42
0.0000001
 43
0.0000001
 44
0.0000000001
 40
0.0
 40
0.0
 40
0.0
 40
0.0
 40
1.0
 40
1.0
 40
1.0
 40
1.0
 10
154.5572849727
 20
62.9306157982
 30
0.0
 10
154.5477135652
 20
62.9314469449
 30
0.0
 10
154.5377658538
 20
62.9279557205
 30
0.0
 10
154.529446123
 20
62.9231510638
 30
0.0
  0
SPLINE
  5
5C0
100
AcDbEntity
  8
3_ALL_AXES
100
AcDbSpline
 62
7
  6
CONTINUOUS
 70
0
 71
3
 72
9
 73
5
 74
0
 42
0.0000001
 43
0.0000001
 44
0.0000000001
 40
0.0
 40
0.0
 40
0.0
 40
0.0
 40
0.4915887763
 40
1.0
 40
1.0
 40
1.0
 40
1.0
 10
153.6426240074
 20
60.9898450467
 30
0.0
 10
153.640900464
 20
60.990841284
 30
0.0
 10
153.6371509787
 20
60.9924719409
 30
0.0
 10
153.6331376017
 20
60.9932306771
 30
0.0
 10
153.6310864447
 20
60.9934087923
 30
0.0
  0
SPLINE
  5
5C1
100
AcDbEntity
  8
3_ALL_AXES
100
AcDbSpline
 62
7
  6
CONTINUOUS
 70
0
 71
3
 72
8
 73
4
 74
0
 42
0.0000001
 43
0.0000001
 44
0.0000000001
 40
0.0
 40
0.0
 40
0.0
 40
0.0
 40
1.0
 40
1.0
 40
1.0
 40
1.0
 10
153.6310864447
 20
60.9934087923
 30
0.0
 10
153.6215150373
 20
60.994239939
 30
0.0
 10
153.6115673258
 20
60.9907487146
 30
0.0
 10
153.6032475951
 20
60.9859440579
 30
0.0
  0
SPLINE
  5
5C2
100
AcDbEntity
  8
3_ALL_AXES
100
AcDbSpline
 62
7
  6
CONTINUOUS
 70
0
 71
3
 72
9
 73
5
 74
0
 42
0.0000001
 43
0.0000001
 44
0.0000000001
 40
0.0
 40
0.0
 40
0.0
 40
0.0
 40
0.4915887763
 40
1.0
 40
1.0
 40
1.0
 40
1.0
 10
153.6426240074
 20
58.4088966639
 30
0.0
 10
153.640900464
 20
58.4098929013
 30
0.0
 10
153.6371509787
 20
58.4115235582
 30
0.0
 10
153.6331376017
 20
58.4122822944
 30
0.0
 10
153.6310864447
 20
58.4124604095
 30
0.0
  0
SPLINE
  5
5C3
100
AcDbEntity
  8
3_ALL_AXES
100
AcDbSpline
 62
7
  6
CONTINUOUS
 70
0
 71
3
 72
8
 73
4
 74
0
 42
0.0000001
 43
0.0000001
 44
0.0000000001
 40
0.0
 40
0.0
 40
0.0
 40
0.0
 40
1.0
 40
1.0
 40
1.0
 40
1.0
 10
153.6310864447
 20
58.4124604095
 30
0.0
 10
153.6215150373
 20
58.4132915563
 30
0.0
 10
153.6115673258
 20
58.4098003318
 30
0.0
 10
153.6032475951
 20
58.4049956752
 30
0.0
  0
SPLINE
  5
5C4
100
AcDbEntity
  8
3_ALL_AXES
100
AcDbSpline
 62
7
  6
CONTINUOUS
 70
0
 71
3
 72
9
 73
5
 74
0
 42
0.0000001
 43
0.0000001
 44
0.0000000001
 40
0.0
 40
0.0
 40
0.0
 40
0.0
 40
0.7053287407
 40
1.0
 40
1.0
 40
1.0
 40
1.0
 10
153.5342381103
 20
58.2214440103
 30
0.0
 10
153.5486727179
 20
58.213068304
 30
0.0
 10
153.5762042844
 20
58.2144308108
 30
0.0
 10
153.5972099293
 20
58.2247316279
 30
0.0
 10
153.6032475951
 20
58.2282183887
 30
0.0
  0
SPLINE
  5
5C5
100
AcDbEntity
  8
3_ALL_AXES
100
AcDbSpline
 62
7
  6
CONTINUOUS
 70
0
 71
3
 72
8
 73
4
 74
0
 42
0.0000001
 43
0.0000001
 44
0.0000000001
 40
0.0
 40
0.0
 40
0.0
 40
0.0
 40
1.0
 40
1.0
 40
1.0
 40
1.0
 10
153.6821155776
 20
58.4770204715
 30
0.0
 10
153.6730502674
 20
58.4822806336
 30
0.0
 10
153.6620410527
 20
58.4846878824
 30
0.0
 10
153.6515628918
 20
58.4844485122
 30
0.0
  0
SPLINE
  5
5C6
100
AcDbEntity
  8
3_ALL_AXES
100
AcDbSpline
 62
7
  6
CONTINUOUS
 70
0
 71
3
 72
9
 73
5
 74
0
 42
0.0000001
 43
0.0000001
 44
0.0000000001
 40
0.0
 40
0.0
 40
0.0
 40
0.0
 40
0.49096342
 40
1.0
 40
1.0
 40
1.0
 40
1.0
 10
153.6515628918
 20
58.4844485122
 30
0.0
 10
153.6493668537
 20
58.4843983444
 30
0.0
 10
153.6448969681
 20
58.4840834274
 30
0.0
 10
153.6404717429
 20
58.483387959
 30
0.0
 10
153.6382371747
 20
58.4829479784
 30
0.0
  0
SPLINE
  5
5C7
100
AcDbEntity
  8
3_ALL_AXES
100
AcDbSpline
 62
7
  6
CONTINUOUS
 70
0
 71
3
 72
8
 73
4
 74
0
 42
0.0000001
 43
0.0000001
 44
0.0000000001
 40
0.0
 40
0.0
 40
0.0
 40
0.0
 40
1.0
 40
1.0
 40
1.0
 40
1.0
 10
153.6382371747
 20
58.4829479784
 30
0.0
 10
153.6259513907
 20
58.4805289402
 30
0.0
 10
153.6140909699
 20
58.4755403896
 30
0.0
 10
153.6032475951
 20
58.4692783248
 30
0.0
  0
SPLINE
  5
5C8
100
AcDbEntity
  8
3_AXES_OTHER
100
AcDbSpline
 62
7
  6
CONTINUOUS
 70
0
 71
3
 72
8
 73
4
 74
0
 42
0.0000001
 43
0.0000001
 44
0.0000000001
 40
0.0
 40
0.0
 40
0.0
 40
0.0
 40
1.0
 40
1.0
 40
1.0
 40
1.0
 10
154.2295822373
 20
58.7479094583
 30
0.0
 10
154.2428287714
 20
58.7427431667
 30
0.0
 10
154.2580273164
 20
58.7419325456
 30
0.0
 10
154.2720714145
 20
58.7441516765
 30
0.0
  0
SPLINE
  5
5C9
100
AcDbEntity
  8
3_AXES_OTHER
100
AcDbSpline
 62
7
  6
CONTINUOUS
 70
0
 71
3
 72
8
 73
4
 74
0
 42
0.0000001
 43
0.0000001
 44
0.0000000001
 40
0.0
 40
0.0
 40
0.0
 40
0.0
 40
1.0
 40
1.0
 40
1.0
 40
1.0
 10
154.2720714145
 20
58.7441516765
 30
0.0
 10
154.2801200626
 20
58.7454234566
 30
0.0
 10
154.2880468942
 20
58.7476380084
 30
0.0
 10
154.2956833031
 20
58.7504811439
 30
0.0
  0
SPLINE
  5
5CA
100
AcDbEntity
  8
3_AXES_OTHER
100
AcDbSpline
 62
7
  6
CONTINUOUS
 70
0
 71
3
 72
8
 73
4
 74
0
 42
0.0000001
 43
0.0000001
 44
0.0000000001
 40
0.0
 40
0.0
 40
0.0
 40
0.0
 40
1.0
 40
1.0
 40
1.0
 40
1.0
 10
153.9728698563
 20
58.6093707417
 30
0.0
 10
153.9863620756
 20
58.6015691645
 30
0.0
 10
154.0032615454
 20
58.5989085063
 30
0.0
 10
154.0187693787
 20
58.6004614692
 30
0.0
  0
SPLINE
  5
5CB
100
AcDbEntity
  8
3_AXES_OTHER
100
AcDbSpline
 62
7
  6
CONTINUOUS
 70
0
 71
3
 72
8
 73
4
 74
0
 42
0.0000001
 43
0.0000001
 44
0.0000000001
 40
0.0
 40
0.0
 40
0.0
 40
0.0
 40
1.0
 40
1.0
 40
1.0
 40
1.0
 10
154.0187693787
 20
58.6004614692
 30
0.0
 10
154.0290674928
 20
58.601492728
 30
0.0
 10
154.039250872
 20
58.6041696413
 30
0.0
 10
154.0489305299
 20
58.6078328193
 30
0.0
  0
SPLINE
  5
5CC
100
AcDbEntity
  8
3_ALL_AXES
100
AcDbSpline
 62
7
  6
CONTINUOUS
 70
0
 71
3
 72
8
 73
4
 74
0
 42
0.0000001
 43
0.0000001
 44
0.0000000001
 40
0.0
 40
0.0
 40
0.0
 40
0.0
 40
1.0
 40
1.0
 40
1.0
 40
1.0
 10
154.1722376071
 20
61.4828178773
 30
0.0
 10
154.1814131938
 20
61.5065274707
 30
0.0
 10
154.1875293716
 20
61.5321154663
 30
0.0
 10
154.1875293716
 20
61.5575386095
 30
0.0
  0
SPLINE
  5
5CD
100
AcDbEntity
  8
3_ALL_AXES
100
AcDbSpline
 62
7
  6
CONTINUOUS
 70
0
 71
3
 72
8
 73
4
 74
0
 42
0.0000001
 43
0.0000001
 44
0.0000000001
 40
0.0
 40
0.0
 40
0.0
 40
0.0
 40
1.0
 40
1.0
 40
1.0
 40
1.0
 10
155.9859664287
 20
62.5302489237
 30
0.0
 10
155.9951420153
 20
62.5539585171
 30
0.0
 10
156.0012581931
 20
62.5795465127
 30
0.0
 10
156.0012581931
 20
62.6049696559
 30
0.0
  0
SPLINE
  5
5CE
100
AcDbEntity
  8
3_ALL_AXES
100
AcDbSpline
 62
7
  6
CONTINUOUS
 70
0
 71
3
 72
9
 73
5
 74
0
 42
0.0000001
 43
0.0000001
 44
0.0000000001
 40
0.0
 40
0.0
 40
0.0
 40
0.0
 40
0.2939107401
 40
1.0
 40
1.0
 40
1.0
 40
1.0
 10
154.5786652092
 20
61.718469143
 30
0.0
 10
154.5786652092
 20
61.7252690188
 30
0.0
 10
154.5770820182
 20
61.7480868564
 30
0.0
 10
154.5648579663
 20
61.7720958063
 30
0.0
 10
154.5507084581
 20
61.780260093
 30
0.0
  0
SPLINE
  5
5CF
100
AcDbEntity
  8
3_ALL_AXES
100
AcDbSpline
 62
7
  6
CONTINUOUS
 70
0
 71
3
 72
9
 73
5
 74
0
 42
0.0000001
 43
0.0000001
 44
0.0000000001
 40
0.0
 40
0.0
 40
0.0
 40
0.0
 40
0.2939107401
 40
1.0
 40
1.0
 40
1.0
 40
1.0
 10
154.9436325281
 20
61.9292383034
 30
0.0
 10
154.9436325281
 20
61.9360381791
 30
0.0
 10
154.9420493372
 20
61.9588560167
 30
0.0
 10
154.9298252852
 20
61.9828649667
 30
0.0
 10
154.915675777
 20
61.9910292534
 30
0.0
  0
SPLINE
  5
5D0
100
AcDbEntity
  8
3_ALL_AXES
100
AcDbSpline
 62
7
  6
CONTINUOUS
 70
0
 71
3
 72
9
 73
5
 74
0
 42
0.0000001
 43
0.0000001
 44
0.0000000001
 40
0.0
 40
0.0
 40
0.0
 40
0.0
 40
0.2939107401
 40
1.0
 40
1.0
 40
1.0
 40
1.0
 10
155.3202921639
 20
62.1467597938
 30
0.0
 10
155.3202921639
 20
62.1535596695
 30
0.0
 10
155.318708973
 20
62.1763775071
 30
0.0
 10
155.306484921
 20
62.2003864571
 30
0.0
 10
155.2923354128
 20
62.2085507438
 30
0.0
  0
SPLINE
  5
5D1
100
AcDbEntity
  8
3_ALL_AXES
100
AcDbSpline
 62
7
  6
CONTINUOUS
 70
0
 71
3
 72
9
 73
5
 74
0
 42
0.0000001
 43
0.0000001
 44
0.0000000001
 40
0.0
 40
0.0
 40
0.0
 40
0.0
 40
0.2939107401
 40
1.0
 40
1.0
 40
1.0
 40
1.0
 10
155.6852594829
 20
62.3575289541
 30
0.0
 10
155.6852594829
 20
62.3643288299
 30
0.0
 10
155.6836762919
 20
62.3871466675
 30
0.0
 10
155.67145224
 20
62.4111556174
 30
0.0
 10
155.6573027318
 20
62.4193199041
 30
0.0
  0
SPLINE
  5
5D2
100
AcDbEntity
  8
3_ALL_AXES
100
AcDbSpline
 62
7
  6
CONTINUOUS
 70
0
 71
3
 72
8
 73
4
 74
0
 42
0.0000001
 43
0.0000001
 44
0.0000000001
 40
0.0
 40
0.0
 40
0.0
 40
0.0
 40
1.0
 40
1.0
 40
1.0
 40
1.0
 10
156.0012581931
 20
62.6049696559
 30
0.0
 10
156.0012581931
 20
62.6246604131
 30
0.0
 10
155.9972561495
 20
62.645895528
 30
0.0
 10
155.9859664287
 20
62.6620283555
 30
0.0
  0
SPLINE
  5
5D3
100
AcDbEntity
  8
3_ALL_AXES
100
AcDbSpline
 62
7
  6
CONTINUOUS
 70
0
 71
3
 72
8
 73
4
 74
0
 42
0.0000001
 43
0.0000001
 44
0.0000000001
 40
0.0
 40
0.0
 40
0.0
 40
0.0
 40
1.0
 40
1.0
 40
1.0
 40
1.0
 10
155.9859664287
 20
62.6620283555
 30
0.0
 10
155.981242846
 20
62.6687782783
 30
0.0
 10
155.9749763727
 20
62.6747131507
 30
0.0
 10
155.9678405022
 20
62.6788305582
 30
0.0
  0
SPLINE
  5
5D4
100
AcDbEntity
  8
3_ALL_AXES
100
AcDbSpline
 62
7
  6
CONTINUOUS
 70
0
 71
3
 72
8
 73
4
 74
0
 42
0.0000001
 43
0.0000001
 44
0.0000000001
 40
0.0
 40
0.0
 40
0.0
 40
0.0
 40
1.0
 40
1.0
 40
1.0
 40
1.0
 10
154.1875293716
 20
61.5575386095
 30
0.0
 10
154.1875293716
 20
61.5772293666
 30
0.0
 10
154.183527328
 20
61.5984644816
 30
0.0
 10
154.1722376071
 20
61.614597309
 30
0.0
  0
SPLINE
  5
5D5
100
AcDbEntity
  8
3_ALL_AXES
100
AcDbSpline
 62
7
  6
CONTINUOUS
 70
0
 71
3
 72
8
 73
4
 74
0
 42
0.0000001
 43
0.0000001
 44
0.0000000001
 40
0.0
 40
0.0
 40
0.0
 40
0.0
 40
1.0
 40
1.0
 40
1.0
 40
1.0
 10
154.1722376071
 20
61.614597309
 30
0.0
 10
154.1675140244
 20
61.6213472319
 30
0.0
 10
154.1612475511
 20
61.6272821042
 30
0.0
 10
154.1541116807
 20
61.6313995118
 30
0.0
  0
SPLINE
  5
5D6
100
AcDbEntity
  8
3_AXES_OTHER
100
AcDbSpline
 62
7
  6
CONTINUOUS
 70
0
 71
3
 72
8
 73
4
 74
0
 42
0.0000001
 43
0.0000001
 44
0.0000000001
 40
0.0
 40
0.0
 40
0.0
 40
0.0
 40
1.0
 40
1.0
 40
1.0
 40
1.0
 10
154.0728889887
 20
59.0030542491
 30
0.0
 10
154.0620489099
 20
58.9967940878
 30
0.0
 10
154.0516598746
 20
58.989713281
 30
0.0
 10
154.041737147
 20
58.9820820028
 30
0.0
  0
SPLINE
  5
5D7
100
AcDbEntity
  8
3_AXES_OTHER
100
AcDbSpline
 62
7
  6
CONTINUOUS
 70
0
 71
3
 72
8
 73
4
 74
0
 42
0.0000001
 43
0.0000001
 44
0.0000000001
 40
0.0
 40
0.0
 40
0.0
 40
0.0
 40
1.0
 40
1.0
 40
1.0
 40
1.0
 10
154.041737147
 20
58.9820820028
 30
0.0
 10
154.005072332
 20
58.9538841708
 30
0.0
 10
153.9739660476
 20
58.9177935333
 30
0.0
 10
153.9490174188
 20
58.8788449479
 30
0.0
  0
SPLINE
  5
5D8
100
AcDbEntity
  8
3_AXES_OTHER
100
AcDbSpline
 62
7
  6
CONTINUOUS
 70
0
 71
3
 72
8
 73
4
 74
0
 42
0.0000001
 43
0.0000001
 44
0.0000000001
 40
0.0
 40
0.0
 40
0.0
 40
0.0
 40
1.0
 40
1.0
 40
1.0
 40
1.0
 10
154.3203763621
 20
59.1459785691
 30
0.0
 10
154.3095362833
 20
59.1397184078
 30
0.0
 10
154.299147248
 20
59.1326376009
 30
0.0
 10
154.2892245205
 20
59.1250063227
 30
0.0
  0
SPLINE
  5
5D9
100
AcDbEntity
  8
3_AXES_OTHER
100
AcDbSpline
 62
7
  6
CONTINUOUS
 70
0
 71
3
 72
8
 73
4
 74
0
 42
0.0000001
 43
0.0000001
 44
0.0000000001
 40
0.0
 40
0.0
 40
0.0
 40
0.0
 40
1.0
 40
1.0
 40
1.0
 40
1.0
 10
154.2892245205
 20
59.1250063227
 30
0.0
 10
154.2469665605
 20
59.092506967
 30
0.0
 10
154.2119834805
 20
59.0495858548
 30
0.0
 10
154.185336996
 20
59.0034132637
 30
0.0
  0
SPLINE
  5
5DA
100
AcDbEntity
  8
3_AXES_OTHER
100
AcDbSpline
 62
7
  6
CONTINUOUS
 70
0
 71
3
 72
8
 73
4
 74
0
 42
0.0000001
 43
0.0000001
 44
0.0000000001
 40
0.0
 40
0.0
 40
0.0
 40
0.0
 40
1.0
 40
1.0
 40
1.0
 40
1.0
 10
154.1653794306
 20
58.9647560025
 30
0.0
 10
154.1569523757
 20
58.9463628666
 30
0.0
 10
154.1497037737
 20
58.9273669033
 30
0.0
 10
154.1439389275
 20
58.9079738826
 30
0.0
  0
SPLINE
  5
5DB
100
AcDbEntity
  8
3_AXES_OTHER
100
AcDbSpline
 62
7
  6
CONTINUOUS
 70
0
 71
3
 72
8
 73
4
 74
0
 42
0.0000001
 43
0.0000001
 44
0.0000000001
 40
0.0
 40
0.0
 40
0.0
 40
0.0
 40
1.0
 40
1.0
 40
1.0
 40
1.0
 10
154.1366420638
 20
58.8794871254
 30
0.0
 10
154.1321167069
 20
58.8584031331
 30
0.0
 10
154.1294018591
 20
58.8367652063
 30
0.0
 10
154.1294018591
 20
58.8152010326
 30
0.0
  0
SPLINE
  5
5DC
100
AcDbEntity
  8
3_AXES_OTHER
100
AcDbSpline
 62
7
  6
CONTINUOUS
 70
0
 71
3
 72
8
 73
4
 74
0
 42
0.0000001
 43
0.0000001
 44
0.0000000001
 40
0.0
 40
0.0
 40
0.0
 40
0.0
 40
1.0
 40
1.0
 40
1.0
 40
1.0
 10
154.129573247
 20
58.8060074574
 30
0.0
 10
154.1304302632
 20
58.7832514519
 30
0.0
 10
154.134547639
 20
58.7599639957
 30
0.0
 10
154.1439389275
 20
58.7392185392
 30
0.0
  0
SPLINE
  5
5DD
100
AcDbEntity
  8
3_AXES_OTHER
100
AcDbSpline
 62
7
  6
CONTINUOUS
 70
0
 71
3
 72
8
 73
4
 74
0
 42
0.0000001
 43
0.0000001
 44
0.0000000001
 40
0.0
 40
0.0
 40
0.0
 40
0.0
 40
1.0
 40
1.0
 40
1.0
 40
1.0
 10
154.1439389275
 20
58.7392185392
 30
0.0
 10
154.1484648664
 20
58.729220692
 30
0.0
 10
154.1543394171
 20
58.7196787122
 30
0.0
 10
154.1615313267
 20
58.7113891098
 30
0.0
  0
SPLINE
  5
5DE
100
AcDbEntity
  8
3_ALL_AXES
100
AcDbSpline
 62
7
  6
CONTINUOUS
 70
0
 71
3
 72
8
 73
4
 74
0
 42
0.0000001
 43
0.0000001
 44
0.0000000001
 40
0.0
 40
0.0
 40
0.0
 40
0.0
 40
1.0
 40
1.0
 40
1.0
 40
1.0
 10
155.6138029601
 20
62.2095951739
 30
0.0
 10
155.6224129494
 20
62.2171558748
 30
0.0
 10
155.6303336941
 20
62.2255539955
 30
0.0
 10
155.6375158557
 20
62.2344821906
 30
0.0
  0
SPLINE
  5
5DF
100
AcDbEntity
  8
3_ALL_AXES
100
AcDbSpline
 62
7
  6
CONTINUOUS
 70
0
 71
3
 72
9
 73
5
 74
0
 42
0.0000001
 43
0.0000001
 44
0.0000000001
 40
0.0
 40
0.0
 40
0.0
 40
0.0
 40
0.7713005218
 40
1.0
 40
1.0
 40
1.0
 40
1.0
 10
155.6375158557
 20
62.2344821906
 30
0.0
 10
155.6590028664
 20
62.261192843
 30
0.0
 10
155.6798748478
 20
62.3030156691
 30
0.0
 10
155.6852594829
 20
62.3473644006
 30
0.0
 10
155.6852594829
 20
62.3575289541
 30
0.0
  0
SPLINE
  5
5E0
100
AcDbEntity
  8
3_ALL_AXES
100
AcDbSpline
 62
7
  6
CONTINUOUS
 70
0
 71
3
 72
8
 73
4
 74
0
 42
0.0000001
 43
0.0000001
 44
0.0000000001
 40
0.0
 40
0.0
 40
0.0
 40
0.0
 40
1.0
 40
1.0
 40
1.0
 40
1.0
 10
155.2369163081
 20
61.98927018
 30
0.0
 10
155.2508939125
 20
61.9994296302
 30
0.0
 10
155.2632939869
 20
62.0119340116
 30
0.0
 10
155.2739805815
 20
62.0255128388
 30
0.0
  0
SPLINE
  5
5E1
100
AcDbEntity
  8
3_ALL_AXES
100
AcDbSpline
 62
7
  6
CONTINUOUS
 70
0
 71
3
 72
9
 73
5
 74
0
 42
0.0000001
 43
0.0000001
 44
0.0000000001
 40
0.0
 40
0.0
 40
0.0
 40
0.0
 40
0.7714488214
 40
1.0
 40
1.0
 40
1.0
 40
1.0
 10
155.2739805815
 20
62.0255128388
 30
0.0
 10
155.2948268845
 20
62.0520010102
 30
0.0
 10
155.3150855328
 20
62.09316833
 30
0.0
 10
155.3202921639
 20
62.1367735509
 30
0.0
 10
155.3202921639
 20
62.1467597938
 30
0.0
  0
SPLINE
  5
5E2
100
AcDbEntity
  8
3_ALL_AXES
100
AcDbSpline
 62
7
  6
CONTINUOUS
 70
0
 71
3
 72
8
 73
4
 74
0
 42
0.0000001
 43
0.0000001
 44
0.0000000001
 40
0.0
 40
0.0
 40
0.0
 40
0.0
 40
1.0
 40
1.0
 40
1.0
 40
1.0
 10
154.8602566723
 20
61.7717486896
 30
0.0
 10
154.8742342767
 20
61.7819081398
 30
0.0
 10
154.8866343511
 20
61.7944125212
 30
0.0
 10
154.8973209457
 20
61.8079913484
 30
0.0
  0
SPLINE
  5
5E3
100
AcDbEntity
  8
3_ALL_AXES
100
AcDbSpline
 62
7
  6
CONTINUOUS
 70
0
 71
3
 72
9
 73
5
 74
0
 42
0.0000001
 43
0.0000001
 44
0.0000000001
 40
0.0
 40
0.0
 40
0.0
 40
0.0
 40
0.7714488214
 40
1.0
 40
1.0
 40
1.0
 40
1.0
 10
154.8973209457
 20
61.8079913484
 30
0.0
 10
154.9181672487
 20
61.8344795197
 30
0.0
 10
154.938425897
 20
61.8756468396
 30
0.0
 10
154.9436325281
 20
61.9192520604
 30
0.0
 10
154.9436325281
 20
61.9292383034
 30
0.0
  0
SPLINE
  5
5E4
100
AcDbEntity
  8
3_ALL_AXES
100
AcDbSpline
 62
7
  6
CONTINUOUS
 70
0
 71
3
 72
8
 73
4
 74
0
 42
0.0000001
 43
0.0000001
 44
0.0000000001
 40
0.0
 40
0.0
 40
0.0
 40
0.0
 40
1.0
 40
1.0
 40
1.0
 40
1.0
 10
154.5069200569
 20
61.570282456
 30
0.0
 10
154.5156421701
 20
61.5779085198
 30
0.0
 10
154.523659562
 20
61.5863949119
 30
0.0
 10
154.530921582
 20
61.5954223795
 30
0.0
  0
SPLINE
  5
5E5
100
AcDbEntity
  8
3_ALL_AXES
100
AcDbSpline
 62
7
  6
CONTINUOUS
 70
0
 71
3
 72
9
 73
5
 74
0
 42
0.0000001
 43
0.0000001
 44
0.0000000001
 40
0.0
 40
0.0
 40
0.0
 40
0.0
 40
0.7713005218
 40
1.0
 40
1.0
 40
1.0
 40
1.0
 10
154.530921582
 20
61.5954223795
 30
0.0
 10
154.5524085926
 20
61.6221330319
 30
0.0
 10
154.5732805741
 20
61.663955858
 30
0.0
 10
154.5786652092
 20
61.7083045895
 30
0.0
 10
154.5786652092
 20
61.718469143
 30
0.0
  0
SPLINE
  5
5E6
100
AcDbEntity
  8
3_AXES_OTHER
100
AcDbSpline
 62
7
  6
CONTINUOUS
 70
0
 71
3
 72
8
 73
4
 74
0
 42
0.0000001
 43
0.0000001
 44
0.0000000001
 40
0.0
 40
0.0
 40
0.0
 40
0.0
 40
1.0
 40
1.0
 40
1.0
 40
1.0
 10
155.292508992
 20
59.2429444472
 30
0.0
 10
155.3436170452
 20
59.2724594226
 30
0.0
 10
155.3810365339
 20
59.3372602845
 30
0.0
 10
155.3810365339
 20
59.396278645
 30
0.0
  0
SPLINE
  5
5E7
100
AcDbEntity
  8
3_AXES_OTHER
100
AcDbSpline
 62
7
  6
CONTINUOUS
 70
0
 71
3
 72
9
 73
5
 74
0
 42
0.0000001
 43
0.0000001
 44
0.0000000001
 40
0.0
 40
0.0
 40
0.0
 40
0.0
 40
0.2939093091
 40
1.0
 40
1.0
 40
1.0
 40
1.0
 10
155.3810365339
 20
60.8246391198
 30
0.0
 10
155.3810365339
 20
60.8309441816
 30
0.0
 10
155.3795578132
 20
60.8520997601
 30
0.0
 10
155.36824511
 20
60.8743693895
 30
0.0
 10
155.3551280431
 20
60.8819446509
 30
0.0
  0
SPLINE
  5
5E8
100
AcDbEntity
  8
7_ALL_ROUNDS
100
AcDbSpline
 62
7
  6
CONTINUOUS
 70
0
 71
3
 72
9
 73
5
 74
0
 42
0.0000001
 43
0.0000001
 44
0.0000000001
 40
0.0
 40
0.0
 40
0.0
 40
0.0
 40
0.2287542138
 40
1.0
 40
1.0
 40
1.0
 40
1.0
 10
153.4341544223
 20
62.2575129406
 30
0.0
 10
153.4341544223
 20
62.2695931744
 30
0.0
 10
153.4388866343
 20
62.3223680291
 30
0.0
 10
153.4586360992
 20
62.3731399977
 30
0.0
 10
153.4790003788
 20
62.4084119641
 30
0.0
  0
SPLINE
  5
5E9
100
AcDbEntity
  8
7_ALL_ROUNDS
100
AcDbSpline
 62
7
  6
CONTINUOUS
 70
0
 71
3
 72
8
 73
4
 74
0
 42
0.0000001
 43
0.0000001
 44
0.0000000001
 40
0.0
 40
0.0
 40
0.0
 40
0.0
 40
1.0
 40
1.0
 40
1.0
 40
1.0
 10
153.4790003788
 20
62.4084119641
 30
0.0
 10
153.492902241
 20
62.4324906953
 30
0.0
 10
153.5095468838
 20
62.455239887
 30
0.0
 10
153.5286740294
 20
62.4754190687
 30
0.0
  0
SPLINE
  5
5EA
100
AcDbEntity
  8
7_ALL_ROUNDS
100
AcDbSpline
 62
7
  6
CONTINUOUS
 70
0
 71
3
 72
8
 73
4
 74
0
 42
0.0000001
 43
0.0000001
 44
0.0000000001
 40
0.0
 40
0.0
 40
0.0
 40
0.0
 40
1.0
 40
1.0
 40
1.0
 40
1.0
 10
153.5286740294
 20
62.4754190687
 30
0.0
 10
153.5393592843
 20
62.4866920367
 30
0.0
 10
153.5509053728
 20
62.4972325375
 30
0.0
 10
153.5632627192
 20
62.5066426635
 30
0.0
  0
SPLINE
  5
5EB
100
AcDbEntity
  8
7_ALL_ROUNDS
100
AcDbSpline
 62
7
  6
CONTINUOUS
 70
0
 71
3
 72
8
 73
4
 74
0
 42
0.0000001
 43
0.0000001
 44
0.0000000001
 40
0.0
 40
0.0
 40
0.0
 40
0.0
 40
1.0
 40
1.0
 40
1.0
 40
1.0
 10
153.5632627192
 20
62.5066426635
 30
0.0
 10
153.5709237644
 20
62.5124765537
 30
0.0
 10
153.5789293119
 20
62.5178979375
 30
0.0
 10
153.5872680954
 20
62.5227135971
 30
0.0
  0
SPLINE
  5
5EC
100
AcDbEntity
  8
7_ALL_ROUNDS
100
AcDbSpline
 62
7
  6
CONTINUOUS
 70
0
 71
3
 72
9
 73
5
 74
0
 42
0.0000001
 43
0.0000001
 44
0.0000000001
 40
0.0
 40
0.0
 40
0.0
 40
0.0
 40
0.2860720006
 40
1.0
 40
1.0
 40
1.0
 40
1.0
 10
156.8858933907
 20
64.4276745284
 30
0.0
 10
156.8936573046
 20
64.4321582
 30
0.0
 10
156.9215387574
 20
64.4460188434
 30
0.0
 10
156.955366925
 20
64.4515571007
 30
0.0
 10
156.9769340618
 20
64.4456000359
 30
0.0
  0
SPLINE
  5
5ED
100
AcDbEntity
  8
7_ALL_ROUNDS
100
AcDbSpline
 62
7
  6
CONTINUOUS
 70
0
 71
3
 72
9
 73
5
 74
0
 42
0.0000001
 43
0.0000001
 44
0.0000000001
 40
0.0
 40
0.0
 40
0.0
 40
0.0
 40
0.5027781168
 40
1.0
 40
1.0
 40
1.0
 40
1.0
 10
156.9769340618
 20
64.4456000359
 30
0.0
 10
156.9799588378
 20
64.4447645617
 30
0.0
 10
156.9858799002
 20
64.4427335253
 30
0.0
 10
156.9914944065
 20
64.4399624324
 30
0.0
 10
156.9941818281
 20
64.4384104631
 30
0.0
  0
SPLINE
  5
5EE
100
AcDbEntity
  8
7_ALL_ROUNDS
100
AcDbSpline
 62
7
  6
CONTINUOUS
 70
0
 71
3
 72
8
 73
4
 74
0
 42
0.0000001
 43
0.0000001
 44
0.0000000001
 40
0.0
 40
0.0
 40
0.0
 40
0.0
 40
1.0
 40
1.0
 40
1.0
 40
1.0
 10
153.9505650833
 20
61.9916606019
 30
0.0
 10
153.9505650833
 20
62.0751771498
 30
0.0
 10
154.00351719
 20
62.1668764826
 30
0.0
 10
154.0758399068
 20
62.2086429573
 30
0.0
  0
SPLINE
  5
5EF
100
AcDbEntity
  8
7_ALL_ROUNDS
100
AcDbSpline
 62
7
  6
CONTINUOUS
 70
0
 71
3
 72
9
 73
5
 74
0
 42
0.0000001
 43
0.0000001
 44
0.0000000001
 40
0.0
 40
0.0
 40
0.0
 40
0.0
 40
0.2949908402
 40
1.0
 40
1.0
 40
1.0
 40
1.0
 10
156.3973215793
 20
63.5493020176
 30
0.0
 10
156.4050821258
 20
63.5537837446
 30
0.0
 10
156.4320428663
 20
63.5670339346
 30
0.0
 10
156.4673739407
 20
63.5687968971
 30
0.0
 10
156.4859212099
 20
63.5580859641
 30
0.0
  0
SPLINE
  5
5F0
100
AcDbEntity
  8
3_ALL_AXES
100
AcDbSpline
 62
7
  6
CONTINUOUS
 70
0
 71
3
 72
11
 73
7
 74
0
 42
0.0000001
 43
0.0000001
 44
0.0000000001
 40
0.0
 40
0.0
 40
0.0
 40
0.0
 40
0.2177725514
 40
0.4509555095
 40
0.7101913168
 40
1.0
 40
1.0
 40
1.0
 40
1.0
 10
137.4385187327
 20
73.128406832
 30
0.0
 10
137.1450875198
 20
72.958949229
 30
0.0
 10
136.5958834402
 20
72.4973911522
 30
0.0
 10
136.0117627357
 20
71.541569131
 30
0.0
 10
135.6642054589
 20
70.3638538261
 30
0.0
 10
135.5961331186
 20
69.5066014677
 30
0.0
 10
135.5961331186
 20
69.0556676758
 30
0.0
  0
SPLINE
  5
5F1
100
AcDbEntity
  8
3_ALL_AXES
100
AcDbSpline
 62
7
  6
CONTINUOUS
 70
0
 71
3
 72
15
 73
11
 74
0
 42
0.0000001
 43
0.0000001
 44
0.0000000001
 40
0.0
 40
0.0
 40
0.0
 40
0.0
 40
0.086925705
 40
0.1863919528
 40
0.3037842384
 40
0.4376063588
 40
0.5821170958
 40
0.7294386938
 40
0.8711824589
 40
1.0
 40
1.0
 40
1.0
 40
1.0
 10
138.5391879919
 20
71.2217308463
 30
0.0
 10
138.8737432787
 20
71.4149737591
 30
0.0
 10
139.7143366789
 20
71.6312408734
 30
0.0
 10
141.0675246911
 20
71.3602805465
 30
0.0
 10
142.450034663
 20
70.6052271842
 30
0.0
 10
143.7757535398
 20
69.4313647829
 30
0.0
 10
144.9461716306
 20
67.9331790136
 30
0.0
 10
145.8677528569
 20
66.2301670226
 30
0.0
 10
146.4656384288
 20
64.4624413543
 30
0.0
 10
146.6258853511
 20
63.2585192688
 30
0.0
 10
146.6258853511
 20
62.685969634
 30
0.0
  0
SPLINE
  5
5F2
100
AcDbEntity
  8
3_ALL_AXES
100
AcDbSpline
 62
7
  6
CONTINUOUS
 70
0
 71
3
 72
11
 73
7
 74
0
 42
0.0000001
 43
0.0000001
 44
0.0000000001
 40
0.0
 40
0.0
 40
0.0
 40
0.0
 40
0.2177725514
 40
0.4509555095
 40
0.7101913168
 40
1.0
 40
1.0
 40
1.0
 40
1.0
 10
122.4483839097
 20
81.7852316106
 30
0.0
 10
122.1549526967
 20
81.6157740076
 30
0.0
 10
121.6057486172
 20
81.1542159309
 30
0.0
 10
121.0216279127
 20
80.1983939096
 30
0.0
 10
120.6740706359
 20
79.0206786047
 30
0.0
 10
120.6059982956
 20
78.1634262464
 30
0.0
 10
120.6059982956
 20
77.7124924544
 30
0.0
  0
SPLINE
  5
5F3
100
AcDbEntity
  8
3_ALL_AXES
100
AcDbSpline
 62
7
  6
CONTINUOUS
 70
0
 71
3
 72
15
 73
11
 74
0
 42
0.0000001
 43
0.0000001
 44
0.0000000001
 40
0.0
 40
0.0
 40
0.0
 40
0.0
 40
0.086925705
 40
0.1863919528
 40
0.3037842384
 40
0.4376063588
 40
0.5821170958
 40
0.7294386938
 40
0.8711824589
 40
1.0
 40
1.0
 40
1.0
 40
1.0
 10
123.5490531689
 20
79.8785556249
 30
0.0
 10
123.8836084557
 20
80.0717985378
 30
0.0
 10
124.7242018559
 20
80.2880656521
 30
0.0
 10
126.0773898681
 20
80.0171053252
 30
0.0
 10
127.45989984
 20
79.2620519628
 30
0.0
 10
128.7856187168
 20
78.0881895615
 30
0.0
 10
129.9560368076
 20
76.5900037923
 30
0.0
 10
130.8776180338
 20
74.8869918012
 30
0.0
 10
131.4755036058
 20
73.1192661329
 30
0.0
 10
131.6357505281
 20
71.9153440474
 30
0.0
 10
131.6357505281
 20
71.3427944126
 30
0.0
  0
SPLINE
  5
5F4
100
AcDbEntity
  8
3_ALL_AXES
100
AcDbSpline
 62
7
  6
CONTINUOUS
 70
0
 71
3
 72
9
 73
5
 74
0
 42
0.0000001
 43
0.0000001
 44
0.0000000001
 40
0.0
 40
0.0
 40
0.0
 40
0.0
 40
0.2883133887
 40
1.0
 40
1.0
 40
1.0
 40
1.0
 10
154.529446123
 20
62.7303031149
 30
0.0
 10
154.5537937799
 20
62.7443639224
 30
0.0
 10
154.6219554089
 20
62.8061282528
 30
0.0
 10
154.6683434043
 20
62.9603437541
 30
0.0
 10
154.6083141055
 20
62.9951758601
 30
0.0
  0
SPLINE
  5
5F5
100
AcDbEntity
  8
3_ALL_AXES
100
AcDbSpline
 62
7
  6
CONTINUOUS
 70
0
 71
3
 72
8
 73
4
 74
0
 42
0.0000001
 43
0.0000001
 44
0.0000000001
 40
0.0
 40
0.0
 40
0.0
 40
0.0
 40
1.0
 40
1.0
 40
1.0
 40
1.0
 10
155.8647917028
 20
63.5392713684
 30
0.0
 10
155.8738570131
 20
63.5340112062
 30
0.0
 10
155.8848662277
 20
63.5316039575
 30
0.0
 10
155.8953443887
 20
63.5318433277
 30
0.0
  0
SPLINE
  5
5F6
100
AcDbEntity
  8
3_ALL_AXES
100
AcDbSpline
 62
7
  6
CONTINUOUS
 70
0
 71
3
 72
8
 73
4
 74
0
 42
0.0000001
 43
0.0000001
 44
0.0000000001
 40
0.0
 40
0.0
 40
0.0
 40
0.0
 40
1.0
 40
1.0
 40
1.0
 40
1.0
 10
155.8953443887
 20
63.5318433277
 30
0.0
 10
155.9122202913
 20
63.5322288522
 30
0.0
 10
155.9290418689
 20
63.5385717047
 30
0.0
 10
155.9436596854
 20
63.547013515
 30
0.0
  0
SPLINE
  5
5F7
100
AcDbEntity
  8
3_ALL_AXES
100
AcDbSpline
 62
7
  6
CONTINUOUS
 70
0
 71
3
 72
9
 73
5
 74
0
 42
0.0000001
 43
0.0000001
 44
0.0000000001
 40
0.0
 40
0.0
 40
0.0
 40
0.0
 40
0.2884420937
 40
1.0
 40
1.0
 40
1.0
 40
1.0
 10
156.8698582133
 20
62.7438511671
 30
0.0
 10
156.8820399746
 20
62.750886152
 30
0.0
 10
156.9161326441
 20
62.7817659063
 30
0.0
 10
156.939279107
 20
62.8589512346
 30
0.0
 10
156.9092346256
 20
62.8763174551
 30
0.0
  0
SPLINE
  5
5F8
100
AcDbEntity
  8
3_ALL_AXES
100
AcDbSpline
 62
7
  6
CONTINUOUS
 70
0
 71
3
 72
9
 73
5
 74
0
 42
0.0000001
 43
0.0000001
 44
0.0000000001
 40
0.0
 40
0.0
 40
0.0
 40
0.0
 40
0.2883133887
 40
1.0
 40
1.0
 40
1.0
 40
1.0
 10
155.9436596854
 20
63.7880734512
 30
0.0
 10
155.9223554856
 20
63.7757702446
 30
0.0
 10
155.8627140602
 20
63.7217264555
 30
0.0
 10
155.8221245643
 20
63.5867878919
 30
0.0
 10
155.8746502007
 20
63.5563097991
 30
0.0
  0
SPLINE
  5
5F9
100
AcDbEntity
  8
3_ALL_AXES
100
AcDbSpline
 62
7
  6
CONTINUOUS
 70
0
 71
3
 72
9
 73
5
 74
0
 42
0.0000001
 43
0.0000001
 44
0.0000000001
 40
0.0
 40
0.0
 40
0.0
 40
0.0
 40
0.7053287407
 40
1.0
 40
1.0
 40
1.0
 40
1.0
 10
156.0126691701
 20
63.7948478295
 30
0.0
 10
155.9982345625
 20
63.8032235359
 30
0.0
 10
155.970702996
 20
63.8018610291
 30
0.0
 10
155.9496973511
 20
63.791560212
 30
0.0
 10
155.9436596854
 20
63.7880734512
 30
0.0
  0
SPLINE
  5
5FA
100
AcDbEntity
  8
3_ALL_AXES
100
AcDbSpline
 62
7
  6
CONTINUOUS
 70
0
 71
3
 72
16
 73
12
 74
0
 42
0.0000001
 43
0.0000001
 44
0.0000000001
 40
0.0
 40
0.0
 40
0.0
 40
0.0
 40
0.1287276762
 40
0.2703777441
 40
0.4175997515
 40
0.5620154603
 40
0.6957518014
 40
0.8130726681
 40
0.9124792843
 40
0.9571254788
 40
1.0
 40
1.0
 40
1.0
 40
1.0
 10
133.5283747218
 20
70.6377386134
 30
0.0
 10
133.5283747218
 20
71.3983953653
 30
0.0
 10
133.3154943842
 20
72.9978853821
 30
0.0
 10
132.5212259882
 20
75.3464630919
 30
0.0
 10
131.2968054099
 20
77.6090289983
 30
0.0
 10
129.7422287523
 20
79.5998309145
 30
0.0
 10
127.9798395335
 20
81.1587488696
 30
0.0
 10
126.1464376807
 20
82.1645604055
 30
0.0
 10
124.5900686575
 20
82.468577601
 30
0.0
 10
123.4876450754
 20
82.3070578024
 30
0.0
 10
123.0039680528
 20
82.1060795475
 30
0.0
 10
122.784569933
 20
81.9793938747
 30
0.0
  0
SPLINE
  5
5FB
100
AcDbEntity
  8
3_ALL_AXES
100
AcDbSpline
 62
7
  6
CONTINUOUS
 70
0
 71
3
 72
8
 73
4
 74
0
 42
0.0000001
 43
0.0000001
 44
0.0000000001
 40
0.0
 40
0.0
 40
0.0
 40
0.0
 40
1.0
 40
1.0
 40
1.0
 40
1.0
 10
154.4505781405
 20
62.7225609683
 30
0.0
 10
154.4596434507
 20
62.7173008061
 30
0.0
 10
154.4706526653
 20
62.7148935573
 30
0.0
 10
154.4811308263
 20
62.7151329276
 30
0.0
  0
SPLINE
  5
5FC
100
AcDbEntity
  8
3_ALL_AXES
100
AcDbSpline
 62
7
  6
CONTINUOUS
 70
0
 71
3
 72
8
 73
4
 74
0
 42
0.0000001
 43
0.0000001
 44
0.0000000001
 40
0.0
 40
0.0
 40
0.0
 40
0.0
 40
1.0
 40
1.0
 40
1.0
 40
1.0
 10
154.4811308263
 20
62.7151329276
 30
0.0
 10
154.498006729
 20
62.7155184521
 30
0.0
 10
154.5148283066
 20
62.7218613045
 30
0.0
 10
154.529446123
 20
62.7303031149
 30
0.0
  0
SPLINE
  5
5FD
100
AcDbEntity
  8
3_AXES_OTHER
100
AcDbSpline
 62
7
  6
CONTINUOUS
 70
0
 71
3
 72
8
 73
4
 74
0
 42
0.0000001
 43
0.0000001
 44
0.0000000001
 40
0.0
 40
0.0
 40
0.0
 40
0.0
 40
1.0
 40
1.0
 40
1.0
 40
1.0
 10
154.5773289444
 20
60.4723524105
 30
0.0
 10
154.5262208912
 20
60.442837435
 30
0.0
 10
154.4888014025
 20
60.3780365732
 30
0.0
 10
154.4888014025
 20
60.3190182127
 30
0.0
  0
SPLINE
  5
5FE
100
AcDbEntity
  8
3_AXES_OTHER
100
AcDbSpline
 62
7
  6
CONTINUOUS
 70
0
 71
3
 72
9
 73
5
 74
0
 42
0.0000001
 43
0.0000001
 44
0.0000000001
 40
0.0
 40
0.0
 40
0.0
 40
0.0
 40
0.2949638288
 40
1.0
 40
1.0
 40
1.0
 40
1.0
 10
154.4888014025
 20
58.8906577378
 30
0.0
 10
154.4888014025
 20
58.8843290836
 30
0.0
 10
154.4902202594
 20
58.8631597601
 30
0.0
 10
154.5016189506
 20
58.8409307186
 30
0.0
 10
154.5147185388
 20
58.8333657876
 30
0.0
  0
SPLINE
  5
5FF
100
AcDbEntity
  8
3_ALL_AXES
100
AcDbSpline
 62
7
  6
CONTINUOUS
 70
0
 71
3
 72
16
 73
12
 74
0
 42
0.0000001
 43
0.0000001
 44
0.0000000001
 40
0.0
 40
0.0
 40
0.0
 40
0.0
 40
0.1287276762
 40
0.2703777441
 40
0.4175997515
 40
0.5620154603
 40
0.6957518014
 40
0.8130726681
 40
0.9124792843
 40
0.9571254788
 40
1.0
 40
1.0
 40
1.0
 40
1.0
 10
148.5185095448
 20
61.9809138348
 30
0.0
 10
148.5185095448
 20
62.7415705867
 30
0.0
 10
148.3056292072
 20
64.3410606035
 30
0.0
 10
147.5113608112
 20
66.6896383132
 30
0.0
 10
146.286940233
 20
68.9522042197
 30
0.0
 10
144.7323635753
 20
70.9430061359
 30
0.0
 10
142.9699743565
 20
72.501924091
 30
0.0
 10
141.1365725037
 20
73.5077356269
 30
0.0
 10
139.5802034805
 20
73.8117528223
 30
0.0
 10
138.4777798984
 20
73.6502330237
 30
0.0
 10
137.9941028758
 20
73.4492547688
 30
0.0
 10
137.774704756
 20
73.3225690961
 30
0.0
  0
SPLINE
  5
600
100
AcDbEntity
  8
3_ALL_AXES
100
AcDbSpline
 62
7
  6
CONTINUOUS
 70
0
 71
3
 72
9
 73
5
 74
0
 42
0.0000001
 43
0.0000001
 44
0.0000000001
 40
0.0
 40
0.0
 40
0.0
 40
0.0
 40
0.7053287407
 40
1.0
 40
1.0
 40
1.0
 40
1.0
 10
154.5984556077
 20
62.9781374294
 30
0.0
 10
154.5840210002
 20
62.9865131358
 30
0.0
 10
154.5564894337
 20
62.9851506289
 30
0.0
 10
154.5354837888
 20
62.9748498119
 30
0.0
 10
154.529446123
 20
62.971363051
 30
0.0
  0
SPLINE
  5
601
100
AcDbEntity
  8
3_ALL_AXES
100
AcDbSpline
 62
7
  6
CONTINUOUS
 70
0
 71
3
 72
9
 73
5
 74
0
 42
0.0000001
 43
0.0000001
 44
0.0000000001
 40
0.0
 40
0.0
 40
0.0
 40
0.0
 40
0.2883133887
 40
1.0
 40
1.0
 40
1.0
 40
1.0
 10
155.9436596854
 20
63.547013515
 30
0.0
 10
155.9680073423
 20
63.5610743225
 30
0.0
 10
156.0361689713
 20
63.6228386529
 30
0.0
 10
156.0825569667
 20
63.7770541542
 30
0.0
 10
156.0225276679
 20
63.8118862602
 30
0.0
  0
SPLINE
  5
602
100
AcDbEntity
  8
7_ALL_ROUNDS
100
AcDbSpline
 62
7
  6
CONTINUOUS
 70
0
 71
3
 72
8
 73
4
 74
0
 42
0.0000001
 43
0.0000001
 44
0.0000000001
 40
0.0
 40
0.0
 40
0.0
 40
0.0
 40
1.0
 40
1.0
 40
1.0
 40
1.0
 10
155.7625958072
 20
59.3055054474
 30
0.0
 10
155.834918524
 20
59.3472719221
 30
0.0
 10
155.8878706307
 20
59.4389712549
 30
0.0
 10
155.8878706307
 20
59.5224878028
 30
0.0
  0
SPLINE
  5
603
100
AcDbEntity
  8
3_ALL_AXES
100
AcDbSpline
 62
7
  6
CONTINUOUS
 70
0
 71
3
 72
9
 73
5
 74
0
 42
0.0000001
 43
0.0000001
 44
0.0000000001
 40
0.0
 40
0.0
 40
0.0
 40
0.0
 40
0.2884420937
 40
1.0
 40
1.0
 40
1.0
 40
1.0
 10
156.8698582133
 20
60.1629027843
 30
0.0
 10
156.8820399746
 20
60.1699377693
 30
0.0
 10
156.9161326441
 20
60.2008175236
 30
0.0
 10
156.939279107
 20
60.2780028518
 30
0.0
 10
156.9092346256
 20
60.2953690724
 30
0.0
  0
SPLINE
  5
604
100
AcDbEntity
  8
3_ALL_AXES
100
AcDbSpline
 62
7
  6
CONTINUOUS
 70
0
 71
3
 72
8
 73
4
 74
0
 42
0.0000001
 43
0.0000001
 44
0.0000000001
 40
0.0
 40
0.0
 40
0.0
 40
0.0
 40
1.0
 40
1.0
 40
1.0
 40
1.0
 10
153.5243796125
 20
60.7853539624
 30
0.0
 10
153.5334449227
 20
60.7800938002
 30
0.0
 10
153.5444541374
 20
60.7776865514
 30
0.0
 10
153.5549322983
 20
60.7779259217
 30
0.0
  0
SPLINE
  5
605
100
AcDbEntity
  8
3_ALL_AXES
100
AcDbSpline
 62
7
  6
CONTINUOUS
 70
0
 71
3
 72
8
 73
4
 74
0
 42
0.0000001
 43
0.0000001
 44
0.0000000001
 40
0.0
 40
0.0
 40
0.0
 40
0.0
 40
1.0
 40
1.0
 40
1.0
 40
1.0
 10
153.5549322983
 20
60.7779259217
 30
0.0
 10
153.571808201
 20
60.7783114462
 30
0.0
 10
153.5886297786
 20
60.7846542986
 30
0.0
 10
153.6032475951
 20
60.793096109
 30
0.0
  0
SPLINE
  5
606
100
AcDbEntity
  8
3_ALL_AXES
100
AcDbSpline
 62
7
  6
CONTINUOUS
 70
0
 71
3
 72
9
 73
5
 74
0
 42
0.0000001
 43
0.0000001
 44
0.0000000001
 40
0.0
 40
0.0
 40
0.0
 40
0.0
 40
0.2883133887
 40
1.0
 40
1.0
 40
1.0
 40
1.0
 10
156.8698582133
 20
62.9206284536
 30
0.0
 10
156.8485540136
 20
62.9083252471
 30
0.0
 10
156.7889125882
 20
62.854281458
 30
0.0
 10
156.7483230922
 20
62.7193428943
 30
0.0
 10
156.8008487286
 20
62.6888648015
 30
0.0
  0
SPLINE
  5
607
100
AcDbEntity
  8
3_ALL_AXES
100
AcDbSpline
 62
7
  6
CONTINUOUS
 70
0
 71
3
 72
9
 73
5
 74
0
 42
0.0000001
 43
0.0000001
 44
0.0000000001
 40
0.0
 40
0.0
 40
0.0
 40
0.0
 40
0.2883133887
 40
1.0
 40
1.0
 40
1.0
 40
1.0
 10
153.6032475951
 20
58.4532076624
 30
0.0
 10
153.5819433953
 20
58.4409044559
 30
0.0
 10
153.5223019699
 20
58.3868606668
 30
0.0
 10
153.4817124739
 20
58.2519221031
 30
0.0
 10
153.5342381103
 20
58.2214440103
 30
0.0
  0
SPLINE
  5
608
100
AcDbEntity
  8
3_ALL_AXES
100
AcDbSpline
 62
7
  6
CONTINUOUS
 70
0
 71
3
 72
9
 73
5
 74
0
 42
0.0000001
 43
0.0000001
 44
0.0000000001
 40
0.0
 40
0.0
 40
0.0
 40
0.0
 40
0.2883133887
 40
1.0
 40
1.0
 40
1.0
 40
1.0
 10
156.8698582133
 20
62.6795685175
 30
0.0
 10
156.8942058702
 20
62.6936293249
 30
0.0
 10
156.9623674992
 20
62.7553936553
 30
0.0
 10
157.0087554946
 20
62.9096091566
 30
0.0
 10
156.9487261959
 20
62.9444412627
 30
0.0
  0
SPLINE
  5
609
100
AcDbEntity
  8
3_ALL_AXES
100
AcDbSpline
 62
7
  6
CONTINUOUS
 70
0
 71
3
 72
9
 73
5
 74
0
 42
0.0000001
 43
0.0000001
 44
0.0000000001
 40
0.0
 40
0.0
 40
0.0
 40
0.0
 40
0.2884420937
 40
1.0
 40
1.0
 40
1.0
 40
1.0
 10
155.9436596854
 20
58.2244101254
 30
0.0
 10
155.9558414466
 20
58.2314451104
 30
0.0
 10
155.9899341162
 20
58.2623248647
 30
0.0
 10
156.013080579
 20
58.3395101929
 30
0.0
 10
155.9830360977
 20
58.3568764135
 30
0.0
  0
SPLINE
  5
60A
100
AcDbEntity
  8
3_ALL_AXES
100
AcDbSpline
 62
7
  6
CONTINUOUS
 70
0
 71
3
 72
9
 73
5
 74
0
 42
0.0000001
 43
0.0000001
 44
0.0000000001
 40
0.0
 40
0.0
 40
0.0
 40
0.0
 40
0.2883133887
 40
1.0
 40
1.0
 40
1.0
 40
1.0
 10
156.8698582133
 20
60.3396800708
 30
0.0
 10
156.8485540136
 20
60.3273768643
 30
0.0
 10
156.7889125882
 20
60.2733330752
 30
0.0
 10
156.7483230922
 20
60.1383945116
 30
0.0
 10
156.8008487286
 20
60.1079164188
 30
0.0
  0
SPLINE
  5
60B
100
AcDbEntity
  8
3_ALL_AXES
100
AcDbSpline
 62
7
  6
CONTINUOUS
 70
0
 71
3
 72
9
 73
5
 74
0
 42
0.0000001
 43
0.0000001
 44
0.0000000001
 40
0.0
 40
0.0
 40
0.0
 40
0.0
 40
0.2883133887
 40
1.0
 40
1.0
 40
1.0
 40
1.0
 10
156.8698582133
 20
60.0986201347
 30
0.0
 10
156.8942058702
 20
60.1126809422
 30
0.0
 10
156.9623674992
 20
60.1744452726
 30
0.0
 10
157.0087554946
 20
60.3286607739
 30
0.0
 10
156.9487261959
 20
60.3634928799
 30
0.0
  0
SPLINE
  5
60C
100
AcDbEntity
  8
3_ALL_AXES
100
AcDbSpline
 62
7
  6
CONTINUOUS
 70
0
 71
3
 72
9
 73
5
 74
0
 42
0.0000001
 43
0.0000001
 44
0.0000000001
 40
0.0
 40
0.0
 40
0.0
 40
0.0
 40
0.2884420937
 40
1.0
 40
1.0
 40
1.0
 40
1.0
 10
154.529446123
 20
57.4076997253
 30
0.0
 10
154.5416278842
 20
57.4147347103
 30
0.0
 10
154.5757205538
 20
57.4456144645
 30
0.0
 10
154.5988670166
 20
57.5227997928
 30
0.0
 10
154.5688225353
 20
57.5401660134
 30
0.0
  0
SPLINE
  5
60D
100
AcDbEntity
  8
3_ALL_AXES
100
AcDbSpline
 62
7
  6
CONTINUOUS
 70
0
 71
3
 72
9
 73
5
 74
0
 42
0.0000001
 43
0.0000001
 44
0.0000000001
 40
0.0
 40
0.0
 40
0.0
 40
0.0
 40
0.7053287407
 40
1.0
 40
1.0
 40
1.0
 40
1.0
 10
153.6722570798
 20
61.0409304235
 30
0.0
 10
153.6578224722
 20
61.0493061299
 30
0.0
 10
153.6302909057
 20
61.047943623
 30
0.0
 10
153.6092852608
 20
61.0376428059
 30
0.0
 10
153.6032475951
 20
61.0341560451
 30
0.0
  0
SPLINE
  5
60E
100
AcDbEntity
  8
3_ALL_AXES
100
AcDbSpline
 62
7
  6
CONTINUOUS
 70
0
 71
3
 72
9
 73
5
 74
0
 42
0.0000001
 43
0.0000001
 44
0.0000000001
 40
0.0
 40
0.0
 40
0.0
 40
0.0
 40
0.2883133887
 40
1.0
 40
1.0
 40
1.0
 40
1.0
 10
155.9436596854
 20
58.4011874119
 30
0.0
 10
155.9223554856
 20
58.3888842054
 30
0.0
 10
155.8627140602
 20
58.3348404163
 30
0.0
 10
155.8221245643
 20
58.1999018527
 30
0.0
 10
155.8746502007
 20
58.1694237599
 30
0.0
  0
SPLINE
  5
60F
100
AcDbEntity
  8
7_ALL_ROUNDS
100
AcDbSpline
 62
7
  6
CONTINUOUS
 70
0
 71
3
 72
8
 73
4
 74
0
 42
0.0000001
 43
0.0000001
 44
0.0000000001
 40
0.0
 40
0.0
 40
0.0
 40
0.0
 40
1.0
 40
1.0
 40
1.0
 40
1.0
 10
153.5872680954
 20
62.4745016099
 30
0.0
 10
153.522981236
 20
62.4373758546
 30
0.0
 10
153.4759126967
 20
62.3558653366
 30
0.0
 10
153.4759126967
 20
62.2816284051
 30
0.0
  0
SPLINE
  5
610
100
AcDbEntity
  8
3_ALL_AXES
100
AcDbSpline
 62
7
  6
CONTINUOUS
 70
0
 71
3
 72
15
 73
11
 74
0
 42
0.0000001
 43
0.0000001
 44
0.0000000001
 40
0.0
 40
0.0
 40
0.0
 40
0.0
 40
0.1267349566
 40
0.2659463845
 40
0.4110683877
 40
0.5545200464
 40
0.6889985776
 40
0.8088014015
 40
0.9114769405
 40
1.0
 40
1.0
 40
1.0
 40
1.0
 10
122.4986224892
 20
77.0074366553
 30
0.0
 10
122.4986224892
 20
76.459845484
 30
0.0
 10
122.6453030337
 20
75.3094390052
 30
0.0
 10
123.1972042042
 20
73.6129435238
 30
0.0
 10
124.052500083
 20
71.965095064
 30
0.0
 10
125.147109803
 20
70.4910646576
 30
0.0
 10
126.3994487391
 20
69.2998524253
 30
0.0
 10
127.722097093
 20
68.4802217165
 30
0.0
 10
129.0308712351
 20
68.0921955222
 30
0.0
 10
129.8846030867
 20
68.1775299383
 30
0.0
 10
130.2431283537
 20
68.3107807248
 30
0.0
  0
SPLINE
  5
611
100
AcDbEntity
  8
3_ALL_AXES
100
AcDbSpline
 62
7
  6
CONTINUOUS
 70
0
 71
3
 72
9
 73
5
 74
0
 42
0.0000001
 43
0.0000001
 44
0.0000000001
 40
0.0
 40
0.0
 40
0.0
 40
0.0
 40
0.4993529254
 40
1.0
 40
1.0
 40
1.0
 40
1.0
 10
130.6550230865
 20
75.192312382
 30
0.0
 10
130.3841119567
 20
75.3455817756
 30
0.0
 10
129.9555271027
 20
75.836822849
 30
0.0
 10
129.7413747349
 20
76.451997096
 30
0.0
 10
129.7413747349
 20
76.7640662857
 30
0.0
  0
SPLINE
  5
612
100
AcDbEntity
  8
3_ALL_AXES
100
AcDbSpline
 62
7
  6
CONTINUOUS
 70
0
 71
3
 72
9
 73
5
 74
0
 42
0.0000001
 43
0.0000001
 44
0.0000000001
 40
0.0
 40
0.0
 40
0.0
 40
0.0
 40
0.4915887763
 40
1.0
 40
1.0
 40
1.0
 40
1.0
 10
154.4900697107
 20
57.4037987366
 30
0.0
 10
154.4917932541
 20
57.4028024992
 30
0.0
 10
154.4955427394
 20
57.4011718423
 30
0.0
 10
154.4995561164
 20
57.4004131061
 30
0.0
 10
154.5016072734
 20
57.400234991
 30
0.0
  0
SPLINE
  5
613
100
AcDbEntity
  8
3_ALL_AXES
100
AcDbSpline
 62
7
  6
CONTINUOUS
 70
0
 71
3
 72
8
 73
4
 74
0
 42
0.0000001
 43
0.0000001
 44
0.0000000001
 40
0.0
 40
0.0
 40
0.0
 40
0.0
 40
1.0
 40
1.0
 40
1.0
 40
1.0
 10
154.5016072734
 20
57.400234991
 30
0.0
 10
154.5111786808
 20
57.3994038442
 30
0.0
 10
154.5211263923
 20
57.4028950687
 30
0.0
 10
154.529446123
 20
57.4076997253
 30
0.0
  0
SPLINE
  5
614
100
AcDbEntity
  8
3_ALL_AXES
100
AcDbSpline
 62
7
  6
CONTINUOUS
 70
0
 71
3
 72
9
 73
5
 74
0
 42
0.0000001
 43
0.0000001
 44
0.0000000001
 40
0.0
 40
0.0
 40
0.0
 40
0.0
 40
0.2883133887
 40
1.0
 40
1.0
 40
1.0
 40
1.0
 10
155.9436596854
 20
58.1601274758
 30
0.0
 10
155.9680073423
 20
58.1741882833
 30
0.0
 10
156.0361689713
 20
58.2359526137
 30
0.0
 10
156.0825569667
 20
58.390168115
 30
0.0
 10
156.0225276679
 20
58.425000221
 30
0.0
  0
SPLINE
  5
615
100
AcDbEntity
  8
3_ALL_AXES
100
AcDbSpline
 62
7
  6
CONTINUOUS
 70
0
 71
3
 72
15
 73
11
 74
0
 42
0.0000001
 43
0.0000001
 44
0.0000000001
 40
0.0
 40
0.0
 40
0.0
 40
0.0
 40
0.1267349566
 40
0.2659463845
 40
0.4110683877
 40
0.5545200464
 40
0.6889985776
 40
0.8088014015
 40
0.9114769405
 40
1.0
 40
1.0
 40
1.0
 40
1.0
 10
137.4887573123
 20
68.3506118766
 30
0.0
 10
137.4887573123
 20
67.8030207054
 30
0.0
 10
137.6354378567
 20
66.6526142265
 30
0.0
 10
138.1873390272
 20
64.9561187452
 30
0.0
 10
139.0426349061
 20
63.3082702854
 30
0.0
 10
140.1372446261
 20
61.834239879
 30
0.0
 10
141.3895835621
 20
60.6430276467
 30
0.0
 10
142.712231916
 20
59.8233969378
 30
0.0
 10
144.0210060581
 20
59.4353707435
 30
0.0
 10
144.8747379097
 20
59.5207051596
 30
0.0
 10
145.2332631767
 20
59.6539559462
 30
0.0
  0
SPLINE
  5
616
100
AcDbEntity
  8
3_ALL_AXES
100
AcDbSpline
 62
7
  6
CONTINUOUS
 70
0
 71
3
 72
9
 73
5
 74
0
 42
0.0000001
 43
0.0000001
 44
0.0000000001
 40
0.0
 40
0.0
 40
0.0
 40
0.0
 40
0.4993529254
 40
1.0
 40
1.0
 40
1.0
 40
1.0
 10
145.6451579096
 20
66.5354876033
 30
0.0
 10
145.3742467797
 20
66.688756997
 30
0.0
 10
144.9456619258
 20
67.1799980704
 30
0.0
 10
144.7315095579
 20
67.7951723174
 30
0.0
 10
144.7315095579
 20
68.1072415071
 30
0.0
  0
SPLINE
  5
617
100
AcDbEntity
  8
3_ALL_AXES
100
AcDbSpline
 62
7
  6
CONTINUOUS
 70
0
 71
3
 72
9
 73
5
 74
0
 42
0.0000001
 43
0.0000001
 44
0.0000000001
 40
0.0
 40
0.0
 40
0.0
 40
0.0
 40
0.4915887763
 40
1.0
 40
1.0
 40
1.0
 40
1.0
 10
155.9042832731
 20
58.2205091367
 30
0.0
 10
155.9060068164
 20
58.2195128993
 30
0.0
 10
155.9097563017
 20
58.2178822424
 30
0.0
 10
155.9137696787
 20
58.2171235062
 30
0.0
 10
155.9158208357
 20
58.2169453911
 30
0.0
  0
SPLINE
  5
618
100
AcDbEntity
  8
3_ALL_AXES
100
AcDbSpline
 62
7
  6
CONTINUOUS
 70
0
 71
3
 72
8
 73
4
 74
0
 42
0.0000001
 43
0.0000001
 44
0.0000000001
 40
0.0
 40
0.0
 40
0.0
 40
0.0
 40
1.0
 40
1.0
 40
1.0
 40
1.0
 10
155.9158208357
 20
58.2169453911
 30
0.0
 10
155.9253922432
 20
58.2161142443
 30
0.0
 10
155.9353399546
 20
58.2196054688
 30
0.0
 10
155.9436596854
 20
58.2244101254
 30
0.0
  0
SPLINE
  5
619
100
AcDbEntity
  8
3_ALL_AXES
100
AcDbSpline
 62
7
  6
CONTINUOUS
 70
0
 71
3
 72
11
 73
7
 74
0
 42
0.0000001
 43
0.0000001
 44
0.0000000001
 40
0.0
 40
0.0
 40
0.0
 40
0.0
 40
0.2898024362
 40
0.5490431
 40
0.7822279014
 40
1.0
 40
1.0
 40
1.0
 40
1.0
 10
122.1627467682
 20
76.8134679352
 30
0.0
 10
122.1627467682
 20
77.152811894
 30
0.0
 10
122.2139720804
 20
77.7979348865
 30
0.0
 10
122.4754773169
 20
78.6842433285
 30
0.0
 10
122.9150064156
 20
79.4035774149
 30
0.0
 10
123.3282415788
 20
79.7510123562
 30
0.0
 10
123.5490531689
 20
79.8785556249
 30
0.0
  0
SPLINE
  5
61A
100
AcDbEntity
  8
3_ALL_AXES
100
AcDbSpline
 62
7
  6
CONTINUOUS
 70
0
 71
3
 72
16
 73
12
 74
0
 42
0.0000001
 43
0.0000001
 44
0.0000000001
 40
0.0
 40
0.0
 40
0.0
 40
0.0
 40
0.1287303334
 40
0.2703810282
 40
0.4176046143
 40
0.5620209081
 40
0.6957560936
 40
0.8130756443
 40
0.9124801982
 40
0.9571255718
 40
1.0
 40
1.0
 40
1.0
 40
1.0
 10
133.1924990007
 20
70.4437698934
 30
0.0
 10
133.1924990007
 20
71.2044577812
 30
0.0
 10
132.9796032241
 20
72.8040000536
 30
0.0
 10
132.1852843242
 20
75.1526434261
 30
0.0
 10
130.9608180385
 20
77.4152638615
 30
0.0
 10
129.4061536182
 20
79.4060743135
 30
0.0
 10
127.6436871932
 20
80.9649564741
 30
0.0
 10
125.8102431766
 20
81.9707322279
 30
0.0
 10
124.2538384725
 20
82.2746419409
 30
0.0
 10
123.1514199215
 20
82.1130013486
 30
0.0
 10
122.6677784066
 20
81.9119327382
 30
0.0
 10
122.4483839097
 20
81.7852316106
 30
0.0
  0
SPLINE
  5
61B
100
AcDbEntity
  8
3_ALL_AXES
100
AcDbSpline
 62
7
  6
CONTINUOUS
 70
0
 71
3
 72
9
 73
5
 74
0
 42
0.0000001
 43
0.0000001
 44
0.0000000001
 40
0.0
 40
0.0
 40
0.0
 40
0.0
 40
0.2883133887
 40
1.0
 40
1.0
 40
1.0
 40
1.0
 10
154.529446123
 20
57.5844770118
 30
0.0
 10
154.5081419232
 20
57.5721738053
 30
0.0
 10
154.4485004978
 20
57.5181300162
 30
0.0
 10
154.4079110019
 20
57.3831914526
 30
0.0
 10
154.4604366383
 20
57.3527133598
 30
0.0
  0
SPLINE
  5
61C
100
AcDbEntity
  8
3_ALL_AXES
100
AcDbSpline
 62
7
  6
CONTINUOUS
 70
0
 71
3
 72
9
 73
5
 74
0
 42
0.0000001
 43
0.0000001
 44
0.0000000001
 40
0.0
 40
0.0
 40
0.0
 40
0.0
 40
0.4915887763
 40
1.0
 40
1.0
 40
1.0
 40
1.0
 10
156.830481801
 20
60.1590017956
 30
0.0
 10
156.8322053444
 20
60.1580055582
 30
0.0
 10
156.8359548297
 20
60.1563749013
 30
0.0
 10
156.8399682067
 20
60.1556161651
 30
0.0
 10
156.8420193637
 20
60.15543805
 30
0.0
  0
SPLINE
  5
61D
100
AcDbEntity
  8
3_ALL_AXES
100
AcDbSpline
 62
7
  6
CONTINUOUS
 70
0
 71
3
 72
8
 73
4
 74
0
 42
0.0000001
 43
0.0000001
 44
0.0000000001
 40
0.0
 40
0.0
 40
0.0
 40
0.0
 40
1.0
 40
1.0
 40
1.0
 40
1.0
 10
156.8420193637
 20
60.15543805
 30
0.0
 10
156.8515907711
 20
60.1546069032
 30
0.0
 10
156.8615384826
 20
60.1580981277
 30
0.0
 10
156.8698582133
 20
60.1629027843
 30
0.0
  0
SPLINE
  5
61E
100
AcDbEntity
  8
3_ALL_AXES
100
AcDbSpline
 62
7
  6
CONTINUOUS
 70
0
 71
3
 72
9
 73
5
 74
0
 42
0.0000001
 43
0.0000001
 44
0.0000000001
 40
0.0
 40
0.0
 40
0.0
 40
0.0
 40
0.4915887763
 40
1.0
 40
1.0
 40
1.0
 40
1.0
 10
156.830481801
 20
62.7399501783
 30
0.0
 10
156.8322053444
 20
62.738953941
 30
0.0
 10
156.8359548297
 20
62.7373232841
 30
0.0
 10
156.8399682067
 20
62.7365645479
 30
0.0
 10
156.8420193637
 20
62.7363864327
 30
0.0
  0
SPLINE
  5
61F
100
AcDbEntity
  8
3_ALL_AXES
100
AcDbSpline
 62
7
  6
CONTINUOUS
 70
0
 71
3
 72
8
 73
4
 74
0
 42
0.0000001
 43
0.0000001
 44
0.0000000001
 40
0.0
 40
0.0
 40
0.0
 40
0.0
 40
1.0
 40
1.0
 40
1.0
 40
1.0
 10
156.8420193637
 20
62.7363864327
 30
0.0
 10
156.8515907711
 20
62.735555286
 30
0.0
 10
156.8615384826
 20
62.7390465104
 30
0.0
 10
156.8698582133
 20
62.7438511671
 30
0.0
  0
SPLINE
  5
620
100
AcDbEntity
  8
3_ALL_AXES
100
AcDbSpline
 62
7
  6
CONTINUOUS
 70
0
 71
3
 72
9
 73
5
 74
0
 42
0.0000001
 43
0.0000001
 44
0.0000000001
 40
0.0
 40
0.0
 40
0.0
 40
0.0
 40
0.4915887763
 40
1.0
 40
1.0
 40
1.0
 40
1.0
 10
155.9042832731
 20
63.6073951759
 30
0.0
 10
155.9060068164
 20
63.6063989386
 30
0.0
 10
155.9097563017
 20
63.6047682817
 30
0.0
 10
155.9137696787
 20
63.6040095454
 30
0.0
 10
155.9158208357
 20
63.6038314303
 30
0.0
  0
SPLINE
  5
621
100
AcDbEntity
  8
3_ALL_AXES
100
AcDbSpline
 62
7
  6
CONTINUOUS
 70
0
 71
3
 72
8
 73
4
 74
0
 42
0.0000001
 43
0.0000001
 44
0.0000000001
 40
0.0
 40
0.0
 40
0.0
 40
0.0
 40
1.0
 40
1.0
 40
1.0
 40
1.0
 10
155.9158208357
 20
63.6038314303
 30
0.0
 10
155.9253922432
 20
63.6030002836
 30
0.0
 10
155.9353399546
 20
63.606491508
 30
0.0
 10
155.9436596854
 20
63.6112961647
 30
0.0
  0
SPLINE
  5
622
100
AcDbEntity
  8
3_ALL_AXES
100
AcDbSpline
 62
7
  6
CONTINUOUS
 70
0
 71
3
 72
9
 73
5
 74
0
 42
0.0000001
 43
0.0000001
 44
0.0000000001
 40
0.0
 40
0.0
 40
0.0
 40
0.0
 40
0.4915887763
 40
1.0
 40
1.0
 40
1.0
 40
1.0
 10
154.4900697107
 20
62.7906847758
 30
0.0
 10
154.4917932541
 20
62.7896885385
 30
0.0
 10
154.4955427394
 20
62.7880578816
 30
0.0
 10
154.4995561164
 20
62.7872991453
 30
0.0
 10
154.5016072734
 20
62.7871210302
 30
0.0
  0
SPLINE
  5
623
100
AcDbEntity
  8
3_ALL_AXES
100
AcDbSpline
 62
7
  6
CONTINUOUS
 70
0
 71
3
 72
8
 73
4
 74
0
 42
0.0000001
 43
0.0000001
 44
0.0000000001
 40
0.0
 40
0.0
 40
0.0
 40
0.0
 40
1.0
 40
1.0
 40
1.0
 40
1.0
 10
154.5016072734
 20
62.7871210302
 30
0.0
 10
154.5111786808
 20
62.7862898835
 30
0.0
 10
154.5211263923
 20
62.7897811079
 30
0.0
 10
154.529446123
 20
62.7945857646
 30
0.0
  0
SPLINE
  5
624
100
AcDbEntity
  8
3_ALL_AXES
100
AcDbSpline
 62
7
  6
CONTINUOUS
 70
0
 71
3
 72
9
 73
5
 74
0
 42
0.0000001
 43
0.0000001
 44
0.0000000001
 40
0.0
 40
0.0
 40
0.0
 40
0.0
 40
0.2884420937
 40
1.0
 40
1.0
 40
1.0
 40
1.0
 10
153.6032475951
 20
58.2764303759
 30
0.0
 10
153.6154293563
 20
58.2834653608
 30
0.0
 10
153.6495220258
 20
58.3143451151
 30
0.0
 10
153.6726684887
 20
58.3915304434
 30
0.0
 10
153.6426240074
 20
58.4088966639
 30
0.0
  0
SPLINE
  5
625
100
AcDbEntity
  8
3_ALL_AXES
100
AcDbSpline
 62
7
  6
CONTINUOUS
 70
0
 71
3
 72
9
 73
5
 74
0
 42
0.0000001
 43
0.0000001
 44
0.0000000001
 40
0.0
 40
0.0
 40
0.0
 40
0.0
 40
0.4915887763
 40
1.0
 40
1.0
 40
1.0
 40
1.0
 10
153.5638711827
 20
60.8534777699
 30
0.0
 10
153.5655947261
 20
60.8524815326
 30
0.0
 10
153.5693442114
 20
60.8508508756
 30
0.0
 10
153.5733575884
 20
60.8500921394
 30
0.0
 10
153.5754087454
 20
60.8499140243
 30
0.0
  0
SPLINE
  5
626
100
AcDbEntity
  8
3_ALL_AXES
100
AcDbSpline
 62
7
  6
CONTINUOUS
 70
0
 71
3
 72
8
 73
4
 74
0
 42
0.0000001
 43
0.0000001
 44
0.0000000001
 40
0.0
 40
0.0
 40
0.0
 40
0.0
 40
1.0
 40
1.0
 40
1.0
 40
1.0
 10
153.5754087454
 20
60.8499140243
 30
0.0
 10
153.5849801528
 20
60.8490828775
 30
0.0
 10
153.5949278643
 20
60.852574102
 30
0.0
 10
153.6032475951
 20
60.8573787587
 30
0.0
  0
SPLINE
  5
627
100
AcDbEntity
  8
3_ALL_AXES
100
AcDbSpline
 62
7
  6
CONTINUOUS
 70
0
 71
3
 72
11
 73
7
 74
0
 42
0.0000001
 43
0.0000001
 44
0.0000000001
 40
0.0
 40
0.0
 40
0.0
 40
0.0
 40
0.2898024362
 40
0.5490431
 40
0.7822279014
 40
1.0
 40
1.0
 40
1.0
 40
1.0
 10
137.1528815912
 20
68.1566431566
 30
0.0
 10
137.1528815912
 20
68.4959871154
 30
0.0
 10
137.2041069034
 20
69.1411101079
 30
0.0
 10
137.4656121399
 20
70.0274185499
 30
0.0
 10
137.9051412386
 20
70.7467526363
 30
0.0
 10
138.3183764018
 20
71.0941875776
 30
0.0
 10
138.5391879919
 20
71.2217308463
 30
0.0
  0
SPLINE
  5
628
100
AcDbEntity
  8
3_ALL_AXES
100
AcDbSpline
 62
7
  6
CONTINUOUS
 70
0
 71
3
 72
9
 73
5
 74
0
 42
0.0000001
 43
0.0000001
 44
0.0000000001
 40
0.0
 40
0.0
 40
0.0
 40
0.0
 40
0.4915887763
 40
1.0
 40
1.0
 40
1.0
 40
1.0
 10
153.5638711827
 20
58.2725293871
 30
0.0
 10
153.5655947261
 20
58.2715331498
 30
0.0
 10
153.5693442114
 20
58.2699024929
 30
0.0
 10
153.5733575884
 20
58.2691437567
 30
0.0
 10
153.5754087454
 20
58.2689656415
 30
0.0
  0
SPLINE
  5
629
100
AcDbEntity
  8
3_ALL_AXES
100
AcDbSpline
 62
7
  6
CONTINUOUS
 70
0
 71
3
 72
8
 73
4
 74
0
 42
0.0000001
 43
0.0000001
 44
0.0000000001
 40
0.0
 40
0.0
 40
0.0
 40
0.0
 40
1.0
 40
1.0
 40
1.0
 40
1.0
 10
153.5754087454
 20
58.2689656415
 30
0.0
 10
153.5849801528
 20
58.2681344948
 30
0.0
 10
153.5949278643
 20
58.2716257192
 30
0.0
 10
153.6032475951
 20
58.2764303759
 30
0.0
  0
SPLINE
  5
62A
100
AcDbEntity
  8
3_ALL_AXES
100
AcDbSpline
 62
7
  6
CONTINUOUS
 70
0
 71
3
 72
16
 73
12
 74
0
 42
0.0000001
 43
0.0000001
 44
0.0000000001
 40
0.0
 40
0.0
 40
0.0
 40
0.0
 40
0.1287303334
 40
0.2703810282
 40
0.4176046143
 40
0.5620209081
 40
0.6957560936
 40
0.8130756443
 40
0.9124801982
 40
0.9571255718
 40
1.0
 40
1.0
 40
1.0
 40
1.0
 10
148.1826338237
 20
61.7869451148
 30
0.0
 10
148.1826338237
 20
62.5476330026
 30
0.0
 10
147.9697380472
 20
64.147175275
 30
0.0
 10
147.1754191472
 20
66.4958186475
 30
0.0
 10
145.9509528615
 20
68.7584390828
 30
0.0
 10
144.3962884412
 20
70.7492495349
 30
0.0
 10
142.6338220162
 20
72.3081316954
 30
0.0
 10
140.8003779996
 20
73.3139074493
 30
0.0
 10
139.2439732955
 20
73.6178171623
 30
0.0
 10
138.1415547445
 20
73.4561765699
 30
0.0
 10
137.6579132296
 20
73.2551079596
 30
0.0
 10
137.4385187327
 20
73.128406832
 30
0.0
  0
SPLINE
  5
62B
100
AcDbEntity
  8
3_ALL_AXES
100
AcDbSpline
 62
7
  6
CONTINUOUS
 70
0
 71
3
 72
9
 73
5
 74
0
 42
0.0000001
 43
0.0000001
 44
0.0000000001
 40
0.0
 40
0.0
 40
0.0
 40
0.0
 40
0.2883133887
 40
1.0
 40
1.0
 40
1.0
 40
1.0
 10
154.529446123
 20
57.3434170757
 30
0.0
 10
154.5537937799
 20
57.3574778832
 30
0.0
 10
154.6219554089
 20
57.4192422136
 30
0.0
 10
154.6683434043
 20
57.5734577149
 30
0.0
 10
154.6083141055
 20
57.6082898209
 30
0.0
  0
SPLINE
  5
62C
100
AcDbEntity
  8
3_ALL_AXES
100
AcDbSpline
 62
7
  6
CONTINUOUS
 70
0
 71
3
 72
9
 73
5
 74
0
 42
0.0000001
 43
0.0000001
 44
0.0000000001
 40
0.0
 40
0.0
 40
0.0
 40
0.0
 40
0.7053287407
 40
1.0
 40
1.0
 40
1.0
 40
1.0
 10
153.6722570798
 20
58.4599820407
 30
0.0
 10
153.6578224722
 20
58.4683577471
 30
0.0
 10
153.6302909057
 20
58.4669952403
 30
0.0
 10
153.6092852608
 20
58.4566944232
 30
0.0
 10
153.6032475951
 20
58.4532076624
 30
0.0
  0
SPLINE
  5
62D
100
AcDbEntity
  8
3_ALL_AXES
100
AcDbSpline
 62
7
  6
CONTINUOUS
 70
0
 71
3
 72
8
 73
4
 74
0
 42
0.0000001
 43
0.0000001
 44
0.0000000001
 40
0.0
 40
0.0
 40
0.0
 40
0.0
 40
1.0
 40
1.0
 40
1.0
 40
1.0
 10
153.5243796125
 20
58.2044055796
 30
0.0
 10
153.5334449227
 20
58.1991454174
 30
0.0
 10
153.5444541374
 20
58.1967381687
 30
0.0
 10
153.5549322983
 20
58.1969775389
 30
0.0
  0
SPLINE
  5
62E
100
AcDbEntity
  8
3_ALL_AXES
100
AcDbSpline
 62
7
  6
CONTINUOUS
 70
0
 71
3
 72
8
 73
4
 74
0
 42
0.0000001
 43
0.0000001
 44
0.0000000001
 40
0.0
 40
0.0
 40
0.0
 40
0.0
 40
1.0
 40
1.0
 40
1.0
 40
1.0
 10
153.5549322983
 20
58.1969775389
 30
0.0
 10
153.571808201
 20
58.1973630635
 30
0.0
 10
153.5886297786
 20
58.2037059159
 30
0.0
 10
153.6032475951
 20
58.2121477263
 30
0.0
  0
SPLINE
  5
62F
100
AcDbEntity
  8
3_AXES_OTHER
100
AcDbSpline
 62
7
  6
CONTINUOUS
 70
0
 71
3
 72
8
 73
4
 74
0
 42
0.0000001
 43
0.0000001
 44
0.0000000001
 40
0.0
 40
0.0
 40
0.0
 40
0.0
 40
1.0
 40
1.0
 40
1.0
 40
1.0
 10
154.1989862271
 20
58.7670829423
 30
0.0
 10
154.1846788452
 20
58.7810341964
 30
0.0
 10
154.176442434
 20
58.8014573014
 30
0.0
 10
154.1731088474
 20
58.8211607495
 30
0.0
  0
SPLINE
  5
630
100
AcDbEntity
  8
3_AXES_OTHER
100
AcDbSpline
 62
7
  6
CONTINUOUS
 70
0
 71
3
 72
9
 73
5
 74
0
 42
0.0000001
 43
0.0000001
 44
0.0000000001
 40
0.0
 40
0.0
 40
0.0
 40
0.0
 40
0.2208476161
 40
1.0
 40
1.0
 40
1.0
 40
1.0
 10
154.1853111597
 20
58.6916089817
 30
0.0
 10
154.1942133605
 20
58.6864614812
 30
0.0
 10
154.2389795797
 20
58.6702298669
 30
0.0
 10
154.2889594326
 20
58.6868562828
 30
0.0
 10
154.3203763621
 20
58.7049996056
 30
0.0
  0
SPLINE
  5
631
100
AcDbEntity
  8
3_AXES_OTHER
100
AcDbSpline
 62
7
  6
CONTINUOUS
 70
0
 71
3
 72
8
 73
4
 74
0
 42
0.0000001
 43
0.0000001
 44
0.0000000001
 40
0.0
 40
0.0
 40
0.0
 40
0.0
 40
1.0
 40
1.0
 40
1.0
 40
1.0
 10
154.2400635249
 20
58.6843465915
 30
0.0
 10
154.2654320578
 20
58.687082358
 30
0.0
 10
154.2902073671
 20
58.6969016131
 30
0.0
 10
154.3123030957
 20
58.7096619287
 30
0.0
  0
SPLINE
  5
632
100
AcDbEntity
  8
3_AXES_OTHER
100
AcDbSpline
 62
7
  6
CONTINUOUS
 70
0
 71
3
 72
8
 73
4
 74
0
 42
0.0000001
 43
0.0000001
 44
0.0000000001
 40
0.0
 40
0.0
 40
0.0
 40
0.0
 40
1.0
 40
1.0
 40
1.0
 40
1.0
 10
154.0034552955
 20
58.8988996796
 30
0.0
 10
154.0211476957
 20
58.9189302764
 30
0.0
 10
154.0416723812
 20
58.9371397008
 30
0.0
 10
154.0648157223
 20
58.9505050141
 30
0.0
  0
SPLINE
  5
633
100
AcDbEntity
  8
3_AXES_OTHER
100
AcDbSpline
 62
7
  6
CONTINUOUS
 70
0
 71
3
 72
9
 73
5
 74
0
 42
0.0000001
 43
0.0000001
 44
0.0000000001
 40
0.0
 40
0.0
 40
0.0
 40
0.0
 40
0.2205133924
 40
1.0
 40
1.0
 40
1.0
 40
1.0
 10
153.9490140108
 20
58.5432139326
 30
0.0
 10
153.9577301174
 20
58.539673492
 30
0.0
 10
153.9999441818
 20
58.5298009549
 30
0.0
 10
154.0440911188
 20
58.5454444606
 30
0.0
 10
154.0728889887
 20
58.5620752726
 30
0.0
  0
SPLINE
  5
634
100
AcDbEntity
  8
3_AXES_OTHER
100
AcDbSpline
 62
7
  6
CONTINUOUS
 70
0
 71
3
 72
8
 73
4
 74
0
 42
0.0000001
 43
0.0000001
 44
0.0000000001
 40
0.0
 40
0.0
 40
0.0
 40
0.0
 40
1.0
 40
1.0
 40
1.0
 40
1.0
 10
153.9924629033
 20
58.5414100942
 30
0.0
 10
154.0178705211
 20
58.5441281283
 30
0.0
 10
154.0426879808
 20
58.5539587927
 30
0.0
 10
154.0648157223
 20
58.5667375958
 30
0.0
  0
SPLINE
  5
635
100
AcDbEntity
  8
3_AXES_OTHER
100
AcDbSpline
 62
7
  6
CONTINUOUS
 70
0
 71
3
 72
9
 73
5
 74
0
 42
0.0000001
 43
0.0000001
 44
0.0000000001
 40
0.0
 40
0.0
 40
0.0
 40
0.0
 40
0.7060623715
 40
1.0
 40
1.0
 40
1.0
 40
1.0
 10
155.3551280431
 20
60.8819446509
 30
0.0
 10
155.342003586
 20
60.8895241802
 30
0.0
 10
155.3170434696
 20
60.8881840261
 30
0.0
 10
155.2979727998
 20
60.8788791049
 30
0.0
 10
155.292508992
 20
60.8757237479
 30
0.0
  0
SPLINE
  5
636
100
AcDbEntity
  8
3_ALL_AXES
100
AcDbSpline
 62
7
  6
CONTINUOUS
 70
0
 71
3
 72
8
 73
4
 74
0
 42
0.0000001
 43
0.0000001
 44
0.0000000001
 40
0.0
 40
0.0
 40
0.0
 40
0.0
 40
1.0
 40
1.0
 40
1.0
 40
1.0
 10
154.1541116807
 20
61.6313995118
 30
0.0
 10
154.1469645825
 20
61.6355233978
 30
0.0
 10
154.1386794015
 20
61.6379809572
 30
0.0
 10
154.1304597298
 20
61.6387051435
 30
0.0
  0
SPLINE
  5
637
100
AcDbEntity
  8
3_ALL_AXES
100
AcDbSpline
 62
7
  6
CONTINUOUS
 70
0
 71
3
 72
8
 73
4
 74
0
 42
0.0000001
 43
0.0000001
 44
0.0000000001
 40
0.0
 40
0.0
 40
0.0
 40
0.0
 40
1.0
 40
1.0
 40
1.0
 40
1.0
 10
154.1304597298
 20
61.6387051435
 30
0.0
 10
154.1108405035
 20
61.6404336764
 30
0.0
 10
154.090445536
 20
61.6332519842
 30
0.0
 10
154.073390088
 20
61.6234024381
 30
0.0
  0
SPLINE
  5
638
100
AcDbEntity
  8
3_ALL_AXES
100
AcDbSpline
 62
7
  6
CONTINUOUS
 70
0
 71
3
 72
9
 73
5
 74
0
 42
0.0000001
 43
0.0000001
 44
0.0000000001
 40
0.0
 40
0.0
 40
0.0
 40
0.0
 40
0.7063133893
 40
1.0
 40
1.0
 40
1.0
 40
1.0
 10
154.0760501588
 20
61.6764869609
 30
0.0
 10
154.0598278679
 20
61.6858109041
 30
0.0
 10
154.0292325052
 20
61.6849433101
 30
0.0
 10
154.0054344367
 20
61.6739101322
 30
0.0
 10
153.9986051763
 20
61.6701831697
 30
0.0
  0
SPLINE
  5
639
100
AcDbEntity
  8
3_AXES_OTHER
100
AcDbSpline
 62
7
  6
CONTINUOUS
 70
0
 71
3
 72
8
 73
4
 74
0
 42
0.0000001
 43
0.0000001
 44
0.0000000001
 40
0.0
 40
0.0
 40
0.0
 40
0.0
 40
1.0
 40
1.0
 40
1.0
 40
1.0
 10
155.3180353607
 20
60.8923312206
 30
0.0
 10
155.3061383331
 20
60.8911415099
 30
0.0
 10
155.2945111755
 20
60.8865261976
 30
0.0
 10
155.2841573371
 20
60.8805468408
 30
0.0
  0
SPLINE
  5
63A
100
AcDbEntity
  8
3_ALL_AXES
100
AcDbSpline
 62
7
  6
CONTINUOUS
 70
0
 71
3
 72
9
 73
5
 74
0
 42
0.0000001
 43
0.0000001
 44
0.0000000001
 40
0.0
 40
0.0
 40
0.0
 40
0.0
 40
0.2884420937
 40
1.0
 40
1.0
 40
1.0
 40
1.0
 10
153.6032475951
 20
60.8573787587
 30
0.0
 10
153.6154293563
 20
60.8644137436
 30
0.0
 10
153.6495220258
 20
60.8952934979
 30
0.0
 10
153.6726684887
 20
60.9724788261
 30
0.0
 10
153.6426240074
 20
60.9898450467
 30
0.0
  0
SPLINE
  5
63B
100
AcDbEntity
  8
3_ALL_AXES
100
AcDbSpline
 62
7
  6
CONTINUOUS
 70
0
 71
3
 72
8
 73
4
 74
0
 42
0.0000001
 43
0.0000001
 44
0.0000000001
 40
0.0
 40
0.0
 40
0.0
 40
0.0
 40
1.0
 40
1.0
 40
1.0
 40
1.0
 10
154.4505781405
 20
57.335674929
 30
0.0
 10
154.4596434507
 20
57.3304147669
 30
0.0
 10
154.4706526653
 20
57.3280075181
 30
0.0
 10
154.4811308263
 20
57.3282468883
 30
0.0
  0
SPLINE
  5
63C
100
AcDbEntity
  8
3_ALL_AXES
100
AcDbSpline
 62
7
  6
CONTINUOUS
 70
0
 71
3
 72
8
 73
4
 74
0
 42
0.0000001
 43
0.0000001
 44
0.0000000001
 40
0.0
 40
0.0
 40
0.0
 40
0.0
 40
1.0
 40
1.0
 40
1.0
 40
1.0
 10
154.4811308263
 20
57.3282468883
 30
0.0
 10
154.498006729
 20
57.3286324129
 30
0.0
 10
154.5148283066
 20
57.3349752653
 30
0.0
 10
154.529446123
 20
57.3434170757
 30
0.0
  0
SPLINE
  5
63D
100
AcDbEntity
  8
3_ALL_AXES
100
AcDbSpline
 62
7
  6
CONTINUOUS
 70
0
 71
3
 72
8
 73
4
 74
0
 42
0.0000001
 43
0.0000001
 44
0.0000000001
 40
0.0
 40
0.0
 40
0.0
 40
0.0
 40
1.0
 40
1.0
 40
1.0
 40
1.0
 10
155.9678405022
 20
62.6788305582
 30
0.0
 10
155.960693404
 20
62.6829544442
 30
0.0
 10
155.952408223
 20
62.6854120037
 30
0.0
 10
155.9441885513
 20
62.6861361899
 30
0.0
  0
SPLINE
  5
63E
100
AcDbEntity
  8
3_ALL_AXES
100
AcDbSpline
 62
7
  6
CONTINUOUS
 70
0
 71
3
 72
8
 73
4
 74
0
 42
0.0000001
 43
0.0000001
 44
0.0000000001
 40
0.0
 40
0.0
 40
0.0
 40
0.0
 40
1.0
 40
1.0
 40
1.0
 40
1.0
 10
155.9441885513
 20
62.6861361899
 30
0.0
 10
155.924569325
 20
62.6878647229
 30
0.0
 10
155.9041743575
 20
62.6806830307
 30
0.0
 10
155.8871189095
 20
62.6708334845
 30
0.0
  0
SPLINE
  5
63F
100
AcDbEntity
  8
3_ALL_AXES
100
AcDbSpline
 62
7
  6
CONTINUOUS
 70
0
 71
3
 72
9
 73
5
 74
0
 42
0.0000001
 43
0.0000001
 44
0.0000000001
 40
0.0
 40
0.0
 40
0.0
 40
0.0
 40
0.706650949
 40
1.0
 40
1.0
 40
1.0
 40
1.0
 10
155.8897789803
 20
62.7239180073
 30
0.0
 10
155.8736691252
 20
62.7331773268
 30
0.0
 10
155.843335972
 20
62.7324262859
 30
0.0
 10
155.8196621121
 20
62.7215749833
 30
0.0
 10
155.8128757333
 20
62.7179083847
 30
0.0
  0
SPLINE
  5
640
100
AcDbEntity
  8
3_ALL_AXES
100
AcDbSpline
 62
7
  6
CONTINUOUS
 70
0
 71
3
 72
9
 73
5
 74
0
 42
0.0000001
 43
0.0000001
 44
0.0000000001
 40
0.0
 40
0.0
 40
0.0
 40
0.0
 40
0.7053287407
 40
1.0
 40
1.0
 40
1.0
 40
1.0
 10
154.5984556077
 20
57.5912513901
 30
0.0
 10
154.5840210002
 20
57.5996270965
 30
0.0
 10
154.5564894337
 20
57.5982645897
 30
0.0
 10
154.5354837888
 20
57.5879637726
 30
0.0
 10
154.529446123
 20
57.5844770118
 30
0.0
  0
SPLINE
  5
641
100
AcDbEntity
  8
7_ALL_ROUNDS
100
AcDbSpline
 62
7
  6
CONTINUOUS
 70
0
 71
3
 72
9
 73
5
 74
0
 42
0.0000001
 43
0.0000001
 44
0.0000000001
 40
0.0
 40
0.0
 40
0.0
 40
0.0
 40
0.2949638288
 40
1.0
 40
1.0
 40
1.0
 40
1.0
 10
153.4759126967
 20
56.8323881958
 30
0.0
 10
153.4759126967
 20
56.8244276244
 30
0.0
 10
153.4776974223
 20
56.7977995446
 30
0.0
 10
153.4920353987
 20
56.769838486
 30
0.0
 10
153.5085128682
 20
56.7603228496
 30
0.0
  0
SPLINE
  5
642
100
AcDbEntity
  8
3_ALL_AXES
100
AcDbSpline
 62
7
  6
CONTINUOUS
 70
0
 71
3
 72
8
 73
4
 74
0
 42
0.0000001
 43
0.0000001
 44
0.0000000001
 40
0.0
 40
0.0
 40
0.0
 40
0.0
 40
1.0
 40
1.0
 40
1.0
 40
1.0
 10
155.8647917028
 20
58.1523853292
 30
0.0
 10
155.8738570131
 20
58.147125167
 30
0.0
 10
155.8848662277
 20
58.1447179182
 30
0.0
 10
155.8953443887
 20
58.1449572884
 30
0.0
  0
SPLINE
  5
643
100
AcDbEntity
  8
3_ALL_AXES
100
AcDbSpline
 62
7
  6
CONTINUOUS
 70
0
 71
3
 72
8
 73
4
 74
0
 42
0.0000001
 43
0.0000001
 44
0.0000000001
 40
0.0
 40
0.0
 40
0.0
 40
0.0
 40
1.0
 40
1.0
 40
1.0
 40
1.0
 10
155.8953443887
 20
58.1449572884
 30
0.0
 10
155.9122202913
 20
58.145342813
 30
0.0
 10
155.9290418689
 20
58.1516856654
 30
0.0
 10
155.9436596854
 20
58.1601274758
 30
0.0
  0
SPLINE
  5
644
100
AcDbEntity
  8
3_AXES_OTHER
100
AcDbSpline
 62
7
  6
CONTINUOUS
 70
0
 71
3
 72
9
 73
5
 74
0
 42
0.0000001
 43
0.0000001
 44
0.0000000001
 40
0.0
 40
0.0
 40
0.0
 40
0.0
 40
0.2294116994
 40
1.0
 40
1.0
 40
1.0
 40
1.0
 10
154.0728889887
 20
58.9458426909
 30
0.0
 10
154.0594930842
 20
58.9381065365
 30
0.0
 10
154.0053496248
 20
58.8973093003
 30
0.0
 10
153.9667613969
 20
58.8376173333
 30
0.0
 10
153.9486866973
 20
58.7889014147
 30
0.0
  0
SPLINE
  5
645
100
AcDbEntity
  8
3_AXES_OTHER
100
AcDbSpline
 62
7
  6
CONTINUOUS
 70
0
 71
3
 72
8
 73
4
 74
0
 42
0.0000001
 43
0.0000001
 44
0.0000000001
 40
0.0
 40
0.0
 40
0.0
 40
0.0
 40
1.0
 40
1.0
 40
1.0
 40
1.0
 10
153.9486877998
 20
58.6327723992
 30
0.0
 10
153.954796218
 20
58.6233643974
 30
0.0
 10
153.9631592574
 20
58.6149856806
 30
0.0
 10
153.9728698563
 20
58.6093707417
 30
0.0
  0
SPLINE
  5
646
100
AcDbEntity
  8
3_AXES_OTHER
100
AcDbSpline
 62
7
  6
CONTINUOUS
 70
0
 71
3
 72
8
 73
4
 74
0
 42
0.0000001
 43
0.0000001
 44
0.0000000001
 40
0.0
 40
0.0
 40
0.0
 40
0.0
 40
1.0
 40
1.0
 40
1.0
 40
1.0
 10
154.1811821138
 20
58.8164984264
 30
0.0
 10
154.1853680139
 20
58.7917573066
 30
0.0
 10
154.19872419
 20
58.7648127402
 30
0.0
 10
154.2204643032
 20
58.7522822876
 30
0.0
  0
SPLINE
  5
647
100
AcDbEntity
  8
3_AXES_OTHER
100
AcDbSpline
 62
7
  6
CONTINUOUS
 70
0
 71
3
 72
9
 73
5
 74
0
 42
0.0000001
 43
0.0000001
 44
0.0000000001
 40
0.0
 40
0.0
 40
0.0
 40
0.0
 40
0.2352488853
 40
1.0
 40
1.0
 40
1.0
 40
1.0
 10
154.3203763621
 20
59.0887670109
 30
0.0
 10
154.3026855263
 20
59.0785447787
 30
0.0
 10
154.2348588269
 20
59.0234767905
 30
0.0
 10
154.1904898658
 20
58.9394747283
 30
0.0
 10
154.1811821138
 20
58.8737099845
 30
0.0
  0
SPLINE
  5
648
100
AcDbEntity
  8
7_ALL_ROUNDS
100
AcDbSpline
 62
7
  6
CONTINUOUS
 70
0
 71
3
 72
9
 73
5
 74
0
 42
0.0000001
 43
0.0000001
 44
0.0000000001
 40
0.0
 40
0.0
 40
0.0
 40
0.0
 40
0.7050361712
 40
1.0
 40
1.0
 40
1.0
 40
1.0
 10
156.4859212099
 20
63.5580859641
 30
0.0
 10
156.504458363
 20
63.5473808732
 30
0.0
 10
156.5205885865
 20
63.5159246822
 30
0.0
 10
156.5225964028
 20
63.4859680924
 30
0.0
 10
156.5225964028
 20
63.4770124496
 30
0.0
  0
SPLINE
  5
649
100
AcDbEntity
  8
3_ALL_AXES
100
AcDbSpline
 62
7
  6
CONTINUOUS
 70
0
 71
3
 72
9
 73
5
 74
0
 42
0.0000001
 43
0.0000001
 44
0.0000000001
 40
0.0
 40
0.0
 40
0.0
 40
0.0
 40
0.7053287407
 40
1.0
 40
1.0
 40
1.0
 40
1.0
 10
156.0126691701
 20
58.4079617903
 30
0.0
 10
155.9982345625
 20
58.4163374967
 30
0.0
 10
155.970702996
 20
58.4149749898
 30
0.0
 10
155.9496973511
 20
58.4046741727
 30
0.0
 10
155.9436596854
 20
58.4011874119
 30
0.0
  0
SPLINE
  5
64A
100
AcDbEntity
  8
3_AXES_OTHER
100
AcDbSpline
 62
7
  6
CONTINUOUS
 70
0
 71
3
 72
8
 73
4
 74
0
 42
0.0000001
 43
0.0000001
 44
0.0000000001
 40
0.0
 40
0.0
 40
0.0
 40
0.0
 40
1.0
 40
1.0
 40
1.0
 40
1.0
 10
154.1731088474
 20
58.8783723077
 30
0.0
 10
154.1772130762
 20
58.9073710983
 30
0.0
 10
154.1865400902
 20
58.9358269018
 30
0.0
 10
154.1989862271
 20
58.962338564
 30
0.0
  0
SPLINE
  5
64B
100
AcDbEntity
  8
3_AXES_OTHER
100
AcDbSpline
 62
7
  6
CONTINUOUS
 70
0
 71
3
 72
8
 73
4
 74
0
 42
0.0000001
 43
0.0000001
 44
0.0000000001
 40
0.0
 40
0.0
 40
0.0
 40
0.0
 40
1.0
 40
1.0
 40
1.0
 40
1.0
 10
154.1989862271
 20
58.962338564
 30
0.0
 10
154.2120027583
 20
58.9900652299
 30
0.0
 10
154.2288633837
 20
59.0163262892
 30
0.0
 10
154.2489156565
 20
59.0394802186
 30
0.0
  0
SPLINE
  5
64C
100
AcDbEntity
  8
3_AXES_OTHER
100
AcDbSpline
 62
7
  6
CONTINUOUS
 70
0
 71
3
 72
8
 73
4
 74
0
 42
0.0000001
 43
0.0000001
 44
0.0000000001
 40
0.0
 40
0.0
 40
0.0
 40
0.0
 40
1.0
 40
1.0
 40
1.0
 40
1.0
 10
154.2489156565
 20
59.0394802186
 30
0.0
 10
154.2670797567
 20
59.0604539156
 30
0.0
 10
154.2882794658
 20
59.0795478461
 30
0.0
 10
154.3123030957
 20
59.0934293341
 30
0.0
  0
SPLINE
  5
64D
100
AcDbEntity
  8
3_ALL_AXES
100
AcDbSpline
 62
7
  6
CONTINUOUS
 70
0
 71
3
 72
8
 73
4
 74
0
 42
0.0000001
 43
0.0000001
 44
0.0000000001
 40
0.0
 40
0.0
 40
0.0
 40
0.0
 40
1.0
 40
1.0
 40
1.0
 40
1.0
 10
155.6573027318
 20
62.4193199041
 30
0.0
 10
155.6447003503
 20
62.4265914965
 30
0.0
 10
155.6278252046
 20
62.4268126036
 30
0.0
 10
155.6138029601
 20
62.4229302417
 30
0.0
  0
SPLINE
  5
64E
100
AcDbEntity
  8
3_ALL_AXES
100
AcDbSpline
 62
7
  6
CONTINUOUS
 70
0
 71
3
 72
8
 73
4
 74
0
 42
0.0000001
 43
0.0000001
 44
0.0000000001
 40
0.0
 40
0.0
 40
0.0
 40
0.0
 40
1.0
 40
1.0
 40
1.0
 40
1.0
 10
155.5230251574
 20
62.4968710935
 30
0.0
 10
155.5099828857
 20
62.5043672851
 30
0.0
 10
155.4924192364
 20
62.5042830808
 30
0.0
 10
155.4780034775
 20
62.4999842868
 30
0.0
  0
SPLINE
  5
64F
100
AcDbEntity
  8
3_ALL_AXES
100
AcDbSpline
 62
7
  6
CONTINUOUS
 70
0
 71
3
 72
8
 73
4
 74
0
 42
0.0000001
 43
0.0000001
 44
0.0000000001
 40
0.0
 40
0.0
 40
0.0
 40
0.0
 40
1.0
 40
1.0
 40
1.0
 40
1.0
 10
155.2923354128
 20
62.2085507438
 30
0.0
 10
155.2760738209
 20
62.2179337059
 30
0.0
 10
155.2532101498
 20
62.2151118651
 30
0.0
 10
155.2360207977
 20
62.2075616648
 30
0.0
  0
SPLINE
  5
650
100
AcDbEntity
  8
3_ALL_AXES
100
AcDbSpline
 62
7
  6
CONTINUOUS
 70
0
 71
3
 72
9
 73
5
 74
0
 42
0.0000001
 43
0.0000001
 44
0.0000000001
 40
0.0
 40
0.0
 40
0.0
 40
0.0
 40
0.2884420937
 40
1.0
 40
1.0
 40
1.0
 40
1.0
 10
154.529446123
 20
62.7945857646
 30
0.0
 10
154.5416278842
 20
62.8016207495
 30
0.0
 10
154.5757205538
 20
62.8325005038
 30
0.0
 10
154.5988670166
 20
62.909685832
 30
0.0
 10
154.5688225353
 20
62.9270520526
 30
0.0
  0
SPLINE
  5
651
100
AcDbEntity
  8
3_ALL_AXES
100
AcDbSpline
 62
7
  6
CONTINUOUS
 70
0
 71
3
 72
8
 73
4
 74
0
 42
0.0000001
 43
0.0000001
 44
0.0000000001
 40
0.0
 40
0.0
 40
0.0
 40
0.0
 40
1.0
 40
1.0
 40
1.0
 40
1.0
 10
155.1580578384
 20
62.2861019332
 30
0.0
 10
155.1416297834
 20
62.2955441416
 30
0.0
 10
155.1185127098
 20
62.2925537124
 30
0.0
 10
155.1012282325
 20
62.284789491
 30
0.0
  0
SPLINE
  5
652
100
AcDbEntity
  8
7_ALL_ROUNDS
100
AcDbSpline
 62
7
  6
CONTINUOUS
 70
0
 71
3
 72
9
 73
5
 74
0
 42
0.0000001
 43
0.0000001
 44
0.0000000001
 40
0.0
 40
0.0
 40
0.0
 40
0.0
 40
0.4972265129
 40
1.0
 40
1.0
 40
1.0
 40
1.0
 10
156.9941818281
 20
64.4384104631
 30
0.0
 10
156.9968670647
 20
64.4368597555
 30
0.0
 10
157.002069295
 20
64.4333850519
 30
0.0
 10
157.0067846373
 20
64.4292759326
 30
0.0
 10
157.0090186899
 20
64.4270759494
 30
0.0
  0
SPLINE
  5
653
100
AcDbEntity
  8
7_ALL_ROUNDS
100
AcDbSpline
 62
7
  6
CONTINUOUS
 70
0
 71
3
 72
9
 73
5
 74
0
 42
0.0000001
 43
0.0000001
 44
0.0000000001
 40
0.0
 40
0.0
 40
0.0
 40
0.0
 40
0.7139438134
 40
1.0
 40
1.0
 40
1.0
 40
1.0
 10
157.0090186899
 20
64.4270759494
 30
0.0
 10
157.0249526801
 20
64.4113849537
 30
0.0
 10
157.0370675418
 20
64.3793400377
 30
0.0
 10
157.0390070638
 20
64.348280766
 30
0.0
 10
157.0390070638
 20
64.339320612
 30
0.0
  0
SPLINE
  5
654
100
AcDbEntity
  8
3_ALL_AXES
100
AcDbSpline
 62
7
  6
CONTINUOUS
 70
0
 71
3
 72
9
 73
5
 74
0
 42
0.0000001
 43
0.0000001
 44
0.0000000001
 40
0.0
 40
0.0
 40
0.0
 40
0.0
 40
0.2883133887
 40
1.0
 40
1.0
 40
1.0
 40
1.0
 10
153.6032475951
 20
61.0341560451
 30
0.0
 10
153.5819433953
 20
61.0218528386
 30
0.0
 10
153.5223019699
 20
60.9678090495
 30
0.0
 10
153.4817124739
 20
60.8328704859
 30
0.0
 10
153.5342381103
 20
60.8023923931
 30
0.0
  0
SPLINE
  5
655
100
AcDbEntity
  8
3_ALL_AXES
100
AcDbSpline
 62
7
  6
CONTINUOUS
 70
0
 71
3
 72
8
 73
4
 74
0
 42
0.0000001
 43
0.0000001
 44
0.0000000001
 40
0.0
 40
0.0
 40
0.0
 40
0.0
 40
1.0
 40
1.0
 40
1.0
 40
1.0
 10
154.915675777
 20
61.9910292534
 30
0.0
 10
154.899414185
 20
62.0004122154
 30
0.0
 10
154.876550514
 20
61.9975903747
 30
0.0
 10
154.8593611619
 20
61.9900401744
 30
0.0
  0
SPLINE
  5
656
100
AcDbEntity
  8
3_ALL_AXES
100
AcDbSpline
 62
7
  6
CONTINUOUS
 70
0
 71
3
 72
8
 73
4
 74
0
 42
0.0000001
 43
0.0000001
 44
0.0000000001
 40
0.0
 40
0.0
 40
0.0
 40
0.0
 40
1.0
 40
1.0
 40
1.0
 40
1.0
 10
154.7813982026
 20
62.0685804427
 30
0.0
 10
154.7649701476
 20
62.0780226512
 30
0.0
 10
154.741853074
 20
62.0750322219
 30
0.0
 10
154.7245685966
 20
62.0672680006
 30
0.0
  0
SPLINE
  5
657
100
AcDbEntity
  8
3_ALL_AXES
100
AcDbSpline
 62
7
  6
CONTINUOUS
 70
0
 71
3
 72
8
 73
4
 74
0
 42
0.0000001
 43
0.0000001
 44
0.0000000001
 40
0.0
 40
0.0
 40
0.0
 40
0.0
 40
1.0
 40
1.0
 40
1.0
 40
1.0
 10
156.7909902308
 20
60.0908779881
 30
0.0
 10
156.800055541
 20
60.0856178259
 30
0.0
 10
156.8110647556
 20
60.0832105771
 30
0.0
 10
156.8215429166
 20
60.0834499473
 30
0.0
  0
SPLINE
  5
658
100
AcDbEntity
  8
3_ALL_AXES
100
AcDbSpline
 62
7
  6
CONTINUOUS
 70
0
 71
3
 72
8
 73
4
 74
0
 42
0.0000001
 43
0.0000001
 44
0.0000000001
 40
0.0
 40
0.0
 40
0.0
 40
0.0
 40
1.0
 40
1.0
 40
1.0
 40
1.0
 10
156.8215429166
 20
60.0834499473
 30
0.0
 10
156.8384188193
 20
60.0838354719
 30
0.0
 10
156.8552403969
 20
60.0901783243
 30
0.0
 10
156.8698582133
 20
60.0986201347
 30
0.0
  0
SPLINE
  5
659
100
AcDbEntity
  8
3_ALL_AXES
100
AcDbSpline
 62
7
  6
CONTINUOUS
 70
0
 71
3
 72
8
 73
4
 74
0
 42
0.0000001
 43
0.0000001
 44
0.0000000001
 40
0.0
 40
0.0
 40
0.0
 40
0.0
 40
1.0
 40
1.0
 40
1.0
 40
1.0
 10
154.5507084581
 20
61.780260093
 30
0.0
 10
154.5380249153
 20
61.7875785156
 30
0.0
 10
154.5210187619
 20
61.7877469993
 30
0.0
 10
154.5069200569
 20
61.7837899694
 30
0.0
  0
SPLINE
  5
65A
100
AcDbEntity
  8
3_ALL_AXES
100
AcDbSpline
 62
7
  6
CONTINUOUS
 70
0
 71
3
 72
8
 73
4
 74
0
 42
0.0000001
 43
0.0000001
 44
0.0000000001
 40
0.0
 40
0.0
 40
0.0
 40
0.0
 40
1.0
 40
1.0
 40
1.0
 40
1.0
 10
154.4164308837
 20
61.8578112824
 30
0.0
 10
154.4032282866
 20
61.8653996228
 30
0.0
 10
154.385404163
 20
61.865205936
 30
0.0
 10
154.3708417515
 20
61.8607531107
 30
0.0
  0
SPLINE
  5
65B
100
AcDbEntity
  8
7_ALL_ROUNDS
100
AcDbSpline
 62
7
  6
CONTINUOUS
 70
0
 71
3
 72
9
 73
5
 74
0
 42
0.0000001
 43
0.0000001
 44
0.0000000001
 40
0.0
 40
0.0
 40
0.0
 40
0.0
 40
0.7050091598
 40
1.0
 40
1.0
 40
1.0
 40
1.0
 10
156.9646486179
 20
64.3872704937
 30
0.0
 10
156.9481621564
 20
64.3967913229
 30
0.0
 10
156.9167567569
 20
64.3952242452
 30
0.0
 10
156.8927916543
 20
64.3834462985
 30
0.0
 10
156.8858933907
 20
64.3794625412
 30
0.0
  0
SPLINE
  5
65C
100
AcDbEntity
  8
3_ALL_AXES
100
AcDbSpline
 62
7
  6
CONTINUOUS
 70
0
 71
3
 72
9
 73
5
 74
0
 42
0.0000001
 43
0.0000001
 44
0.0000000001
 40
0.0
 40
0.0
 40
0.0
 40
0.0
 40
0.7053287407
 40
1.0
 40
1.0
 40
1.0
 40
1.0
 10
156.9388676981
 20
60.3464544492
 30
0.0
 10
156.9244330905
 20
60.3548301556
 30
0.0
 10
156.896901524
 20
60.3534676487
 30
0.0
 10
156.8758958791
 20
60.3431668316
 30
0.0
 10
156.8698582133
 20
60.3396800708
 30
0.0
  0
SPLINE
  5
65D
100
AcDbEntity
  8
3_AXES_OTHER
100
AcDbSpline
 62
7
  6
CONTINUOUS
 70
0
 71
3
 72
9
 73
5
 74
0
 42
0.0000001
 43
0.0000001
 44
0.0000000001
 40
0.0
 40
0.0
 40
0.0
 40
0.0
 40
0.2939093091
 40
1.0
 40
1.0
 40
1.0
 40
1.0
 10
154.4971530574
 20
58.8858346449
 30
0.0
 10
154.4971530574
 20
58.8795295832
 30
0.0
 10
154.4986317781
 20
58.8583740047
 30
0.0
 10
154.5099444813
 20
58.8361043753
 30
0.0
 10
154.5230615482
 20
58.8285291139
 30
0.0
  0
SPLINE
  5
65E
100
AcDbEntity
  8
3_AXES_OTHER
100
AcDbSpline
 62
7
  6
CONTINUOUS
 70
0
 71
3
 72
8
 73
4
 74
0
 42
0.0000001
 43
0.0000001
 44
0.0000000001
 40
0.0
 40
0.0
 40
0.0
 40
0.0
 40
1.0
 40
1.0
 40
1.0
 40
1.0
 10
154.5856805993
 20
60.4675293176
 30
0.0
 10
154.5345725461
 20
60.4380143421
 30
0.0
 10
154.4971530574
 20
60.3732134803
 30
0.0
 10
154.4971530574
 20
60.3141951198
 30
0.0
  0
SPLINE
  5
65F
100
AcDbEntity
  8
3_ALL_AXES
100
AcDbSpline
 62
7
  6
CONTINUOUS
 70
0
 71
3
 72
9
 73
5
 74
0
 42
0.0000001
 43
0.0000001
 44
0.0000000001
 40
0.0
 40
0.0
 40
0.0
 40
0.0
 40
0.2883133887
 40
1.0
 40
1.0
 40
1.0
 40
1.0
 10
153.6032475951
 20
60.793096109
 30
0.0
 10
153.6275952519
 20
60.8071569165
 30
0.0
 10
153.6957568809
 20
60.8689212469
 30
0.0
 10
153.7421448763
 20
61.0231367482
 30
0.0
 10
153.6821155776
 20
61.0579688542
 30
0.0
  0
SPLINE
  5
660
100
AcDbEntity
  8
3_ALL_AXES
100
AcDbSpline
 62
7
  6
CONTINUOUS
 70
0
 71
3
 72
9
 73
5
 74
0
 42
0.0000001
 43
0.0000001
 44
0.0000000001
 40
0.0
 40
0.0
 40
0.0
 40
0.0
 40
0.2884420937
 40
1.0
 40
1.0
 40
1.0
 40
1.0
 10
155.9436596854
 20
63.6112961647
 30
0.0
 10
155.9558414466
 20
63.6183311496
 30
0.0
 10
155.9899341162
 20
63.6492109039
 30
0.0
 10
156.013080579
 20
63.7263962321
 30
0.0
 10
155.9830360977
 20
63.7437624527
 30
0.0
  0
SPLINE
  5
661
100
AcDbEntity
  8
3_ALL_AXES
100
AcDbSpline
 62
7
  6
CONTINUOUS
 70
0
 71
3
 72
11
 73
7
 74
0
 42
0.0000001
 43
0.0000001
 44
0.0000000001
 40
0.0
 40
0.0
 40
0.0
 40
0.0
 40
0.2177725514
 40
0.4509555095
 40
0.7101913168
 40
1.0
 40
1.0
 40
1.0
 40
1.0
 10
146.3402482096
 20
57.7142059586
 30
0.0
 10
146.6336794226
 20
57.8836635615
 30
0.0
 10
147.1828835021
 20
58.3452216383
 30
0.0
 10
147.7670042066
 20
59.3010436596
 30
0.0
 10
148.1145614834
 20
60.4787589644
 30
0.0
 10
148.1826338237
 20
61.3360113228
 30
0.0
 10
148.1826338237
 20
61.7869451148
 30
0.0
  0
SPLINE
  5
662
100
AcDbEntity
  8
3_ALL_AXES
100
AcDbSpline
 62
7
  6
CONTINUOUS
 70
0
 71
3
 72
11
 73
7
 74
0
 42
0.0000001
 43
0.0000001
 44
0.0000000001
 40
0.0
 40
0.0
 40
0.0
 40
0.0
 40
0.2177733145
 40
0.4509541796
 40
0.7101882343
 40
1.0
 40
1.0
 40
1.0
 40
1.0
 10
146.6758136284
 20
57.9079811345
 30
0.0
 10
146.9692788485
 20
58.0774349059
 30
0.0
 10
147.5185832463
 20
58.5389548938
 30
0.0
 10
148.1028019765
 20
59.4948235117
 30
0.0
 10
148.4504259736
 20
60.6726175281
 30
0.0
 10
148.5185095448
 20
61.5299401851
 30
0.0
 10
148.5185095448
 20
61.9809138348
 30
0.0
  0
SPLINE
  5
663
100
AcDbEntity
  8
3_ALL_AXES
100
AcDbSpline
 62
7
  6
CONTINUOUS
 70
0
 71
3
 72
8
 73
4
 74
0
 42
0.0000001
 43
0.0000001
 44
0.0000000001
 40
0.0
 40
0.0
 40
0.0
 40
0.0
 40
1.0
 40
1.0
 40
1.0
 40
1.0
 10
156.7909902308
 20
62.6718263708
 30
0.0
 10
156.800055541
 20
62.6665662086
 30
0.0
 10
156.8110647556
 20
62.6641589599
 30
0.0
 10
156.8215429166
 20
62.6643983301
 30
0.0
  0
SPLINE
  5
664
100
AcDbEntity
  8
3_ALL_AXES
100
AcDbSpline
 62
7
  6
CONTINUOUS
 70
0
 71
3
 72
8
 73
4
 74
0
 42
0.0000001
 43
0.0000001
 44
0.0000000001
 40
0.0
 40
0.0
 40
0.0
 40
0.0
 40
1.0
 40
1.0
 40
1.0
 40
1.0
 10
156.8215429166
 20
62.6643983301
 30
0.0
 10
156.8384188193
 20
62.6647838547
 30
0.0
 10
156.8552403969
 20
62.6711267071
 30
0.0
 10
156.8698582133
 20
62.6795685175
 30
0.0
  0
SPLINE
  5
665
100
AcDbEntity
  8
7_ALL_ROUNDS
100
AcDbSpline
 62
7
  6
CONTINUOUS
 70
0
 71
3
 72
9
 73
5
 74
0
 42
0.0000001
 43
0.0000001
 44
0.0000000001
 40
0.0
 40
0.0
 40
0.0
 40
0.0
 40
0.240673333
 40
1.0
 40
1.0
 40
1.0
 40
1.0
 10
157.0390070638
 20
58.8900804027
 30
0.0
 10
157.0390070638
 20
58.8649843433
 30
0.0
 10
157.0205179191
 20
58.7619188522
 30
0.0
 10
156.9544593268
 20
58.6644766744
 30
0.0
 10
156.8858933907
 20
58.6248797461
 30
0.0
  0
SPLINE
  5
666
100
AcDbEntity
  8
7_ALL_ROUNDS
100
AcDbSpline
 62
7
  6
CONTINUOUS
 70
0
 71
3
 72
9
 73
5
 74
0
 42
0.0000001
 43
0.0000001
 44
0.0000000001
 40
0.0
 40
0.0
 40
0.0
 40
0.0
 40
0.2860720006
 40
1.0
 40
1.0
 40
1.0
 40
1.0
 10
153.5872680954
 20
56.7199188148
 30
0.0
 10
153.5795041815
 20
56.7154351432
 30
0.0
 10
153.5516227286
 20
56.7015744999
 30
0.0
 10
153.5177945611
 20
56.6960362425
 30
0.0
 10
153.4962274243
 20
56.7019933073
 30
0.0
  0
SPLINE
  5
667
100
AcDbEntity
  8
7_ALL_ROUNDS
100
AcDbSpline
 62
7
  6
CONTINUOUS
 70
0
 71
3
 72
9
 73
5
 74
0
 42
0.0000001
 43
0.0000001
 44
0.0000000001
 40
0.0
 40
0.0
 40
0.0
 40
0.0
 40
0.5027781168
 40
1.0
 40
1.0
 40
1.0
 40
1.0
 10
153.4962274243
 20
56.7019933073
 30
0.0
 10
153.4932026483
 20
56.7028287815
 30
0.0
 10
153.4872815858
 20
56.7048598179
 30
0.0
 10
153.4816670796
 20
56.7076309108
 30
0.0
 10
153.478979658
 20
56.7091828802
 30
0.0
  0
SPLINE
  5
668
100
AcDbEntity
  8
3_ALL_AXES
100
AcDbSpline
 62
7
  6
CONTINUOUS
 70
0
 71
3
 72
9
 73
5
 74
0
 42
0.0000001
 43
0.0000001
 44
0.0000000001
 40
0.0
 40
0.0
 40
0.0
 40
0.0
 40
0.2883133887
 40
1.0
 40
1.0
 40
1.0
 40
1.0
 10
154.529446123
 20
62.971363051
 30
0.0
 10
154.5081419232
 20
62.9590598445
 30
0.0
 10
154.4485004978
 20
62.9050160554
 30
0.0
 10
154.4079110019
 20
62.7700774918
 30
0.0
 10
154.4604366383
 20
62.739599399
 30
0.0
  0
SPLINE
  5
669
100
AcDbEntity
  8
7_ALL_ROUNDS
100
AcDbSpline
 62
7
  6
CONTINUOUS
 70
0
 71
3
 72
8
 73
4
 74
0
 42
0.0000001
 43
0.0000001
 44
0.0000000001
 40
0.0
 40
0.0
 40
0.0
 40
0.0
 40
1.0
 40
1.0
 40
1.0
 40
1.0
 10
156.5225964028
 20
59.1559327413
 30
0.0
 10
156.5225964028
 20
59.0724161935
 30
0.0
 10
156.4696442961
 20
58.9807168606
 30
0.0
 10
156.3973215793
 20
58.938950386
 30
0.0
  0
SPLINE
  5
66A
100
AcDbEntity
  8
7_ALL_ROUNDS
100
AcDbSpline
 62
7
  6
CONTINUOUS
 70
0
 71
3
 72
9
 73
5
 74
0
 42
0.0000001
 43
0.0000001
 44
0.0000000001
 40
0.0
 40
0.0
 40
0.0
 40
0.0
 40
0.2949908402
 40
1.0
 40
1.0
 40
1.0
 40
1.0
 10
154.0758399068
 20
57.5982913256
 30
0.0
 10
154.0680793603
 20
57.5938095987
 30
0.0
 10
154.0411186198
 20
57.5805594086
 30
0.0
 10
154.0057875454
 20
57.5787964462
 30
0.0
 10
153.9872402762
 20
57.5895073791
 30
0.0
  0
SPLINE
  5
66B
100
AcDbEntity
  8
3_ALL_AXES
100
AcDbSpline
 62
7
  6
CONTINUOUS
 70
0
 71
3
 72
9
 73
5
 74
0
 42
0.0000001
 43
0.0000001
 44
0.0000000001
 40
0.0
 40
0.0
 40
0.0
 40
0.0
 40
0.4531555505
 40
1.0
 40
1.0
 40
1.0
 40
1.0
 10
138.5648065009
 20
71.19967047
 30
0.0
 10
138.2019934563
 20
70.8990796832
 30
0.0
 10
137.6175552977
 20
69.9732388506
 30
0.0
 10
137.4887573123
 20
68.9191785206
 30
0.0
 10
137.4887573123
 20
68.3506118766
 30
0.0
  0
SPLINE
  5
66C
100
AcDbEntity
  8
3_ALL_AXES
100
AcDbSpline
 62
7
  6
CONTINUOUS
 70
0
 71
3
 72
15
 73
11
 74
0
 42
0.0000001
 43
0.0000001
 44
0.0000000001
 40
0.0
 40
0.0
 40
0.0
 40
0.0
 40
0.086925705
 40
0.1863919528
 40
0.3037842384
 40
0.4376063588
 40
0.5821170958
 40
0.7294386938
 40
0.8711824589
 40
1.0
 40
1.0
 40
1.0
 40
1.0
 10
145.2395789504
 20
59.6208819443
 30
0.0
 10
144.9050236636
 20
59.4276390314
 30
0.0
 10
144.0644302634
 20
59.2113719171
 30
0.0
 10
142.7112422512
 20
59.482332244
 30
0.0
 10
141.3287322793
 20
60.2373856064
 30
0.0
 10
140.0030134025
 20
61.4112480077
 30
0.0
 10
138.8325953117
 20
62.9094337769
 30
0.0
 10
137.9110140855
 20
64.612445768
 30
0.0
 10
137.3131285135
 20
66.3801714363
 30
0.0
 10
137.1528815912
 20
67.5840935218
 30
0.0
 10
137.1528815912
 20
68.1566431566
 30
0.0
  0
SPLINE
  5
66D
100
AcDbEntity
  8
3_ALL_AXES
100
AcDbSpline
 62
7
  6
CONTINUOUS
 70
0
 71
3
 72
11
 73
7
 74
0
 42
0.0000001
 43
0.0000001
 44
0.0000000001
 40
0.0
 40
0.0
 40
0.0
 40
0.0
 40
0.2177725514
 40
0.4509555095
 40
0.7101913168
 40
1.0
 40
1.0
 40
1.0
 40
1.0
 10
131.3501133866
 20
66.3710307372
 30
0.0
 10
131.6435445995
 20
66.5404883402
 30
0.0
 10
132.1927486791
 20
67.002046417
 30
0.0
 10
132.7768693836
 20
67.9578684382
 30
0.0
 10
133.1244266604
 20
69.1355837431
 30
0.0
 10
133.1924990007
 20
69.9928361015
 30
0.0
 10
133.1924990007
 20
70.4437698934
 30
0.0
  0
SPLINE
  5
66E
100
AcDbEntity
  8
3_ALL_AXES
100
AcDbSpline
 62
7
  6
CONTINUOUS
 70
0
 71
3
 72
11
 73
7
 74
0
 42
0.0000001
 43
0.0000001
 44
0.0000000001
 40
0.0
 40
0.0
 40
0.0
 40
0.0
 40
0.2177733145
 40
0.4509541796
 40
0.7101882343
 40
1.0
 40
1.0
 40
1.0
 40
1.0
 10
131.6856788054
 20
66.5648059132
 30
0.0
 10
131.9791440255
 20
66.7342596846
 30
0.0
 10
132.5284484233
 20
67.1957796724
 30
0.0
 10
133.1126671535
 20
68.1516482903
 30
0.0
 10
133.4602911506
 20
69.3294423068
 30
0.0
 10
133.5283747218
 20
70.1867649637
 30
0.0
 10
133.5283747218
 20
70.6377386134
 30
0.0
  0
SPLINE
  5
66F
100
AcDbEntity
  8
3_ALL_AXES
100
AcDbSpline
 62
7
  6
CONTINUOUS
 70
0
 71
3
 72
9
 73
5
 74
0
 42
0.0000001
 43
0.0000001
 44
0.0000000001
 40
0.0
 40
0.0
 40
0.0
 40
0.0
 40
0.2883133887
 40
1.0
 40
1.0
 40
1.0
 40
1.0
 10
153.6032475951
 20
58.2121477263
 30
0.0
 10
153.6275952519
 20
58.2262085337
 30
0.0
 10
153.6957568809
 20
58.2879728641
 30
0.0
 10
153.7421448763
 20
58.4421883654
 30
0.0
 10
153.6821155776
 20
58.4770204715
 30
0.0
  0
SPLINE
  5
670
100
AcDbEntity
  8
3_ALL_AXES
100
AcDbSpline
 62
7
  6
CONTINUOUS
 70
0
 71
3
 72
9
 73
5
 74
0
 42
0.0000001
 43
0.0000001
 44
0.0000000001
 40
0.0
 40
0.0
 40
0.0
 40
0.0
 40
0.7053287407
 40
1.0
 40
1.0
 40
1.0
 40
1.0
 10
156.9388676981
 20
62.9274028319
 30
0.0
 10
156.9244330905
 20
62.9357785383
 30
0.0
 10
156.896901524
 20
62.9344160315
 30
0.0
 10
156.8758958791
 20
62.9241152144
 30
0.0
 10
156.8698582133
 20
62.9206284536
 30
0.0
  0
SPLINE
  5
671
100
AcDbEntity
  8
3_ALL_AXES
100
AcDbSpline
 62
7
  6
CONTINUOUS
 70
0
 71
3
 72
15
 73
11
 74
0
 42
0.0000001
 43
0.0000001
 44
0.0000000001
 40
0.0
 40
0.0
 40
0.0
 40
0.0
 40
0.086925705
 40
0.1863919528
 40
0.3037842384
 40
0.4376063588
 40
0.5821170958
 40
0.7294386938
 40
0.8711824589
 40
1.0
 40
1.0
 40
1.0
 40
1.0
 10
130.2494441274
 20
68.2777067229
 30
0.0
 10
129.9148888406
 20
68.08446381
 30
0.0
 10
129.0742954404
 20
67.8681966958
 30
0.0
 10
127.7211074282
 20
68.1391570227
 30
0.0
 10
126.3385974563
 20
68.894210385
 30
0.0
 10
125.0128785795
 20
70.0680727863
 30
0.0
 10
123.8424604887
 20
71.5662585556
 30
0.0
 10
122.9208792624
 20
73.2692705466
 30
0.0
 10
122.3229936905
 20
75.0369962149
 30
0.0
 10
122.1627467682
 20
76.2409183004
 30
0.0
 10
122.1627467682
 20
76.8134679352
 30
0.0
  0
SPLINE
  5
672
100
AcDbEntity
  8
3_ALL_AXES
100
AcDbSpline
 62
7
  6
CONTINUOUS
 70
0
 71
3
 72
9
 73
5
 74
0
 42
0.0000001
 43
0.0000001
 44
0.0000000001
 40
0.0
 40
0.0
 40
0.0
 40
0.0
 40
0.4531555505
 40
1.0
 40
1.0
 40
1.0
 40
1.0
 10
123.5746716779
 20
79.8564952486
 30
0.0
 10
123.2118586333
 20
79.5559044619
 30
0.0
 10
122.6274204747
 20
78.6300636292
 30
0.0
 10
122.4986224892
 20
77.5760032992
 30
0.0
 10
122.4986224892
 20
77.0074366553
 30
0.0
  0
ENDSEC
  0
SECTION
  2
OBJECTS
  0
DICTIONARY
  5
C
100
AcDbDictionary
280
0
281
1
  3
ACAD_GROUP
350
D
  3
ACAD_MLINESTYLE
350
17
  3
ACAD_LAYOUT
350
1A
  3
ACAD_PLOTSETTINGS
350
19
  3
ACAD_PLOTSTYLENAME
350
E
  0
DICTIONARY
  5
D
102
{ACAD_REACTORS
330
C
102
}
100
AcDbDictionary
280
0
281
1
  0
ACDBDICTIONARYWDFLT
  5
E
102
{ACAD_REACTORS
330
C
102
}
100
AcDbDictionary
281
1
  3
Normal
350
F
100
AcDbDictionaryWithDefault
340
F
  0
DICTIONARY
  5
17
102
{ACAD_REACTORS
330
C
102
}
100
AcDbDictionary
280
0
281
1
  3
Standard
350
18
  0
DICTIONARY
  5
19
102
{ACAD_REACTORS
330
C
102
}
100
AcDbDictionary
281
1
  0
DICTIONARY
  5
1A
102
{ACAD_REACTORS
330
C
102
}
100
AcDbDictionary
281
1
  3
Model
350
673
  3
Layout1
350
674
  0
ACDBPLACEHOLDER
  5
F
102
{ACAD_REACTORS
330
E
102
}
  0
MLINESTYLE
  5
18
102
{ACAD_REACTORS
330
17
102
}
100
AcDbMlineStyle
  2
STANDARD
 70
0
  3

 62
256
 51
90.0
 52
90.0
 71
2
 49
0.5
 62
256
  6
BYLAYER
 49
-0.5
 62
256
  6
BYLAYER
  0
LAYOUT
  5
673
102
{ACAD_REACTORS
330
1A
102
}
100
AcDbPlotSettings
  1

  2
none_device
  4
ANSI_D_(34.00_x_22.00_Inches)
  6

 40
0.0
 41
0.0
 42
0.0
 43
0.0
 44
863.6
 45
558.8
 46
0.0
 47
0.0
 48
0.0
 49
0.0
140
0.0
141
0.0
142
1.0
143
1.0
 70
1024
 72
0
 73
0
 74
0
  7

 75
0
147
1.0
148
0.0
149
0.0
100
AcDbLayout
  1
Model
 70
0
 71
0
 10
0.0
 20
0.0
 11
34.0
 21
22.0
 12
0.0
 22
0.0
 32
0.0
 14
0.0
 24
0.0
 34
0.0
 15
0.0
 25
0.0
 35
0.0
146
0.0
 13
0.0
 23
0.0
 33
0.0
 16
1.0
 26
0.0
 36
0.0
 17
0.0
 27
1.0
 37
0.0
 76
0
330
210
345
0
346
0
  0
LAYOUT
  5
674
102
{ACAD_REACTORS
330
1A
102
}
100
AcDbPlotSettings
  1

  2
none_device
  4
ANSI_D_(34.00_x_22.00_Inches)
  6

 40
0.0
 41
0.0
 42
0.0
 43
0.0
 44
863.6
 45
558.8
 46
0.0
 47
0.0
 48
0.0
 49
0.0
140
0.0
141
0.0
142
1.0
143
1.0
 70
0
 72
0
 73
0
 74
0
  7

 75
0
147
1.0
148
0.0
149
0.0
100
AcDbLayout
  1
Layout1
 70
0
 71
1
 10
0.0
 20
0.0
 11
34.0
 21
22.0
 12
0.0
 22
0.0
 32
0.0
 14
0.0
 24
0.0
 34
0.0
 15
0.0
 25
0.0
 35
0.0
146
0.0
 13
0.0
 23
0.0
 33
0.0
 16
1.0
 26
0.0
 36
0.0
 17
0.0
 27
1.0
 37
0.0
 76
0
330
211
345
0
346
0
  0
ENDSEC
  0
EOF
