999
DXF file: wp-001185-2d-A.dxf
999
Pro/ENGINEER 2016130 by Parametric Technology Corporation
  0
SECTION
  2
HEADER
  9
$ACADVER
  1
AC1015
  9
$DWGCODEPAGE
  3
ANSI_1252
  9
$EXTMAX
 10
136.0
 20
88.0
 30
0.0
  9
$EXTMIN
 10
0.0
 20
0.0
 30
0.0
  9
$LIMMIN
 10
0.0
 20
0.0
  9
$LIMMAX
 10
136.0
 20
88.0
  9
$VIEWCTR
 10
68.0
 20
44.0
  9
$VIEWSIZE
 40
88.0
  9
$CLAYER
  8
0
  9
$LTSCALE
 40
7.48
  9
$CELTYPE
  6
BYLAYER
  9
$DIMSCALE
 40
1.0
  9
$DIMASZ
 40
0.75
  9
$DIMEXO
 40
0.0625
  9
$DIMDLI
 40
5.168
  9
$DIMEXE
 40
0.125
  9
$DIMCEN
 40
1.224
  9
$DIMLFAC
 40
1.0
  9
$DIMBLK
  1
_FILLED
  9
$DIMALT
 70
0
  9
$DIMALTF
 40
25.4
  9
$DIMTXT
 40
0.625
  9
$DIMTOL
 70
1
  9
$DIMLIM
 70
0
  9
$DIMTFAC
 40
1.0
  9
$DIMTP
 40
0.01
  9
$DIMTM
 40
0.01
  9
$DIMGAP
 40
0.09
  9
$DIMDSEP
 70
46
  9
$AUNITS
 70
0
  9
$PDMODE
 70
3
  9
$PDSIZE
 40
0.3125
  9
$HANDSEED
  5
5E0
  9
$TILEMODE
 70
1
  9
$MEASUREMENT
 70
0
  9
$INSUNITS
 70
1
  0
ENDSEC
  0
SECTION
  2
CLASSES
  0
CLASS
  1
ACDBDICTIONARYWDFLT
  2
AcDbDictionaryWithDefault
  3
AutoCAD 2000
 90
0
280
0
281
0
  0
CLASS
  1
ACDBPLACEHOLDER
  2
AcDbPlaceHolder
  3
AutoCAD 2000
 90
0
280
0
281
0
  0
CLASS
  1
LAYOUT
  2
AcDbLayout
  3
AutoCAD 2000
 90
0
280
0
281
0
  0
ENDSEC
  0
SECTION
  2
TABLES
  0
TABLE
  2
VPORT
  5
8
100
AcDbSymbolTable
 70
2
  0
VPORT
  5
1F4
100
AcDbSymbolTableRecord
100
AcDbViewportTableRecord
  2
*ACTIVE
 70
0
 10
0.0
 20
0.0
 11
1.0
 21
1.0
 12
68.0
 22
44.0
 13
0.0
 23
0.0
 14
1.0
 24
1.0
 15
0.0
 25
0.0
 16
0.0
 26
0.0
 36
1.0
 17
0.0
 27
0.0
 37
0.0
 40
88.0
 41
1.5454545455
 42
50.0
 43
0.0
 44
0.0
 50
0.0
 51
0.0
 71
0
 72
100
 73
1
 74
1
 75
0
 76
0
 77
0
 78
0
  0
ENDTAB
  0
TABLE
  2
LTYPE
  5
5
100
AcDbSymbolTable
 70
6
  0
LTYPE
  5
14
100
AcDbSymbolTableRecord
100
AcDbLinetypeTableRecord
  2
BYBLOCK
 70
0
  3

 72
65
 73
0
 40
0.0
  0
LTYPE
  5
15
100
AcDbSymbolTableRecord
100
AcDbLinetypeTableRecord
  2
BYLAYER
 70
0
  3

 72
65
 73
0
 40
0.0
  0
LTYPE
  5
16
100
AcDbSymbolTableRecord
100
AcDbLinetypeTableRecord
  2
CONTINUOUS
 70
64
  3
Solid line
 72
65
 73
0
 40
0.0
  0
LTYPE
  5
1F5
100
AcDbSymbolTableRecord
100
AcDbLinetypeTableRecord
  2
CENTER
 70
64
  3
____ _ ____ _ ____ _ ____ _ ____ _ ____ _ ____
 72
65
 73
4
 40
0.6
 49
0.375
 74
0
 49
-0.075
 74
0
 49
0.075
 74
0
 49
-0.075
 74
0
  0
LTYPE
  5
1F6
100
AcDbSymbolTableRecord
100
AcDbLinetypeTableRecord
  2
HIDDEN
 70
64
  3
- - - - - - - - - - - - - - - - - - - -
 72
65
 73
2
 40
0.2
 49
0.1
 74
0
 49
-0.1
 74
0
  0
LTYPE
  5
1F7
100
AcDbSymbolTableRecord
100
AcDbLinetypeTableRecord
  2
PHANTOM
 70
64
  3
_____ _ _ _____ _ _ _____ _ _ _____
 72
65
 73
6
 40
0.8
 49
0.45
 74
0
 49
-0.05
 74
0
 49
0.1
 74
0
 49
-0.05
 74
0
 49
0.1
 74
0
 49
-0.05
 74
0
  0
LTYPE
  5
1F8
100
AcDbSymbolTableRecord
100
AcDbLinetypeTableRecord
  2
DOT
 70
64
  3
. . . . . . . . . . . . . . . . . . . .
 72
65
 73
2
 40
0.2
 49
0.1
 74
0
 49
-0.1
 74
0
  0
LTYPE
  5
1F9
100
AcDbSymbolTableRecord
100
AcDbLinetypeTableRecord
  2
DASHED
 70
64
  3
- - - - - - - - - - - - - - - - - - - -
 72
65
 73
2
 40
0.2
 49
0.1
 74
0
 49
-0.1
 74
0
  0
ENDTAB
  0
TABLE
  2
LAYER
  5
2
100
AcDbSymbolTable
 70
36
  0
LAYER
  5
10
100
AcDbSymbolTableRecord
100
AcDbLayerTableRecord
  2
0
 70
0
 62
7
  6
CONTINUOUS
370
-3
390
F
  0
LAYER
  5
1FA
100
AcDbSymbolTableRecord
100
AcDbLayerTableRecord
  2
DEFAULT_1
 70
0
 62
7
  6
CENTER
370
-3
390
F
  0
LAYER
  5
1FB
100
AcDbSymbolTableRecord
100
AcDbLayerTableRecord
  2
DEFAULT_2
 70
0
 62
8
  6
HIDDEN
370
-3
390
F
  0
LAYER
  5
1FC
100
AcDbSymbolTableRecord
100
AcDbLayerTableRecord
  2
DEFAULT_3
 70
0
 62
7
  6
PHANTOM
370
-3
390
F
  0
LAYER
  5
1FD
100
AcDbSymbolTableRecord
100
AcDbLayerTableRecord
  2
1_ALL_PLANES
 70
0
 62
7
  6
CONTINUOUS
370
-3
390
F
  0
LAYER
  5
1FE
100
AcDbSymbolTableRecord
100
AcDbLayerTableRecord
  2
1__DEF_PLANES
 70
0
 62
7
  6
CONTINUOUS
370
-3
390
F
  0
LAYER
  5
1FF
100
AcDbSymbolTableRecord
100
AcDbLayerTableRecord
  2
2_ALL_CSYS
 70
0
 62
7
  6
CONTINUOUS
370
-3
390
F
  0
LAYER
  5
200
100
AcDbSymbolTableRecord
100
AcDbLayerTableRecord
  2
2__DEF_CSYS
 70
0
 62
7
  6
CONTINUOUS
370
-3
390
F
  0
LAYER
  5
201
100
AcDbSymbolTableRecord
100
AcDbLayerTableRecord
  2
3_ALL_AXES
 70
0
 62
7
  6
CONTINUOUS
370
-3
390
F
  0
LAYER
  5
202
100
AcDbSymbolTableRecord
100
AcDbLayerTableRecord
  2
3_AXES_OTHER
 70
0
 62
7
  6
CONTINUOUS
370
-3
390
F
  0
LAYER
  5
203
100
AcDbSymbolTableRecord
100
AcDbLayerTableRecord
  2
3_HOLES
 70
0
 62
7
  6
CONTINUOUS
370
-3
390
F
  0
LAYER
  5
204
100
AcDbSymbolTableRecord
100
AcDbLayerTableRecord
  2
4_ALL_POINTS
 70
0
 62
7
  6
CONTINUOUS
370
-3
390
F
  0
LAYER
  5
205
100
AcDbSymbolTableRecord
100
AcDbLayerTableRecord
  2
5_ALL_CURVES
 70
0
 62
7
  6
CONTINUOUS
370
-3
390
F
  0
LAYER
  5
206
100
AcDbSymbolTableRecord
100
AcDbLayerTableRecord
  2
6_ALL_SURFS
 70
0
 62
7
  6
CONTINUOUS
370
-3
390
F
  0
LAYER
  5
207
100
AcDbSymbolTableRecord
100
AcDbLayerTableRecord
  2
6_COPYGEOM
 70
0
 62
7
  6
CONTINUOUS
370
-3
390
F
  0
LAYER
  5
208
100
AcDbSymbolTableRecord
100
AcDbLayerTableRecord
  2
7_ALL_ROUNDS
 70
0
 62
7
  6
CONTINUOUS
370
-3
390
F
  0
LAYER
  5
209
100
AcDbSymbolTableRecord
100
AcDbLayerTableRecord
  2
7_MERGES
 70
0
 62
7
  6
CONTINUOUS
370
-3
390
F
  0
LAYER
  5
20A
100
AcDbSymbolTableRecord
100
AcDbLayerTableRecord
  2
8_GDT
 70
0
 62
7
  6
CONTINUOUS
370
-3
390
F
  0
LAYER
  5
20B
100
AcDbSymbolTableRecord
100
AcDbLayerTableRecord
  2
8_SET_DATUMS
 70
0
 62
7
  6
CONTINUOUS
370
-3
390
F
  0
LAYER
  5
20C
100
AcDbSymbolTableRecord
100
AcDbLayerTableRecord
  2
9_COSMETICS
 70
0
 62
7
  6
CONTINUOUS
370
-3
390
F
  0
LAYER
  5
20D
100
AcDbSymbolTableRecord
100
AcDbLayerTableRecord
  2
9_THREADS
 70
0
 62
7
  6
CONTINUOUS
370
-3
390
F
  0
ENDTAB
  0
TABLE
  2
STYLE
  5
3
100
AcDbSymbolTable
 70
1
  0
STYLE
  5
11
100
AcDbSymbolTableRecord
100
AcDbTextStyleTableRecord
  2
STANDARD
 70
0
 40
0.0
 41
0.8
 50
0.0
 71
0
 42
0.2
  3
txt
  4

  0
STYLE
  5
20E
100
AcDbSymbolTableRecord
100
AcDbTextStyleTableRecord
  2
TEXTSTYLE_1
 70
0
 40
0.0
 41
0.8
 50
0.0
 71
0
 42
0.2
  3
gdt
  4

  0
ENDTAB
  0
TABLE
  2
VIEW
  5
6
100
AcDbSymbolTable
 70
0
  0
ENDTAB
  0
TABLE
  2
UCS
  5
7
100
AcDbSymbolTable
 70
0
  0
ENDTAB
  0
TABLE
  2
APPID
  5
9
100
AcDbSymbolTable
 70
1
  0
APPID
  5
20F
100
AcDbSymbolTableRecord
100
AcDbRegAppTableRecord
  2
ACAD
 70
0
  0
ENDTAB
  0
TABLE
  2
BLOCK_RECORD
  5
1
100
AcDbSymbolTable
 70
0
  0
BLOCK_RECORD
  5
210
100
AcDbSymbolTableRecord
100
AcDbBlockTableRecord
  2
*Model_Space
  0
BLOCK_RECORD
  5
211
100
AcDbSymbolTableRecord
100
AcDbBlockTableRecord
  2
*Paper_Space
  0
BLOCK_RECORD
  5
212
100
AcDbSymbolTableRecord
100
AcDbBlockTableRecord
  2
_FILLED
  0
BLOCK_RECORD
  5
213
100
AcDbSymbolTableRecord
100
AcDbBlockTableRecord
  2
*D0
  0
BLOCK_RECORD
  5
214
100
AcDbSymbolTableRecord
100
AcDbBlockTableRecord
  2
*D1
  0
BLOCK_RECORD
  5
215
100
AcDbSymbolTableRecord
100
AcDbBlockTableRecord
  2
*D2
  0
BLOCK_RECORD
  5
216
100
AcDbSymbolTableRecord
100
AcDbBlockTableRecord
  2
*D3
  0
BLOCK_RECORD
  5
217
100
AcDbSymbolTableRecord
100
AcDbBlockTableRecord
  2
*D4
  0
BLOCK_RECORD
  5
218
100
AcDbSymbolTableRecord
100
AcDbBlockTableRecord
  2
*D5
  0
BLOCK_RECORD
  5
219
100
AcDbSymbolTableRecord
100
AcDbBlockTableRecord
  2
*D6
  0
BLOCK_RECORD
  5
21A
100
AcDbSymbolTableRecord
100
AcDbBlockTableRecord
  2
*D7
  0
BLOCK_RECORD
  5
21B
100
AcDbSymbolTableRecord
100
AcDbBlockTableRecord
  2
*D8
  0
BLOCK_RECORD
  5
21C
100
AcDbSymbolTableRecord
100
AcDbBlockTableRecord
  2
*D9
  0
BLOCK_RECORD
  5
21D
100
AcDbSymbolTableRecord
100
AcDbBlockTableRecord
  2
*D10
  0
BLOCK_RECORD
  5
21E
100
AcDbSymbolTableRecord
100
AcDbBlockTableRecord
  2
*D11
  0
BLOCK_RECORD
  5
21F
100
AcDbSymbolTableRecord
100
AcDbBlockTableRecord
  2
*D12
  0
BLOCK_RECORD
  5
220
100
AcDbSymbolTableRecord
100
AcDbBlockTableRecord
  2
*D13
  0
BLOCK_RECORD
  5
221
100
AcDbSymbolTableRecord
100
AcDbBlockTableRecord
  2
*D14
  0
BLOCK_RECORD
  5
222
100
AcDbSymbolTableRecord
100
AcDbBlockTableRecord
  2
123_BL1
  0
BLOCK_RECORD
  5
223
100
AcDbSymbolTableRecord
100
AcDbBlockTableRecord
  2
RD010411_BL0
  0
ENDTAB
  0
TABLE
  2
DIMSTYLE
  5
A
100
AcDbSymbolTable
 70
1
100
AcDbDimStyleTable
 71
0
  0
DIMSTYLE
105
224
100
AcDbSymbolTableRecord
100
AcDbDimStyleTableRecord
  2
STANDARD
 70
0
  3

  4

 40
1.0
 41
0.75
 42
0.0625
 43
0.38
 44
0.125
 45
0.0
 46
0.0
 47
0.01
 48
0.01
140
0.625
141
0.09
142
0.0
143
25.4
144
1.0
145
0.0
146
1.0
147
0.09
 71
1.0
 72
0.0
 73
1
 74
1
 75
0
 76
0
 77
0
 78
4
170
0
171
2
172
0
173
0
174
0
175
0
176
0
177
0
178
0
270
2
271
3
272
3
273
2
274
2
275
0
280
0
281
0
282
0
283
1
284
4
285
0
286
0
287
3
288
0
340
11
278
46
341
212
342
212
343
212
344
212
  0
DIMSTYLE
105
225
100
AcDbSymbolTableRecord
100
AcDbDimStyleTableRecord
  2
DIMSTYLE_1
 70
0
  3

  4

 40
1.0
 41
0.75
 42
0.0625
 43
0.38
 44
0.125
 45
0.0
 46
0.0
 47
0.001
 48
0.001
140
0.625
141
0.09
142
0.0
143
25.4
144
1.0
145
0.0
146
1.0
147
0.078125
 71
0.0
 72
0.0
 73
1
 74
1
 75
0
 76
0
 77
0
 78
4
170
0
171
2
172
0
173
0
174
0
175
0
176
0
177
0
178
0
270
2
271
1
272
1
273
2
274
2
275
0
280
0
281
0
282
0
283
1
284
4
285
0
286
0
287
3
288
0
340
11
278
46
341
212
342
212
343
212
344
212
  0
DIMSTYLE
105
226
100
AcDbSymbolTableRecord
100
AcDbDimStyleTableRecord
  2
DIMSTYLE_2
 70
0
  3

  4

 40
1.0
 41
0.75
 42
0.0625
 43
0.38
 44
0.125
 45
0.0
 46
0.0
 47
0.1
 48
0.1
140
0.625
141
0.09
142
0.0
143
25.4
144
1.0
145
0.0
146
1.0
147
0.078125
 71
0.0
 72
0.0
 73
1
 74
1
 75
0
 76
0
 77
0
 78
4
170
0
171
2
172
0
173
0
174
0
175
0
176
0
177
0
178
0
270
2
271
1
272
1
273
2
274
2
275
0
280
0
281
0
282
0
283
1
284
4
285
0
286
0
287
3
288
0
340
11
278
46
341
212
342
212
343
212
344
212
  0
ENDTAB
  0
ENDSEC
  0
SECTION
  2
BLOCKS
  0
BLOCK
  5
20
100
AcDbEntity
  8
0
100
AcDbBlockBegin
  2
*Model_Space
 70
0
 10
0.0
 20
0.0
 30
0.0
  3
*Model_Space
  1

  0
ENDBLK
  5
21
100
AcDbEntity
  8
0
100
AcDbBlockEnd
  0
BLOCK
  5
1C
100
AcDbEntity
  8
0
100
AcDbBlockBegin
  2
*Paper_Space
 70
0
 10
0.0
 20
0.0
 30
0.0
  3
*Paper_Space
  1

  0
ENDBLK
  5
1D
100
AcDbEntity
  8
0
100
AcDbBlockEnd
  0
BLOCK
  5
227
100
AcDbEntity
  8
0
100
AcDbBlockBegin
 62
2
  6
CONTINUOUS
  2
123_BL1
 70
64
 10
8.1156859368
 20
9.204799167
  3
123_BL1
  1

  0
LINE
  5
228
100
AcDbEntity
  8
0
100
AcDbLine
 62
2
  6
CONTINUOUS
 10
8.1156859368
 20
9.204799167
 11
8.5134759202
 21
9.204799167
  0
LINE
  5
229
100
AcDbEntity
  8
0
100
AcDbLine
 62
2
  6
CONTINUOUS
 10
8.1156859368
 20
9.204799167
 11
8.1156859368
 21
9.6025891504
  0
LINE
  5
22A
100
AcDbEntity
  8
0
100
AcDbLine
 62
2
  6
CONTINUOUS
 10
8.1156859368
 20
9.204799167
 11
7.7178959534
 21
9.204799167
  0
LINE
  5
22B
100
AcDbEntity
  8
0
100
AcDbLine
 62
2
  6
CONTINUOUS
 10
8.1156859368
 20
9.204799167
 11
8.1156859368
 21
8.8070091836
  0
ARC
  5
22C
100
AcDbEntity
  8
0
100
AcDbCircle
 62
2
  6
CONTINUOUS
 10
8.1156859368
 20
9.204799167
 40
0.3977899834
100
AcDbArc
 50
90.0
 51
180.0
  0
ARC
  5
22D
100
AcDbEntity
  8
0
100
AcDbCircle
 62
2
  6
CONTINUOUS
 10
8.1156859368
 20
9.204799167
 40
0.3977899834
100
AcDbArc
 50
180.0
 51
270.0
  0
ARC
  5
22E
100
AcDbEntity
  8
0
100
AcDbCircle
 62
2
  6
CONTINUOUS
 10
8.1156859368
 20
9.204799167
 40
0.3977899834
100
AcDbArc
 50
270.0
 51
90.0
  0
ENDBLK
  5
22F
100
AcDbEntity
  8
0
  6
BYBLOCK
 62
0
100
AcDbBlockEnd
  0
BLOCK
  5
230
100
AcDbEntity
  8
0
100
AcDbBlockBegin
 62
7
  6
CONTINUOUS
  2
RD010411_BL0
 70
64
 10
115.5552811952
 20
10.8044426607
  3
RD010411_BL0
  1

  0
ARC
  5
231
100
AcDbEntity
  8
0
100
AcDbCircle
 62
7
  6
CONTINUOUS
 10
118.1639274738
 20
11.2059504908
 40
0.0494860531
100
AcDbArc
 50
270.0
 51
360.0
  0
LINE
  5
232
100
AcDbEntity
  8
0
100
AcDbLine
 62
7
  6
CONTINUOUS
 10
118.2134135269
 20
11.2059504908
 11
118.2134135269
 21
11.3049566076
  0
ARC
  5
233
100
AcDbEntity
  8
0
100
AcDbCircle
 62
7
  6
CONTINUOUS
 10
118.1639274738
 20
11.3049566076
 40
0.0494860531
100
AcDbArc
 50
0.0
 51
90.0
  0
LINE
  5
234
100
AcDbEntity
  8
0
100
AcDbLine
 62
7
  6
CONTINUOUS
 10
118.1639274738
 20
11.3544426607
 11
116.8335541449
 21
11.3544426607
  0
SPLINE
  5
235
100
AcDbEntity
  8
0
100
AcDbSpline
 62
7
  6
CONTINUOUS
 70
0
 71
3
 72
13
 73
9
 74
0
 42
0.0000001
 43
0.0000001
 44
0.0000000001
 40
0.0
 40
0.0
 40
0.0
 40
0.0
 40
0.1310616762
 40
0.2699656353
 40
0.4157607805
 40
0.5899807757
 40
0.76586761
 40
0.9948829976
 40
0.9948829976
 40
0.9948829976
 40
0.9948829976
 10
116.8335541449
 20
11.3544426607
 30
0.0
 10
116.8055884869
 20
11.35235976
 30
0.0
 10
116.7479838022
 20
11.3480693253
 30
0.0
 10
116.6699179828
 20
11.2996952938
 30
0.0
 10
116.6138760403
 20
11.2184840077
 30
0.0
 10
116.5774346737
 20
11.1191804813
 30
0.0
 10
116.5569086712
 20
10.9977902902
 30
0.0
 10
116.5550187813
 20
10.9120138494
 30
0.0
 10
116.5540392955
 20
10.8634917519
 30
0.0
  0
LINE
  5
236
100
AcDbEntity
  8
0
100
AcDbLine
 62
7
  6
CONTINUOUS
 10
116.5540392955
 20
10.8634917519
 11
116.5541261489
 21
10.8559620363
  0
SPLINE
  5
237
100
AcDbEntity
  8
0
100
AcDbSpline
 62
7
  6
CONTINUOUS
 70
0
 71
3
 72
13
 73
9
 74
0
 42
0.0000001
 43
0.0000001
 44
0.0000000001
 40
0.0
 40
0.0
 40
0.0
 40
0.0
 40
0.2222860645
 40
0.3981728988
 40
0.572392894
 40
0.7181880393
 40
0.8570919984
 40
0.9881536746
 40
0.9881536746
 40
0.9881536746
 40
0.9881536746
 10
116.5541261489
 20
10.8559620363
 30
0.0
 10
116.5550863306
 20
10.8088663218
 30
0.0
 10
116.5571467585
 20
10.724531122
 30
0.0
 10
116.577434657
 20
10.6045480629
 30
0.0
 10
116.6138764598
 20
10.5052556427
 30
0.0
 10
116.6699166543
 20
10.4240098907
 30
0.0
 10
116.7479884318
 20
10.3757514937
 30
0.0
 10
116.8055790723
 20
10.3711887768
 30
0.0
 10
116.8335541449
 20
10.3691051757
 30
0.0
  0
LINE
  5
238
100
AcDbEntity
  8
0
100
AcDbLine
 62
7
  6
CONTINUOUS
 10
116.8335541449
 20
10.3691051757
 11
118.164035482
 21
10.3720090866
  0
ARC
  5
239
100
AcDbEntity
  8
0
100
AcDbCircle
 62
7
  6
CONTINUOUS
 10
118.1639274738
 20
10.4214950217
 40
0.0494860529
100
AcDbArc
 50
270.125053868
 51
360.0
  0
LINE
  5
23A
100
AcDbEntity
  8
0
100
AcDbLine
 62
7
  6
CONTINUOUS
 10
118.2134135269
 20
10.4214950217
 11
118.2134135269
 21
10.5166357387
  0
ARC
  5
23B
100
AcDbEntity
  8
0
100
AcDbCircle
 62
7
  6
CONTINUOUS
 10
118.1639274738
 20
10.5166357387
 40
0.0494860531
100
AcDbArc
 50
0.0
 51
90.0
  0
LINE
  5
23C
100
AcDbEntity
  8
0
100
AcDbLine
 62
7
  6
CONTINUOUS
 10
118.1639274738
 20
10.5661217918
 11
117.023615701
 21
10.5661217918
  0
LINE
  5
23D
100
AcDbEntity
  8
0
100
AcDbLine
 62
7
  6
CONTINUOUS
 10
116.9741296479
 20
10.6156078448
 11
116.9741296479
 21
11.1069783847
  0
ARC
  5
23E
100
AcDbEntity
  8
0
100
AcDbCircle
 62
7
  6
CONTINUOUS
 10
117.0236157014
 20
11.1069783847
 40
0.0494860531
100
AcDbArc
 50
90.0
 51
180.0
  0
LINE
  5
23F
100
AcDbEntity
  8
0
100
AcDbLine
 62
7
  6
CONTINUOUS
 10
117.023615701
 20
11.1564644378
 11
118.1639274738
 21
11.1564644378
  0
LINE
  5
240
100
AcDbEntity
  8
0
100
AcDbLine
 62
7
  6
CONTINUOUS
 10
114.990338532
 20
10.7618524023
 11
115.9407862689
 21
10.7618524023
  0
ARC
  5
241
100
AcDbEntity
  8
0
100
AcDbCircle
 62
7
  6
CONTINUOUS
 10
115.9407862688
 20
10.7123663494
 40
0.0494860531
100
AcDbArc
 50
0.0
 51
90.0
  0
LINE
  5
242
100
AcDbEntity
  8
0
100
AcDbLine
 62
7
  6
CONTINUOUS
 10
115.990272322
 20
10.7123663492
 11
115.990272322
 21
10.6113209404
  0
LINE
  5
243
100
AcDbEntity
  8
0
100
AcDbLine
 62
7
  6
CONTINUOUS
 10
115.9407862689
 20
10.5618348873
 11
114.8328657094
 21
10.5618348873
  0
ARC
  5
244
100
AcDbEntity
  8
0
100
AcDbCircle
 62
7
  6
CONTINUOUS
 10
114.8328657094
 20
10.5123488342
 40
0.0494860531
100
AcDbArc
 50
90.0
 51
180.0
  0
LINE
  5
245
100
AcDbEntity
  8
0
100
AcDbLine
 62
7
  6
CONTINUOUS
 10
114.7833796563
 20
10.5123488342
 11
114.7833796563
 21
10.4185907294
  0
ARC
  5
246
100
AcDbEntity
  8
0
100
AcDbCircle
 62
7
  6
CONTINUOUS
 10
114.8328657094
 20
10.4185907294
 40
0.0494860531
100
AcDbArc
 50
180.0
 51
270.0
  0
LINE
  5
247
100
AcDbEntity
  8
0
100
AcDbLine
 62
7
  6
CONTINUOUS
 10
114.8328657094
 20
10.3691046763
 11
116.2082925776
 21
10.3691046763
  0
SPLINE
  5
248
100
AcDbEntity
  8
0
100
AcDbSpline
 62
7
  6
CONTINUOUS
 70
0
 71
3
 72
13
 73
9
 74
0
 42
0.0000001
 43
0.0000001
 44
0.0000000001
 40
0.0
 40
0.0
 40
0.0
 40
0.0
 40
0.1604571392
 40
0.3334692485
 40
0.4767982758
 40
0.6242014838
 40
0.7505998515
 40
1.0
 40
1.0
 40
1.0
 40
1.0
 10
116.2082925776
 20
10.3691046763
 30
0.0
 10
116.2314824463
 20
10.3702212271
 30
0.0
 10
116.2796766744
 20
10.372541692
 30
0.0
 10
116.3444842596
 20
10.4006781737
 30
0.0
 10
116.3933189103
 20
10.4479732508
 30
0.0
 10
116.4208391566
 20
10.5021952295
 30
0.0
 10
116.4419385189
 20
10.5749345696
 30
0.0
 10
116.4427947319
 20
10.6293692409
 30
0.0
 10
116.4433629605
 20
10.665495022
 30
0.0
  0
SPLINE
  5
249
100
AcDbEntity
  8
0
100
AcDbSpline
 62
7
  6
CONTINUOUS
 70
0
 71
3
 72
13
 73
9
 74
0
 42
0.0000001
 43
0.0000001
 44
0.0000000001
 40
0.0
 40
0.0
 40
0.0
 40
0.0
 40
0.2494001485
 40
0.3757985162
 40
0.5232017242
 40
0.6665307515
 40
0.8395428608
 40
1.0
 40
1.0
 40
1.0
 40
1.0
 10
116.4433629605
 20
10.665495022
 30
0.0
 10
116.4427947319
 20
10.7016208038
 30
0.0
 10
116.4419385189
 20
10.7560554744
 30
0.0
 10
116.4208391566
 20
10.8287948152
 30
0.0
 10
116.3933189103
 20
10.8830167939
 30
0.0
 10
116.3444842596
 20
10.9303118703
 30
0.0
 10
116.2796766744
 20
10.9584483519
 30
0.0
 10
116.2314824463
 20
10.9607688176
 30
0.0
 10
116.2082925776
 20
10.9618853676
 30
0.0
  0
LINE
  5
24A
100
AcDbEntity
  8
0
100
AcDbLine
 62
7
  6
CONTINUOUS
 10
116.2082925776
 20
10.9618853676
 11
115.2705136799
 21
10.9618853676
  0
LINE
  5
24B
100
AcDbEntity
  8
0
100
AcDbLine
 62
7
  6
CONTINUOUS
 10
115.2210276269
 20
11.0113714207
 11
115.2210276269
 21
11.1050039977
  0
ARC
  5
24C
100
AcDbEntity
  8
0
100
AcDbCircle
 62
7
  6
CONTINUOUS
 10
115.2705136795
 20
11.1050039977
 40
0.0494860531
100
AcDbArc
 50
90.0
 51
180.0
  0
LINE
  5
24D
100
AcDbEntity
  8
0
100
AcDbLine
 62
7
  6
CONTINUOUS
 10
115.2705136799
 20
11.1544900508
 11
116.3799380787
 21
11.1544900508
  0
ARC
  5
24E
100
AcDbEntity
  8
0
100
AcDbCircle
 62
7
  6
CONTINUOUS
 10
116.3799380787
 20
11.2039761039
 40
0.0494860531
100
AcDbArc
 50
270.0
 51
360.0
  0
LINE
  5
24F
100
AcDbEntity
  8
0
100
AcDbLine
 62
7
  6
CONTINUOUS
 10
116.4294241318
 20
11.2039761039
 11
116.4294241318
 21
11.3049566076
  0
ARC
  5
250
100
AcDbEntity
  8
0
100
AcDbCircle
 62
7
  6
CONTINUOUS
 10
116.3799380787
 20
11.3049566076
 40
0.0494860531
100
AcDbArc
 50
0.0
 51
90.0
  0
LINE
  5
251
100
AcDbEntity
  8
0
100
AcDbLine
 62
7
  6
CONTINUOUS
 10
116.3799380787
 20
11.3544426607
 11
114.990338532
 21
11.3544426607
  0
SPLINE
  5
252
100
AcDbEntity
  8
0
100
AcDbSpline
 62
7
  6
CONTINUOUS
 70
0
 71
3
 72
13
 73
9
 74
0
 42
0.0000001
 43
0.0000001
 44
0.0000000001
 40
0.0
 40
0.0
 40
0.0
 40
0.0
 40
0.1133740464
 40
0.2392044088
 40
0.3655787964
 40
0.4912154373
 40
0.7445390876
 40
1.0
 40
1.0
 40
1.0
 40
1.0
 10
114.990338532
 20
11.3544426607
 30
0.0
 10
114.9744640275
 20
11.3536607674
 30
0.0
 10
114.9409708999
 20
11.3520110736
 30
0.0
 10
114.8912201718
 20
11.3371470423
 30
0.0
 10
114.8467132972
 20
11.3071319338
 30
0.0
 10
114.801249128
 20
11.2518429589
 30
0.0
 10
114.7726401885
 20
11.1650466243
 30
0.0
 10
114.7695375447
 20
11.0938802129
 30
0.0
 10
114.767979707
 20
11.0581475315
 30
0.0
  0
SPLINE
  5
253
100
AcDbEntity
  8
0
100
AcDbSpline
 62
7
  6
CONTINUOUS
 70
0
 71
3
 72
13
 73
9
 74
0
 42
0.0000001
 43
0.0000001
 44
0.0000000001
 40
0.0
 40
0.0
 40
0.0
 40
0.0
 40
0.2554609124
 40
0.5087845627
 40
0.6344212036
 40
0.7607955912
 40
0.8866259536
 40
1.0
 40
1.0
 40
1.0
 40
1.0
 10
114.767979707
 20
11.0581475315
 30
0.0
 10
114.7695375447
 20
11.0224148501
 30
0.0
 10
114.7726401885
 20
10.951248438
 30
0.0
 10
114.801249128
 20
10.8644521042
 30
0.0
 10
114.8467132972
 20
10.8091631292
 30
0.0
 10
114.8912201718
 20
10.7791480207
 30
0.0
 10
114.9409708999
 20
10.7642839894
 30
0.0
 10
114.9744640275
 20
10.7626342957
 30
0.0
 10
114.990338532
 20
10.7618524023
 30
0.0
  0
LINE
  5
254
100
AcDbEntity
  8
0
100
AcDbLine
 62
7
  6
CONTINUOUS
 10
113.1618832232
 20
10.3691046763
 11
113.9307932107
 21
10.3691046763
  0
LINE
  5
255
100
AcDbEntity
  8
0
100
AcDbLine
 62
7
  6
CONTINUOUS
 10
113.9307932107
 20
10.3691046763
 11
113.9307932107
 21
10.273475758
  0
ARC
  5
256
100
AcDbEntity
  8
0
100
AcDbCircle
 62
7
  6
CONTINUOUS
 10
113.949826308
 20
10.273475758
 40
0.0190330973
100
AcDbArc
 50
180.0
 51
270.0
  0
LINE
  5
257
100
AcDbEntity
  8
0
100
AcDbLine
 62
7
  6
CONTINUOUS
 10
113.949826308
 20
10.2544426607
 11
114.2461909917
 21
10.2544426607
  0
ARC
  5
258
100
AcDbEntity
  8
0
100
AcDbCircle
 62
7
  6
CONTINUOUS
 10
114.2461909917
 20
10.273475758
 40
0.0190330973
100
AcDbArc
 50
270.0
 51
360.0
  0
LINE
  5
259
100
AcDbEntity
  8
0
100
AcDbLine
 62
7
  6
CONTINUOUS
 10
114.2652240891
 20
10.273475758
 11
114.2652240891
 21
10.3691046763
  0
LINE
  5
25A
100
AcDbEntity
  8
0
100
AcDbLine
 62
7
  6
CONTINUOUS
 10
114.2652240891
 20
10.3691046763
 11
114.4164205705
 21
10.3691046763
  0
SPLINE
  5
25B
100
AcDbEntity
  8
0
100
AcDbSpline
 62
7
  6
CONTINUOUS
 70
0
 71
3
 72
12
 73
8
 74
0
 42
0.0000001
 43
0.0000001
 44
0.0000000001
 40
0.0
 40
0.0
 40
0.0
 40
0.0
 40
0.2415790084
 40
0.4893269843
 40
0.7378634303
 40
0.8656387112
 40
1.0
 40
1.0
 40
1.0
 40
1.0
 10
114.4164205705
 20
10.3691046763
 30
0.0
 10
114.4435315892
 20
10.3699475273
 30
0.0
 10
114.4984459349
 20
10.3716547527
 30
0.0
 10
114.5788073498
 20
10.4003137705
 30
0.0
 10
114.6276124192
 20
10.4544144118
 30
0.0
 10
114.6491143126
 20
10.5084709602
 30
0.0
 10
114.6495018082
 20
10.538083023
 30
0.0
 10
114.6497004239
 20
10.5532610457
 30
0.0
  0
LINE
  5
25C
100
AcDbEntity
  8
0
100
AcDbLine
 62
7
  6
CONTINUOUS
 10
114.6497004239
 20
10.5532610457
 11
114.6497004239
 21
11.1691306077
  0
SPLINE
  5
25D
100
AcDbEntity
  8
0
100
AcDbSpline
 62
7
  6
CONTINUOUS
 70
0
 71
3
 72
12
 73
8
 74
0
 42
0.0000001
 43
0.0000001
 44
0.0000000001
 40
0.0
 40
0.0
 40
0.0
 40
0.0
 40
0.1343612888
 40
0.2621365697
 40
0.5106730157
 40
0.7584209916
 40
1.0
 40
1.0
 40
1.0
 40
1.0
 10
114.6497004239
 20
11.1691306077
 30
0.0
 10
114.6495018082
 20
11.1843086311
 30
0.0
 10
114.6491143126
 20
11.213920694
 30
0.0
 10
114.6276124192
 20
11.2679772424
 30
0.0
 10
114.5788073498
 20
11.3220778836
 30
0.0
 10
114.4984459349
 20
11.3507369007
 30
0.0
 10
114.4435315892
 20
11.3524441261
 30
0.0
 10
114.4164205705
 20
11.3532869771
 30
0.0
  0
LINE
  5
25E
100
AcDbEntity
  8
0
100
AcDbLine
 62
7
  6
CONTINUOUS
 10
114.4164205705
 20
11.3532869771
 11
113.1618832232
 21
11.3532869771
  0
SPLINE
  5
25F
100
AcDbEntity
  8
0
100
AcDbSpline
 62
7
  6
CONTINUOUS
 70
0
 71
3
 72
12
 73
8
 74
0
 42
0.0000001
 43
0.0000001
 44
0.0000000001
 40
0.0
 40
0.0
 40
0.0
 40
0.0
 40
0.1341799809
 40
0.290831959
 40
0.5815217441
 40
0.760783857
 40
1.0
 40
1.0
 40
1.0
 40
1.0
 10
113.1618832232
 20
11.3532869771
 30
0.0
 10
113.1345195363
 20
11.3486102634
 30
0.0
 10
113.0752093879
 20
11.3384735951
 30
0.0
 10
112.9753702716
 20
11.2638840233
 30
0.0
 10
112.9280813993
 20
11.138394559
 30
0.0
 10
112.900413103
 20
10.9961406855
 30
0.0
 10
112.8983361307
 20
10.9100990589
 30
0.0
 10
112.8971488636
 20
10.8609147924
 30
0.0
  0
SPLINE
  5
260
100
AcDbEntity
  8
0
100
AcDbSpline
 62
7
  6
CONTINUOUS
 70
0
 71
3
 72
12
 73
8
 74
0
 42
0.0000001
 43
0.0000001
 44
0.0000000001
 40
0.0
 40
0.0
 40
0.0
 40
0.0
 40
0.2392679579
 40
0.4185688994
 40
0.7093216488
 40
0.8660075581
 40
1.0
 40
1.0
 40
1.0
 40
1.0
 10
112.8971488636
 20
10.8609147924
 30
0.0
 10
112.898336605
 20
10.8117324428
 30
0.0
 10
112.9004144063
 20
10.7256941698
 30
0.0
 10
112.9280767324
 20
10.5834161563
 30
0.0
 10
112.975394497
 20
10.458043521
 30
0.0
 10
113.0751296666
 20
10.3832117416
 30
0.0
 10
113.1345106768
 20
10.373555748
 30
0.0
 10
113.1618832232
 20
10.3691046763
 30
0.0
  0
LINE
  5
261
100
AcDbEntity
  8
0
100
AcDbLine
 62
7
  6
CONTINUOUS
 10
114.3962846064
 20
10.6224898337
 11
114.3962846064
 21
11.115941827
  0
ARC
  5
262
100
AcDbEntity
  8
0
100
AcDbCircle
 62
7
  6
CONTINUOUS
 10
113.3580848588
 20
10.6224898337
 40
0.0494860531
100
AcDbArc
 50
180.0
 51
270.0
  0
LINE
  5
263
100
AcDbEntity
  8
0
100
AcDbLine
 62
7
  6
CONTINUOUS
 10
113.3580848588
 20
10.5730037806
 11
113.9264644311
 21
10.5730037806
  0
LINE
  5
264
100
AcDbEntity
  8
0
100
AcDbLine
 62
7
  6
CONTINUOUS
 10
113.9264644311
 20
10.5730037806
 11
113.9264644311
 21
10.6683363985
  0
ARC
  5
265
100
AcDbEntity
  8
0
100
AcDbCircle
 62
7
  6
CONTINUOUS
 10
113.9454975288
 20
10.6683363985
 40
0.0190330973
100
AcDbArc
 50
90.0
 51
180.0
  0
LINE
  5
266
100
AcDbEntity
  8
0
100
AcDbLine
 62
7
  6
CONTINUOUS
 10
113.9454975285
 20
10.6873694958
 11
114.2403518712
 21
10.6873694958
  0
ARC
  5
267
100
AcDbEntity
  8
0
100
AcDbCircle
 62
7
  6
CONTINUOUS
 10
114.2403518705
 20
10.6683363992
 40
0.0190330973
100
AcDbArc
 50
0.0
 51
90.0
  0
LINE
  5
268
100
AcDbEntity
  8
0
100
AcDbLine
 62
7
  6
CONTINUOUS
 10
114.2593849685
 20
10.5730037806
 11
114.3467985533
 21
10.5730037806
  0
ARC
  5
269
100
AcDbEntity
  8
0
100
AcDbCircle
 62
7
  6
CONTINUOUS
 10
114.3467985533
 20
10.6224898337
 40
0.0494860531
100
AcDbArc
 50
270.0
 51
360.0
  0
LINE
  5
26A
100
AcDbEntity
  8
0
100
AcDbLine
 62
7
  6
CONTINUOUS
 10
114.2593849685
 20
10.5730037806
 11
114.2593849685
 21
10.6683363985
  0
LINE
  5
26B
100
AcDbEntity
  8
0
100
AcDbLine
 62
7
  6
CONTINUOUS
 10
113.3085988057
 20
10.6224898337
 11
113.3085988057
 21
11.115941827
  0
ARC
  5
26C
100
AcDbEntity
  8
0
100
AcDbCircle
 62
7
  6
CONTINUOUS
 10
113.3580848595
 20
11.115941827
 40
0.0494860531
100
AcDbArc
 50
90.0
 51
180.0
  0
LINE
  5
26D
100
AcDbEntity
  8
0
100
AcDbLine
 62
7
  6
CONTINUOUS
 10
113.3580848588
 20
11.16542788
 11
114.3467985533
 21
11.16542788
  0
ARC
  5
26E
100
AcDbEntity
  8
0
100
AcDbCircle
 62
7
  6
CONTINUOUS
 10
114.3467985538
 20
11.1159418265
 40
0.0494860531
100
AcDbArc
 50
0.0000000277
 51
90.0000000277
  0
ARC
  5
26F
100
AcDbEntity
  8
0
100
AcDbCircle
 62
7
  6
CONTINUOUS
 10
115.2705136799
 20
11.0113714207
 40
0.0494860531
100
AcDbArc
 50
180.0
 51
270.0
  0
ARC
  5
270
100
AcDbEntity
  8
0
100
AcDbCircle
 62
7
  6
CONTINUOUS
 10
115.9407862689
 20
10.6113209404
 40
0.0494860531
100
AcDbArc
 50
270.0
 51
360.0
  0
ARC
  5
271
100
AcDbEntity
  8
0
100
AcDbCircle
 62
7
  6
CONTINUOUS
 10
117.023615701
 20
10.6156078448
 40
0.0494860531
100
AcDbArc
 50
180.0
 51
270.0
  0
ENDBLK
  5
272
100
AcDbEntity
  8
0
  6
BYBLOCK
 62
0
100
AcDbBlockEnd
  0
BLOCK
  5
273
100
AcDbEntity
  8
0
100
AcDbBlockBegin
  2
_FILLED
 70
64
 10
0.0
 20
0.0
  3
_FILLED
  1

  0
SOLID
  5
274
100
AcDbEntity
  8
0
  6
BYBLOCK
 62
0
100
AcDbTrace
 10
0.0
 20
0.0
 11
-1.0
 21
0.1666666667
 12
-1.0
 22
-0.1666666667
 13
-1.0
 23
-0.1666666667
  0
ENDBLK
  5
275
100
AcDbEntity
  8
0
  6
BYBLOCK
 62
0
100
AcDbBlockEnd
  0
BLOCK
  5
276
100
AcDbEntity
  8
0
100
AcDbBlockBegin
 62
2
  6
CONTINUOUS
  2
*D0
 70
65
 10
0.0
 20
0.0
  3
*D0
  1

  0
MTEXT
  5
277
100
AcDbEntity
  8
0
100
AcDbMText
 62
2
  6
CONTINUOUS
  7
STANDARD
 71
2
 72
1
 10
65.7454786522
 20
45.8801376232
 30
0.0
 11
1.0
 21
0.0
 31
0.0
 44
0.9
  1
911.8\P[35.90]
 40
0.625
 41
4.1517857143
  0
LINE
  5
278
100
AcDbEntity
  8
0
100
AcDbLine
 62
2
  6
CONTINUOUS
 10
61.1047209975
 20
63.5158659696
 11
66.6026215094
 21
63.5158659696
  0
LINE
  5
279
100
AcDbEntity
  8
0
100
AcDbLine
 62
2
  6
CONTINUOUS
 10
58.5936973755
 20
27.6194092767
 11
66.6026215094
 21
27.6194092767
  0
LINE
  5
27A
100
AcDbEntity
  8
0
100
AcDbLine
 62
2
  6
CONTINUOUS
 10
66.1026215094
 20
63.5158659696
 11
66.1026215094
 21
46.1926376232
  0
LINE
  5
27B
100
AcDbEntity
  8
0
100
AcDbLine
 62
2
  6
CONTINUOUS
 10
66.1026215094
 20
27.6194092767
 11
66.1026215094
 21
44.0051376232
  0
INSERT
  5
27C
100
AcDbEntity
  8
0
100
AcDbBlockReference
 62
2
  6
CONTINUOUS
  2
_FILLED
 10
66.1026215094
 20
63.5158659696
 41
0.75
 42
0.75
 43
0.75
 50
90.0
  0
INSERT
  5
27D
100
AcDbEntity
  8
0
100
AcDbBlockReference
 62
2
  6
CONTINUOUS
  2
_FILLED
 10
66.1026215094
 20
27.6194092767
 41
0.75
 42
0.75
 43
0.75
 50
270.0
  0
ENDBLK
  5
27E
100
AcDbEntity
  8
0
  6
BYBLOCK
 62
0
100
AcDbBlockEnd
  0
BLOCK
  5
27F
100
AcDbEntity
  8
0
100
AcDbBlockBegin
 62
2
  6
CONTINUOUS
  2
*D1
 70
65
 10
0.0
 20
0.0
  3
*D1
  1

  0
MTEXT
  5
280
100
AcDbEntity
  8
0
100
AcDbMText
 62
2
  6
CONTINUOUS
  7
STANDARD
 71
2
 72
1
 10
45.8922209975
 20
68.7526062795
 30
0.0
 11
1.0
 21
0.0
 31
0.0
 44
0.9
  1
767.1\P[30.20]
 40
0.625
 41
4.21875
  0
LINE
  5
281
100
AcDbEntity
  8
0
100
AcDbLine
 62
2
  6
CONTINUOUS
 10
31.1047209975
 20
70.9087329623
 11
31.1047209975
 21
67.9401062795
  0
LINE
  5
282
100
AcDbEntity
  8
0
100
AcDbLine
 62
2
  6
CONTINUOUS
 10
61.3047209975
 20
76.048606978
 11
61.3047209975
 21
67.9401062795
  0
LINE
  5
283
100
AcDbEntity
  8
0
100
AcDbLine
 62
2
  6
CONTINUOUS
 10
31.1047209975
 20
68.4401062795
 11
44.4859709975
 21
68.4401062795
  0
LINE
  5
284
100
AcDbEntity
  8
0
100
AcDbLine
 62
2
  6
CONTINUOUS
 10
61.3047209975
 20
68.4401062795
 11
47.9234709975
 21
68.4401062795
  0
INSERT
  5
285
100
AcDbEntity
  8
0
100
AcDbBlockReference
 62
2
  6
CONTINUOUS
  2
_FILLED
 10
31.1047209975
 20
68.4401062795
 41
0.75
 42
0.75
 43
0.75
 50
180.0
  0
INSERT
  5
286
100
AcDbEntity
  8
0
100
AcDbBlockReference
 62
2
  6
CONTINUOUS
  2
_FILLED
 10
61.3047209975
 20
68.4401062795
 41
0.75
 42
0.75
 43
0.75
  0
ENDBLK
  5
287
100
AcDbEntity
  8
0
  6
BYBLOCK
 62
0
100
AcDbBlockEnd
  0
BLOCK
  5
288
100
AcDbEntity
  8
0
100
AcDbBlockBegin
 62
2
  6
CONTINUOUS
  2
*D2
 70
65
 10
0.0
 20
0.0
  3
*D2
  1

  0
MTEXT
  5
289
100
AcDbEntity
  8
0
100
AcDbMText
 62
2
  6
CONTINUOUS
  7
STANDARD
 71
2
 72
1
 10
64.7175358148
 20
77.0676896552
 30
0.0
 11
1.0
 21
0.0
 31
0.0
 44
0.9
  1
297.0\P[11.69]
 40
0.625
 41
3.8839285714
  0
LINE
  5
28A
100
AcDbEntity
  8
0
100
AcDbLine
 62
2
  6
CONTINUOUS
 10
61.1047209975
 20
70.9087329623
 11
65.3514643862
 21
70.9087329623
  0
LINE
  5
28B
100
AcDbEntity
  8
0
100
AcDbLine
 62
2
  6
CONTINUOUS
 10
61.1047209975
 20
82.6016463481
 11
65.3514643862
 21
82.6016463481
  0
LINE
  5
28C
100
AcDbEntity
  8
0
100
AcDbLine
 62
2
  6
CONTINUOUS
 10
64.8514643862
 20
70.9087329623
 11
64.8514643862
 21
75.1926896552
  0
LINE
  5
28D
100
AcDbEntity
  8
0
100
AcDbLine
 62
2
  6
CONTINUOUS
 10
64.8514643862
 20
82.6016463481
 11
64.8514643862
 21
77.3801896552
  0
INSERT
  5
28E
100
AcDbEntity
  8
0
100
AcDbBlockReference
 62
2
  6
CONTINUOUS
  2
_FILLED
 10
64.8514643862
 20
70.9087329623
 41
0.75
 42
0.75
 43
0.75
 50
270.0
  0
INSERT
  5
28F
100
AcDbEntity
  8
0
100
AcDbBlockReference
 62
2
  6
CONTINUOUS
  2
_FILLED
 10
64.8514643862
 20
82.6016463481
 41
0.75
 42
0.75
 43
0.75
 50
90.0
  0
ENDBLK
  5
290
100
AcDbEntity
  8
0
  6
BYBLOCK
 62
0
100
AcDbBlockEnd
  0
BLOCK
  5
291
100
AcDbEntity
  8
0
100
AcDbBlockBegin
 62
2
  6
CONTINUOUS
  2
*D3
 70
65
 10
0.0
 20
0.0
  3
*D3
  1

  0
MTEXT
  5
292
100
AcDbEntity
  8
0
100
AcDbMText
 62
2
  6
CONTINUOUS
  7
STANDARD
 71
2
 72
1
 10
89.2736131761
 20
50.9413580956
 30
0.0
 11
1.0
 21
0.0
 31
0.0
 44
0.9
  1
177.5\P[6.99]
 40
0.625
 41
3.5491071429
  0
LINE
  5
293
100
AcDbEntity
  8
0
100
AcDbLine
 62
2
  6
CONTINUOUS
 10
84.3917754965
 20
54.1229525838
 11
89.885220319
 21
54.1229525838
  0
LINE
  5
294
100
AcDbEntity
  8
0
100
AcDbLine
 62
2
  6
CONTINUOUS
 10
84.3917754965
 20
47.1347636074
 11
89.885220319
 21
47.1347636074
  0
LINE
  5
295
100
AcDbEntity
  8
0
100
AcDbLine
 62
2
  6
CONTINUOUS
 10
89.385220319
 20
54.1229525838
 11
89.385220319
 21
51.2538580956
  0
LINE
  5
296
100
AcDbEntity
  8
0
100
AcDbLine
 62
2
  6
CONTINUOUS
 10
89.385220319
 20
47.1347636074
 11
89.385220319
 21
49.0663580956
  0
INSERT
  5
297
100
AcDbEntity
  8
0
100
AcDbBlockReference
 62
2
  6
CONTINUOUS
  2
_FILLED
 10
89.385220319
 20
54.1229525838
 41
0.75
 42
0.75
 43
0.75
 50
90.0
  0
INSERT
  5
298
100
AcDbEntity
  8
0
100
AcDbBlockReference
 62
2
  6
CONTINUOUS
  2
_FILLED
 10
89.385220319
 20
47.1347636074
 41
0.75
 42
0.75
 43
0.75
 50
270.0
  0
ENDBLK
  5
299
100
AcDbEntity
  8
0
  6
BYBLOCK
 62
0
100
AcDbBlockEnd
  0
BLOCK
  5
29A
100
AcDbEntity
  8
0
100
AcDbBlockBegin
 62
2
  6
CONTINUOUS
  2
*D4
 70
65
 10
0.0
 20
0.0
  3
*D4
  1

  0
MTEXT
  5
29B
100
AcDbEntity
  8
0
100
AcDbMText
 62
2
  6
CONTINUOUS
  7
STANDARD
 71
3
 72
1
 10
78.0022485139
 20
67.2020442069
 30
0.0
 11
1.0
 21
0.0
 31
0.0
 44
0.9
  1
126.5\P[4.98]
 40
0.625
 41
3.5491071429
  0
LINE
  5
29C
100
AcDbEntity
  8
0
100
AcDbLine
 62
2
  6
CONTINUOUS
 10
79.3487361264
 20
54.1859919539
 11
79.3487361264
 21
67.3895442069
  0
LINE
  5
29D
100
AcDbEntity
  8
0
100
AcDbLine
 62
2
  6
CONTINUOUS
 10
84.3287361264
 20
54.1859919539
 11
84.3287361264
 21
67.3895442069
  0
LINE
  5
29E
100
AcDbEntity
  8
0
100
AcDbLine
 62
2
  6
CONTINUOUS
 10
79.3487361264
 20
66.8895442069
 11
81.8387361264
 21
66.8895442069
  0
LINE
  5
29F
100
AcDbEntity
  8
0
100
AcDbLine
 62
2
  6
CONTINUOUS
 10
81.8387361264
 20
66.8895442069
 11
78.5379627996
 21
66.8895442069
  0
LINE
  5
2A0
100
AcDbEntity
  8
0
100
AcDbLine
 62
2
  6
CONTINUOUS
 10
84.3287361264
 20
66.8895442069
 11
81.8387361264
 21
66.8895442069
  0
INSERT
  5
2A1
100
AcDbEntity
  8
0
100
AcDbBlockReference
 62
2
  6
CONTINUOUS
  2
_FILLED
 10
79.3487361264
 20
66.8895442069
 41
0.75
 42
0.75
 43
0.75
 50
180.0
  0
INSERT
  5
2A2
100
AcDbEntity
  8
0
100
AcDbBlockReference
 62
2
  6
CONTINUOUS
  2
_FILLED
 10
84.3287361264
 20
66.8895442069
 41
0.75
 42
0.75
 43
0.75
  0
ENDBLK
  5
2A3
100
AcDbEntity
  8
0
  6
BYBLOCK
 62
0
100
AcDbBlockEnd
  0
BLOCK
  5
2A4
100
AcDbEntity
  8
0
100
AcDbBlockBegin
 62
2
  6
CONTINUOUS
  2
*D5
 70
65
 10
0.0
 20
0.0
  3
*D5
  1

  0
MTEXT
  5
2A5
100
AcDbEntity
  8
0
100
AcDbMText
 62
2
  6
CONTINUOUS
  7
STANDARD
 71
1
 72
1
 10
88.2555579326
 20
67.2020442069
 30
0.0
 11
1.0
 21
0.0
 31
0.0
 44
0.9
  1
38.4\P[1.51]
 40
0.625
 41
3.0803571429
  0
LINE
  5
2A6
100
AcDbEntity
  8
0
100
AcDbLine
 62
2
  6
CONTINUOUS
 10
84.3287361264
 20
54.1859919539
 11
84.3287361264
 21
67.3895442069
  0
LINE
  5
2A7
100
AcDbEntity
  8
0
100
AcDbLine
 62
2
  6
CONTINUOUS
 10
85.8387361264
 20
63.5158659696
 11
85.8387361264
 21
67.3895442069
  0
LINE
  5
2A8
100
AcDbEntity
  8
0
100
AcDbLine
 62
2
  6
CONTINUOUS
 10
84.3287361264
 20
66.8895442069
 11
82.3287361264
 21
66.8895442069
  0
LINE
  5
2A9
100
AcDbEntity
  8
0
100
AcDbLine
 62
2
  6
CONTINUOUS
 10
85.8387361264
 20
66.8895442069
 11
87.9430579326
 21
66.8895442069
  0
INSERT
  5
2AA
100
AcDbEntity
  8
0
100
AcDbBlockReference
 62
2
  6
CONTINUOUS
  2
_FILLED
 10
84.3287361264
 20
66.8895442069
 41
0.75
 42
0.75
 43
0.75
  0
INSERT
  5
2AB
100
AcDbEntity
  8
0
100
AcDbBlockReference
 62
2
  6
CONTINUOUS
  2
_FILLED
 10
85.8387361264
 20
66.8895442069
 41
0.75
 42
0.75
 43
0.75
 50
180.0
  0
ENDBLK
  5
2AC
100
AcDbEntity
  8
0
  6
BYBLOCK
 62
0
100
AcDbBlockEnd
  0
BLOCK
  5
2AD
100
AcDbEntity
  8
0
100
AcDbBlockBegin
 62
2
  6
CONTINUOUS
  2
*D6
 70
65
 10
0.0
 20
0.0
  3
*D6
  1

  0
MTEXT
  5
2AE
100
AcDbEntity
  8
0
100
AcDbMText
 62
2
  6
CONTINUOUS
  7
STANDARD
 71
2
 72
1
 10
16.0673259552
 20
67.2041505128
 30
0.0
 11
1.0
 21
0.0
 31
0.0
 44
0.9
  1
157.0\P[6.18]
 40
0.625
 41
3.3482142857
  0
LINE
  5
2AF
100
AcDbEntity
  8
0
100
AcDbLine
 62
2
  6
CONTINUOUS
 10
13.0214176312
 20
46.5226754184
 11
13.0214176312
 21
67.3916505128
  0
LINE
  5
2B0
100
AcDbEntity
  8
0
100
AcDbLine
 62
2
  6
CONTINUOUS
 10
19.2025199934
 20
63.5158659696
 11
19.2025199934
 21
67.3916505128
  0
LINE
  5
2B1
100
AcDbEntity
  8
0
100
AcDbLine
 62
2
  6
CONTINUOUS
 10
13.0214176312
 20
66.8916505128
 11
14.6833973837
 21
66.8916505128
  0
LINE
  5
2B2
100
AcDbEntity
  8
0
100
AcDbLine
 62
2
  6
CONTINUOUS
 10
19.2025199934
 20
66.8916505128
 11
17.5405402409
 21
66.8916505128
  0
INSERT
  5
2B3
100
AcDbEntity
  8
0
100
AcDbBlockReference
 62
2
  6
CONTINUOUS
  2
_FILLED
 10
13.0214176312
 20
66.8916505128
 41
0.75
 42
0.75
 43
0.75
 50
180.0
  0
INSERT
  5
2B4
100
AcDbEntity
  8
0
100
AcDbBlockReference
 62
2
  6
CONTINUOUS
  2
_FILLED
 10
19.2025199934
 20
66.8916505128
 41
0.75
 42
0.75
 43
0.75
  0
ENDBLK
  5
2B5
100
AcDbEntity
  8
0
  6
BYBLOCK
 62
0
100
AcDbBlockEnd
  0
BLOCK
  5
2B6
100
AcDbEntity
  8
0
100
AcDbBlockBegin
 62
2
  6
CONTINUOUS
  2
*D7
 70
65
 10
0.0
 20
0.0
  3
*D7
  1

  0
MTEXT
  5
2B7
100
AcDbEntity
  8
0
100
AcDbMText
 62
2
  6
CONTINUOUS
  7
STANDARD
 71
2
 72
1
 10
23.3563693185
 20
37.0443108515
 30
0.0
 11
1.0
 21
0.0
 31
0.0
 44
0.9
  1
462.9\P[18.22]
 40
0.625
 41
4.0848214286
  0
LINE
  5
2B8
100
AcDbEntity
  8
0
100
AcDbLine
 62
2
  6
CONTINUOUS
 10
17.8962207808
 20
27.6194092767
 11
24.0572621757
 21
27.6194092767
  0
LINE
  5
2B9
100
AcDbEntity
  8
0
100
AcDbLine
 62
2
  6
CONTINUOUS
 10
13.8697582286
 20
45.8442124263
 11
24.0572621757
 21
45.8442124263
  0
LINE
  5
2BA
100
AcDbEntity
  8
0
100
AcDbLine
 62
2
  6
CONTINUOUS
 10
23.5572621757
 20
27.6194092767
 11
23.5572621757
 21
35.1693108515
  0
LINE
  5
2BB
100
AcDbEntity
  8
0
100
AcDbLine
 62
2
  6
CONTINUOUS
 10
23.5572621757
 20
45.8442124263
 11
23.5572621757
 21
37.3568108515
  0
INSERT
  5
2BC
100
AcDbEntity
  8
0
100
AcDbBlockReference
 62
2
  6
CONTINUOUS
  2
_FILLED
 10
23.5572621757
 20
27.6194092767
 41
0.75
 42
0.75
 43
0.75
 50
270.0
  0
INSERT
  5
2BD
100
AcDbEntity
  8
0
100
AcDbBlockReference
 62
2
  6
CONTINUOUS
  2
_FILLED
 10
23.5572621757
 20
45.8442124263
 41
0.75
 42
0.75
 43
0.75
 50
90.0
  0
ENDBLK
  5
2BE
100
AcDbEntity
  8
0
  6
BYBLOCK
 62
0
100
AcDbBlockEnd
  0
BLOCK
  5
2BF
100
AcDbEntity
  8
0
100
AcDbBlockBegin
 62
2
  6
CONTINUOUS
  2
*D8
 70
65
 10
0.0
 20
0.0
  3
*D8
  1

  0
MTEXT
  5
2C0
100
AcDbEntity
  8
0
100
AcDbMText
 62
2
  6
CONTINUOUS
  7
STANDARD
 71
2
 72
1
 10
89.1173631761
 20
37.9661612452
 30
0.0
 11
1.0
 21
0.0
 31
0.0
 44
0.9
  1
481.6\P[18.96]
 40
0.625
 41
4.0848214286
  0
LINE
  5
2C1
100
AcDbEntity
  8
0
100
AcDbLine
 62
2
  6
CONTINUOUS
 10
85.8387361264
 20
28.172558883
 11
89.885220319
 21
28.172558883
  0
LINE
  5
2C2
100
AcDbEntity
  8
0
100
AcDbLine
 62
2
  6
CONTINUOUS
 10
84.3917754965
 20
47.1347636074
 11
89.885220319
 21
47.1347636074
  0
LINE
  5
2C3
100
AcDbEntity
  8
0
100
AcDbLine
 62
2
  6
CONTINUOUS
 10
89.385220319
 20
28.172558883
 11
89.385220319
 21
36.0911612452
  0
LINE
  5
2C4
100
AcDbEntity
  8
0
100
AcDbLine
 62
2
  6
CONTINUOUS
 10
89.385220319
 20
47.1347636074
 11
89.385220319
 21
38.2786612452
  0
INSERT
  5
2C5
100
AcDbEntity
  8
0
100
AcDbBlockReference
 62
2
  6
CONTINUOUS
  2
_FILLED
 10
89.385220319
 20
28.172558883
 41
0.75
 42
0.75
 43
0.75
 50
270.0
  0
INSERT
  5
2C6
100
AcDbEntity
  8
0
100
AcDbBlockReference
 62
2
  6
CONTINUOUS
  2
_FILLED
 10
89.385220319
 20
47.1347636074
 41
0.75
 42
0.75
 43
0.75
 50
90.0
  0
ENDBLK
  5
2C7
100
AcDbEntity
  8
0
  6
BYBLOCK
 62
0
100
AcDbBlockEnd
  0
BLOCK
  5
2C8
100
AcDbEntity
  8
0
100
AcDbBlockBegin
 62
2
  6
CONTINUOUS
  2
*D9
 70
65
 10
0.0
 20
0.0
  3
*D9
  1

  0
MTEXT
  5
2C9
100
AcDbEntity
  8
0
100
AcDbMText
 62
2
  6
CONTINUOUS
  7
STANDARD
 71
2
 72
1
 10
63.992274957
 20
9.3890860963
 30
0.0
 11
1.0
 21
0.0
 31
0.0
 44
0.9
  1
55.6\P[2.19]
 40
0.625
 41
3.3482142857
  0
LINE
  5
2CA
100
AcDbEntity
  8
0
100
AcDbLine
 62
2
  6
CONTINUOUS
 10
61.1047209975
 20
10.2555978784
 11
64.7378106713
 21
10.2555978784
  0
LINE
  5
2CB
100
AcDbEntity
  8
0
100
AcDbLine
 62
2
  6
CONTINUOUS
 10
58.9405649598
 20
12.4445742563
 11
64.7378106713
 21
12.4445742563
  0
LINE
  5
2CC
100
AcDbEntity
  8
0
100
AcDbLine
 62
2
  6
CONTINUOUS
 10
64.2378106713
 20
10.2555978784
 11
64.2378106713
 21
11.3500860674
  0
LINE
  5
2CD
100
AcDbEntity
  8
0
100
AcDbLine
 62
2
  6
CONTINUOUS
 10
64.2378106713
 20
11.3500860674
 11
64.2378106713
 21
9.7015860963
  0
LINE
  5
2CE
100
AcDbEntity
  8
0
100
AcDbLine
 62
2
  6
CONTINUOUS
 10
64.2378106713
 20
12.4445742563
 11
64.2378106713
 21
11.3500860674
  0
INSERT
  5
2CF
100
AcDbEntity
  8
0
100
AcDbBlockReference
 62
2
  6
CONTINUOUS
  2
_FILLED
 10
64.2378106713
 20
10.2555978784
 41
0.75
 42
0.75
 43
0.75
 50
270.0
  0
INSERT
  5
2D0
100
AcDbEntity
  8
0
100
AcDbBlockReference
 62
2
  6
CONTINUOUS
  2
_FILLED
 10
64.2378106713
 20
12.4445742563
 41
0.75
 42
0.75
 43
0.75
 50
90.0
  0
ENDBLK
  5
2D1
100
AcDbEntity
  8
0
  6
BYBLOCK
 62
0
100
AcDbBlockEnd
  0
BLOCK
  5
2D2
100
AcDbEntity
  8
0
100
AcDbBlockBegin
 62
2
  6
CONTINUOUS
  2
*D10
 70
65
 10
0.0
 20
0.0
  3
*D10
  1

  0
MTEXT
  5
2D3
100
AcDbEntity
  8
0
100
AcDbMText
 62
2
  6
CONTINUOUS
  7
STANDARD
 71
2
 72
1
 10
64.1708463855
 20
16.4184915792
 30
0.0
 11
1.0
 21
0.0
 31
0.0
 44
0.9
  1
186.0\P[7.32]
 40
0.625
 41
3.4821428571
  0
LINE
  5
2D4
100
AcDbEntity
  8
0
100
AcDbLine
 62
2
  6
CONTINUOUS
 10
58.9405649598
 20
12.4445742563
 11
64.7378106713
 21
12.4445742563
  0
LINE
  5
2D5
100
AcDbEntity
  8
0
100
AcDbLine
 62
2
  6
CONTINUOUS
 10
58.9356642747
 20
19.767408902
 11
64.7378106713
 21
19.767408902
  0
LINE
  5
2D6
100
AcDbEntity
  8
0
100
AcDbLine
 62
2
  6
CONTINUOUS
 10
64.2378106713
 20
12.4445742563
 11
64.2378106713
 21
14.5434915792
  0
LINE
  5
2D7
100
AcDbEntity
  8
0
100
AcDbLine
 62
2
  6
CONTINUOUS
 10
64.2378106713
 20
19.767408902
 11
64.2378106713
 21
16.7309915792
  0
INSERT
  5
2D8
100
AcDbEntity
  8
0
100
AcDbBlockReference
 62
2
  6
CONTINUOUS
  2
_FILLED
 10
64.2378106713
 20
12.4445742563
 41
0.75
 42
0.75
 43
0.75
 50
270.0
  0
INSERT
  5
2D9
100
AcDbEntity
  8
0
100
AcDbBlockReference
 62
2
  6
CONTINUOUS
  2
_FILLED
 10
64.2378106713
 20
19.767408902
 41
0.75
 42
0.75
 43
0.75
 50
90.0
  0
ENDBLK
  5
2DA
100
AcDbEntity
  8
0
  6
BYBLOCK
 62
0
100
AcDbBlockEnd
  0
BLOCK
  5
2DB
100
AcDbEntity
  8
0
100
AcDbBlockBegin
 62
2
  6
CONTINUOUS
  2
*D11
 70
65
 10
0.0
 20
0.0
  3
*D11
  1

  0
MTEXT
  5
2DC
100
AcDbEntity
  8
0
100
AcDbMText
 62
2
  6
CONTINUOUS
  7
STANDARD
 71
1
 72
1
 10
62.6860386005
 20
5.9458046959
 30
0.0
 11
1.0
 21
0.0
 31
0.0
 44
0.9
  1
86.0\P[3.39]
 40
0.625
 41
3.4151785714
  0
LINE
  5
2DD
100
AcDbEntity
  8
0
100
AcDbLine
 62
2
  6
CONTINUOUS
 10
61.1047209975
 20
10.2555978784
 11
61.1047209975
 21
5.1333046959
  0
LINE
  5
2DE
100
AcDbEntity
  8
0
100
AcDbLine
 62
2
  6
CONTINUOUS
 10
57.7188942259
 20
11.2229035224
 11
57.7188942259
 21
5.1333046959
  0
LINE
  5
2DF
100
AcDbEntity
  8
0
100
AcDbLine
 62
2
  6
CONTINUOUS
 10
61.1047209975
 20
5.6333046959
 11
59.4118076117
 21
5.6333046959
  0
LINE
  5
2E0
100
AcDbEntity
  8
0
100
AcDbLine
 62
2
  6
CONTINUOUS
 10
59.4118076117
 20
5.6333046959
 11
62.3735386005
 21
5.6333046959
  0
LINE
  5
2E1
100
AcDbEntity
  8
0
100
AcDbLine
 62
2
  6
CONTINUOUS
 10
57.7188942259
 20
5.6333046959
 11
59.4118076117
 21
5.6333046959
  0
INSERT
  5
2E2
100
AcDbEntity
  8
0
100
AcDbBlockReference
 62
2
  6
CONTINUOUS
  2
_FILLED
 10
61.1047209975
 20
5.6333046959
 41
0.75
 42
0.75
 43
0.75
  0
INSERT
  5
2E3
100
AcDbEntity
  8
0
100
AcDbBlockReference
 62
2
  6
CONTINUOUS
  2
_FILLED
 10
57.7188942259
 20
5.6333046959
 41
0.75
 42
0.75
 43
0.75
 50
180.0
  0
ENDBLK
  5
2E4
100
AcDbEntity
  8
0
  6
BYBLOCK
 62
0
100
AcDbBlockEnd
  0
BLOCK
  5
2E5
100
AcDbEntity
  8
0
100
AcDbBlockBegin
 62
2
  6
CONTINUOUS
  2
*D12
 70
65
 10
0.0
 20
0.0
  3
*D12
  1

  0
MTEXT
  5
2E6
100
AcDbEntity
  8
0
100
AcDbMText
 62
2
  6
CONTINUOUS
  7
STANDARD
 71
2
 72
1
 10
45.8945747233
 20
5.9458046959
 30
0.0
 11
1.0
 21
0.0
 31
0.0
 44
0.9
  1
590.0\P[23.23]
 40
0.625
 41
4.1517857143
  0
LINE
  5
2E7
100
AcDbEntity
  8
0
100
AcDbLine
 62
2
  6
CONTINUOUS
 10
57.7188942259
 20
11.2229035224
 11
57.7188942259
 21
5.1333046959
  0
LINE
  5
2E8
100
AcDbEntity
  8
0
100
AcDbLine
 62
2
  6
CONTINUOUS
 10
34.4905477692
 20
11.2048224848
 11
34.4905477692
 21
5.1333046959
  0
LINE
  5
2E9
100
AcDbEntity
  8
0
100
AcDbLine
 62
2
  6
CONTINUOUS
 10
57.7188942259
 20
5.6333046959
 11
47.836539009
 21
5.6333046959
  0
LINE
  5
2EA
100
AcDbEntity
  8
0
100
AcDbLine
 62
2
  6
CONTINUOUS
 10
34.4905477692
 20
5.6333046959
 11
44.4436818661
 21
5.6333046959
  0
INSERT
  5
2EB
100
AcDbEntity
  8
0
100
AcDbBlockReference
 62
2
  6
CONTINUOUS
  2
_FILLED
 10
57.7188942259
 20
5.6333046959
 41
0.75
 42
0.75
 43
0.75
  0
INSERT
  5
2EC
100
AcDbEntity
  8
0
100
AcDbBlockReference
 62
2
  6
CONTINUOUS
  2
_FILLED
 10
34.4905477692
 20
5.6333046959
 41
0.75
 42
0.75
 43
0.75
 50
180.0
  0
ENDBLK
  5
2ED
100
AcDbEntity
  8
0
  6
BYBLOCK
 62
0
100
AcDbBlockEnd
  0
BLOCK
  5
2EE
100
AcDbEntity
  8
0
100
AcDbBlockBegin
 62
2
  6
CONTINUOUS
  2
*D13
 70
65
 10
0.0
 20
0.0
  3
*D13
  1

  0
MTEXT
  5
2EF
100
AcDbEntity
  8
0
100
AcDbMText
 62
2
  6
CONTINUOUS
  7
STANDARD
 71
2
 72
1
 10
45.8591852833
 20
65.8786218165
 30
0.0
 11
1.0
 21
0.0
 31
0.0
 44
0.9
  1
762.0\P[30.00]
 40
0.625
 41
4.21875
  0
LINE
  5
2F0
100
AcDbEntity
  8
0
100
AcDbLine
 62
2
  6
CONTINUOUS
 10
31.1047209975
 20
63.5158659696
 11
31.1047209975
 21
66.0661218165
  0
LINE
  5
2F1
100
AcDbEntity
  8
0
100
AcDbLine
 62
2
  6
CONTINUOUS
 10
61.1047209975
 20
63.5158659696
 11
61.1047209975
 21
66.0661218165
  0
LINE
  5
2F2
100
AcDbEntity
  8
0
100
AcDbLine
 62
2
  6
CONTINUOUS
 10
31.1047209975
 20
65.5661218165
 11
44.3859709975
 21
65.5661218165
  0
LINE
  5
2F3
100
AcDbEntity
  8
0
100
AcDbLine
 62
2
  6
CONTINUOUS
 10
61.1047209975
 20
65.5661218165
 11
47.8234709975
 21
65.5661218165
  0
INSERT
  5
2F4
100
AcDbEntity
  8
0
100
AcDbBlockReference
 62
2
  6
CONTINUOUS
  2
_FILLED
 10
31.1047209975
 20
65.5661218165
 41
0.75
 42
0.75
 43
0.75
 50
180.0
  0
INSERT
  5
2F5
100
AcDbEntity
  8
0
100
AcDbBlockReference
 62
2
  6
CONTINUOUS
  2
_FILLED
 10
61.1047209975
 20
65.5661218165
 41
0.75
 42
0.75
 43
0.75
  0
ENDBLK
  5
2F6
100
AcDbEntity
  8
0
  6
BYBLOCK
 62
0
100
AcDbBlockEnd
  0
BLOCK
  5
2F7
100
AcDbEntity
  8
0
100
AcDbBlockBegin
 62
2
  6
CONTINUOUS
  2
*D14
 70
65
 10
0.0
 20
0.0
  3
*D14
  1

  0
MTEXT
  5
2F8
100
AcDbEntity
  8
0
100
AcDbMText
 62
2
  6
CONTINUOUS
  7
STANDARD
 71
2
 72
1
 10
92.3720702412
 20
46.1567124263
 30
0.0
 11
1.0
 21
0.0
 31
0.0
 44
0.9
  1
897.7\P[35.34]
 40
0.625
 41
4.0848214286
  0
LINE
  5
2F9
100
AcDbEntity
  8
0
100
AcDbLine
 62
2
  6
CONTINUOUS
 10
85.8387361264
 20
63.5158659696
 11
93.0729630983
 21
63.5158659696
  0
LINE
  5
2FA
100
AcDbEntity
  8
0
100
AcDbLine
 62
2
  6
CONTINUOUS
 10
85.8387361264
 20
28.172558883
 11
93.0729630983
 21
28.172558883
  0
LINE
  5
2FB
100
AcDbEntity
  8
0
100
AcDbLine
 62
2
  6
CONTINUOUS
 10
92.5729630983
 20
63.5158659696
 11
92.5729630983
 21
46.4692124263
  0
LINE
  5
2FC
100
AcDbEntity
  8
0
100
AcDbLine
 62
2
  6
CONTINUOUS
 10
92.5729630983
 20
28.172558883
 11
92.5729630983
 21
44.2817124263
  0
INSERT
  5
2FD
100
AcDbEntity
  8
0
100
AcDbBlockReference
 62
2
  6
CONTINUOUS
  2
_FILLED
 10
92.5729630983
 20
63.5158659696
 41
0.75
 42
0.75
 43
0.75
 50
90.0
  0
INSERT
  5
2FE
100
AcDbEntity
  8
0
100
AcDbBlockReference
 62
2
  6
CONTINUOUS
  2
_FILLED
 10
92.5729630983
 20
28.172558883
 41
0.75
 42
0.75
 43
0.75
 50
270.0
  0
ENDBLK
  5
2FF
100
AcDbEntity
  8
0
  6
BYBLOCK
 62
0
100
AcDbBlockEnd
  0
ENDSEC
  0
SECTION
  2
ENTITIES
  0
MTEXT
  5
300
100
AcDbEntity
  8
0
100
AcDbMText
 62
2
  6
CONTINUOUS
  7
STANDARD
 71
1
 72
1
 10
9.8516309789
 20
1.4596667342
 30
0.0
 11
1.0
 21
0.0
 31
0.0
 44
0.9
  1
8
 40
0.625
 41
0.7366071429
  0
MTEXT
  5
301
100
AcDbEntity
  8
0
100
AcDbMText
 62
2
  6
CONTINUOUS
  7
STANDARD
 71
1
 72
1
 10
26.1016309789
 20
1.4596667342
 30
0.0
 11
1.0
 21
0.0
 31
0.0
 44
0.9
  1
7
 40
0.625
 41
0.7366071429
  0
MTEXT
  5
302
100
AcDbEntity
  8
0
100
AcDbMText
 62
2
  6
CONTINUOUS
  7
STANDARD
 71
1
 72
1
 10
42.3516309789
 20
1.4596667342
 30
0.0
 11
1.0
 21
0.0
 31
0.0
 44
0.9
  1
6
 40
0.625
 41
0.7366071429
  0
MTEXT
  5
303
100
AcDbEntity
  8
0
100
AcDbMText
 62
2
  6
CONTINUOUS
  7
STANDARD
 71
1
 72
1
 10
58.6016309789
 20
1.4596667342
 30
0.0
 11
1.0
 21
0.0
 31
0.0
 44
0.9
  1
5
 40
0.625
 41
0.6696428571
  0
MTEXT
  5
304
100
AcDbEntity
  8
0
100
AcDbMText
 62
2
  6
CONTINUOUS
  7
STANDARD
 71
1
 72
1
 10
74.8516309789
 20
1.4596667342
 30
0.0
 11
1.0
 21
0.0
 31
0.0
 44
0.9
  1
4
 40
0.625
 41
0.7366071429
  0
MTEXT
  5
305
100
AcDbEntity
  8
0
100
AcDbMText
 62
2
  6
CONTINUOUS
  7
STANDARD
 71
1
 72
1
 10
91.1016309789
 20
1.4596667342
 30
0.0
 11
1.0
 21
0.0
 31
0.0
 44
0.9
  1
3
 40
0.625
 41
0.6696428571
  0
MTEXT
  5
306
100
AcDbEntity
  8
0
100
AcDbMText
 62
2
  6
CONTINUOUS
  7
STANDARD
 71
1
 72
1
 10
107.3516309789
 20
1.4596667342
 30
0.0
 11
1.0
 21
0.0
 31
0.0
 44
0.9
  1
2
 40
0.625
 41
0.7366071429
  0
MTEXT
  5
307
100
AcDbEntity
  8
0
100
AcDbMText
 62
2
  6
CONTINUOUS
  7
STANDARD
 71
1
 72
1
 10
123.6016309789
 20
1.4596667342
 30
0.0
 11
1.0
 21
0.0
 31
0.0
 44
0.9
  1
1
 40
0.625
 41
0.5357142857
  0
MTEXT
  5
308
100
AcDbEntity
  8
0
100
AcDbMText
 62
2
  6
CONTINUOUS
  7
STANDARD
 71
1
 72
1
 10
9.8516309789
 20
87.4596667342
 30
0.0
 11
1.0
 21
0.0
 31
0.0
 44
0.9
  1
8
 40
0.625
 41
0.9151785714
  0
MTEXT
  5
309
100
AcDbEntity
  8
0
100
AcDbMText
 62
2
  6
CONTINUOUS
  7
STANDARD
 71
1
 72
1
 10
26.1016309789
 20
87.4596667342
 30
0.0
 11
1.0
 21
0.0
 31
0.0
 44
0.9
  1
7
 40
0.625
 41
0.7366071429
  0
MTEXT
  5
30A
100
AcDbEntity
  8
0
100
AcDbMText
 62
2
  6
CONTINUOUS
  7
STANDARD
 71
1
 72
1
 10
42.3516309789
 20
87.4596667342
 30
0.0
 11
1.0
 21
0.0
 31
0.0
 44
0.9
  1
6
 40
0.625
 41
0.7366071429
  0
MTEXT
  5
30B
100
AcDbEntity
  8
0
100
AcDbMText
 62
2
  6
CONTINUOUS
  7
STANDARD
 71
1
 72
1
 10
58.6016309789
 20
87.4596667342
 30
0.0
 11
1.0
 21
0.0
 31
0.0
 44
0.9
  1
5
 40
0.625
 41
0.6696428571
  0
MTEXT
  5
30C
100
AcDbEntity
  8
0
100
AcDbMText
 62
2
  6
CONTINUOUS
  7
STANDARD
 71
1
 72
1
 10
74.8516309789
 20
87.4596667342
 30
0.0
 11
1.0
 21
0.0
 31
0.0
 44
0.9
  1
4
 40
0.625
 41
0.7366071429
  0
MTEXT
  5
30D
100
AcDbEntity
  8
0
100
AcDbMText
 62
2
  6
CONTINUOUS
  7
STANDARD
 71
1
 72
1
 10
91.1016309789
 20
87.4596667342
 30
0.0
 11
1.0
 21
0.0
 31
0.0
 44
0.9
  1
3
 40
0.625
 41
0.6696428571
  0
MTEXT
  5
30E
100
AcDbEntity
  8
0
100
AcDbMText
 62
2
  6
CONTINUOUS
  7
STANDARD
 71
1
 72
1
 10
107.3516309789
 20
87.4596667342
 30
0.0
 11
1.0
 21
0.0
 31
0.0
 44
0.9
  1
2
 40
0.625
 41
0.7366071429
  0
MTEXT
  5
30F
100
AcDbEntity
  8
0
100
AcDbMText
 62
2
  6
CONTINUOUS
  7
STANDARD
 71
1
 72
1
 10
123.6016309789
 20
87.4596667342
 30
0.0
 11
1.0
 21
0.0
 31
0.0
 44
0.9
  1
1
 40
0.625
 41
0.5357142857
  0
MTEXT
  5
310
100
AcDbEntity
  8
0
100
AcDbMText
 62
2
  6
CONTINUOUS
  7
STANDARD
 71
1
 72
1
 10
0.7928772371
 20
12.8779597969
 30
0.0
 11
1.0
 21
0.0
 31
0.0
 44
0.9
  1
A
 40
0.625
 41
0.8035714286
  0
MTEXT
  5
311
100
AcDbEntity
  8
0
100
AcDbMText
 62
2
  6
CONTINUOUS
  7
STANDARD
 71
1
 72
1
 10
0.7928772371
 20
33.8779597969
 30
0.0
 11
1.0
 21
0.0
 31
0.0
 44
0.9
  1
B
 40
0.625
 41
0.7366071429
  0
MTEXT
  5
312
100
AcDbEntity
  8
0
100
AcDbMText
 62
2
  6
CONTINUOUS
  7
STANDARD
 71
1
 72
1
 10
0.7928772371
 20
54.8779597969
 30
0.0
 11
1.0
 21
0.0
 31
0.0
 44
0.9
  1
C
 40
0.625
 41
0.78125
  0
MTEXT
  5
313
100
AcDbEntity
  8
0
100
AcDbMText
 62
2
  6
CONTINUOUS
  7
STANDARD
 71
1
 72
1
 10
0.7928772371
 20
75.8779597969
 30
0.0
 11
1.0
 21
0.0
 31
0.0
 44
0.9
  1
D
 40
0.625
 41
0.8482142857
  0
MTEXT
  5
314
100
AcDbEntity
  8
0
100
AcDbMText
 62
2
  6
CONTINUOUS
  7
STANDARD
 71
1
 72
1
 10
132.7928772371
 20
12.8779597969
 30
0.0
 11
1.0
 21
0.0
 31
0.0
 44
0.9
  1
A
 40
0.625
 41
0.8035714286
  0
MTEXT
  5
315
100
AcDbEntity
  8
0
100
AcDbMText
 62
2
  6
CONTINUOUS
  7
STANDARD
 71
1
 72
1
 10
132.7928772371
 20
33.8779597969
 30
0.0
 11
1.0
 21
0.0
 31
0.0
 44
0.9
  1
B
 40
0.625
 41
0.7366071429
  0
MTEXT
  5
316
100
AcDbEntity
  8
0
100
AcDbMText
 62
2
  6
CONTINUOUS
  7
STANDARD
 71
1
 72
1
 10
132.7928772371
 20
54.8779597969
 30
0.0
 11
1.0
 21
0.0
 31
0.0
 44
0.9
  1
C
 40
0.625
 41
0.78125
  0
MTEXT
  5
317
100
AcDbEntity
  8
0
100
AcDbMText
 62
2
  6
CONTINUOUS
  7
STANDARD
 71
1
 72
1
 10
132.7928772371
 20
75.8779597969
 30
0.0
 11
1.0
 21
0.0
 31
0.0
 44
0.9
  1
D
 40
0.625
 41
0.8482142857
  0
MTEXT
  5
318
100
AcDbEntity
  8
0
100
AcDbMText
 62
5
  6
CONTINUOUS
  7
STANDARD
 71
1
 72
1
 10
2.2651584424
 20
85.8247284615
 30
0.0
 11
1.0
 21
0.0
 31
0.0
 44
0.9
  1
THIS DOCUMENT CONTAINS PROPRIETARY INFORMATION\PWHICH IS THE PROPERTY OF QSC, LLC, THAT MAY NOT BE\PDISCLOSED, REPRODUCED OR USED WITHOUT EXPRESS\PWRITTEN CONSENT FROM QSC, LLC.
 40
0.3
 41
17.775
  0
MTEXT
  5
319
100
AcDbEntity
  8
0
100
AcDbMText
 62
2
  6
CONTINUOUS
  7
STANDARD
 71
2
 72
1
 10
96.9972564215
 20
11.9130298612
 30
0.0
 11
1.0
 21
0.0
 31
0.0
 44
0.9
  1
UNLESS OTHERWISE SPECIFIED\PDIMENSIONS IN MILLIMETERS [IN]
 40
0.4
 41
13.1428571429
  0
MTEXT
  5
31A
100
AcDbEntity
  8
0
100
AcDbMText
 62
2
  6
CONTINUOUS
  7
STANDARD
 71
2
 72
1
 10
96.9397891167
 20
10.3679419945
 30
0.0
 11
1.0
 21
0.0
 31
0.0
 44
0.9
  1
TOLERANCES ARE:
 40
0.36
 41
6.1842857143
  0
MTEXT
  5
31B
100
AcDbEntity
  8
0
100
AcDbMText
 62
2
  6
CONTINUOUS
  7
STANDARD
 71
2
 72
1
 10
93.9971065635
 20
9.454822291
 30
0.0
 11
1.0
 21
0.0
 31
0.0
 44
0.9
  1
DECIMALS\P.X\Fgdt;{\Fgdt;`}\Ftxt;.5[.02]
 40
0.36
 41
3.7157142857
  0
MTEXT
  5
31C
100
AcDbEntity
  8
0
100
AcDbMText
 62
2
  6
CONTINUOUS
  7
STANDARD
 71
2
 72
1
 10
97.5
 20
9.43
 30
0.0
 11
1.0
 21
0.0
 31
0.0
 44
0.9
  1
DECIMALS\P.XX\Fgdt;{\Fgdt;`}\Ftxt;.25[.010]
 40
0.36
 41
4.9114285714
  0
MTEXT
  5
31D
100
AcDbEntity
  8
0
100
AcDbMText
 62
2
  6
CONTINUOUS
  7
STANDARD
 71
2
 72
1
 10
100.5171879775
 20
9.4500027785
 30
0.0
 11
1.0
 21
0.0
 31
0.0
 44
0.9
  1
ANGLES\P\Fgdt;{\Fgdt;`}\Ftxt; 1/2
 40
0.36
 41
2.5714285714
  0
MTEXT
  5
31E
100
AcDbEntity
  8
0
100
AcDbMText
 62
2
  6
CONTINUOUS
  7
STANDARD
 71
2
 72
1
 10
97.0
 20
7.93
 30
0.0
 11
1.0
 21
0.0
 31
0.0
 44
0.9
  1
DEBURR EDGES .25 [.010] R MAX
 40
0.36
 41
11.7642857143
  0
MTEXT
  5
31F
100
AcDbEntity
  8
0
100
AcDbMText
 62
2
  6
CONTINUOUS
  7
STANDARD
 71
2
 72
1
 10
93.8356979232
 20
6.7448796703
 30
0.0
 11
1.0
 21
0.0
 31
0.0
 44
0.9
  1
MATERIAL
 40
0.36
 41
3.4585714286
  0
MTEXT
  5
320
100
AcDbEntity
  8
0
100
AcDbMText
 62
2
  6
CONTINUOUS
  7
STANDARD
 71
2
 72
1
 10
93.4525588641
 20
4.3085865078
 30
0.0
 11
1.0
 21
0.0
 31
0.0
 44
0.9
  1
FINISH
 40
0.36
 41
2.4557142857
  0
MTEXT
  5
321
100
AcDbEntity
  8
0
100
AcDbMText
 62
2
  6
CONTINUOUS
  7
STANDARD
 71
2
 72
1
 10
121.0791692592
 20
2.7236102469
 30
0.0
 11
1.0
 21
0.0
 31
0.0
 44
0.9
  1
DO NOT SCALE DRAWING
 40
0.5
 41
12.4642857143
  0
MTEXT
  5
322
100
AcDbEntity
  8
0
100
AcDbMText
 62
2
  6
CONTINUOUS
  7
STANDARD
 71
2
 72
1
 10
102.8841465771
 20
12.0357444726
 30
0.0
 11
1.0
 21
0.0
 31
0.0
 44
0.9
  1
DESIGNER
 40
0.36
 41
3.4071428571
  0
MTEXT
  5
323
100
AcDbEntity
  8
0
100
AcDbMText
 62
2
  6
CONTINUOUS
  7
STANDARD
 71
2
 72
1
 10
102.7433651965
 20
9.9863999415
 30
0.0
 11
1.0
 21
0.0
 31
0.0
 44
0.9
  1
ENGINEER
 40
0.36
 41
3.3042857143
  0
MTEXT
  5
324
100
AcDbEntity
  8
0
100
AcDbMText
 62
2
  6
CONTINUOUS
  7
STANDARD
 71
2
 72
1
 10
104.2793711084
 20
7.8985005175
 30
0.0
 11
1.0
 21
0.0
 31
0.0
 44
0.9
  1
TECHNICAL DIRECTOR
 40
0.36
 41
7.6885714286
  0
MTEXT
  5
325
100
AcDbEntity
  8
0
100
AcDbMText
 62
2
  6
CONTINUOUS
  7
STANDARD
 71
2
 72
1
 10
104.8126451159
 20
5.8092477111
 30
0.0
 11
1.0
 21
0.0
 31
0.0
 44
0.9
  1
MANUFACTURING ENGINEER
 40
0.36
 41
9.3085714286
  0
MTEXT
  5
326
100
AcDbEntity
  8
0
100
AcDbMText
 62
2
  6
CONTINUOUS
  7
STANDARD
 71
2
 72
1
 10
103.8260940015
 20
2.7040098754
 30
0.0
 11
1.0
 21
0.0
 31
0.0
 44
0.9
  1
MODEL INFO:
 40
0.36
 41
4.41
  0
MTEXT
  5
327
100
AcDbEntity
  8
0
100
AcDbMText
 62
2
  6
CONTINUOUS
  7
STANDARD
 71
2
 72
1
 10
103.4554035731
 20
3.673444166
 30
0.0
 11
1.0
 21
0.0
 31
0.0
 44
0.9
  1
DRAWING INFO:
 40
0.36
 41
5.6057142857
  0
MTEXT
  5
328
100
AcDbEntity
  8
0
100
AcDbMText
 62
2
  6
CONTINUOUS
  7
STANDARD
 71
2
 72
1
 10
112.9574583256
 20
2.6680813209
 30
0.0
 11
1.0
 21
0.0
 31
0.0
 44
0.9
  1
SCALE:
 40
0.36
 41
2.3657142857
  0
MTEXT
  5
329
100
AcDbEntity
  8
0
100
AcDbMText
 62
2
  6
CONTINUOUS
  7
STANDARD
 71
2
 72
1
 10
126.4649709371
 20
2.6747235461
 30
0.0
 11
1.0
 21
0.0
 31
0.0
 44
0.9
  1
SHEET
 40
0.36
 41
2.1857142857
  0
MTEXT
  5
32A
100
AcDbEntity
  8
0
100
AcDbMText
 62
2
  6
CONTINUOUS
  7
STANDARD
 71
2
 72
1
 10
112.9679178031
 20
4.8413186693
 30
0.0
 11
1.0
 21
0.0
 31
0.0
 44
0.9
  1
SIZE
 40
0.36
 41
1.6842857143
  0
MTEXT
  5
32B
100
AcDbEntity
  8
0
100
AcDbMText
 62
2
  6
CONTINUOUS
  7
STANDARD
 71
2
 72
1
 10
115.9347904347
 20
4.8456657724
 30
0.0
 11
1.0
 21
0.0
 31
0.0
 44
0.9
  1
CAGE CODE
 40
0.36
 41
3.9985714286
  0
MTEXT
  5
32C
100
AcDbEntity
  8
0
100
AcDbMText
 62
2
  6
CONTINUOUS
  7
STANDARD
 71
2
 72
1
 10
119.7637989921
 20
4.8373318629
 30
0.0
 11
1.0
 21
0.0
 31
0.0
 44
0.9
  1
DRAWING NO.
 40
0.36
 41
4.9885714286
  0
MTEXT
  5
32D
100
AcDbEntity
  8
0
100
AcDbMText
 62
2
  6
CONTINUOUS
  7
STANDARD
 71
2
 72
1
 10
131.0485306378
 20
4.8426956267
 30
0.0
 11
1.0
 21
0.0
 31
0.0
 44
0.9
  1
REV
 40
0.36
 41
1.3628571429
  0
MTEXT
  5
32E
100
AcDbEntity
  8
0
100
AcDbMText
 62
2
  6
CONTINUOUS
  7
STANDARD
 71
2
 72
1
 10
121.6685660019
 20
11.9740712106
 30
0.0
 11
1.0
 21
0.0
 31
0.0
 44
0.9
  1
QSC, LLC
 40
0.625
 41
5.7589285714
  0
MTEXT
  5
32F
100
AcDbEntity
  8
0
100
AcDbMText
 62
2
  6
CONTINUOUS
  7
STANDARD
 71
1
 72
1
 10
119.6485296552
 20
11.0171606556
 30
0.0
 11
1.0
 21
0.0
 31
0.0
 44
0.9
  1
1675 MACARTHUR BOULEVARD\PCOSTA MESA, CA  92626
 40
0.5
 41
14.3392857143
  0
MTEXT
  5
330
100
AcDbEntity
  8
0
100
AcDbMText
 62
2
  6
CONTINUOUS
  7
STANDARD
 71
1
 72
1
 10
114.5204339557
 20
3.9851059671
 30
0.0
 11
1.0
 21
0.0
 31
0.0
 44
0.9
  1
00PW4
 40
0.625
 41
4.3973214286
  0
INSERT
  5
331
100
AcDbEntity
  8
0
100
AcDbBlockReference
 62
7
  6
CONTINUOUS
  2
RD010411_BL0
 10
115.5552811952
 20
10.8044426607
  0
DIMENSION
  5
332
100
AcDbEntity
  8
0
100
AcDbDimension
 62
2
  6
CONTINUOUS
  2
*D0
 10
66.1026215094
 20
27.6194092767
 11
66.1026215094
 21
45.0988876232
 70
160
 71
2
 42
911.77
  3
DIMSTYLE_1
100
AcDbAlignedDimension
 13
61.0422209975
 23
63.5158659696
 14
58.5311973755
 24
27.6194092767
 50
270.0
100
AcDbRotatedDimension
  0
DIMENSION
  5
333
100
AcDbEntity
  8
0
100
AcDbDimension
 62
2
  6
CONTINUOUS
  2
*D1
 10
61.3047209975
 20
68.4401062795
 11
46.2047209975
 21
67.9713562795
 70
160
 71
2
 42
767.08
  3
DIMSTYLE_2
100
AcDbAlignedDimension
 13
31.1047209975
 23
70.9712329623
 14
61.3047209975
 24
76.111106978
100
AcDbRotatedDimension
  0
DIMENSION
  5
334
100
AcDbEntity
  8
0
100
AcDbDimension
 62
2
  6
CONTINUOUS
  2
*D2
 10
64.8514643862
 20
82.6016463481
 11
64.8514643862
 21
76.2864396552
 70
160
 71
2
 42
297.0
  3
DIMSTYLE_2
100
AcDbAlignedDimension
 13
61.0422209975
 23
70.9087329623
 14
61.0422209975
 24
82.6016463481
 50
90.0
100
AcDbRotatedDimension
  0
DIMENSION
  5
335
100
AcDbEntity
  8
0
100
AcDbDimension
 62
2
  6
CONTINUOUS
  2
*D3
 10
89.385220319
 20
47.1347636074
 11
89.385220319
 21
50.1601080956
 70
160
 71
2
 42
177.5
  3
DIMSTYLE_2
100
AcDbAlignedDimension
 13
84.3292754965
 23
54.1229525838
 14
84.3292754965
 24
47.1347636074
 50
270.0
100
AcDbRotatedDimension
  0
DIMENSION
  5
336
100
AcDbEntity
  8
0
100
AcDbDimension
 62
2
  6
CONTINUOUS
  2
*D4
 10
84.3287361264
 20
66.8895442069
 11
77.0424270854
 21
66.4207942069
 70
160
 71
3
 42
126.492
  3
DIMSTYLE_2
100
AcDbAlignedDimension
 13
79.3487361264
 23
54.1234919539
 14
84.3287361264
 24
54.1234919539
100
AcDbRotatedDimension
  0
DIMENSION
  5
337
100
AcDbEntity
  8
0
100
AcDbDimension
 62
2
  6
CONTINUOUS
  2
*D5
 10
85.8387361264
 20
66.8895442069
 11
89.2823436469
 21
66.4207942069
 70
160
 71
1
 42
38.354
  3
DIMSTYLE_2
100
AcDbAlignedDimension
 13
84.3287361264
 23
54.1234919539
 14
85.8387361264
 24
63.4533659696
100
AcDbRotatedDimension
  0
DIMENSION
  5
338
100
AcDbEntity
  8
0
100
AcDbDimension
 62
2
  6
CONTINUOUS
  2
*D6
 10
19.2025199934
 20
66.8916505128
 11
16.1119688123
 21
66.4229005128
 70
160
 71
2
 42
157.0
  3
DIMSTYLE_1
100
AcDbAlignedDimension
 13
13.0214176312
 23
46.4601754184
 14
19.2025199934
 24
63.4533659696
100
AcDbRotatedDimension
  0
DIMENSION
  5
339
100
AcDbEntity
  8
0
100
AcDbDimension
 62
2
  6
CONTINUOUS
  2
*D7
 10
23.5572621757
 20
45.8442124263
 11
23.5572621757
 21
36.2630608515
 70
160
 71
2
 42
462.91
  3
DIMSTYLE_2
100
AcDbAlignedDimension
 13
17.8337207808
 23
27.6194092767
 14
13.8072582286
 24
45.8442124263
 50
90.0
100
AcDbRotatedDimension
  0
DIMENSION
  5
33A
100
AcDbEntity
  8
0
100
AcDbDimension
 62
2
  6
CONTINUOUS
  2
*D8
 10
89.385220319
 20
47.1347636074
 11
89.385220319
 21
37.1849112452
 70
160
 71
2
 42
481.64
  3
DIMSTYLE_2
100
AcDbAlignedDimension
 13
85.7762361264
 23
28.172558883
 14
84.3292754965
 24
47.1347636074
 50
90.0
100
AcDbRotatedDimension
  0
DIMENSION
  5
33B
100
AcDbEntity
  8
0
100
AcDbDimension
 62
2
  6
CONTINUOUS
  2
*D9
 10
64.2378106713
 20
12.4445742563
 11
64.2378106713
 21
8.6078360963
 70
160
 71
2
 42
55.6
  3
DIMSTYLE_2
100
AcDbAlignedDimension
 13
61.0422209975
 23
10.2555978784
 14
58.8780649598
 24
12.4445742563
 50
90.0
100
AcDbRotatedDimension
  0
DIMENSION
  5
33C
100
AcDbEntity
  8
0
100
AcDbDimension
 62
2
  6
CONTINUOUS
  2
*D10
 10
64.2378106713
 20
19.767408902
 11
64.2378106713
 21
15.6372415792
 70
160
 71
2
 42
186.0
  3
DIMSTYLE_2
100
AcDbAlignedDimension
 13
58.8780649598
 23
12.4445742563
 14
58.8731642747
 24
19.767408902
 50
90.0
100
AcDbRotatedDimension
  0
DIMENSION
  5
33D
100
AcDbEntity
  8
0
100
AcDbDimension
 62
2
  6
CONTINUOUS
  2
*D11
 10
57.7188942259
 20
5.6333046959
 11
63.8244314577
 21
5.1645546959
 70
160
 71
1
 42
86.0
  3
DIMSTYLE_2
100
AcDbAlignedDimension
 13
61.1047209975
 23
10.3180978784
 14
57.7188942259
 24
11.2854035224
 50
180.0
100
AcDbRotatedDimension
  0
DIMENSION
  5
33E
100
AcDbEntity
  8
0
100
AcDbDimension
 62
2
  6
CONTINUOUS
  2
*D12
 10
34.4905477692
 20
5.6333046959
 11
46.1401104375
 21
5.1645546959
 70
160
 71
2
 42
590.0
  3
DIMSTYLE_2
100
AcDbAlignedDimension
 13
57.7188942259
 23
11.2854035224
 14
34.4905477692
 24
11.2673224848
 50
180.0
100
AcDbRotatedDimension
  0
DIMENSION
  5
33F
100
AcDbEntity
  8
0
100
AcDbDimension
 62
2
  6
CONTINUOUS
  2
*D13
 10
61.1047209975
 20
65.5661218165
 11
46.1047209975
 21
65.0973718165
 70
160
 71
2
 42
762.0
  3
DIMSTYLE_2
100
AcDbAlignedDimension
 13
31.1047209975
 23
63.4533659696
 14
61.1047209975
 24
63.4533659696
100
AcDbRotatedDimension
  0
DIMENSION
  5
340
100
AcDbEntity
  8
0
100
AcDbDimension
 62
2
  6
CONTINUOUS
  2
*D14
 10
92.5729630983
 20
28.172558883
 11
92.5729630983
 21
45.3754624263
 70
160
 71
2
 42
897.72
  3
DIMSTYLE_2
100
AcDbAlignedDimension
 13
85.7762361264
 23
63.5158659696
 14
85.7762361264
 24
28.172558883
 50
270.0
100
AcDbRotatedDimension
  0
LWPOLYLINE
  5
341
100
AcDbEntity
  8
0
100
AcDbPolyline
 62
2
  6
CONTINUOUS
 90
2
 70
0
 43
0.08
 10
132.0240748452
 20
85.9845149829
 10
91.6940748452
 20
85.9845149829
  0
LWPOLYLINE
  5
342
100
AcDbEntity
  8
0
100
AcDbPolyline
 62
2
  6
CONTINUOUS
 90
2
 70
0
 43
0.08
 10
131.9840748452
 20
85.9845149829
 10
131.9840748452
 20
79.7345149829
  0
LWPOLYLINE
  5
343
100
AcDbEntity
  8
0
100
AcDbPolyline
 62
2
  6
CONTINUOUS
 90
2
 70
0
 43
0.08
 10
131.9840748452
 20
84.7345149829
 10
91.7340748452
 20
84.7345149829
  0
LWPOLYLINE
  5
344
100
AcDbEntity
  8
0
100
AcDbPolyline
 62
2
  6
CONTINUOUS
 90
2
 70
0
 43
0.08
 10
131.9840748452
 20
83.4845149829
 10
91.7340748452
 20
83.4845149829
  0
LWPOLYLINE
  5
345
100
AcDbEntity
  8
0
100
AcDbPolyline
 62
2
  6
CONTINUOUS
 90
2
 70
0
 43
0.08
 10
131.9840748452
 20
82.2345149829
 10
91.7340748452
 20
82.2345149829
  0
LWPOLYLINE
  5
346
100
AcDbEntity
  8
0
100
AcDbPolyline
 62
2
  6
CONTINUOUS
 90
2
 70
0
 43
0.08
 10
131.9840748452
 20
80.9845149829
 10
91.7340748452
 20
80.9845149829
  0
LWPOLYLINE
  5
347
100
AcDbEntity
  8
0
100
AcDbPolyline
 62
2
  6
CONTINUOUS
 90
2
 70
0
 43
0.08
 10
132.0240748452
 20
79.7345149829
 10
91.6940748452
 20
79.7345149829
  0
LWPOLYLINE
  5
348
100
AcDbEntity
  8
0
100
AcDbPolyline
 62
2
  6
CONTINUOUS
 90
2
 70
0
 43
0.08
 10
128.9840748452
 20
84.7345149829
 10
128.9840748452
 20
79.7345149829
  0
LWPOLYLINE
  5
349
100
AcDbEntity
  8
0
100
AcDbPolyline
 62
2
  6
CONTINUOUS
 90
2
 70
0
 43
0.08
 10
124.4840748452
 20
84.7345149829
 10
124.4840748452
 20
79.7345149829
  0
LWPOLYLINE
  5
34A
100
AcDbEntity
  8
0
100
AcDbPolyline
 62
2
  6
CONTINUOUS
 90
2
 70
0
 43
0.08
 10
122.4840748452
 20
84.7345149829
 10
122.4840748452
 20
79.7345149829
  0
LWPOLYLINE
  5
34B
100
AcDbEntity
  8
0
100
AcDbPolyline
 62
2
  6
CONTINUOUS
 90
2
 70
0
 43
0.08
 10
96.9840748452
 20
84.7345149829
 10
96.9840748452
 20
79.7345149829
  0
LWPOLYLINE
  5
34C
100
AcDbEntity
  8
0
100
AcDbPolyline
 62
2
  6
CONTINUOUS
 90
2
 70
0
 43
0.08
 10
93.7340748452
 20
84.7345149829
 10
93.7340748452
 20
79.7345149829
  0
LWPOLYLINE
  5
34D
100
AcDbEntity
  8
0
100
AcDbPolyline
 62
2
  6
CONTINUOUS
 90
2
 70
0
 43
0.08
 10
91.7340748452
 20
85.9845149829
 10
91.7340748452
 20
79.7345149829
  0
MTEXT
  5
34E
100
AcDbEntity
  8
0
100
AcDbMText
 62
2
  6
CONTINUOUS
  7
STANDARD
 71
2
 72
1
 10
111.8590748452
 20
85.6720149829
 30
0.0
 11
1.0
 21
0.0
 31
0.0
 44
0.9
  1
REVISIONS
 40
0.625
 41
6.3392857143
  0
MTEXT
  5
34F
100
AcDbEntity
  8
0
100
AcDbMText
 62
2
  6
CONTINUOUS
  7
STANDARD
 71
2
 72
1
 10
130.4840748452
 20
84.4215149829
 30
0.0
 11
1.0
 21
0.0
 31
0.0
 44
0.9
  1
ISSUED
 40
0.624
 41
4.3234285714
  0
MTEXT
  5
350
100
AcDbEntity
  8
0
100
AcDbMText
 62
2
  6
CONTINUOUS
  7
STANDARD
 71
2
 72
1
 10
126.7340748452
 20
84.4215149829
 30
0.0
 11
1.0
 21
0.0
 31
0.0
 44
0.9
  1
EFF DATE
 40
0.624
 41
5.8611428571
  0
MTEXT
  5
351
100
AcDbEntity
  8
0
100
AcDbMText
 62
2
  6
CONTINUOUS
  7
STANDARD
 71
2
 72
1
 10
123.4840748452
 20
84.4220149829
 30
0.0
 11
1.0
 21
0.0
 31
0.0
 44
0.9
  1
BY
 40
0.625
 41
1.5401785714
  0
MTEXT
  5
352
100
AcDbEntity
  8
0
100
AcDbMText
 62
2
  6
CONTINUOUS
  7
STANDARD
 71
2
 72
1
 10
109.7340748452
 20
84.4215149829
 30
0.0
 11
1.0
 21
0.0
 31
0.0
 44
0.9
  1
DESCRIPTION
 40
0.624
 41
7.9782857143
  0
MTEXT
  5
353
100
AcDbEntity
  8
0
100
AcDbMText
 62
2
  6
CONTINUOUS
  7
STANDARD
 71
2
 72
1
 10
95.3590748452
 20
84.4220149829
 30
0.0
 11
1.0
 21
0.0
 31
0.0
 44
0.9
  1
ECO
 40
0.625
 41
2.1875
  0
MTEXT
  5
354
100
AcDbEntity
  8
0
100
AcDbMText
 62
2
  6
CONTINUOUS
  7
STANDARD
 71
2
 72
1
 10
92.7340748452
 20
84.4215149829
 30
0.0
 11
1.0
 21
0.0
 31
0.0
 44
0.9
  1
REV
 40
0.624
 41
2.184
  0
MTEXT
  5
355
100
AcDbEntity
  8
0
100
AcDbMText
 62
2
  6
CONTINUOUS
  7
STANDARD
 71
2
 72
1
 10
130.4840748452
 20
83.1720149829
 30
0.0
 11
1.0
 21
0.0
 31
0.0
 44
0.9
  1
-
 40
0.625
 41
0.6696428571
  0
MTEXT
  5
356
100
AcDbEntity
  8
0
100
AcDbMText
 62
2
  6
CONTINUOUS
  7
STANDARD
 71
2
 72
1
 10
126.7340748452
 20
83.1720149829
 30
0.0
 11
1.0
 21
0.0
 31
0.0
 44
0.9
  1
-
 40
0.625
 41
0.6696428571
  0
MTEXT
  5
357
100
AcDbEntity
  8
0
100
AcDbMText
 62
2
  6
CONTINUOUS
  7
STANDARD
 71
2
 72
1
 10
109.7340748452
 20
83.1720149829
 30
0.0
 11
1.0
 21
0.0
 31
0.0
 44
0.9
  1
RELEASE
 40
0.625
 41
5.0669642857
  0
MTEXT
  5
358
100
AcDbEntity
  8
0
100
AcDbMText
 62
2
  6
CONTINUOUS
  7
STANDARD
 71
2
 72
1
 10
95.3590748452
 20
83.1720149829
 30
0.0
 11
1.0
 21
0.0
 31
0.0
 44
0.9
  1
-
 40
0.625
 41
0.6696428571
  0
MTEXT
  5
359
100
AcDbEntity
  8
0
100
AcDbMText
 62
2
  6
CONTINUOUS
  7
STANDARD
 71
2
 72
1
 10
92.7340748452
 20
83.1720149829
 30
0.0
 11
1.0
 21
0.0
 31
0.0
 44
0.9
  1
A
 40
0.625
 41
0.9821428571
  0
LINE
  5
35A
100
AcDbEntity
  8
0
100
AcDbLine
 62
2
  6
CONTINUOUS
 10
92.5
 20
7.0
 11
101.5
 21
7.0
  0
LINE
  5
35B
100
AcDbEntity
  8
0
100
AcDbLine
 62
2
  6
CONTINUOUS
 10
92.5
 20
7.0
 11
92.5
 21
4.5
  0
LINE
  5
35C
100
AcDbEntity
  8
0
100
AcDbLine
 62
2
  6
CONTINUOUS
 10
92.5
 20
4.5
 11
101.5
 21
4.5
  0
LINE
  5
35D
100
AcDbEntity
  8
0
100
AcDbLine
 62
2
  6
CONTINUOUS
 10
101.5
 20
7.0
 11
101.5
 21
4.5
  0
LINE
  5
35E
100
AcDbEntity
  8
0
100
AcDbLine
 62
2
  6
CONTINUOUS
 10
92.5
 20
4.5
 11
101.5
 21
4.5
  0
LINE
  5
35F
100
AcDbEntity
  8
0
100
AcDbLine
 62
2
  6
CONTINUOUS
 10
92.5
 20
4.5
 11
92.5
 21
2.0
  0
LINE
  5
360
100
AcDbEntity
  8
0
100
AcDbLine
 62
2
  6
CONTINUOUS
 10
92.5
 20
2.0
 11
101.5
 21
2.0
  0
LINE
  5
361
100
AcDbEntity
  8
0
100
AcDbLine
 62
2
  6
CONTINUOUS
 10
101.5
 20
4.5
 11
101.5
 21
2.0
  0
LINE
  5
362
100
AcDbEntity
  8
0
100
AcDbLine
 62
2
  6
CONTINUOUS
 10
101.5
 20
11.0
 11
108.5
 21
11.0
  0
LINE
  5
363
100
AcDbEntity
  8
0
100
AcDbLine
 62
2
  6
CONTINUOUS
 10
101.5
 20
11.0
 11
101.5
 21
9.28125
  0
LINE
  5
364
100
AcDbEntity
  8
0
100
AcDbLine
 62
2
  6
CONTINUOUS
 10
101.5
 20
9.28125
 11
108.5
 21
9.28125
  0
LINE
  5
365
100
AcDbEntity
  8
0
100
AcDbLine
 62
2
  6
CONTINUOUS
 10
108.5
 20
11.0
 11
108.5
 21
9.28125
  0
MTEXT
  5
366
100
AcDbEntity
  8
0
100
AcDbMText
 62
2
  6
CONTINUOUS
  7
STANDARD
 71
1
 72
1
 10
101.75
 20
10.21875
 30
0.0
 11
1.0
 21
0.0
 31
0.0
 44
0.9
  1
ENG. SERVICES
 40
0.625
 41
9.3080357143
  0
LINE
  5
367
100
AcDbEntity
  8
0
100
AcDbLine
 62
2
  6
CONTINUOUS
 10
101.5
 20
9.25
 11
108.5
 21
9.25
  0
LINE
  5
368
100
AcDbEntity
  8
0
100
AcDbLine
 62
2
  6
CONTINUOUS
 10
101.5
 20
9.25
 11
101.5
 21
7.49
  0
LINE
  5
369
100
AcDbEntity
  8
0
100
AcDbLine
 62
2
  6
CONTINUOUS
 10
101.5
 20
7.49
 11
108.5
 21
7.49
  0
LINE
  5
36A
100
AcDbEntity
  8
0
100
AcDbLine
 62
2
  6
CONTINUOUS
 10
108.5
 20
9.25
 11
108.5
 21
7.49
  0
MTEXT
  5
36B
100
AcDbEntity
  8
0
100
AcDbMText
 62
2
  6
CONTINUOUS
  7
STANDARD
 71
1
 72
1
 10
101.75
 20
8.4275
 30
0.0
 11
1.0
 21
0.0
 31
0.0
 44
0.9
  1
NA
 40
0.625
 41
1.71875
  0
LINE
  5
36C
100
AcDbEntity
  8
0
100
AcDbLine
 62
2
  6
CONTINUOUS
 10
101.5
 20
7.5
 11
108.5
 21
7.5
  0
LINE
  5
36D
100
AcDbEntity
  8
0
100
AcDbLine
 62
2
  6
CONTINUOUS
 10
101.5
 20
7.5
 11
101.5
 21
5.78125
  0
LINE
  5
36E
100
AcDbEntity
  8
0
100
AcDbLine
 62
2
  6
CONTINUOUS
 10
101.5
 20
5.78125
 11
108.5
 21
5.78125
  0
LINE
  5
36F
100
AcDbEntity
  8
0
100
AcDbLine
 62
2
  6
CONTINUOUS
 10
108.5
 20
7.5
 11
108.5
 21
5.78125
  0
MTEXT
  5
370
100
AcDbEntity
  8
0
100
AcDbMText
 62
2
  6
CONTINUOUS
  7
STANDARD
 71
1
 72
1
 10
101.75
 20
6.71875
 30
0.0
 11
1.0
 21
0.0
 31
0.0
 44
0.9
  1
NA
 40
0.625
 41
1.71875
  0
LINE
  5
371
100
AcDbEntity
  8
0
100
AcDbLine
 62
2
  6
CONTINUOUS
 10
101.5
 20
5.75
 11
108.5
 21
5.75
  0
LINE
  5
372
100
AcDbEntity
  8
0
100
AcDbLine
 62
2
  6
CONTINUOUS
 10
101.5
 20
5.75
 11
101.5
 21
3.99
  0
LINE
  5
373
100
AcDbEntity
  8
0
100
AcDbLine
 62
2
  6
CONTINUOUS
 10
101.5
 20
3.99
 11
108.5
 21
3.99
  0
LINE
  5
374
100
AcDbEntity
  8
0
100
AcDbLine
 62
2
  6
CONTINUOUS
 10
108.5
 20
5.75
 11
108.5
 21
3.99
  0
MTEXT
  5
375
100
AcDbEntity
  8
0
100
AcDbMText
 62
2
  6
CONTINUOUS
  7
STANDARD
 71
1
 72
1
 10
101.75
 20
4.9275
 30
0.0
 11
1.0
 21
0.0
 31
0.0
 44
0.9
  1
NA
 40
0.625
 41
1.5401785714
  0
LINE
  5
376
100
AcDbEntity
  8
0
100
AcDbLine
 62
2
  6
CONTINUOUS
 10
108.5
 20
11.0
 11
112.0
 21
11.0
  0
LINE
  5
377
100
AcDbEntity
  8
0
100
AcDbLine
 62
2
  6
CONTINUOUS
 10
108.5
 20
11.0
 11
108.5
 21
9.24
  0
LINE
  5
378
100
AcDbEntity
  8
0
100
AcDbLine
 62
2
  6
CONTINUOUS
 10
108.5
 20
9.24
 11
112.0
 21
9.24
  0
LINE
  5
379
100
AcDbEntity
  8
0
100
AcDbLine
 62
2
  6
CONTINUOUS
 10
112.0
 20
11.0
 11
112.0
 21
9.24
  0
MTEXT
  5
37A
100
AcDbEntity
  8
0
100
AcDbMText
 62
2
  6
CONTINUOUS
  7
STANDARD
 71
2
 72
1
 10
110.25
 20
10.0325
 30
0.0
 11
1.0
 21
0.0
 31
0.0
 44
0.9
  1
11/11/13
 40
0.48
 41
3.6685714286
  0
LINE
  5
37B
100
AcDbEntity
  8
0
100
AcDbLine
 62
2
  6
CONTINUOUS
 10
108.5
 20
9.25
 11
112.0
 21
9.25
  0
LINE
  5
37C
100
AcDbEntity
  8
0
100
AcDbLine
 62
2
  6
CONTINUOUS
 10
108.5
 20
9.25
 11
108.5
 21
7.49
  0
LINE
  5
37D
100
AcDbEntity
  8
0
100
AcDbLine
 62
2
  6
CONTINUOUS
 10
108.5
 20
7.49
 11
112.0
 21
7.49
  0
LINE
  5
37E
100
AcDbEntity
  8
0
100
AcDbLine
 62
2
  6
CONTINUOUS
 10
112.0
 20
9.25
 11
112.0
 21
7.49
  0
MTEXT
  5
37F
100
AcDbEntity
  8
0
100
AcDbMText
 62
2
  6
CONTINUOUS
  7
STANDARD
 71
2
 72
1
 10
110.25
 20
8.2825
 30
0.0
 11
1.0
 21
0.0
 31
0.0
 44
0.9
  1
-
 40
0.48
 41
0.5142857143
  0
LINE
  5
380
100
AcDbEntity
  8
0
100
AcDbLine
 62
2
  6
CONTINUOUS
 10
108.5
 20
7.5
 11
112.0
 21
7.5
  0
LINE
  5
381
100
AcDbEntity
  8
0
100
AcDbLine
 62
2
  6
CONTINUOUS
 10
108.5
 20
7.5
 11
108.5
 21
5.74
  0
LINE
  5
382
100
AcDbEntity
  8
0
100
AcDbLine
 62
2
  6
CONTINUOUS
 10
108.5
 20
5.74
 11
112.0
 21
5.74
  0
LINE
  5
383
100
AcDbEntity
  8
0
100
AcDbLine
 62
2
  6
CONTINUOUS
 10
112.0
 20
7.5
 11
112.0
 21
5.74
  0
MTEXT
  5
384
100
AcDbEntity
  8
0
100
AcDbMText
 62
2
  6
CONTINUOUS
  7
STANDARD
 71
2
 72
1
 10
110.25
 20
6.5325
 30
0.0
 11
1.0
 21
0.0
 31
0.0
 44
0.9
  1
-
 40
0.48
 41
0.5142857143
  0
LINE
  5
385
100
AcDbEntity
  8
0
100
AcDbLine
 62
2
  6
CONTINUOUS
 10
108.5
 20
5.75
 11
112.0
 21
5.75
  0
LINE
  5
386
100
AcDbEntity
  8
0
100
AcDbLine
 62
2
  6
CONTINUOUS
 10
108.5
 20
5.75
 11
108.5
 21
4.03125
  0
LINE
  5
387
100
AcDbEntity
  8
0
100
AcDbLine
 62
2
  6
CONTINUOUS
 10
108.5
 20
4.03125
 11
112.0
 21
4.03125
  0
LINE
  5
388
100
AcDbEntity
  8
0
100
AcDbLine
 62
2
  6
CONTINUOUS
 10
112.0
 20
5.75
 11
112.0
 21
4.03125
  0
MTEXT
  5
389
100
AcDbEntity
  8
0
100
AcDbMText
 62
2
  6
CONTINUOUS
  7
STANDARD
 71
2
 72
1
 10
110.25
 20
4.82375
 30
0.0
 11
1.0
 21
0.0
 31
0.0
 44
0.9
  1
-
 40
0.48
 41
0.5142857143
  0
LINE
  5
38A
100
AcDbEntity
  8
0
100
AcDbLine
 62
2
  6
CONTINUOUS
 10
101.5
 20
4.0
 11
112.0
 21
4.0
  0
LINE
  5
38B
100
AcDbEntity
  8
0
100
AcDbLine
 62
2
  6
CONTINUOUS
 10
101.5
 20
4.0
 11
101.5
 21
3.0
  0
LINE
  5
38C
100
AcDbEntity
  8
0
100
AcDbLine
 62
2
  6
CONTINUOUS
 10
101.5
 20
3.0
 11
112.0
 21
3.0
  0
LINE
  5
38D
100
AcDbEntity
  8
0
100
AcDbLine
 62
2
  6
CONTINUOUS
 10
112.0
 20
4.0
 11
112.0
 21
3.0
  0
MTEXT
  5
38E
100
AcDbEntity
  8
0
100
AcDbMText
 62
2
  6
CONTINUOUS
  7
STANDARD
 71
3
 72
1
 10
111.75
 20
3.7525
 30
0.0
 11
1.0
 21
0.0
 31
0.0
 44
0.9
  1
WP-001185-2D.2.0
 40
0.44
 41
8.1714285714
  0
LINE
  5
38F
100
AcDbEntity
  8
0
100
AcDbLine
 62
2
  6
CONTINUOUS
 10
101.5
 20
3.0
 11
112.0
 21
3.0
  0
LINE
  5
390
100
AcDbEntity
  8
0
100
AcDbLine
 62
2
  6
CONTINUOUS
 10
101.5
 20
3.0
 11
101.5
 21
2.0
  0
LINE
  5
391
100
AcDbEntity
  8
0
100
AcDbLine
 62
2
  6
CONTINUOUS
 10
101.5
 20
2.0
 11
112.0
 21
2.0
  0
LINE
  5
392
100
AcDbEntity
  8
0
100
AcDbLine
 62
2
  6
CONTINUOUS
 10
112.0
 20
3.0
 11
112.0
 21
2.0
  0
MTEXT
  5
393
100
AcDbEntity
  8
0
100
AcDbMText
 62
2
  6
CONTINUOUS
  7
STANDARD
 71
3
 72
1
 10
111.75
 20
2.7525
 30
0.0
 11
1.0
 21
0.0
 31
0.0
 44
0.9
  1
WP-001185-3D2.0
 40
0.44
 41
7.7471428571
  0
LINE
  5
394
100
AcDbEntity
  8
0
100
AcDbLine
 62
2
  6
CONTINUOUS
 10
112.0
 20
9.5
 11
132.0
 21
9.5
  0
LINE
  5
395
100
AcDbEntity
  8
0
100
AcDbLine
 62
2
  6
CONTINUOUS
 10
112.0
 20
9.5
 11
112.0
 21
5.0
  0
LINE
  5
396
100
AcDbEntity
  8
0
100
AcDbLine
 62
2
  6
CONTINUOUS
 10
112.0
 20
5.0
 11
132.0
 21
5.0
  0
LINE
  5
397
100
AcDbEntity
  8
0
100
AcDbLine
 62
2
  6
CONTINUOUS
 10
132.0
 20
9.5
 11
132.0
 21
5.0
  0
MTEXT
  5
398
100
AcDbEntity
  8
0
100
AcDbMText
 62
2
  6
CONTINUOUS
  7
STANDARD
 71
2
 72
1
 10
122.0
 20
8.47
 30
0.0
 11
1.0
 21
0.0
 31
0.0
 44
1.02
  1
SPEAKER, FINISHED, 18"\PSUB, SB-1180
 40
0.8
 41
19.5714285714
  0
LINE
  5
399
100
AcDbEntity
  8
0
100
AcDbLine
 62
2
  6
CONTINUOUS
 10
112.0043692118
 20
4.99176187
 11
114.0043692118
 21
4.99176187
  0
LINE
  5
39A
100
AcDbEntity
  8
0
100
AcDbLine
 62
2
  6
CONTINUOUS
 10
112.0043692118
 20
4.99176187
 11
112.0043692118
 21
2.99176187
  0
LINE
  5
39B
100
AcDbEntity
  8
0
100
AcDbLine
 62
2
  6
CONTINUOUS
 10
112.0043692118
 20
2.99176187
 11
114.0043692118
 21
2.99176187
  0
LINE
  5
39C
100
AcDbEntity
  8
0
100
AcDbLine
 62
2
  6
CONTINUOUS
 10
114.0043692118
 20
4.99176187
 11
114.0043692118
 21
2.99176187
  0
MTEXT
  5
39D
100
AcDbEntity
  8
0
100
AcDbMText
 62
2
  6
CONTINUOUS
  7
STANDARD
 71
2
 72
1
 10
113.0043692118
 20
4.10426187
 30
0.0
 11
1.0
 21
0.0
 31
0.0
 44
0.9
  1
D
 40
0.8
 41
1.0857142857
  0
LINE
  5
39E
100
AcDbEntity
  8
0
100
AcDbLine
 62
2
  6
CONTINUOUS
 10
118.0020699904
 20
4.9798983565
 11
130.0020699904
 21
4.9798983565
  0
LINE
  5
39F
100
AcDbEntity
  8
0
100
AcDbLine
 62
2
  6
CONTINUOUS
 10
118.0020699904
 20
4.9798983565
 11
118.0020699904
 21
2.9798983565
  0
LINE
  5
3A0
100
AcDbEntity
  8
0
100
AcDbLine
 62
2
  6
CONTINUOUS
 10
118.0020699904
 20
2.9798983565
 11
130.0020699904
 21
2.9798983565
  0
LINE
  5
3A1
100
AcDbEntity
  8
0
100
AcDbLine
 62
2
  6
CONTINUOUS
 10
130.0020699904
 20
4.9798983565
 11
130.0020699904
 21
2.9798983565
  0
MTEXT
  5
3A2
100
AcDbEntity
  8
0
100
AcDbMText
 62
2
  6
CONTINUOUS
  7
STANDARD
 71
2
 72
1
 10
124.0020699904
 20
4.2123983565
 30
0.0
 11
1.0
 21
0.0
 31
0.0
 44
0.9
  1
WP-001185-2D
 40
0.92
 41
13.0771428571
  0
LINE
  5
3A3
100
AcDbEntity
  8
0
100
AcDbLine
 62
2
  6
CONTINUOUS
 10
129.9947995851
 20
4.9931512905
 11
131.9947995851
 21
4.9931512905
  0
LINE
  5
3A4
100
AcDbEntity
  8
0
100
AcDbLine
 62
2
  6
CONTINUOUS
 10
129.9947995851
 20
4.9931512905
 11
129.9947995851
 21
2.9931512905
  0
LINE
  5
3A5
100
AcDbEntity
  8
0
100
AcDbLine
 62
2
  6
CONTINUOUS
 10
129.9947995851
 20
2.9931512905
 11
131.9947995851
 21
2.9931512905
  0
LINE
  5
3A6
100
AcDbEntity
  8
0
100
AcDbLine
 62
2
  6
CONTINUOUS
 10
131.9947995851
 20
4.9931512905
 11
131.9947995851
 21
2.9931512905
  0
MTEXT
  5
3A7
100
AcDbEntity
  8
0
100
AcDbMText
 62
2
  6
CONTINUOUS
  7
STANDARD
 71
2
 72
1
 10
130.9947995851
 20
4.0256512905
 30
0.0
 11
1.0
 21
0.0
 31
0.0
 44
0.9
  1
2
 40
0.72
 41
0.8485714286
  0
LINE
  5
3A8
100
AcDbEntity
  8
0
100
AcDbLine
 62
2
  6
CONTINUOUS
 10
125.5024824775
 20
2.9717155345
 11
132.0024824775
 21
2.9717155345
  0
LINE
  5
3A9
100
AcDbEntity
  8
0
100
AcDbLine
 62
2
  6
CONTINUOUS
 10
125.5024824775
 20
2.9717155345
 11
125.5024824775
 21
1.9717155345
  0
LINE
  5
3AA
100
AcDbEntity
  8
0
100
AcDbLine
 62
2
  6
CONTINUOUS
 10
125.5024824775
 20
1.9717155345
 11
132.0024824775
 21
1.9717155345
  0
LINE
  5
3AB
100
AcDbEntity
  8
0
100
AcDbLine
 62
2
  6
CONTINUOUS
 10
132.0024824775
 20
2.9717155345
 11
132.0024824775
 21
1.9717155345
  0
MTEXT
  5
3AC
100
AcDbEntity
  8
0
100
AcDbMText
 62
2
  6
CONTINUOUS
  7
STANDARD
 71
3
 72
1
 10
131.7524824775
 20
2.8442155345
 30
0.0
 11
1.0
 21
0.0
 31
0.0
 44
0.9
  1
1 OF 1
 40
0.56
 41
3.54
  0
LINE
  5
3AD
100
AcDbEntity
  8
0
100
AcDbLine
 62
2
  6
CONTINUOUS
 10
111.9930392484
 20
2.9952928676
 11
116.7450392484
 21
2.9952928676
  0
LINE
  5
3AE
100
AcDbEntity
  8
0
100
AcDbLine
 62
2
  6
CONTINUOUS
 10
111.9930392484
 20
2.9952928676
 11
111.9930392484
 21
1.9796678676
  0
LINE
  5
3AF
100
AcDbEntity
  8
0
100
AcDbLine
 62
2
  6
CONTINUOUS
 10
111.9930392484
 20
1.9796678676
 11
116.7450392484
 21
1.9796678676
  0
LINE
  5
3B0
100
AcDbEntity
  8
0
100
AcDbLine
 62
2
  6
CONTINUOUS
 10
116.7450392484
 20
2.9952928676
 11
116.7450392484
 21
1.9796678676
  0
MTEXT
  5
3B1
100
AcDbEntity
  8
0
100
AcDbMText
 62
2
  6
CONTINUOUS
  7
STANDARD
 71
1
 72
1
 10
2.9881507964
 20
12.3350618719
 30
0.0
 11
1.0
 21
0.0
 31
0.0
 44
0.9
  3
4. PARTS ARE SYMMETRICAL ABOUT CENTER LINES\P   UNLESS OTHERWISE NOTED.\P \P3. SYMBOL    INDICATES CENTER OF BALANCE.\P  \P2. TOLERANCES (MM): X \Fgdt;{\Fgdt;`}\Ftxt; 5, ANGLES: \Fgdt;{\Fgdt;`}\Ftxt; 1\Fgdt;{\Fgdt;~}\Ftxt;.\P \P1. NET WEIGHT APPROX. 
  1
39.5[87.0] [KG/LBS].\P \PNOTE: UNLESS OTHERWISE SPECIFIED 
 40
0.625
 41
31.6071428571
  0
INSERT
  5
3B2
100
AcDbEntity
  8
0
100
AcDbBlockReference
 62
2
  6
CONTINUOUS
  2
123_BL1
 10
8.1156859368
 20
9.204799167
  0
LINE
  5
3B3
100
AcDbEntity
  8
DEFAULT_3
100
AcDbLine
 62
7
  6
PHANTOM
 10
0.0
 20
-0.0
 11
0.0
 21
88.0
  0
LWPOLYLINE
  5
3B4
100
AcDbEntity
  8
0
100
AcDbPolyline
 62
7
  6
CONTINUOUS
 90
2
 70
0
 43
0.0800000033
 10
1.0498508885
 20
43.3253804427
 10
1.0498508885
 20
44.6746195573
  0
LWPOLYLINE
  5
3B5
100
AcDbEntity
  8
0
100
AcDbPolyline
 62
7
  6
CONTINUOUS
 90
2
 70
0
 43
0.120000001
 10
2.0
 20
86.0
 10
2.0
 20
2.0
  0
LWPOLYLINE
  5
3B6
100
AcDbEntity
  8
0
100
AcDbPolyline
 62
7
  6
CONTINUOUS
 90
2
 70
0
 43
0.120000001
 10
14.25
 20
86.0
 10
14.25
 20
84.0
  0
LWPOLYLINE
  5
3B7
100
AcDbEntity
  8
0
100
AcDbPolyline
 62
7
  6
CONTINUOUS
 90
2
 70
0
 43
0.0800000033
 10
18.25
 20
2.0
 10
18.25
 20
-0.0
  0
LWPOLYLINE
  5
3B8
100
AcDbEntity
  8
0
100
AcDbPolyline
 62
7
  6
CONTINUOUS
 90
2
 70
0
 43
0.0800000033
 10
18.25
 20
86.0
 10
18.25
 20
88.0
  0
LINE
  5
3B9
100
AcDbEntity
  8
0
100
AcDbLine
 62
7
  6
CONTINUOUS
 10
101.4928516619
 20
4.4820555597
 11
92.4848129034
 21
1.9805617833
  0
LINE
  5
3BA
100
AcDbEntity
  8
0
100
AcDbLine
 62
7
  6
CONTINUOUS
 10
101.5061574798
 20
6.996855154
 11
92.4981187213
 21
4.4953613776
  0
LINE
  5
3BB
100
AcDbEntity
  8
DEFAULT_3
100
AcDbLine
 62
7
  6
PHANTOM
 10
0.0
 20
-0.0
 11
136.0
 21
-0.0
  0
LWPOLYLINE
  5
3BC
100
AcDbEntity
  8
0
100
AcDbPolyline
 62
7
  6
CONTINUOUS
 90
2
 70
0
 43
0.0800000033
 10
66.3253804427
 20
1.0498508885
 10
67.6746195573
 20
1.0498508885
  0
LWPOLYLINE
  5
3BD
100
AcDbEntity
  8
0
100
AcDbPolyline
 62
7
  6
CONTINUOUS
 90
2
 70
0
 43
0.0800000033
 10
2.0
 20
44.0
 10
1.0498508885
 20
43.3253804427
  0
LWPOLYLINE
  5
3BE
100
AcDbEntity
  8
0
100
AcDbPolyline
 62
7
  6
CONTINUOUS
 90
2
 70
0
 43
0.120000001
 10
2.0
 20
2.0
 10
132.0
 20
2.0
  0
LWPOLYLINE
  5
3BF
100
AcDbEntity
  8
0
100
AcDbPolyline
 62
7
  6
CONTINUOUS
 90
2
 70
0
 43
0.0800000033
 10
101.5
 20
3.0
 10
132.0
 20
3.0
  0
LWPOLYLINE
  5
3C0
100
AcDbEntity
  8
0
100
AcDbPolyline
 62
7
  6
CONTINUOUS
 90
2
 70
0
 43
0.0800000033
 10
101.5
 20
4.0
 10
112.0
 20
4.0
  0
LWPOLYLINE
  5
3C1
100
AcDbEntity
  8
0
100
AcDbPolyline
 62
7
  6
CONTINUOUS
 90
2
 70
0
 43
0.0800000033
 10
101.5
 20
4.5
 10
92.5
 20
4.5
  0
LWPOLYLINE
  5
3C2
100
AcDbEntity
  8
0
100
AcDbPolyline
 62
7
  6
CONTINUOUS
 90
2
 70
0
 43
0.0800000033
 10
112.0
 20
5.0
 10
132.0
 20
5.0
  0
LWPOLYLINE
  5
3C3
100
AcDbEntity
  8
0
100
AcDbPolyline
 62
7
  6
CONTINUOUS
 90
2
 70
0
 43
0.0800000033
 10
101.5262776669
 20
6.0469413799
 10
112.0262776669
 20
6.0469413799
  0
LWPOLYLINE
  5
3C4
100
AcDbEntity
  8
0
100
AcDbPolyline
 62
7
  6
CONTINUOUS
 90
2
 70
0
 43
0.0800000033
 10
2.0
 20
44.0
 10
1.0498508885
 20
44.6746195573
  0
LWPOLYLINE
  5
3C5
100
AcDbEntity
  8
0
100
AcDbPolyline
 62
7
  6
CONTINUOUS
 90
2
 70
0
 43
0.0800000033
 10
34.5
 20
2.0
 10
34.5
 20
-0.0
  0
LWPOLYLINE
  5
3C6
100
AcDbEntity
  8
0
100
AcDbPolyline
 62
7
  6
CONTINUOUS
 90
2
 70
0
 43
0.0800000033
 10
34.5
 20
86.0
 10
34.5
 20
88.0
  0
LWPOLYLINE
  5
3C7
100
AcDbEntity
  8
0
100
AcDbPolyline
 62
7
  6
CONTINUOUS
 90
2
 70
0
 43
0.0800000033
 10
92.5
 20
7.0
 10
101.5
 20
7.0
  0
LWPOLYLINE
  5
3C8
100
AcDbEntity
  8
0
100
AcDbPolyline
 62
7
  6
CONTINUOUS
 90
2
 70
0
 43
0.0800000033
 10
101.5317724285
 20
8.1036761417
 10
112.0317724285
 20
8.1036761417
  0
LWPOLYLINE
  5
3C9
100
AcDbEntity
  8
0
100
AcDbPolyline
 62
7
  6
CONTINUOUS
 90
2
 70
0
 43
0.0800000033
 10
112.0
 20
9.5
 10
132.0
 20
9.5
  0
LWPOLYLINE
  5
3CA
100
AcDbEntity
  8
0
100
AcDbPolyline
 62
7
  6
CONTINUOUS
 90
2
 70
0
 43
0.0800000033
 10
101.5
 20
10.2301193141
 10
112.0
 20
10.2301193141
  0
LWPOLYLINE
  5
3CB
100
AcDbEntity
  8
0
100
AcDbPolyline
 62
7
  6
CONTINUOUS
 90
2
 70
0
 43
0.0800000033
 10
92.5
 20
12.25
 10
132.0
 20
12.25
  0
LWPOLYLINE
  5
3CC
100
AcDbEntity
  8
0
100
AcDbPolyline
 62
7
  6
CONTINUOUS
 90
2
 70
0
 43
0.0800000033
 10
67.0
 20
86.0
 10
67.6746195573
 20
86.9501491115
  0
LWPOLYLINE
  5
3CD
100
AcDbEntity
  8
0
100
AcDbPolyline
 62
7
  6
CONTINUOUS
 90
2
 70
0
 43
0.0800000033
 10
67.0
 20
2.0
 10
67.6746195573
 20
1.0498508885
  0
LWPOLYLINE
  5
3CE
100
AcDbEntity
  8
0
100
AcDbPolyline
 62
7
  6
CONTINUOUS
 90
2
 70
0
 43
0.0800000033
 10
2.0
 20
23.0
 10
0.0
 20
23.0
  0
LWPOLYLINE
  5
3CF
100
AcDbEntity
  8
0
100
AcDbPolyline
 62
7
  6
CONTINUOUS
 90
2
 70
0
 43
0.0800000033
 10
132.0263754034
 20
23.0033641637
 10
134.0263754034
 20
23.0033641637
  0
LWPOLYLINE
  5
3D0
100
AcDbEntity
  8
0
100
AcDbPolyline
 62
7
  6
CONTINUOUS
 90
2
 70
0
 43
0.0800000033
 10
50.75
 20
2.0
 10
50.75
 20
-0.0
  0
LWPOLYLINE
  5
3D1
100
AcDbEntity
  8
0
100
AcDbPolyline
 62
7
  6
CONTINUOUS
 90
2
 70
0
 43
0.0800000033
 10
50.75
 20
86.0
 10
50.75
 20
88.0
  0
LINE
  5
3D2
100
AcDbEntity
  8
0
100
AcDbLine
 62
7
  6
CONTINUOUS
 10
92.5443466341
 20
12.2087884372
 11
101.4670033149
 21
7.0509657989
  0
LWPOLYLINE
  5
3D3
100
AcDbEntity
  8
0
100
AcDbPolyline
 62
7
  6
CONTINUOUS
 90
2
 70
0
 43
0.0800000033
 10
67.0
 20
2.0
 10
67.0
 20
-0.0
  0
LWPOLYLINE
  5
3D4
100
AcDbEntity
  8
0
100
AcDbPolyline
 62
7
  6
CONTINUOUS
 90
2
 70
0
 43
0.0800000033
 10
67.0
 20
86.0
 10
67.0
 20
88.0
  0
LWPOLYLINE
  5
3D5
100
AcDbEntity
  8
0
100
AcDbPolyline
 62
7
  6
CONTINUOUS
 90
2
 70
0
 43
0.0800000033
 10
2.0
 20
44.0
 10
-0.0
 20
44.0
  0
LWPOLYLINE
  5
3D6
100
AcDbEntity
  8
0
100
AcDbPolyline
 62
7
  6
CONTINUOUS
 90
2
 70
0
 43
0.0800000033
 10
132.0043173838
 20
44.0054391926
 10
134.0043173838
 20
44.0054391926
  0
LWPOLYLINE
  5
3D7
100
AcDbEntity
  8
0
100
AcDbPolyline
 62
7
  6
CONTINUOUS
 90
2
 70
0
 43
0.0800000033
 10
83.25
 20
2.0
 10
83.25
 20
-0.0
  0
LWPOLYLINE
  5
3D8
100
AcDbEntity
  8
0
100
AcDbPolyline
 62
7
  6
CONTINUOUS
 90
2
 70
0
 43
0.0800000033
 10
83.25
 20
86.0
 10
83.25
 20
88.0
  0
LWPOLYLINE
  5
3D9
100
AcDbEntity
  8
0
100
AcDbPolyline
 62
7
  6
CONTINUOUS
 90
2
 70
0
 43
0.0800000033
 10
67.0
 20
2.0
 10
66.3253804427
 20
1.0498508885
  0
LWPOLYLINE
  5
3DA
100
AcDbEntity
  8
0
100
AcDbPolyline
 62
7
  6
CONTINUOUS
 90
2
 70
0
 43
0.0800000033
 10
2.0
 20
65.0
 10
0.0
 20
65.0
  0
LWPOLYLINE
  5
3DB
100
AcDbEntity
  8
0
100
AcDbPolyline
 62
7
  6
CONTINUOUS
 90
2
 70
0
 43
0.0800000033
 10
132.0
 20
65.0
 10
134.0
 20
65.0
  0
LWPOLYLINE
  5
3DC
100
AcDbEntity
  8
0
100
AcDbPolyline
 62
7
  6
CONTINUOUS
 90
2
 70
0
 43
0.0800000033
 10
67.0
 20
86.0
 10
66.3253804427
 20
86.9501491115
  0
LWPOLYLINE
  5
3DD
100
AcDbEntity
  8
0
100
AcDbPolyline
 62
7
  6
CONTINUOUS
 90
2
 70
0
 43
0.0800000033
 10
92.5
 20
2.0
 10
92.5
 20
12.25
  0
LWPOLYLINE
  5
3DE
100
AcDbEntity
  8
0
100
AcDbPolyline
 62
7
  6
CONTINUOUS
 90
2
 70
0
 43
0.0800000033
 10
99.5
 20
2.0
 10
99.5
 20
-0.0
  0
LWPOLYLINE
  5
3DF
100
AcDbEntity
  8
0
100
AcDbPolyline
 62
7
  6
CONTINUOUS
 90
2
 70
0
 43
0.0800000033
 10
99.5
 20
86.0
 10
99.5
 20
88.0
  0
LWPOLYLINE
  5
3E0
100
AcDbEntity
  8
0
100
AcDbPolyline
 62
7
  6
CONTINUOUS
 90
2
 70
0
 43
0.0800000033
 10
101.5
 20
2.0
 10
101.5
 20
12.25
  0
LWPOLYLINE
  5
3E1
100
AcDbEntity
  8
0
100
AcDbPolyline
 62
7
  6
CONTINUOUS
 90
2
 70
0
 43
0.0800000033
 10
132.0043173838
 20
44.0054391926
 10
132.9544664953
 20
44.6800587499
  0
LWPOLYLINE
  5
3E2
100
AcDbEntity
  8
0
100
AcDbPolyline
 62
7
  6
CONTINUOUS
 90
2
 70
0
 43
0.0800000033
 10
132.0043173838
 20
44.0054391926
 10
132.9544664953
 20
43.3308196353
  0
LWPOLYLINE
  5
3E3
100
AcDbEntity
  8
0
100
AcDbPolyline
 62
7
  6
CONTINUOUS
 90
2
 70
0
 43
0.120000001
 10
14.25
 20
84.0
 10
2.0
 20
84.0
  0
LWPOLYLINE
  5
3E4
100
AcDbEntity
  8
0
100
AcDbPolyline
 62
7
  6
CONTINUOUS
 90
2
 70
0
 43
0.120000001
 10
132.0
 20
86.0
 10
2.0
 20
86.0
  0
LWPOLYLINE
  5
3E5
100
AcDbEntity
  8
0
100
AcDbPolyline
 62
7
  6
CONTINUOUS
 90
2
 70
0
 43
0.0800000033
 10
66.3253804427
 20
86.9501491115
 10
67.6746195573
 20
86.9501491115
  0
LWPOLYLINE
  5
3E6
100
AcDbEntity
  8
0
100
AcDbPolyline
 62
7
  6
CONTINUOUS
 90
2
 70
0
 43
0.0800000033
 10
112.0
 20
2.0
 10
112.0
 20
12.25
  0
LWPOLYLINE
  5
3E7
100
AcDbEntity
  8
0
100
AcDbPolyline
 62
7
  6
CONTINUOUS
 90
2
 70
0
 43
0.0800000033
 10
114.0
 20
3.0
 10
114.0
 20
5.0
  0
LWPOLYLINE
  5
3E8
100
AcDbEntity
  8
0
100
AcDbPolyline
 62
7
  6
CONTINUOUS
 90
2
 70
0
 43
0.0800000033
 10
115.75
 20
2.0
 10
115.75
 20
-0.0
  0
LWPOLYLINE
  5
3E9
100
AcDbEntity
  8
0
100
AcDbPolyline
 62
7
  6
CONTINUOUS
 90
2
 70
0
 43
0.0800000033
 10
115.75
 20
86.0
 10
115.75
 20
88.0
  0
LINE
  5
3EA
100
AcDbEntity
  8
0
100
AcDbLine
 62
7
  6
CONTINUOUS
 10
101.5046516554
 20
12.2087884372
 11
92.5443466341
 21
6.9756691181
  0
LINE
  5
3EB
100
AcDbEntity
  8
DEFAULT_3
100
AcDbLine
 62
7
  6
PHANTOM
 10
0.0
 20
88.0
 11
136.0
 21
88.0
  0
LWPOLYLINE
  5
3EC
100
AcDbEntity
  8
0
100
AcDbPolyline
 62
7
  6
CONTINUOUS
 90
2
 70
0
 43
0.0800000033
 10
116.7345158662
 20
2.0190006222
 10
116.7345158662
 20
3.0190006222
  0
LWPOLYLINE
  5
3ED
100
AcDbEntity
  8
0
100
AcDbPolyline
 62
7
  6
CONTINUOUS
 90
2
 70
0
 43
0.0800000033
 10
118.0
 20
3.0
 10
118.0
 20
5.0
  0
LWPOLYLINE
  5
3EE
100
AcDbEntity
  8
0
100
AcDbPolyline
 62
7
  6
CONTINUOUS
 90
2
 70
0
 43
0.0800000033
 10
125.5
 20
2.0
 10
125.5
 20
3.0
  0
LWPOLYLINE
  5
3EF
100
AcDbEntity
  8
0
100
AcDbPolyline
 62
7
  6
CONTINUOUS
 90
2
 70
0
 43
0.0800000033
 10
130.0
 20
3.0
 10
130.0
 20
5.0
  0
LWPOLYLINE
  5
3F0
100
AcDbEntity
  8
0
100
AcDbPolyline
 62
7
  6
CONTINUOUS
 90
2
 70
0
 43
0.120000001
 10
132.0
 20
86.0
 10
132.0
 20
2.0
  0
LWPOLYLINE
  5
3F1
100
AcDbEntity
  8
0
100
AcDbPolyline
 62
7
  6
CONTINUOUS
 90
2
 70
0
 43
0.0800000033
 10
132.9544664953
 20
43.3308196353
 10
132.9544664953
 20
44.6800587499
  0
LINE
  5
3F2
100
AcDbEntity
  8
DEFAULT_3
100
AcDbLine
 62
7
  6
PHANTOM
 10
136.0
 20
-0.0
 11
136.0
 21
88.0
  0
LINE
  5
3F3
100
AcDbEntity
  8
7_ALL_ROUNDS
100
AcDbLine
 62
7
  6
CONTINUOUS
 10
37.5331461944
 20
62.7658659696
 11
31.8547209975
 21
57.0874407728
  0
LINE
  5
3F4
100
AcDbEntity
  8
7_ALL_ROUNDS
100
AcDbLine
 62
7
  6
CONTINUOUS
 10
38.4948114168
 20
62.7658659696
 11
31.8547209975
 21
56.1257755503
  0
LINE
  5
3F5
100
AcDbEntity
  8
7_ALL_ROUNDS
100
AcDbLine
 62
7
  6
CONTINUOUS
 10
58.3436973755
 20
27.6194092767
 11
57.0940910763
 21
27.6194092767
  0
LINE
  5
3F6
100
AcDbEntity
  8
7_ALL_ROUNDS
100
AcDbLine
 62
7
  6
CONTINUOUS
 10
35.1153509188
 20
27.6194092767
 11
33.8657446196
 21
27.6194092767
  0
LINE
  5
3F7
100
AcDbEntity
  8
7_ALL_ROUNDS
100
AcDbLine
 62
7
  6
CONTINUOUS
 10
58.4688942259
 20
27.7446061271
 11
56.9688942259
 21
27.7446061271
  0
LINE
  5
3F8
100
AcDbEntity
  8
7_ALL_ROUNDS
100
AcDbLine
 62
7
  6
CONTINUOUS
 10
35.2405477692
 20
27.7446061271
 11
33.7405477692
 21
27.7446061271
  0
LINE
  5
3F9
100
AcDbEntity
  8
7_ALL_ROUNDS
100
AcDbLine
 62
7
  6
CONTINUOUS
 10
60.8547209975
 20
28.172558883
 11
31.3547209975
 21
28.172558883
  0
LINE
  5
3FA
100
AcDbEntity
  8
7_ALL_ROUNDS
100
AcDbLine
 62
7
  6
CONTINUOUS
 10
61.1047209975
 20
28.422558883
 11
31.1047209975
 21
28.422558883
  0
LINE
  5
3FB
100
AcDbEntity
  8
3_AXES_OTHER
100
AcDbLine
 62
7
  6
CONTINUOUS
 10
31.8547209975
 20
28.922558883
 11
60.3547209975
 21
28.922558883
  0
LINE
  5
3FC
100
AcDbEntity
  8
7_ALL_ROUNDS
100
AcDbLine
 62
7
  6
CONTINUOUS
 10
31.1047209975
 20
63.2658659696
 11
31.1047209975
 21
28.422558883
  0
LINE
  5
3FD
100
AcDbEntity
  8
7_ALL_ROUNDS
100
AcDbLine
 62
7
  6
CONTINUOUS
 10
31.3547209975
 20
28.172558883
 11
31.3547209975
 21
63.5158659696
  0
LINE
  5
3FE
100
AcDbEntity
  8
3_AXES_OTHER
100
AcDbLine
 62
7
  6
CONTINUOUS
 10
31.8547209975
 20
62.7658659696
 11
31.8547209975
 21
28.922558883
  0
LINE
  5
3FF
100
AcDbEntity
  8
3_ALL_AXES
100
AcDbLine
 62
7
  6
CONTINUOUS
 10
33.7405477692
 20
28.172558883
 11
33.7405477692
 21
27.7446061271
  0
LINE
  5
400
100
AcDbEntity
  8
7_ALL_ROUNDS
100
AcDbLine
 62
7
  6
CONTINUOUS
 10
33.7405477692
 20
28.172558883
 11
33.7405477692
 21
27.7446061271
  0
LINE
  5
401
100
AcDbEntity
  8
3_ALL_AXES
100
AcDbLine
 62
7
  6
CONTINUOUS
 10
35.2405477692
 20
28.172558883
 11
35.2405477692
 21
27.7446061271
  0
LINE
  5
402
100
AcDbEntity
  8
7_ALL_ROUNDS
100
AcDbLine
 62
7
  6
CONTINUOUS
 10
35.2405477692
 20
28.172558883
 11
35.2405477692
 21
27.7446061271
  0
LINE
  5
403
100
AcDbEntity
  8
3_ALL_AXES
100
AcDbLine
 62
7
  6
CENTER
 10
46.1047209975
 20
45.84106282
 11
46.1047209975
 21
45.1000920113
  0
LINE
  5
404
100
AcDbEntity
  8
3_ALL_AXES
100
AcDbLine
 62
7
  6
CENTER
 10
46.1047209975
 20
45.84106282
 11
46.1047209975
 21
46.5820336287
  0
LINE
  5
405
100
AcDbEntity
  8
3_ALL_AXES
100
AcDbLine
 62
7
  6
CENTER
 10
46.1047209975
 20
45.84106282
 11
45.3637501889
 21
45.84106282
  0
LINE
  5
406
100
AcDbEntity
  8
3_ALL_AXES
100
AcDbLine
 62
7
  6
CENTER
 10
46.1047209975
 20
45.84106282
 11
46.8456918062
 21
45.84106282
  0
LINE
  5
407
100
AcDbEntity
  8
7_ALL_ROUNDS
100
AcDbLine
 62
7
  6
CONTINUOUS
 10
61.3047209975
 20
47.1347636074
 11
61.1047209975
 21
47.1347636074
  0
LINE
  5
408
100
AcDbEntity
  8
7_ALL_ROUNDS
100
AcDbLine
 62
7
  6
CONTINUOUS
 10
61.3047209975
 20
47.3217242373
 11
61.1047209975
 21
47.3217242373
  0
LINE
  5
409
100
AcDbEntity
  8
7_ALL_ROUNDS
100
AcDbLine
 62
7
  6
CONTINUOUS
 10
61.3047209975
 20
53.9359919539
 11
61.1047209975
 21
53.9359919539
  0
LINE
  5
40A
100
AcDbEntity
  8
7_ALL_ROUNDS
100
AcDbLine
 62
7
  6
CONTINUOUS
 10
61.3047209975
 20
54.1229525838
 11
61.1047209975
 21
54.1229525838
  0
LINE
  5
40B
100
AcDbEntity
  8
3_ALL_AXES
100
AcDbLine
 62
7
  6
CONTINUOUS
 10
56.9688942259
 20
28.172558883
 11
56.9688942259
 21
27.7446061271
  0
LINE
  5
40C
100
AcDbEntity
  8
7_ALL_ROUNDS
100
AcDbLine
 62
7
  6
CONTINUOUS
 10
56.9688942259
 20
28.172558883
 11
56.9688942259
 21
27.7446061271
  0
LINE
  5
40D
100
AcDbEntity
  8
3_ALL_AXES
100
AcDbLine
 62
7
  6
CONTINUOUS
 10
58.4688942259
 20
28.172558883
 11
58.4688942259
 21
27.7446061271
  0
LINE
  5
40E
100
AcDbEntity
  8
7_ALL_ROUNDS
100
AcDbLine
 62
7
  6
CONTINUOUS
 10
58.4688942259
 20
28.172558883
 11
58.4688942259
 21
27.7446061271
  0
LINE
  5
40F
100
AcDbEntity
  8
3_AXES_OTHER
100
AcDbLine
 62
7
  6
CONTINUOUS
 10
60.3547209975
 20
28.922558883
 11
60.3547209975
 21
62.7658659696
  0
LINE
  5
410
100
AcDbEntity
  8
7_ALL_ROUNDS
100
AcDbLine
 62
7
  6
CONTINUOUS
 10
60.8547209975
 20
28.172558883
 11
60.8547209975
 21
63.5158659696
  0
LINE
  5
411
100
AcDbEntity
  8
7_ALL_ROUNDS
100
AcDbLine
 62
7
  6
CONTINUOUS
 10
61.1047209975
 20
63.2658659696
 11
61.1047209975
 21
28.422558883
  0
LINE
  5
412
100
AcDbEntity
  8
7_ALL_ROUNDS
100
AcDbLine
 62
7
  6
CONTINUOUS
 10
61.3047209975
 20
54.1229525838
 11
61.3047209975
 21
47.1347636074
  0
LINE
  5
413
100
AcDbEntity
  8
3_AXES_OTHER
100
AcDbLine
 62
7
  6
CONTINUOUS
 10
61.3097209975
 20
51.8229525838
 11
61.3097209975
 21
52.5229525838
  0
LINE
  5
414
100
AcDbEntity
  8
7_ALL_ROUNDS
100
AcDbLine
 62
7
  6
CONTINUOUS
 10
53.7146305783
 20
28.922558883
 11
60.3547209975
 21
35.5626493023
  0
LINE
  5
415
100
AcDbEntity
  8
3_AXES_OTHER
100
AcDbLine
 62
7
  6
CONTINUOUS
 10
60.3547209975
 20
62.7658659696
 11
31.8547209975
 21
62.7658659696
  0
LINE
  5
416
100
AcDbEntity
  8
7_ALL_ROUNDS
100
AcDbLine
 62
7
  6
CONTINUOUS
 10
54.6762958007
 20
28.922558883
 11
60.3547209975
 21
34.6009840798
  0
LINE
  5
417
100
AcDbEntity
  8
7_ALL_ROUNDS
100
AcDbLine
 62
7
  6
CONTINUOUS
 10
31.1047209975
 20
63.2658659696
 11
61.1047209975
 21
63.2658659696
  0
LINE
  5
418
100
AcDbEntity
  8
7_ALL_ROUNDS
100
AcDbLine
 62
7
  6
CONTINUOUS
 10
31.3547209975
 20
63.5158659696
 11
60.8547209975
 21
63.5158659696
  0
LINE
  5
419
100
AcDbEntity
  8
7_ALL_ROUNDS
100
AcDbLine
 62
7
  6
CONTINUOUS
 10
17.6461222308
 20
27.6194092767
 11
16.3966144816
 21
27.6194092767
  0
LINE
  5
41A
100
AcDbEntity
  8
7_ALL_ROUNDS
100
AcDbLine
 62
7
  6
CONTINUOUS
 10
10.3232875851
 20
27.6194092767
 11
9.0737798359
 21
27.6194092767
  0
LINE
  5
41B
100
AcDbEntity
  8
7_ALL_ROUNDS
100
AcDbLine
 62
7
  6
CONTINUOUS
 10
17.7714176312
 20
27.7446061271
 11
16.2714176312
 21
27.7446061271
  0
LINE
  5
41C
100
AcDbEntity
  8
7_ALL_ROUNDS
100
AcDbLine
 62
7
  6
CONTINUOUS
 10
10.4485829855
 20
27.7446061271
 11
8.9485829855
 21
27.7446061271
  0
LINE
  5
41D
100
AcDbEntity
  8
7_ALL_ROUNDS
100
AcDbLine
 62
7
  6
CONTINUOUS
 10
18.9525199934
 20
28.172558883
 11
7.7596066076
 21
28.172558883
  0
LINE
  5
41E
100
AcDbEntity
  8
7_ALL_ROUNDS
100
AcDbLine
 62
7
  6
CONTINUOUS
 10
19.2025199934
 20
28.422558883
 11
7.5096066076
 21
28.422558883
  0
LINE
  5
41F
100
AcDbEntity
  8
7_ALL_ROUNDS
100
AcDbLine
 62
7
  6
CONTINUOUS
 10
7.5096066076
 20
63.2658659696
 11
7.5096066076
 21
28.422558883
  0
LINE
  5
420
100
AcDbEntity
  8
7_ALL_ROUNDS
100
AcDbLine
 62
7
  6
CONTINUOUS
 10
7.7596066076
 20
28.172558883
 11
7.7596066076
 21
63.5158659696
  0
LINE
  5
421
100
AcDbEntity
  8
3_ALL_AXES
100
AcDbLine
 62
7
  6
CONTINUOUS
 10
8.9485829855
 20
28.172558883
 11
8.9485829855
 21
27.7446061271
  0
LINE
  5
422
100
AcDbEntity
  8
3_ALL_AXES
100
AcDbLine
 62
7
  6
CONTINUOUS
 10
10.4485829855
 20
28.172558883
 11
10.4485829855
 21
27.7446061271
  0
LINE
  5
423
100
AcDbEntity
  8
3_ALL_AXES
100
AcDbLine
 62
7
  6
CENTER
 10
13.0214176312
 20
45.8442124263
 11
13.0214176312
 21
45.245871829
  0
LINE
  5
424
100
AcDbEntity
  8
3_ALL_AXES
100
AcDbLine
 62
7
  6
CENTER
 10
13.0214176312
 20
45.8442124263
 11
13.0214176312
 21
46.4425530237
  0
LINE
  5
425
100
AcDbEntity
  8
3_ALL_AXES
100
AcDbLine
 62
7
  6
CENTER
 10
13.0214176312
 20
45.8442124263
 11
12.4230770338
 21
45.8442124263
  0
LINE
  5
426
100
AcDbEntity
  8
3_ALL_AXES
100
AcDbLine
 62
7
  6
CENTER
 10
13.0214176312
 20
45.8442124263
 11
13.6197582286
 21
45.8442124263
  0
LINE
  5
427
100
AcDbEntity
  8
3_ALL_AXES
100
AcDbLine
 62
7
  6
CONTINUOUS
 10
16.2714176312
 20
28.172558883
 11
16.2714176312
 21
27.7446061271
  0
LINE
  5
428
100
AcDbEntity
  8
3_ALL_AXES
100
AcDbLine
 62
7
  6
CONTINUOUS
 10
17.7714176312
 20
28.172558883
 11
17.7714176312
 21
27.7446061271
  0
LINE
  5
429
100
AcDbEntity
  8
7_ALL_ROUNDS
100
AcDbLine
 62
7
  6
CONTINUOUS
 10
18.9525199934
 20
28.172558883
 11
18.9525199934
 21
63.5158659696
  0
LINE
  5
42A
100
AcDbEntity
  8
7_ALL_ROUNDS
100
AcDbLine
 62
7
  6
CONTINUOUS
 10
19.2025199934
 20
63.2658659696
 11
19.2025199934
 21
28.422558883
  0
LINE
  5
42B
100
AcDbEntity
  8
7_ALL_ROUNDS
100
AcDbLine
 62
7
  6
CONTINUOUS
 10
7.5096066076
 20
63.2658659696
 11
19.2025199934
 21
63.2658659696
  0
LINE
  5
42C
100
AcDbEntity
  8
7_ALL_ROUNDS
100
AcDbLine
 62
7
  6
CONTINUOUS
 10
7.7596066076
 20
63.5158659696
 11
18.9525199934
 21
63.5158659696
  0
LINE
  5
42D
100
AcDbEntity
  8
7_ALL_ROUNDS
100
AcDbLine
 62
7
  6
CONTINUOUS
 10
84.274464348
 20
27.6194092767
 11
83.0249565989
 21
27.6194092767
  0
LINE
  5
42E
100
AcDbEntity
  8
7_ALL_ROUNDS
100
AcDbLine
 62
7
  6
CONTINUOUS
 10
76.9516297023
 20
27.6194092767
 11
75.7021219532
 21
27.6194092767
  0
LINE
  5
42F
100
AcDbEntity
  8
7_ALL_ROUNDS
100
AcDbLine
 62
7
  6
CONTINUOUS
 10
84.3997597485
 20
27.7446061271
 11
82.8997597485
 21
27.7446061271
  0
LINE
  5
430
100
AcDbEntity
  8
7_ALL_ROUNDS
100
AcDbLine
 62
7
  6
CONTINUOUS
 10
77.0769251028
 20
27.7446061271
 11
75.5769251028
 21
27.7446061271
  0
LINE
  5
431
100
AcDbEntity
  8
7_ALL_ROUNDS
100
AcDbLine
 62
7
  6
CONTINUOUS
 10
85.5887361264
 20
28.172558883
 11
74.3958227406
 21
28.172558883
  0
LINE
  5
432
100
AcDbEntity
  8
7_ALL_ROUNDS
100
AcDbLine
 62
7
  6
CONTINUOUS
 10
85.8387361264
 20
28.422558883
 11
74.1458227406
 21
28.422558883
  0
LINE
  5
433
100
AcDbEntity
  8
7_ALL_ROUNDS
100
AcDbLine
 62
7
  6
CONTINUOUS
 10
74.1458227406
 20
63.2658659696
 11
74.1458227406
 21
28.422558883
  0
LINE
  5
434
100
AcDbEntity
  8
7_ALL_ROUNDS
100
AcDbLine
 62
7
  6
CONTINUOUS
 10
74.3958227406
 20
28.172558883
 11
74.3958227406
 21
63.5158659696
  0
LINE
  5
435
100
AcDbEntity
  8
3_ALL_AXES
100
AcDbLine
 62
7
  6
CONTINUOUS
 10
75.5769251028
 20
28.172558883
 11
75.5769251028
 21
27.7446061271
  0
LINE
  5
436
100
AcDbEntity
  8
3_ALL_AXES
100
AcDbLine
 62
7
  6
CONTINUOUS
 10
77.0769251028
 20
28.172558883
 11
77.0769251028
 21
27.7446061271
  0
LINE
  5
437
100
AcDbEntity
  8
7_ALL_ROUNDS
100
AcDbLine
 62
7
  6
CONTINUOUS
 10
79.3487361264
 20
53.9359919539
 11
79.3487361264
 21
47.3217242373
  0
LINE
  5
438
100
AcDbEntity
  8
7_ALL_ROUNDS
100
AcDbLine
 62
7
  6
CONTINUOUS
 10
80.0387361264
 20
53.2454525838
 11
80.0387361264
 21
48.0122636074
  0
LINE
  5
439
100
AcDbEntity
  8
3_AXES_OTHER
100
AcDbLine
 62
7
  6
CONTINUOUS
 10
80.2437361264
 20
51.8229525838
 11
80.2437361264
 21
52.5229525838
  0
LINE
  5
43A
100
AcDbEntity
  8
3_AXES_OTHER
100
AcDbLine
 62
7
  6
CONTINUOUS
 10
80.3687361264
 20
51.8229525838
 11
80.3687361264
 21
52.5229525838
  0
LINE
  5
43B
100
AcDbEntity
  8
3_AXES_OTHER
100
AcDbLine
 62
7
  6
CONTINUOUS
 10
80.7437361264
 20
51.8229525838
 11
80.7437361264
 21
52.5229525838
  0
LINE
  5
43C
100
AcDbEntity
  8
3_AXES_OTHER
100
AcDbLine
 62
7
  6
CONTINUOUS
 10
80.8687361264
 20
51.8229525838
 11
80.8687361264
 21
52.5229525838
  0
LINE
  5
43D
100
AcDbEntity
  8
3_AXES_OTHER
100
AcDbLine
 62
7
  6
CONTINUOUS
 10
81.2437361264
 20
51.8229525838
 11
81.2437361264
 21
52.5229525838
  0
LINE
  5
43E
100
AcDbEntity
  8
3_AXES_OTHER
100
AcDbLine
 62
7
  6
CONTINUOUS
 10
81.3687361264
 20
51.8229525838
 11
81.3687361264
 21
52.5229525838
  0
LINE
  5
43F
100
AcDbEntity
  8
3_AXES_OTHER
100
AcDbLine
 62
7
  6
CONTINUOUS
 10
81.7762361264
 20
51.8229525838
 11
81.7762361264
 21
52.5229525838
  0
LINE
  5
440
100
AcDbEntity
  8
3_AXES_OTHER
100
AcDbLine
 62
7
  6
CONTINUOUS
 10
81.9012361264
 20
51.8229525838
 11
81.9012361264
 21
52.5229525838
  0
LINE
  5
441
100
AcDbEntity
  8
3_AXES_OTHER
100
AcDbLine
 62
7
  6
CONTINUOUS
 10
82.3087361264
 20
51.8229525838
 11
82.3087361264
 21
52.5229525838
  0
LINE
  5
442
100
AcDbEntity
  8
3_AXES_OTHER
100
AcDbLine
 62
7
  6
CONTINUOUS
 10
82.4337361264
 20
51.8229525838
 11
82.4337361264
 21
52.5229525838
  0
LINE
  5
443
100
AcDbEntity
  8
7_ALL_ROUNDS
100
AcDbLine
 62
7
  6
CONTINUOUS
 10
79.5356967563
 20
47.1347636074
 11
84.1417754965
 21
47.1347636074
  0
LINE
  5
444
100
AcDbEntity
  8
7_ALL_ROUNDS
100
AcDbLine
 62
7
  6
CONTINUOUS
 10
80.2262361264
 20
47.8247636074
 11
83.4512361264
 21
47.8247636074
  0
LINE
  5
445
100
AcDbEntity
  8
3_AXES_OTHER
100
AcDbLine
 62
7
  6
CONTINUOUS
 10
82.8087361264
 20
51.8229525838
 11
82.8087361264
 21
52.5229525838
  0
LINE
  5
446
100
AcDbEntity
  8
3_ALL_AXES
100
AcDbLine
 62
7
  6
CONTINUOUS
 10
82.8997597485
 20
28.172558883
 11
82.8997597485
 21
27.7446061271
  0
LINE
  5
447
100
AcDbEntity
  8
3_AXES_OTHER
100
AcDbLine
 62
7
  6
CONTINUOUS
 10
82.9337361264
 20
51.8229525838
 11
82.9337361264
 21
52.5229525838
  0
LINE
  5
448
100
AcDbEntity
  8
3_AXES_OTHER
100
AcDbLine
 62
7
  6
CONTINUOUS
 10
83.3087361264
 20
51.8229525838
 11
83.3087361264
 21
52.5229525838
  0
LINE
  5
449
100
AcDbEntity
  8
3_AXES_OTHER
100
AcDbLine
 62
7
  6
CONTINUOUS
 10
83.4337361264
 20
51.8229525838
 11
83.4337361264
 21
52.5229525838
  0
LINE
  5
44A
100
AcDbEntity
  8
7_ALL_ROUNDS
100
AcDbLine
 62
7
  6
CONTINUOUS
 10
83.6387361264
 20
48.0122636074
 11
83.6387361264
 21
53.2454525838
  0
LINE
  5
44B
100
AcDbEntity
  8
7_ALL_ROUNDS
100
AcDbLine
 62
7
  6
CONTINUOUS
 10
84.3287361264
 20
47.3217242373
 11
84.3287361264
 21
53.9359919539
  0
LINE
  5
44C
100
AcDbEntity
  8
3_ALL_AXES
100
AcDbLine
 62
7
  6
CONTINUOUS
 10
84.3997597485
 20
28.172558883
 11
84.3997597485
 21
27.7446061271
  0
LINE
  5
44D
100
AcDbEntity
  8
7_ALL_ROUNDS
100
AcDbLine
 62
7
  6
CONTINUOUS
 10
85.5887361264
 20
28.172558883
 11
85.5887361264
 21
63.5158659696
  0
LINE
  5
44E
100
AcDbEntity
  8
7_ALL_ROUNDS
100
AcDbLine
 62
7
  6
CONTINUOUS
 10
85.8387361264
 20
63.2658659696
 11
85.8387361264
 21
28.422558883
  0
LINE
  5
44F
100
AcDbEntity
  8
3_AXES_OTHER
100
AcDbLine
 62
7
  6
CONTINUOUS
 10
83.4337361264
 20
51.8229525838
 11
80.2437361264
 21
51.8229525838
  0
LINE
  5
450
100
AcDbEntity
  8
3_AXES_OTHER
100
AcDbLine
 62
7
  6
CONTINUOUS
 10
83.3087361264
 20
51.9229525838
 11
82.9337361264
 21
51.9229525838
  0
LINE
  5
451
100
AcDbEntity
  8
3_AXES_OTHER
100
AcDbLine
 62
7
  6
CONTINUOUS
 10
82.8087361264
 20
51.9229525838
 11
82.4337361264
 21
51.9229525838
  0
LINE
  5
452
100
AcDbEntity
  8
3_AXES_OTHER
100
AcDbLine
 62
7
  6
CONTINUOUS
 10
82.3087361264
 20
51.9229525838
 11
81.9012361264
 21
51.9229525838
  0
LINE
  5
453
100
AcDbEntity
  8
3_AXES_OTHER
100
AcDbLine
 62
7
  6
CONTINUOUS
 10
81.7762361264
 20
51.9229525838
 11
81.3687361264
 21
51.9229525838
  0
LINE
  5
454
100
AcDbEntity
  8
3_AXES_OTHER
100
AcDbLine
 62
7
  6
CONTINUOUS
 10
81.2437361264
 20
51.9229525838
 11
80.8687361264
 21
51.9229525838
  0
LINE
  5
455
100
AcDbEntity
  8
3_AXES_OTHER
100
AcDbLine
 62
7
  6
CONTINUOUS
 10
80.7437361264
 20
51.9229525838
 11
80.3687361264
 21
51.9229525838
  0
LINE
  5
456
100
AcDbEntity
  8
3_AXES_OTHER
100
AcDbLine
 62
7
  6
CONTINUOUS
 10
83.3087361264
 20
52.4229525838
 11
82.9337361264
 21
52.4229525838
  0
LINE
  5
457
100
AcDbEntity
  8
3_AXES_OTHER
100
AcDbLine
 62
7
  6
CONTINUOUS
 10
82.8087361264
 20
52.4229525838
 11
82.4337361264
 21
52.4229525838
  0
LINE
  5
458
100
AcDbEntity
  8
3_AXES_OTHER
100
AcDbLine
 62
7
  6
CONTINUOUS
 10
82.3087361264
 20
52.4229525838
 11
81.9012361264
 21
52.4229525838
  0
LINE
  5
459
100
AcDbEntity
  8
3_AXES_OTHER
100
AcDbLine
 62
7
  6
CONTINUOUS
 10
81.7762361264
 20
52.4229525838
 11
81.3687361264
 21
52.4229525838
  0
LINE
  5
45A
100
AcDbEntity
  8
3_AXES_OTHER
100
AcDbLine
 62
7
  6
CONTINUOUS
 10
81.2437361264
 20
52.4229525838
 11
80.8687361264
 21
52.4229525838
  0
LINE
  5
45B
100
AcDbEntity
  8
3_AXES_OTHER
100
AcDbLine
 62
7
  6
CONTINUOUS
 10
80.7437361264
 20
52.4229525838
 11
80.3687361264
 21
52.4229525838
  0
LINE
  5
45C
100
AcDbEntity
  8
3_AXES_OTHER
100
AcDbLine
 62
7
  6
CONTINUOUS
 10
83.4337361264
 20
52.5229525838
 11
80.2437361264
 21
52.5229525838
  0
LINE
  5
45D
100
AcDbEntity
  8
7_ALL_ROUNDS
100
AcDbLine
 62
7
  6
CONTINUOUS
 10
83.4512361264
 20
53.4329525838
 11
80.2262361264
 21
53.4329525838
  0
LINE
  5
45E
100
AcDbEntity
  8
7_ALL_ROUNDS
100
AcDbLine
 62
7
  6
CONTINUOUS
 10
84.1417754965
 20
54.1229525838
 11
79.5356967563
 21
54.1229525838
  0
LINE
  5
45F
100
AcDbEntity
  8
7_ALL_ROUNDS
100
AcDbLine
 62
7
  6
CONTINUOUS
 10
74.1458227406
 20
63.2658659696
 11
85.8387361264
 21
63.2658659696
  0
LINE
  5
460
100
AcDbEntity
  8
7_ALL_ROUNDS
100
AcDbLine
 62
7
  6
CONTINUOUS
 10
74.3958227406
 20
63.5158659696
 11
85.5887361264
 21
63.5158659696
  0
LINE
  5
461
100
AcDbEntity
  8
7_ALL_ROUNDS
100
AcDbLine
 62
7
  6
CONTINUOUS
 10
31.1047209975
 20
82.3516463481
 11
31.1047209975
 21
71.1587329623
  0
LINE
  5
462
100
AcDbEntity
  8
7_ALL_ROUNDS
100
AcDbLine
 62
7
  6
CONTINUOUS
 10
31.3547209975
 20
70.9087329623
 11
31.3547209975
 21
82.6016463481
  0
LINE
  5
463
100
AcDbEntity
  8
7_ALL_ROUNDS
100
AcDbLine
 62
7
  6
CONTINUOUS
 10
31.3547209975
 20
70.9087329623
 11
60.8547209975
 21
70.9087329623
  0
LINE
  5
464
100
AcDbEntity
  8
7_ALL_ROUNDS
100
AcDbLine
 62
7
  6
CONTINUOUS
 10
31.1047209975
 20
71.1587329623
 11
61.1047209975
 21
71.1587329623
  0
LINE
  5
465
100
AcDbEntity
  8
7_ALL_ROUNDS
100
AcDbLine
 62
7
  6
CONTINUOUS
 10
61.3047209975
 20
76.1116463481
 11
61.1047209975
 21
76.1116463481
  0
LINE
  5
466
100
AcDbEntity
  8
7_ALL_ROUNDS
100
AcDbLine
 62
7
  6
CONTINUOUS
 10
61.3047209975
 20
76.298606978
 11
61.1047209975
 21
76.298606978
  0
LINE
  5
467
100
AcDbEntity
  8
7_ALL_ROUNDS
100
AcDbLine
 62
7
  6
CONTINUOUS
 10
61.3047209975
 20
80.9046857182
 11
61.1047209975
 21
80.9046857182
  0
LINE
  5
468
100
AcDbEntity
  8
7_ALL_ROUNDS
100
AcDbLine
 62
7
  6
CONTINUOUS
 10
61.3047209975
 20
81.0916463481
 11
61.1047209975
 21
81.0916463481
  0
LINE
  5
469
100
AcDbEntity
  8
7_ALL_ROUNDS
100
AcDbLine
 62
7
  6
CONTINUOUS
 10
31.1047209975
 20
82.3516463481
 11
61.1047209975
 21
82.3516463481
  0
LINE
  5
46A
100
AcDbEntity
  8
7_ALL_ROUNDS
100
AcDbLine
 62
7
  6
CONTINUOUS
 10
60.8547209975
 20
82.6016463481
 11
31.3547209975
 21
82.6016463481
  0
LINE
  5
46B
100
AcDbEntity
  8
7_ALL_ROUNDS
100
AcDbLine
 62
7
  6
CONTINUOUS
 10
60.8547209975
 20
70.9087329623
 11
60.8547209975
 21
82.6016463481
  0
LINE
  5
46C
100
AcDbEntity
  8
7_ALL_ROUNDS
100
AcDbLine
 62
7
  6
CONTINUOUS
 10
61.1047209975
 20
71.1587329623
 11
61.1047209975
 21
82.3516463481
  0
LINE
  5
46D
100
AcDbEntity
  8
7_ALL_ROUNDS
100
AcDbLine
 62
7
  6
CONTINUOUS
 10
61.3047209975
 20
81.0916463481
 11
61.3047209975
 21
76.1116463481
  0
LINE
  5
46E
100
AcDbEntity
  8
3_AXES_OTHER
100
AcDbLine
 62
7
  6
CONTINUOUS
 10
61.3097209975
 20
80.1966463481
 11
61.3097209975
 21
80.0716463481
  0
LINE
  5
46F
100
AcDbEntity
  8
3_AXES_OTHER
100
AcDbLine
 62
7
  6
CONTINUOUS
 10
61.3097209975
 20
79.6966463481
 11
61.3097209975
 21
79.5716463481
  0
LINE
  5
470
100
AcDbEntity
  8
3_AXES_OTHER
100
AcDbLine
 62
7
  6
CONTINUOUS
 10
61.3097209975
 20
79.1966463481
 11
61.3097209975
 21
79.0716463481
  0
LINE
  5
471
100
AcDbEntity
  8
3_AXES_OTHER
100
AcDbLine
 62
7
  6
CONTINUOUS
 10
61.3097209975
 20
78.6641463481
 11
61.3097209975
 21
78.5391463481
  0
LINE
  5
472
100
AcDbEntity
  8
3_AXES_OTHER
100
AcDbLine
 62
7
  6
CONTINUOUS
 10
61.3097209975
 20
78.1316463481
 11
61.3097209975
 21
78.0066463481
  0
LINE
  5
473
100
AcDbEntity
  8
3_AXES_OTHER
100
AcDbLine
 62
7
  6
CONTINUOUS
 10
61.3097209975
 20
77.6316463481
 11
61.3097209975
 21
77.5066463481
  0
LINE
  5
474
100
AcDbEntity
  8
3_AXES_OTHER
100
AcDbLine
 62
7
  6
CONTINUOUS
 10
61.3097209975
 20
77.1316463481
 11
61.3097209975
 21
77.0066463481
  0
LINE
  5
475
100
AcDbEntity
  8
7_ALL_ROUNDS
100
AcDbLine
 62
7
  6
CONTINUOUS
 10
105.9542934609
 20
71.4088248969
 11
98.0397414562
 21
66.8393834424
  0
LINE
  5
476
100
AcDbEntity
  8
7_ALL_ROUNDS
100
AcDbLine
 62
7
  6
CONTINUOUS
 10
106.0792929013
 20
71.3964438272
 11
98.1647408965
 21
66.8270023726
  0
LINE
  5
477
100
AcDbEntity
  8
7_ALL_ROUNDS
100
AcDbLine
 62
7
  6
CONTINUOUS
 10
102.3568100078
 20
63.5902677058
 11
99.5294478925
 21
61.9578427554
  0
LINE
  5
478
100
AcDbEntity
  8
7_ALL_ROUNDS
100
AcDbLine
 62
7
  6
CONTINUOUS
 10
103.0368045301
 20
63.1976815668
 11
99.048623637
 21
60.8950384206
  0
LINE
  5
479
100
AcDbEntity
  8
7_ALL_ROUNDS
100
AcDbLine
 62
7
  6
CONTINUOUS
 10
118.8994799093
 20
25.9136224776
 11
98.0397430174
 21
37.9567247359
  0
LINE
  5
47A
100
AcDbEntity
  8
7_ALL_ROUNDS
100
AcDbLine
 62
7
  6
CONTINUOUS
 10
118.8477018291
 20
26.0280690145
 11
97.9879649372
 21
38.0711712729
  0
LINE
  5
47B
100
AcDbEntity
  8
3_AXES_OTHER
100
AcDbLine
 62
7
  6
CONTINUOUS
 10
98.3415197998
 20
38.2753021042
 11
118.4941469665
 21
26.6404406003
  0
LINE
  5
47C
100
AcDbEntity
  8
7_ALL_ROUNDS
100
AcDbLine
 62
7
  6
CONTINUOUS
 10
97.9147408965
 20
66.6228767683
 11
97.9147408965
 21
38.1732323113
  0
LINE
  5
47D
100
AcDbEntity
  8
7_ALL_ROUNDS
100
AcDbLine
 62
7
  6
CONTINUOUS
 10
97.9879649372
 20
66.5208157299
 11
97.9879649372
 21
38.0711712729
  0
LINE
  5
47E
100
AcDbEntity
  8
7_ALL_ROUNDS
100
AcDbLine
 62
7
  6
CONTINUOUS
 10
99.048623637
 20
38.683546258
 11
114.5059782924
 21
29.759440277
  0
LINE
  5
47F
100
AcDbEntity
  8
3_AXES_OTHER
100
AcDbLine
 62
7
  6
CONTINUOUS
 10
98.3415197998
 20
65.908444144
 11
98.3415197998
 21
38.2753021042
  0
LINE
  5
480
100
AcDbEntity
  8
7_ALL_ROUNDS
100
AcDbLine
 62
7
  6
CONTINUOUS
 10
99.048623637
 20
60.8950384206
 11
99.048623637
 21
38.683546258
  0
LINE
  5
481
100
AcDbEntity
  8
3_AXES_OTHER
100
AcDbLine
 62
7
  6
CONTINUOUS
 10
104.6749571425
 20
54.3877524606
 11
104.3567604157
 21
54.2040425913
  0
LINE
  5
482
100
AcDbEntity
  8
7_ALL_ROUNDS
100
AcDbLine
 62
7
  6
CONTINUOUS
 10
119.0244777884
 20
54.7839001143
 11
126.9390297931
 21
59.3533415688
  0
LINE
  5
483
100
AcDbEntity
  8
7_ALL_ROUNDS
100
AcDbLine
 62
7
  6
CONTINUOUS
 10
119.2012552197
 20
54.4777143214
 11
127.1158072244
 21
59.0471557759
  0
LINE
  5
484
100
AcDbEntity
  8
3_AXES_OTHER
100
AcDbLine
 62
7
  6
CONTINUOUS
 10
98.3415197998
 20
38.2753021042
 11
99.048623637
 21
38.683546258
  0
LINE
  5
485
100
AcDbEntity
  8
7_ALL_ROUNDS
100
AcDbLine
 62
7
  6
CONTINUOUS
 10
122.8836230752
 20
43.3140458548
 11
122.7422011301
 21
43.3956940057
  0
LINE
  5
486
100
AcDbEntity
  8
7_ALL_ROUNDS
100
AcDbLine
 62
7
  6
CONTINUOUS
 10
122.8449012252
 20
43.3996338414
 11
122.7034792802
 21
43.4812819923
  0
LINE
  5
487
100
AcDbEntity
  8
7_ALL_ROUNDS
100
AcDbLine
 62
7
  6
CONTINUOUS
 10
123.4653848424
 20
44.168600948
 11
123.3328011754
 21
44.2451464321
  0
LINE
  5
488
100
AcDbEntity
  8
7_ALL_ROUNDS
100
AcDbLine
 62
7
  6
CONTINUOUS
 10
125.7457947174
 20
45.4851883442
 11
125.1624291941
 21
45.8219869667
  0
LINE
  5
489
100
AcDbEntity
  8
7_ALL_ROUNDS
100
AcDbLine
 62
7
  6
CONTINUOUS
 10
126.0926558107
 20
50.9912316787
 11
122.835679859
 21
49.1108269608
  0
LINE
  5
48A
100
AcDbEntity
  8
7_ALL_ROUNDS
100
AcDbLine
 62
7
  6
CONTINUOUS
 10
126.2340777557
 20
50.9095835278
 11
122.977101804
 21
49.0291788099
  0
LINE
  5
48B
100
AcDbEntity
  8
7_ALL_ROUNDS
100
AcDbLine
 62
7
  6
CONTINUOUS
 10
125.7457947174
 20
50.0642881991
 11
123.4653848424
 21
48.7477008029
  0
LINE
  5
48C
100
AcDbEntity
  8
3_AXES_OTHER
100
AcDbLine
 62
7
  6
CONTINUOUS
 10
125.150054877
 20
49.6509253493
 11
123.3574153576
 21
48.6159506182
  0
LINE
  5
48D
100
AcDbEntity
  8
3_AXES_OTHER
100
AcDbLine
 62
7
  6
CONTINUOUS
 10
125.1854110992
 20
49.5284526981
 11
124.9202471603
 21
49.3753611404
  0
LINE
  5
48E
100
AcDbEntity
  8
3_AXES_OTHER
100
AcDbLine
 62
7
  6
CONTINUOUS
 10
124.8318591806
 20
49.3243306211
 11
124.5666952417
 21
49.1712390634
  0
LINE
  5
48F
100
AcDbEntity
  8
3_AXES_OTHER
100
AcDbLine
 62
7
  6
CONTINUOUS
 10
124.478307262
 20
49.1202085442
 11
124.1901624484
 21
48.9538490515
  0
LINE
  5
490
100
AcDbEntity
  8
3_AXES_OTHER
100
AcDbLine
 62
7
  6
CONTINUOUS
 10
124.1017744687
 20
48.9028185323
 11
123.813629655
 21
48.7364590396
  0
LINE
  5
491
100
AcDbEntity
  8
3_AXES_OTHER
100
AcDbLine
 62
7
  6
CONTINUOUS
 10
123.7252416754
 20
48.6854285203
 11
123.4600777364
 21
48.5323369626
  0
LINE
  5
492
100
AcDbEntity
  8
3_AXES_OTHER
100
AcDbLine
 62
7
  6
CONTINUOUS
 10
123.3716897568
 20
48.4813064434
 11
123.3328028729
 21
48.4588552245
  0
LINE
  5
493
100
AcDbEntity
  8
3_AXES_OTHER
100
AcDbLine
 62
7
  6
CONTINUOUS
 10
125.1854110992
 20
49.4468024564
 11
124.9909593547
 21
49.3345363595
  0
LINE
  5
494
100
AcDbEntity
  8
3_AXES_OTHER
100
AcDbLine
 62
7
  6
CONTINUOUS
 10
124.8318591806
 20
49.2426803794
 11
124.6374074361
 21
49.1304142825
  0
LINE
  5
495
100
AcDbEntity
  8
3_AXES_OTHER
100
AcDbLine
 62
7
  6
CONTINUOUS
 10
124.478307262
 20
49.0385583025
 11
124.2608746428
 21
48.9130242706
  0
LINE
  5
496
100
AcDbEntity
  8
3_AXES_OTHER
100
AcDbLine
 62
7
  6
CONTINUOUS
 10
124.1017744687
 20
48.8211682906
 11
123.8843418495
 21
48.6956342586
  0
LINE
  5
497
100
AcDbEntity
  8
3_AXES_OTHER
100
AcDbLine
 62
7
  6
CONTINUOUS
 10
123.7252416754
 20
48.6037782786
 11
123.5307899309
 21
48.4915121817
  0
LINE
  5
498
100
AcDbEntity
  8
3_AXES_OTHER
100
AcDbLine
 62
7
  6
CONTINUOUS
 10
123.3716897568
 20
48.3996562017
 11
123.3328028729
 21
48.3772049828
  0
LINE
  5
499
100
AcDbEntity
  8
7_ALL_ROUNDS
100
AcDbLine
 62
7
  6
CONTINUOUS
 10
125.8783766869
 20
45.7148283263
 11
125.2950111636
 21
46.0516269488
  0
LINE
  5
49A
100
AcDbEntity
  8
3_AXES_OTHER
100
AcDbLine
 62
7
  6
CONTINUOUS
 10
123.4812947081
 20
47.4382349803
 11
123.3328028729
 21
47.5239648418
  0
LINE
  5
49B
100
AcDbEntity
  8
3_AXES_OTHER
100
AcDbLine
 62
7
  6
CONTINUOUS
 10
123.8348466267
 20
47.6423570572
 11
123.5696826878
 21
47.7954460654
  0
LINE
  5
49C
100
AcDbEntity
  8
3_AXES_OTHER
100
AcDbLine
 62
7
  6
CONTINUOUS
 10
123.4812947081
 20
48.0097866722
 11
123.3328028729
 21
48.0955165338
  0
LINE
  5
49D
100
AcDbEntity
  8
3_AXES_OTHER
100
AcDbLine
 62
7
  6
CONTINUOUS
 10
123.3328028729
 20
48.1975767225
 11
123.5696826878
 21
48.0608171915
  0
LINE
  5
49E
100
AcDbEntity
  8
3_AXES_OTHER
100
AcDbLine
 62
7
  6
CONTINUOUS
 10
124.1883985454
 20
47.8464791341
 11
123.9232346064
 21
47.9995681423
  0
LINE
  5
49F
100
AcDbEntity
  8
3_AXES_OTHER
100
AcDbLine
 62
7
  6
CONTINUOUS
 10
123.5449316394
 20
48.2996372168
 11
123.3716897568
 21
48.3996562017
  0
LINE
  5
4A0
100
AcDbEntity
  8
3_AXES_OTHER
100
AcDbLine
 62
7
  6
CONTINUOUS
 10
123.8348466267
 20
48.2139087492
 11
123.3716897568
 21
48.4813064434
  0
LINE
  5
4A1
100
AcDbEntity
  8
7_ALL_ROUNDS
100
AcDbLine
 62
7
  6
CONTINUOUS
 10
122.8449012252
 20
48.8001994195
 11
122.7034792802
 21
48.8818475704
  0
LINE
  5
4A2
100
AcDbEntity
  8
3_AXES_OTHER
100
AcDbLine
 62
7
  6
CONTINUOUS
 10
123.4600777364
 20
48.5323369626
 11
123.9232346064
 21
48.2649392684
  0
LINE
  5
4A3
100
AcDbEntity
  8
3_ALL_AXES
100
AcDbLine
 62
7
  6
CONTINUOUS
 10
123.8334004433
 20
48.3400020014
 11
123.9323958048
 21
48.2828482957
  0
LINE
  5
4A4
100
AcDbEntity
  8
3_AXES_OTHER
100
AcDbLine
 62
7
  6
CONTINUOUS
 10
124.5649313387
 20
48.0638691461
 11
124.276786525
 21
48.2302258683
  0
LINE
  5
4A5
100
AcDbEntity
  8
7_ALL_ROUNDS
100
AcDbLine
 62
7
  6
CONTINUOUS
 10
122.977101804
 20
49.0291788099
 11
122.835679859
 21
49.1108269608
  0
LINE
  5
4A6
100
AcDbEntity
  8
3_AXES_OTHER
100
AcDbLine
 62
7
  6
CONTINUOUS
 10
123.898483558
 20
48.5037592938
 11
123.7252416754
 21
48.6037782786
  0
LINE
  5
4A7
100
AcDbEntity
  8
3_AXES_OTHER
100
AcDbLine
 62
7
  6
CONTINUOUS
 10
124.1883985454
 20
48.4180308261
 11
123.7252416754
 21
48.6854285203
  0
LINE
  5
4A8
100
AcDbEntity
  8
3_AXES_OTHER
100
AcDbLine
 62
7
  6
CONTINUOUS
 10
118.4941469665
 20
26.6404406003
 11
118.4941469665
 21
54.2735826402
  0
LINE
  5
4A9
100
AcDbEntity
  8
7_ALL_ROUNDS
100
AcDbLine
 62
7
  6
CONTINUOUS
 10
118.8477018291
 20
54.4777134715
 11
118.8477018291
 21
26.0280690145
  0
LINE
  5
4AA
100
AcDbEntity
  8
7_ALL_ROUNDS
100
AcDbLine
 62
7
  6
CONTINUOUS
 10
119.2012552197
 20
54.4777143214
 11
119.2012552197
 21
26.0280698643
  0
LINE
  5
4AB
100
AcDbEntity
  8
3_AXES_OTHER
100
AcDbLine
 62
7
  6
CONTINUOUS
 10
125.3586529819
 20
49.3467834715
 11
125.1642012374
 21
49.2345173746
  0
LINE
  5
4AC
100
AcDbEntity
  8
3_AXES_OTHER
100
AcDbLine
 62
7
  6
CONTINUOUS
 10
125.0051010633
 20
49.1426613946
 11
124.8106493188
 21
49.0303952977
  0
LINE
  5
4AD
100
AcDbEntity
  8
3_AXES_OTHER
100
AcDbLine
 62
7
  6
CONTINUOUS
 10
124.6515491447
 20
48.9385393176
 11
124.4341165254
 21
48.8130052857
  0
LINE
  5
4AE
100
AcDbEntity
  8
3_AXES_OTHER
100
AcDbLine
 62
7
  6
CONTINUOUS
 10
124.2750163514
 20
48.7211493057
 11
124.0575837321
 21
48.5956152738
  0
LINE
  5
4AF
100
AcDbEntity
  8
3_AXES_OTHER
100
AcDbLine
 62
7
  6
CONTINUOUS
 10
123.898483558
 20
48.5037592938
 11
123.7040318135
 21
48.3914931969
  0
LINE
  5
4B0
100
AcDbEntity
  8
3_AXES_OTHER
100
AcDbLine
 62
7
  6
CONTINUOUS
 10
123.5449316394
 20
48.2996372168
 11
123.3504798949
 21
48.1873711199
  0
LINE
  5
4B1
100
AcDbEntity
  8
3_AXES_OTHER
100
AcDbLine
 62
7
  6
CONTINUOUS
 10
125.7369559489
 20
49.3120855231
 11
125.6485679692
 21
49.2610550039
  0
LINE
  5
4B2
100
AcDbEntity
  8
3_AXES_OTHER
100
AcDbLine
 62
7
  6
CONTINUOUS
 10
125.3834040302
 20
49.1079634462
 11
125.2950160506
 21
49.0569329269
  0
LINE
  5
4B3
100
AcDbEntity
  8
3_AXES_OTHER
100
AcDbLine
 62
7
  6
CONTINUOUS
 10
125.0298521116
 20
48.9038413692
 11
124.941464132
 21
48.85281085
  0
LINE
  5
4B4
100
AcDbEntity
  8
3_AXES_OTHER
100
AcDbLine
 62
7
  6
CONTINUOUS
 10
124.6533193183
 20
48.6864513573
 11
124.5649313387
 21
48.6354208381
  0
LINE
  5
4B5
100
AcDbEntity
  8
3_AXES_OTHER
100
AcDbLine
 62
7
  6
CONTINUOUS
 10
124.276786525
 20
48.4690613454
 11
124.1883985454
 21
48.4180308261
  0
LINE
  5
4B6
100
AcDbEntity
  8
3_AXES_OTHER
100
AcDbLine
 62
7
  6
CONTINUOUS
 10
123.9232346064
 20
48.2649392684
 11
123.8348466267
 21
48.2139087492
  0
LINE
  5
4B7
100
AcDbEntity
  8
3_AXES_OTHER
100
AcDbLine
 62
7
  6
CONTINUOUS
 10
123.5696826878
 20
48.0608171915
 11
123.4812947081
 21
48.0097866722
  0
LINE
  5
4B8
100
AcDbEntity
  8
3_AXES_OTHER
100
AcDbLine
 62
7
  6
CONTINUOUS
 10
125.7369559489
 20
48.7405338311
 11
125.6485679692
 21
48.6895033119
  0
LINE
  5
4B9
100
AcDbEntity
  8
3_AXES_OTHER
100
AcDbLine
 62
7
  6
CONTINUOUS
 10
125.3834040302
 20
48.5364117542
 11
125.2950160506
 21
48.4853812349
  0
LINE
  5
4BA
100
AcDbEntity
  8
3_AXES_OTHER
100
AcDbLine
 62
7
  6
CONTINUOUS
 10
125.0298521116
 20
48.3322896772
 11
124.941464132
 21
48.281259158
  0
LINE
  5
4BB
100
AcDbEntity
  8
3_AXES_OTHER
100
AcDbLine
 62
7
  6
CONTINUOUS
 10
124.6533193183
 20
48.1148996653
 11
124.5649313387
 21
48.0638691461
  0
LINE
  5
4BC
100
AcDbEntity
  8
3_AXES_OTHER
100
AcDbLine
 62
7
  6
CONTINUOUS
 10
124.276786525
 20
47.8975096534
 11
124.1883985454
 21
47.8464791341
  0
LINE
  5
4BD
100
AcDbEntity
  8
3_AXES_OTHER
100
AcDbLine
 62
7
  6
CONTINUOUS
 10
123.9232346064
 20
47.6933875764
 11
123.8348466267
 21
47.6423570572
  0
LINE
  5
4BE
100
AcDbEntity
  8
3_AXES_OTHER
100
AcDbLine
 62
7
  6
CONTINUOUS
 10
123.5696826878
 20
47.4892654995
 11
123.4812947081
 21
47.4382349803
  0
LINE
  5
4BF
100
AcDbEntity
  8
3_AXES_OTHER
100
AcDbLine
 62
7
  6
CONTINUOUS
 10
123.813629655
 20
48.7364590396
 11
124.276786525
 21
48.4690613454
  0
LINE
  5
4C0
100
AcDbEntity
  8
3_ALL_AXES
100
AcDbLine
 62
7
  6
CONTINUOUS
 10
124.1984427993
 20
48.5507580458
 11
124.2974381608
 21
48.4936043402
  0
LINE
  5
4C1
100
AcDbEntity
  8
3_AXES_OTHER
100
AcDbLine
 62
7
  6
CONTINUOUS
 10
124.941464132
 20
48.281259158
 11
124.6533193183
 21
48.4476158802
  0
LINE
  5
4C2
100
AcDbEntity
  8
3_AXES_OTHER
100
AcDbLine
 62
7
  6
CONTINUOUS
 10
124.2750163514
 20
48.7211493057
 11
124.1017744687
 21
48.8211682906
  0
LINE
  5
4C3
100
AcDbEntity
  8
3_AXES_OTHER
100
AcDbLine
 62
7
  6
CONTINUOUS
 10
124.5649313387
 20
48.6354208381
 11
124.1017744687
 21
48.9028185323
  0
LINE
  5
4C4
100
AcDbEntity
  8
3_AXES_OTHER
100
AcDbLine
 62
7
  6
CONTINUOUS
 10
124.1901624484
 20
48.9538490515
 11
124.6533193183
 21
48.6864513573
  0
LINE
  5
4C5
100
AcDbEntity
  8
3_ALL_AXES
100
AcDbLine
 62
7
  6
CONTINUOUS
 10
124.5749755926
 20
48.7681480577
 11
124.6739709541
 21
48.7109943521
  0
LINE
  5
4C6
100
AcDbEntity
  8
3_AXES_OTHER
100
AcDbLine
 62
7
  6
CONTINUOUS
 10
125.2950160506
 20
48.4853812349
 11
125.0298521116
 21
48.6384702431
  0
LINE
  5
4C7
100
AcDbEntity
  8
3_AXES_OTHER
100
AcDbLine
 62
7
  6
CONTINUOUS
 10
124.6515491447
 20
48.9385393176
 11
124.478307262
 21
49.0385583025
  0
LINE
  5
4C8
100
AcDbEntity
  8
3_AXES_OTHER
100
AcDbLine
 62
7
  6
CONTINUOUS
 10
124.941464132
 20
48.85281085
 11
124.478307262
 21
49.1202085442
  0
LINE
  5
4C9
100
AcDbEntity
  8
3_AXES_OTHER
100
AcDbLine
 62
7
  6
CONTINUOUS
 10
124.5666952417
 20
49.1712390634
 11
125.0298521116
 21
48.9038413692
  0
LINE
  5
4CA
100
AcDbEntity
  8
3_ALL_AXES
100
AcDbLine
 62
7
  6
CONTINUOUS
 10
124.9400040292
 20
48.9788960659
 11
125.0389993907
 21
48.9217423602
  0
LINE
  5
4CB
100
AcDbEntity
  8
3_AXES_OTHER
100
AcDbLine
 62
7
  6
CONTINUOUS
 10
125.6485679692
 20
48.6895033119
 11
125.3834040302
 21
48.8425923201
  0
LINE
  5
4CC
100
AcDbEntity
  8
3_AXES_OTHER
100
AcDbLine
 62
7
  6
CONTINUOUS
 10
125.0051010633
 20
49.1426613946
 11
124.8318591806
 21
49.2426803794
  0
LINE
  5
4CD
100
AcDbEntity
  8
3_AXES_OTHER
100
AcDbLine
 62
7
  6
CONTINUOUS
 10
125.2950160506
 20
49.0569329269
 11
124.8318591806
 21
49.3243306211
  0
LINE
  5
4CE
100
AcDbEntity
  8
3_AXES_OTHER
100
AcDbLine
 62
7
  6
CONTINUOUS
 10
124.9202471603
 20
49.3753611404
 11
125.3834040302
 21
49.1079634462
  0
LINE
  5
4CF
100
AcDbEntity
  8
3_AXES_OTHER
100
AcDbLine
 62
7
  6
CONTINUOUS
 10
125.3586529819
 20
49.3467834715
 11
125.1854110992
 21
49.4468024564
  0
LINE
  5
4D0
100
AcDbEntity
  8
3_AXES_OTHER
100
AcDbLine
 62
7
  6
CONTINUOUS
 10
125.6485679692
 20
49.2610550039
 11
125.1854110992
 21
49.5284526981
  0
LINE
  5
4D1
100
AcDbEntity
  8
3_AXES_OTHER
100
AcDbLine
 62
7
  6
CONTINUOUS
 10
125.150054877
 20
49.6509253493
 11
125.7369559489
 21
49.3120855231
  0
LINE
  5
4D2
100
AcDbEntity
  8
7_ALL_ROUNDS
100
AcDbLine
 62
7
  6
CONTINUOUS
 10
123.3328028729
 20
44.765658023
 11
125.1624291941
 21
45.8219869667
  0
LINE
  5
4D3
100
AcDbEntity
  8
3_AXES_OTHER
100
AcDbLine
 62
7
  6
CONTINUOUS
 10
113.5749172983
 20
38.9724772692
 11
113.2567205715
 21
38.7887674
  0
LINE
  5
4D4
100
AcDbEntity
  8
7_ALL_ROUNDS
100
AcDbLine
 62
7
  6
CONTINUOUS
 10
125.8783766869
 20
49.9877397748
 11
125.7457930199
 21
50.0642852589
  0
LINE
  5
4D5
100
AcDbEntity
  8
3_AXES_OTHER
100
AcDbLine
 62
7
  6
CONTINUOUS
 10
118.4941469665
 20
54.2735826402
 11
98.3415197998
 21
65.908444144
  0
LINE
  5
4D6
100
AcDbEntity
  8
7_ALL_ROUNDS
100
AcDbLine
 62
7
  6
CONTINUOUS
 10
97.9879649372
 20
66.5208157299
 11
118.8477018291
 21
54.4777134715
  0
LINE
  5
4D7
100
AcDbEntity
  8
7_ALL_ROUNDS
100
AcDbLine
 62
7
  6
CONTINUOUS
 10
98.1647408965
 20
66.8270023726
 11
119.0244777884
 21
54.7839001143
  0
LINE
  5
4D8
100
AcDbEntity
  8
7_ALL_ROUNDS
100
AcDbLine
 62
7
  6
CONTINUOUS
 10
126.2340777557
 20
50.9095835278
 11
126.0926558107
 21
50.9912316787
  0
LINE
  5
4D9
100
AcDbEntity
  8
7_ALL_ROUNDS
100
AcDbLine
 62
7
  6
CONTINUOUS
 10
126.3275564846
 20
50.9188432923
 11
126.1861345396
 21
51.0004914432
  0
LINE
  5
4DA
100
AcDbEntity
  8
7_ALL_ROUNDS
100
AcDbLine
 62
7
  6
CONTINUOUS
 10
122.7034792802
 20
48.8818475704
 11
122.7034792802
 21
43.4812819923
  0
LINE
  5
4DB
100
AcDbEntity
  8
7_ALL_ROUNDS
100
AcDbLine
 62
7
  6
CONTINUOUS
 10
122.8449012252
 20
48.8001994195
 11
122.8449012252
 21
43.3996338414
  0
LINE
  5
4DC
100
AcDbEntity
  8
7_ALL_ROUNDS
100
AcDbLine
 62
7
  6
CONTINUOUS
 10
123.3328028729
 20
48.5180608209
 11
123.3328028729
 21
44.2451493723
  0
LINE
  5
4DD
100
AcDbEntity
  8
3_AXES_OTHER
100
AcDbLine
 62
7
  6
CONTINUOUS
 10
123.3716897568
 20
48.3996562017
 11
123.3716897568
 21
48.4813064434
  0
LINE
  5
4DE
100
AcDbEntity
  8
3_AXES_OTHER
100
AcDbLine
 62
7
  6
CONTINUOUS
 10
123.4812947081
 20
47.4382349803
 11
123.4812947081
 21
48.0097866722
  0
LINE
  5
4DF
100
AcDbEntity
  8
3_AXES_OTHER
100
AcDbLine
 62
7
  6
CONTINUOUS
 10
123.5449316394
 20
48.0751068926
 11
123.5449316394
 21
48.2996372168
  0
LINE
  5
4E0
100
AcDbEntity
  8
3_AXES_OTHER
100
AcDbLine
 62
7
  6
CONTINUOUS
 10
123.5696826878
 20
47.4892654995
 11
123.5696826878
 21
48.0608171915
  0
LINE
  5
4E1
100
AcDbEntity
  8
7_ALL_ROUNDS
100
AcDbLine
 62
7
  6
CONTINUOUS
 10
123.4653848424
 20
44.168600948
 11
125.7457947174
 21
45.4851883442
  0
LINE
  5
4E2
100
AcDbEntity
  8
7_ALL_ROUNDS
100
AcDbLine
 62
7
  6
CONTINUOUS
 10
122.977101804
 20
43.3233056193
 11
126.2340777557
 21
45.2037103373
  0
LINE
  5
4E3
100
AcDbEntity
  8
3_AXES_OTHER
100
AcDbLine
 62
7
  6
CONTINUOUS
 10
123.7252416754
 20
48.6037782786
 11
123.7252416754
 21
48.6854285203
  0
LINE
  5
4E4
100
AcDbEntity
  8
3_AXES_OTHER
100
AcDbLine
 62
7
  6
CONTINUOUS
 10
123.8348466267
 20
47.6423570572
 11
123.8348466267
 21
48.2139087492
  0
LINE
  5
4E5
100
AcDbEntity
  8
3_AXES_OTHER
100
AcDbLine
 62
7
  6
CONTINUOUS
 10
123.898483558
 20
48.3024270976
 11
123.898483558
 21
48.5037592938
  0
LINE
  5
4E6
100
AcDbEntity
  8
3_AXES_OTHER
100
AcDbLine
 62
7
  6
CONTINUOUS
 10
123.9232346064
 20
47.6933875764
 11
123.9232346064
 21
48.2649392684
  0
LINE
  5
4E7
100
AcDbEntity
  8
3_AXES_OTHER
100
AcDbLine
 62
7
  6
CONTINUOUS
 10
124.1017744687
 20
48.8211682906
 11
124.1017744687
 21
48.9028185323
  0
LINE
  5
4E8
100
AcDbEntity
  8
3_AXES_OTHER
100
AcDbLine
 62
7
  6
CONTINUOUS
 10
124.1883985454
 20
47.8464791341
 11
124.1883985454
 21
48.4180308261
  0
LINE
  5
4E9
100
AcDbEntity
  8
3_AXES_OTHER
100
AcDbLine
 62
7
  6
CONTINUOUS
 10
124.2750163514
 20
48.506549285
 11
124.2750163514
 21
48.7211493057
  0
LINE
  5
4EA
100
AcDbEntity
  8
3_AXES_OTHER
100
AcDbLine
 62
7
  6
CONTINUOUS
 10
124.276786525
 20
47.8975096534
 11
124.276786525
 21
48.4690613454
  0
LINE
  5
4EB
100
AcDbEntity
  8
3_AXES_OTHER
100
AcDbLine
 62
7
  6
CONTINUOUS
 10
124.478307262
 20
49.0385583025
 11
124.478307262
 21
49.1202085442
  0
LINE
  5
4EC
100
AcDbEntity
  8
3_AXES_OTHER
100
AcDbLine
 62
7
  6
CONTINUOUS
 10
124.5649313387
 20
48.0638691461
 11
124.5649313387
 21
48.6354208381
  0
LINE
  5
4ED
100
AcDbEntity
  8
3_AXES_OTHER
100
AcDbLine
 62
7
  6
CONTINUOUS
 10
124.6515491447
 20
48.7239392969
 11
124.6515491447
 21
48.9385393176
  0
LINE
  5
4EE
100
AcDbEntity
  8
3_AXES_OTHER
100
AcDbLine
 62
7
  6
CONTINUOUS
 10
124.6533193183
 20
48.1148996653
 11
124.6533193183
 21
48.6864513573
  0
LINE
  5
4EF
100
AcDbEntity
  8
3_AXES_OTHER
100
AcDbLine
 62
7
  6
CONTINUOUS
 10
124.8318591806
 20
49.2426803794
 11
124.8318591806
 21
49.3243306211
  0
LINE
  5
4F0
100
AcDbEntity
  8
3_AXES_OTHER
100
AcDbLine
 62
7
  6
CONTINUOUS
 10
124.941464132
 20
48.281259158
 11
124.941464132
 21
48.85281085
  0
LINE
  5
4F1
100
AcDbEntity
  8
3_AXES_OTHER
100
AcDbLine
 62
7
  6
CONTINUOUS
 10
125.0051010633
 20
48.9413131259
 11
125.0051010633
 21
49.1426613946
  0
LINE
  5
4F2
100
AcDbEntity
  8
3_AXES_OTHER
100
AcDbLine
 62
7
  6
CONTINUOUS
 10
125.0298521116
 20
48.3322896772
 11
125.0298521116
 21
48.9038413692
  0
LINE
  5
4F3
100
AcDbEntity
  8
3_AXES_OTHER
100
AcDbLine
 62
7
  6
CONTINUOUS
 10
125.1854110992
 20
49.4468024564
 11
125.1854110992
 21
49.5284526981
  0
LINE
  5
4F4
100
AcDbEntity
  8
7_ALL_ROUNDS
100
AcDbLine
 62
7
  6
CONTINUOUS
 10
125.2950111636
 20
46.0516269488
 11
125.2950111636
 21
48.4853812349
  0
LINE
  5
4F5
100
AcDbEntity
  8
7_ALL_ROUNDS
100
AcDbLine
 62
7
  6
CONTINUOUS
 10
125.2950111636
 20
49.5672366915
 11
125.2950111636
 21
49.8040297466
  0
LINE
  5
4F6
100
AcDbEntity
  8
3_AXES_OTHER
100
AcDbLine
 62
7
  6
CONTINUOUS
 10
125.2950160506
 20
48.4853812349
 11
125.2950160506
 21
49.0569329269
  0
LINE
  5
4F7
100
AcDbEntity
  8
3_AXES_OTHER
100
AcDbLine
 62
7
  6
CONTINUOUS
 10
125.3586529819
 20
49.1222531473
 11
125.3586529819
 21
49.3467834715
  0
LINE
  5
4F8
100
AcDbEntity
  8
3_AXES_OTHER
100
AcDbLine
 62
7
  6
CONTINUOUS
 10
125.3834040302
 20
48.5364117542
 11
125.3834040302
 21
49.1079634462
  0
LINE
  5
4F9
100
AcDbEntity
  8
3_AXES_OTHER
100
AcDbLine
 62
7
  6
CONTINUOUS
 10
125.6485679692
 20
48.6895033119
 11
125.6485679692
 21
49.2610550039
  0
LINE
  5
4FA
100
AcDbEntity
  8
3_AXES_OTHER
100
AcDbLine
 62
7
  6
CONTINUOUS
 10
125.7369559489
 20
48.7405338311
 11
125.7369559489
 21
49.3120855231
  0
LINE
  5
4FB
100
AcDbEntity
  8
7_ALL_ROUNDS
100
AcDbLine
 62
7
  6
CONTINUOUS
 10
125.8783766869
 20
45.7148283263
 11
125.8783766869
 21
49.9877397748
  0
LINE
  5
4FC
100
AcDbEntity
  8
7_ALL_ROUNDS
100
AcDbLine
 62
7
  6
CONTINUOUS
 10
126.3662783345
 20
45.4326897277
 11
126.3662783345
 21
50.8332553058
  0
LINE
  5
4FD
100
AcDbEntity
  8
7_ALL_ROUNDS
100
AcDbLine
 62
7
  6
CONTINUOUS
 10
127.1158072244
 20
59.0471557759
 11
127.1158072244
 21
30.5975113189
  0
LINE
  5
4FE
100
AcDbEntity
  8
7_ALL_ROUNDS
100
AcDbLine
 62
7
  6
CONTINUOUS
 10
127.1890297931
 20
59.1492159645
 11
127.1890297931
 21
30.6995715075
  0
LINE
  5
4FF
100
AcDbEntity
  8
7_ALL_ROUNDS
100
AcDbLine
 62
7
  6
CONTINUOUS
 10
126.9390297931
 20
59.3533415688
 11
106.0792929013
 21
71.3964438272
  0
LINE
  5
500
100
AcDbEntity
  8
7_ALL_ROUNDS
100
AcDbLine
 62
7
  6
CONTINUOUS
 10
114.5059782924
 20
29.759440277
 11
118.4941469665
 21
32.0620763684
  0
LINE
  5
501
100
AcDbEntity
  8
7_ALL_ROUNDS
100
AcDbLine
 62
7
  6
CONTINUOUS
 10
115.6668117328
 20
29.6444553657
 11
118.4941469665
 21
31.2768647955
  0
LINE
  5
502
100
AcDbEntity
  8
7_ALL_ROUNDS
100
AcDbLine
 62
7
  6
CONTINUOUS
 10
127.0640276598
 20
59.3657235471
 11
106.2042907804
 21
71.4088257983
  0
LINE
  5
503
100
AcDbEntity
  8
7_ALL_ROUNDS
100
AcDbLine
 62
7
  6
CONTINUOUS
 10
127.1158072244
 20
30.5975113189
 11
119.2012552197
 21
26.0280698643
  0
LINE
  5
504
100
AcDbEntity
  8
7_ALL_ROUNDS
100
AcDbLine
 62
7
  6
CONTINUOUS
 10
127.0640292335
 20
30.4830648335
 11
119.1494772288
 21
25.9136233789
  0
LINE
  5
505
100
AcDbEntity
  8
7_ALL_ROUNDS
100
AcDbLine
 62
7
  6
CONTINUOUS
 10
31.1047209975
 20
21.6985112642
 11
31.1047209975
 21
10.5055978784
  0
LINE
  5
506
100
AcDbEntity
  8
7_ALL_ROUNDS
100
AcDbLine
 62
7
  6
CONTINUOUS
 10
31.3547209975
 20
10.2555978784
 11
31.3547209975
 21
21.9485112642
  0
LINE
  5
507
100
AcDbEntity
  8
3_ALL_AXES
100
AcDbLine
 62
7
  6
CENTER
 10
34.4905477692
 20
19.767408902
 11
34.4905477692
 21
18.8051740947
  0
LINE
  5
508
100
AcDbEntity
  8
3_ALL_AXES
100
AcDbLine
 62
7
  6
CENTER
 10
34.4905477692
 20
12.4445742563
 11
34.4905477692
 21
11.4548224848
  0
LINE
  5
509
100
AcDbEntity
  8
3_ALL_AXES
100
AcDbLine
 62
7
  6
CENTER
 10
34.4905477692
 20
12.4445742563
 11
34.4905477692
 21
13.4343260278
  0
LINE
  5
50A
100
AcDbEntity
  8
3_ALL_AXES
100
AcDbLine
 62
7
  6
CENTER
 10
34.4905477692
 20
19.767408902
 11
34.4905477692
 21
20.7296437093
  0
LINE
  5
50B
100
AcDbEntity
  8
7_ALL_ROUNDS
100
AcDbLine
 62
7
  6
CONTINUOUS
 10
31.3547209975
 20
10.2555978784
 11
60.8547209975
 21
10.2555978784
  0
LINE
  5
50C
100
AcDbEntity
  8
7_ALL_ROUNDS
100
AcDbLine
 62
7
  6
CONTINUOUS
 10
31.1047209975
 20
10.5055978784
 11
61.1047209975
 21
10.5055978784
  0
LINE
  5
50D
100
AcDbEntity
  8
7_ALL_ROUNDS
100
AcDbLine
 62
7
  6
CONTINUOUS
 10
61.3047209975
 20
11.7655978784
 11
61.1047209975
 21
11.7655978784
  0
LINE
  5
50E
100
AcDbEntity
  8
7_ALL_ROUNDS
100
AcDbLine
 62
7
  6
CONTINUOUS
 10
61.3047209975
 20
11.9525585083
 11
61.1047209975
 21
11.9525585083
  0
LINE
  5
50F
100
AcDbEntity
  8
3_ALL_AXES
100
AcDbLine
 62
7
  6
CENTER
 10
57.7188942259
 20
12.4445742563
 11
56.747223492
 21
12.4445742563
  0
LINE
  5
510
100
AcDbEntity
  8
3_ALL_AXES
100
AcDbLine
 62
7
  6
CENTER
 10
34.4905477692
 20
12.4445742563
 11
33.5007959977
 21
12.4445742563
  0
LINE
  5
511
100
AcDbEntity
  8
3_ALL_AXES
100
AcDbLine
 62
7
  6
CENTER
 10
34.4905477692
 20
12.4445742563
 11
35.4802995407
 21
12.4445742563
  0
LINE
  5
512
100
AcDbEntity
  8
3_ALL_AXES
100
AcDbLine
 62
7
  6
CENTER
 10
57.7188942259
 20
12.4445742563
 11
58.6905649598
 21
12.4445742563
  0
LINE
  5
513
100
AcDbEntity
  8
7_ALL_ROUNDS
100
AcDbLine
 62
7
  6
CONTINUOUS
 10
61.3047209975
 20
16.5586372485
 11
61.1047209975
 21
16.5586372485
  0
LINE
  5
514
100
AcDbEntity
  8
7_ALL_ROUNDS
100
AcDbLine
 62
7
  6
CONTINUOUS
 10
61.3047209975
 20
16.7455978784
 11
61.1047209975
 21
16.7455978784
  0
LINE
  5
515
100
AcDbEntity
  8
3_ALL_AXES
100
AcDbLine
 62
7
  6
CENTER
 10
57.7188942259
 20
19.767408902
 11
56.752124177
 21
19.767408902
  0
LINE
  5
516
100
AcDbEntity
  8
3_ALL_AXES
100
AcDbLine
 62
7
  6
CENTER
 10
34.4905477692
 20
19.767408902
 11
33.5283129619
 21
19.767408902
  0
LINE
  5
517
100
AcDbEntity
  8
3_ALL_AXES
100
AcDbLine
 62
7
  6
CENTER
 10
34.4905477692
 20
19.767408902
 11
35.4527825765
 21
19.767408902
  0
LINE
  5
518
100
AcDbEntity
  8
3_ALL_AXES
100
AcDbLine
 62
7
  6
CENTER
 10
57.7188942259
 20
19.767408902
 11
58.6856642747
 21
19.767408902
  0
LINE
  5
519
100
AcDbEntity
  8
7_ALL_ROUNDS
100
AcDbLine
 62
7
  6
CONTINUOUS
 10
31.1047209975
 20
21.6985112642
 11
61.1047209975
 21
21.6985112642
  0
LINE
  5
51A
100
AcDbEntity
  8
7_ALL_ROUNDS
100
AcDbLine
 62
7
  6
CONTINUOUS
 10
60.8547209975
 20
21.9485112642
 11
31.3547209975
 21
21.9485112642
  0
LINE
  5
51B
100
AcDbEntity
  8
3_ALL_AXES
100
AcDbLine
 62
7
  6
CENTER
 10
57.7188942259
 20
19.767408902
 11
57.7188942259
 21
18.8006388531
  0
LINE
  5
51C
100
AcDbEntity
  8
3_ALL_AXES
100
AcDbLine
 62
7
  6
CENTER
 10
57.7188942259
 20
12.4445742563
 11
57.7188942259
 21
11.4729035224
  0
LINE
  5
51D
100
AcDbEntity
  8
3_ALL_AXES
100
AcDbLine
 62
7
  6
CENTER
 10
57.7188942259
 20
12.4445742563
 11
57.7188942259
 21
13.4162449902
  0
LINE
  5
51E
100
AcDbEntity
  8
3_ALL_AXES
100
AcDbLine
 62
7
  6
CENTER
 10
57.7188942259
 20
19.767408902
 11
57.7188942259
 21
20.7341789509
  0
LINE
  5
51F
100
AcDbEntity
  8
7_ALL_ROUNDS
100
AcDbLine
 62
7
  6
CONTINUOUS
 10
60.8547209975
 20
10.2555978784
 11
60.8547209975
 21
21.9485112642
  0
LINE
  5
520
100
AcDbEntity
  8
7_ALL_ROUNDS
100
AcDbLine
 62
7
  6
CONTINUOUS
 10
61.1047209975
 20
10.5055978784
 11
61.1047209975
 21
21.6985112642
  0
LINE
  5
521
100
AcDbEntity
  8
7_ALL_ROUNDS
100
AcDbLine
 62
7
  6
CONTINUOUS
 10
61.3047209975
 20
16.7455978784
 11
61.3047209975
 21
11.7655978784
  0
LINE
  5
522
100
AcDbEntity
  8
3_AXES_OTHER
100
AcDbLine
 62
7
  6
CONTINUOUS
 10
61.3097209975
 20
12.6605978784
 11
61.3097209975
 21
12.7855978784
  0
LINE
  5
523
100
AcDbEntity
  8
3_AXES_OTHER
100
AcDbLine
 62
7
  6
CONTINUOUS
 10
61.3097209975
 20
13.1605978784
 11
61.3097209975
 21
13.2855978784
  0
LINE
  5
524
100
AcDbEntity
  8
3_AXES_OTHER
100
AcDbLine
 62
7
  6
CONTINUOUS
 10
61.3097209975
 20
13.6605978784
 11
61.3097209975
 21
13.7855978784
  0
LINE
  5
525
100
AcDbEntity
  8
3_AXES_OTHER
100
AcDbLine
 62
7
  6
CONTINUOUS
 10
61.3097209975
 20
14.1930978784
 11
61.3097209975
 21
14.3180978784
  0
LINE
  5
526
100
AcDbEntity
  8
3_AXES_OTHER
100
AcDbLine
 62
7
  6
CONTINUOUS
 10
61.3097209975
 20
14.7255978784
 11
61.3097209975
 21
14.8505978784
  0
LINE
  5
527
100
AcDbEntity
  8
3_AXES_OTHER
100
AcDbLine
 62
7
  6
CONTINUOUS
 10
61.3097209975
 20
15.2255978784
 11
61.3097209975
 21
15.3505978784
  0
LINE
  5
528
100
AcDbEntity
  8
3_AXES_OTHER
100
AcDbLine
 62
7
  6
CONTINUOUS
 10
61.3097209975
 20
15.7255978784
 11
61.3097209975
 21
15.8505978784
  0
ARC
  5
529
100
AcDbEntity
  8
7_ALL_ROUNDS
100
AcDbCircle
 62
7
  6
CONTINUOUS
 10
31.3547209975
 20
28.422558883
 40
0.25
100
AcDbArc
 50
180.0
 51
270.0
  0
ARC
  5
52A
100
AcDbEntity
  8
7_ALL_ROUNDS
100
AcDbCircle
 62
7
  6
CONTINUOUS
 10
35.1153509188
 20
27.7446061271
 40
0.1251968504
100
AcDbArc
 50
270.0000000001
 51
360.0
  0
ARC
  5
52B
100
AcDbEntity
  8
7_ALL_ROUNDS
100
AcDbCircle
 62
7
  6
CONTINUOUS
 10
33.8657446196
 20
27.7446061271
 40
0.1251968504
100
AcDbArc
 50
180.0
 51
270.0
  0
ARC
  5
52C
100
AcDbEntity
  8
7_ALL_ROUNDS
100
AcDbCircle
 62
7
  6
CONTINUOUS
 10
31.3547209975
 20
63.2658659696
 40
0.25
100
AcDbArc
 50
90.0
 51
180.0
  0
ARC
  5
52D
100
AcDbEntity
  8
7_ALL_ROUNDS
100
AcDbCircle
 62
7
  6
CONTINUOUS
 10
60.8547209975
 20
28.422558883
 40
0.25
100
AcDbArc
 50
270.0
 51
360.0
  0
ARC
  5
52E
100
AcDbEntity
  8
7_ALL_ROUNDS
100
AcDbCircle
 62
7
  6
CONTINUOUS
 10
58.3436973755
 20
27.7446061271
 40
0.1251968504
100
AcDbArc
 50
270.0000000001
 51
360.0
  0
ARC
  5
52F
100
AcDbEntity
  8
7_ALL_ROUNDS
100
AcDbCircle
 62
7
  6
CONTINUOUS
 10
57.0940910763
 20
27.7446061271
 40
0.1251968504
100
AcDbArc
 50
180.0
 51
270.0
  0
ARC
  5
530
100
AcDbEntity
  8
3_AXES_OTHER
100
AcDbCircle
 62
7
  6
CONTINUOUS
 10
46.1047209975
 20
45.84106282
 40
8.9
100
AcDbArc
 50
180.0
 51
179.9388360583
  0
CIRCLE
  5
531
100
AcDbEntity
  8
3_AXES_OTHER
100
AcDbCircle
 62
7
  6
CONTINUOUS
 10
46.1047209975
 20
45.84106282
 40
8.78
  0
CIRCLE
  5
532
100
AcDbEntity
  8
3_AXES_OTHER
100
AcDbCircle
 62
7
  6
CONTINUOUS
 10
46.1047209975
 20
45.84106282
 40
8.08
  0
CIRCLE
  5
533
100
AcDbEntity
  8
3_ALL_AXES
100
AcDbCircle
 62
7
  6
CONTINUOUS
 10
46.1047209975
 20
45.84106282
 40
2.25
  0
CIRCLE
  5
534
100
AcDbEntity
  8
9_COSMETICS
100
AcDbCircle
 62
7
  6
CONTINUOUS
 10
46.1047209975
 20
45.8442124263
 40
0.4921259843
  0
ARC
  5
535
100
AcDbEntity
  8
7_ALL_ROUNDS
100
AcDbCircle
 62
7
  6
CONTINUOUS
 10
60.8547209975
 20
63.2658659696
 40
0.25
100
AcDbArc
 50
0.0
 51
90.0
  0
CIRCLE
  5
536
100
AcDbEntity
  8
9_COSMETICS
100
AcDbCircle
 62
7
  6
CONTINUOUS
 10
13.0214176312
 20
45.8442124263
 40
0.4921259843
  0
ARC
  5
537
100
AcDbEntity
  8
7_ALL_ROUNDS
100
AcDbCircle
 62
7
  6
CONTINUOUS
 10
7.7596066076
 20
28.422558883
 40
0.25
100
AcDbArc
 50
180.0
 51
270.0
  0
ARC
  5
538
100
AcDbEntity
  8
7_ALL_ROUNDS
100
AcDbCircle
 62
7
  6
CONTINUOUS
 10
18.9525199934
 20
28.422558883
 40
0.25
100
AcDbArc
 50
270.0
 51
360.0
  0
ARC
  5
539
100
AcDbEntity
  8
7_ALL_ROUNDS
100
AcDbCircle
 62
7
  6
CONTINUOUS
 10
18.9525199934
 20
63.2658659696
 40
0.25
100
AcDbArc
 50
0.0
 51
90.0
  0
ARC
  5
53A
100
AcDbEntity
  8
7_ALL_ROUNDS
100
AcDbCircle
 62
7
  6
CONTINUOUS
 10
7.7596066076
 20
63.2658659696
 40
0.25
100
AcDbArc
 50
90.0
 51
180.0
  0
ARC
  5
53B
100
AcDbEntity
  8
7_ALL_ROUNDS
100
AcDbCircle
 62
7
  6
CONTINUOUS
 10
10.3233861351
 20
27.7446061271
 40
0.1251968504
100
AcDbArc
 50
270.0
 51
360.0
  0
ARC
  5
53C
100
AcDbEntity
  8
7_ALL_ROUNDS
100
AcDbCircle
 62
7
  6
CONTINUOUS
 10
9.0737798359
 20
27.7446061271
 40
0.1251968504
100
AcDbArc
 50
180.0
 51
270.0
  0
ARC
  5
53D
100
AcDbEntity
  8
7_ALL_ROUNDS
100
AcDbCircle
 62
7
  6
CONTINUOUS
 10
17.6462207808
 20
27.7446061271
 40
0.1251968504
100
AcDbArc
 50
270.0
 51
360.0
  0
ARC
  5
53E
100
AcDbEntity
  8
7_ALL_ROUNDS
100
AcDbCircle
 62
7
  6
CONTINUOUS
 10
16.3966144816
 20
27.7446061271
 40
0.1251968504
100
AcDbArc
 50
180.0
 51
270.0
  0
ARC
  5
53F
100
AcDbEntity
  8
7_ALL_ROUNDS
100
AcDbCircle
 62
7
  6
CONTINUOUS
 10
74.3958227406
 20
28.422558883
 40
0.25
100
AcDbArc
 50
180.0
 51
270.0
  0
ARC
  5
540
100
AcDbEntity
  8
7_ALL_ROUNDS
100
AcDbCircle
 62
7
  6
CONTINUOUS
 10
75.7021219532
 20
27.7446061271
 40
0.1251968504
100
AcDbArc
 50
180.0
 51
270.0
  0
ARC
  5
541
100
AcDbEntity
  8
7_ALL_ROUNDS
100
AcDbCircle
 62
7
  6
CONTINUOUS
 10
76.9517282524
 20
27.7446061271
 40
0.1251968504
100
AcDbArc
 50
270.0
 51
360.0
  0
ARC
  5
542
100
AcDbEntity
  8
7_ALL_ROUNDS
100
AcDbCircle
 62
7
  6
CONTINUOUS
 10
74.3958227406
 20
63.2658659696
 40
0.25
100
AcDbArc
 50
90.0
 51
180.0
  0
ARC
  5
543
100
AcDbEntity
  8
7_ALL_ROUNDS
100
AcDbCircle
 62
7
  6
CONTINUOUS
 10
79.5356967563
 20
53.9359919539
 40
0.1869606299
100
AcDbArc
 50
90.0
 51
180.0
  0
ARC
  5
544
100
AcDbEntity
  8
7_ALL_ROUNDS
100
AcDbCircle
 62
7
  6
CONTINUOUS
 10
79.5356967563
 20
47.3217242373
 40
0.1869606299
100
AcDbArc
 50
180.0
 51
270.0
  0
ARC
  5
545
100
AcDbEntity
  8
7_ALL_ROUNDS
100
AcDbCircle
 62
7
  6
CONTINUOUS
 10
85.5887361264
 20
28.422558883
 40
0.25
100
AcDbArc
 50
270.0
 51
360.0
  0
ARC
  5
546
100
AcDbEntity
  8
7_ALL_ROUNDS
100
AcDbCircle
 62
7
  6
CONTINUOUS
 10
83.0249565989
 20
27.7446061271
 40
0.1251968504
100
AcDbArc
 50
180.0
 51
270.0
  0
ARC
  5
547
100
AcDbEntity
  8
7_ALL_ROUNDS
100
AcDbCircle
 62
7
  6
CONTINUOUS
 10
84.2745628981
 20
27.7446061271
 40
0.1251968504
100
AcDbArc
 50
270.0
 51
360.0
  0
ARC
  5
548
100
AcDbEntity
  8
7_ALL_ROUNDS
100
AcDbCircle
 62
7
  6
CONTINUOUS
 10
80.2262361264
 20
48.0122636074
 40
0.1875
100
AcDbArc
 50
180.0
 51
270.0
  0
CIRCLE
  5
549
100
AcDbEntity
  8
3_ALL_AXES
100
AcDbCircle
 62
7
  6
CONTINUOUS
 10
80.5562558115
 20
52.1729525838
 40
0.0835
  0
ARC
  5
54A
100
AcDbEntity
  8
7_ALL_ROUNDS
100
AcDbCircle
 62
7
  6
CONTINUOUS
 10
80.2262361264
 20
53.2454525838
 40
0.1875
100
AcDbArc
 50
90.0
 51
180.0
  0
CIRCLE
  5
54B
100
AcDbEntity
  8
7_ALL_ROUNDS
100
AcDbCircle
 62
7
  6
CONTINUOUS
 10
81.0562361264
 20
52.1729525838
 40
0.135
  0
CIRCLE
  5
54C
100
AcDbEntity
  8
7_ALL_ROUNDS
100
AcDbCircle
 62
7
  6
CONTINUOUS
 10
81.0562361264
 20
52.1729525838
 40
0.085
  0
CIRCLE
  5
54D
100
AcDbEntity
  8
7_ALL_ROUNDS
100
AcDbCircle
 62
7
  6
CONTINUOUS
 10
81.5724861264
 20
52.1729525838
 40
0.135
  0
CIRCLE
  5
54E
100
AcDbEntity
  8
7_ALL_ROUNDS
100
AcDbCircle
 62
7
  6
CONTINUOUS
 10
82.1049861264
 20
52.1729525838
 40
0.135
  0
CIRCLE
  5
54F
100
AcDbEntity
  8
7_ALL_ROUNDS
100
AcDbCircle
 62
7
  6
CONTINUOUS
 10
82.6212164414
 20
52.1729525838
 40
0.135
  0
CIRCLE
  5
550
100
AcDbEntity
  8
7_ALL_ROUNDS
100
AcDbCircle
 62
7
  6
CONTINUOUS
 10
81.5724861264
 20
52.1729525838
 40
0.085
  0
CIRCLE
  5
551
100
AcDbEntity
  8
7_ALL_ROUNDS
100
AcDbCircle
 62
7
  6
CONTINUOUS
 10
82.1049861264
 20
52.1729525838
 40
0.085
  0
CIRCLE
  5
552
100
AcDbEntity
  8
7_ALL_ROUNDS
100
AcDbCircle
 62
7
  6
CONTINUOUS
 10
82.6212164414
 20
52.1729525838
 40
0.085
  0
ARC
  5
553
100
AcDbEntity
  8
7_ALL_ROUNDS
100
AcDbCircle
 62
7
  6
CONTINUOUS
 10
83.4512361264
 20
53.2454525838
 40
0.1875
100
AcDbArc
 50
0.0
 51
90.0
  0
ARC
  5
554
100
AcDbEntity
  8
7_ALL_ROUNDS
100
AcDbCircle
 62
7
  6
CONTINUOUS
 10
83.4512361264
 20
48.0122636074
 40
0.1875
100
AcDbArc
 50
270.0
 51
360.0
  0
ARC
  5
555
100
AcDbEntity
  8
7_ALL_ROUNDS
100
AcDbCircle
 62
7
  6
CONTINUOUS
 10
84.1417754965
 20
53.9359919539
 40
0.1869606299
100
AcDbArc
 50
0.0
 51
90.0
  0
ARC
  5
556
100
AcDbEntity
  8
7_ALL_ROUNDS
100
AcDbCircle
 62
7
  6
CONTINUOUS
 10
84.1417754965
 20
47.3217242373
 40
0.1869606299
100
AcDbArc
 50
270.0
 51
360.0
  0
CIRCLE
  5
557
100
AcDbEntity
  8
3_ALL_AXES
100
AcDbCircle
 62
7
  6
CONTINUOUS
 10
83.1212164414
 20
52.1729525838
 40
0.0835
  0
ARC
  5
558
100
AcDbEntity
  8
7_ALL_ROUNDS
100
AcDbCircle
 62
7
  6
CONTINUOUS
 10
85.5887361264
 20
63.2658659696
 40
0.25
100
AcDbArc
 50
0.0
 51
90.0
  0
ARC
  5
559
100
AcDbEntity
  8
7_ALL_ROUNDS
100
AcDbCircle
 62
7
  6
CONTINUOUS
 10
31.3547209975
 20
71.1587329623
 40
0.25
100
AcDbArc
 50
180.0
 51
270.0
  0
ARC
  5
55A
100
AcDbEntity
  8
7_ALL_ROUNDS
100
AcDbCircle
 62
7
  6
CONTINUOUS
 10
31.3547209975
 20
82.3516463481
 40
0.25
100
AcDbArc
 50
90.0
 51
180.0
  0
ARC
  5
55B
100
AcDbEntity
  8
7_ALL_ROUNDS
100
AcDbCircle
 62
7
  6
CONTINUOUS
 10
60.8547209975
 20
71.1587329623
 40
0.25
100
AcDbArc
 50
270.0
 51
360.0
  0
ARC
  5
55C
100
AcDbEntity
  8
7_ALL_ROUNDS
100
AcDbCircle
 62
7
  6
CONTINUOUS
 10
60.8547209975
 20
82.3516463481
 40
0.25
100
AcDbArc
 50
0.0
 51
90.0
  0
ARC
  5
55D
100
AcDbEntity
  8
3_AXES_OTHER
100
AcDbCircle
 62
7
  6
CONTINUOUS
 10
110.9279075682
 20
50.129817786
 40
8.4144436287
100
AcDbArc
 50
180.0004771567
 51
180.4165023141
  0
ARC
  5
55E
100
AcDbEntity
  8
3_AXES_OTHER
100
AcDbCircle
 62
7
  6
CONTINUOUS
 10
105.8375269555
 20
51.6392789141
 40
2.9615337692
100
AcDbArc
 50
119.9999958253
 51
120.6987972478
  0
ARC
  5
55F
100
AcDbEntity
  8
3_AXES_OTHER
100
AcDbCircle
 62
7
  6
CONTINUOUS
 10
111.7759592259
 20
41.3535309214
 40
2.9615310371
100
AcDbArc
 50
299.3011399698
 51
299.9999103057
  0
ARC
  5
560
100
AcDbEntity
  8
3_AXES_OTHER
100
AcDbCircle
 62
7
  6
CONTINUOUS
 10
111.722958308
 20
41.4437762533
 40
2.9461760967
100
AcDbArc
 50
300.0080566841
 51
306.8605149088
  0
ARC
  5
561
100
AcDbEntity
  8
3_AXES_OTHER
100
AcDbCircle
 62
7
  6
CONTINUOUS
 10
111.8037010552
 20
42.0446350943
 40
2.7262312875
100
AcDbArc
 50
291.8552899322
 51
296.5727803321
  0
ARC
  5
562
100
AcDbEntity
  8
3_AXES_OTHER
100
AcDbCircle
 62
7
  6
CONTINUOUS
 10
106.4501056916
 20
51.3179910967
 40
2.7261665068
100
AcDbArc
 50
124.6839978218
 51
128.0370088823
  0
ARC
  5
563
100
AcDbEntity
  8
7_ALL_ROUNDS
100
AcDbCircle
 62
7
  6
CONTINUOUS
 10
98.1656089166
 20
38.174392808
 40
0.2514342912
100
AcDbArc
 50
224.9996723235
 51
239.9709670979
  0
ARC
  5
564
100
AcDbEntity
  8
7_ALL_ROUNDS
100
AcDbCircle
 62
7
  6
CONTINUOUS
 10
126.9380104176
 20
30.7003390695
 40
0.2512637662
100
AcDbArc
 50
300.0294415451
 51
329.3627410459
  0
ARC
  5
565
100
AcDbEntity
  8
7_ALL_ROUNDS
100
AcDbCircle
 62
7
  6
CONTINUOUS
 10
126.9390244822
 20
59.1492073938
 40
0.250005311
100
AcDbArc
 50
0.0019642268
 51
60.0100284613
  0
ARC
  5
566
100
AcDbEntity
  8
7_ALL_ROUNDS
100
AcDbCircle
 62
7
  6
CONTINUOUS
 10
98.1647462049
 20
66.6228681987
 40
0.2500053085
100
AcDbArc
 50
119.9903823735
 51
179.9980360173
  0
ARC
  5
567
100
AcDbEntity
  8
7_ALL_ROUNDS
100
AcDbCircle
 62
7
  6
CONTINUOUS
 10
119.0244777884
 20
26.130130053
 40
0.25
100
AcDbArc
 50
240.0302958459
 51
299.9699796127
  0
ARC
  5
568
100
AcDbEntity
  8
7_ALL_ROUNDS
100
AcDbCircle
 62
7
  6
CONTINUOUS
 10
106.0792929013
 20
71.1923182229
 40
0.25
100
AcDbArc
 50
60.0317538454
 51
119.9699795997
  0
ARC
  5
569
100
AcDbEntity
  8
7_ALL_ROUNDS
100
AcDbCircle
 62
7
  6
CONTINUOUS
 10
124.8983542058
 20
48.8446889682
 40
0.1821918752
100
AcDbArc
 50
316.7148465948
 51
320.9655781226
  0
ARC
  5
56A
100
AcDbEntity
  8
7_ALL_ROUNDS
100
AcDbCircle
 62
7
  6
CONTINUOUS
 10
123.7917576403
 20
48.2057889185
 40
0.1821826526
100
AcDbArc
 50
316.7087518664
 51
320.9656497416
  0
CIRCLE
  5
56B
100
AcDbEntity
  8
7_ALL_ROUNDS
100
AcDbCircle
 62
7
  6
CONTINUOUS
 10
34.4905477692
 20
12.4445742563
 40
0.75
  0
CIRCLE
  5
56C
100
AcDbEntity
  8
7_ALL_ROUNDS
100
AcDbCircle
 62
7
  6
CONTINUOUS
 10
34.4905477692
 20
12.4445742563
 40
0.6248031496
  0
CIRCLE
  5
56D
100
AcDbEntity
  8
3_ALL_AXES
100
AcDbCircle
 62
7
  6
CONTINUOUS
 10
34.4905477692
 20
12.4445742563
 40
0.375
  0
ARC
  5
56E
100
AcDbEntity
  8
7_ALL_ROUNDS
100
AcDbCircle
 62
7
  6
CONTINUOUS
 10
31.3547209975
 20
10.5055978784
 40
0.25
100
AcDbArc
 50
180.0
 51
270.0
  0
CIRCLE
  5
56F
100
AcDbEntity
  8
3_ALL_AXES
100
AcDbCircle
 62
7
  6
CONTINUOUS
 10
34.4905477692
 20
12.4445742563
 40
0.1968503937
  0
CIRCLE
  5
570
100
AcDbEntity
  8
7_ALL_ROUNDS
100
AcDbCircle
 62
7
  6
CONTINUOUS
 10
34.4905477692
 20
19.767408902
 40
0.75
  0
CIRCLE
  5
571
100
AcDbEntity
  8
7_ALL_ROUNDS
100
AcDbCircle
 62
7
  6
CONTINUOUS
 10
34.4905477692
 20
19.767408902
 40
0.6248031496
  0
CIRCLE
  5
572
100
AcDbEntity
  8
3_ALL_AXES
100
AcDbCircle
 62
7
  6
CONTINUOUS
 10
34.4905477692
 20
19.767408902
 40
0.375
  0
ARC
  5
573
100
AcDbEntity
  8
7_ALL_ROUNDS
100
AcDbCircle
 62
7
  6
CONTINUOUS
 10
31.3547209975
 20
21.6985112642
 40
0.25
100
AcDbArc
 50
90.0
 51
180.0
  0
CIRCLE
  5
574
100
AcDbEntity
  8
3_ALL_AXES
100
AcDbCircle
 62
7
  6
CONTINUOUS
 10
34.4905477692
 20
19.767408902
 40
0.1968503937
  0
CIRCLE
  5
575
100
AcDbEntity
  8
7_ALL_ROUNDS
100
AcDbCircle
 62
7
  6
CONTINUOUS
 10
57.7188942259
 20
12.4445742563
 40
0.75
  0
CIRCLE
  5
576
100
AcDbEntity
  8
7_ALL_ROUNDS
100
AcDbCircle
 62
7
  6
CONTINUOUS
 10
57.7188942259
 20
12.4445742563
 40
0.6248031496
  0
CIRCLE
  5
577
100
AcDbEntity
  8
3_ALL_AXES
100
AcDbCircle
 62
7
  6
CONTINUOUS
 10
57.7188942259
 20
12.4445742563
 40
0.375
  0
ARC
  5
578
100
AcDbEntity
  8
7_ALL_ROUNDS
100
AcDbCircle
 62
7
  6
CONTINUOUS
 10
60.8547209975
 20
10.5055978784
 40
0.25
100
AcDbArc
 50
270.0
 51
360.0
  0
CIRCLE
  5
579
100
AcDbEntity
  8
3_ALL_AXES
100
AcDbCircle
 62
7
  6
CONTINUOUS
 10
57.7188942259
 20
12.4445742563
 40
0.1968503937
  0
CIRCLE
  5
57A
100
AcDbEntity
  8
7_ALL_ROUNDS
100
AcDbCircle
 62
7
  6
CONTINUOUS
 10
57.7188942259
 20
19.767408902
 40
0.75
  0
CIRCLE
  5
57B
100
AcDbEntity
  8
7_ALL_ROUNDS
100
AcDbCircle
 62
7
  6
CONTINUOUS
 10
57.7188942259
 20
19.767408902
 40
0.6248031496
  0
CIRCLE
  5
57C
100
AcDbEntity
  8
3_ALL_AXES
100
AcDbCircle
 62
7
  6
CONTINUOUS
 10
57.7188942259
 20
19.767408902
 40
0.375
  0
ARC
  5
57D
100
AcDbEntity
  8
7_ALL_ROUNDS
100
AcDbCircle
 62
7
  6
CONTINUOUS
 10
60.8547209975
 20
21.6985112642
 40
0.25
100
AcDbArc
 50
0.0
 51
90.0
  0
CIRCLE
  5
57E
100
AcDbEntity
  8
3_ALL_AXES
100
AcDbCircle
 62
7
  6
CONTINUOUS
 10
57.7188942259
 20
19.767408902
 40
0.1968503937
  0
SPLINE
  5
57F
100
AcDbEntity
  8
7_ALL_ROUNDS
100
AcDbSpline
 62
7
  6
CONTINUOUS
 70
0
 71
3
 72
8
 73
4
 74
0
 42
0.0000001
 43
0.0000001
 44
0.0000000001
 40
0.0
 40
0.0
 40
0.0
 40
0.0
 40
1.0
 40
1.0
 40
1.0
 40
1.0
 10
127.1890297931
 20
30.6995715075
 30
0.0
 10
127.1890297931
 20
30.6555861019
 30
0.0
 10
127.176606191
 20
30.6101458171
 30
0.0
 10
127.1542004807
 20
30.5722947926
 30
0.0
  0
SPLINE
  5
580
100
AcDbEntity
  8
7_ALL_ROUNDS
100
AcDbSpline
 62
7
  6
CONTINUOUS
 70
0
 71
3
 72
8
 73
4
 74
0
 42
0.0000001
 43
0.0000001
 44
0.0000000001
 40
0.0
 40
0.0
 40
0.0
 40
0.0
 40
1.0
 40
1.0
 40
1.0
 40
1.0
 10
97.9147408965
 20
38.1732323113
 30
0.0
 10
97.9147408965
 20
38.1095158775
 30
0.0
 10
97.9427991508
 20
38.0416936912
 30
0.0
 10
97.9878170075
 20
37.9966029325
 30
0.0
  0
SPLINE
  5
581
100
AcDbEntity
  8
3_AXES_OTHER
100
AcDbSpline
 62
7
  6
CONTINUOUS
 70
0
 71
3
 72
16
 73
12
 74
0
 42
0.0000001
 43
0.0000001
 44
0.0000000001
 40
0.0
 40
0.0
 40
0.0
 40
0.0
 40
0.1287383092
 40
0.2703900021
 40
0.4176092722
 40
0.5620186356
 40
0.6957474472
 40
0.8130642859
 40
0.912471995
 40
0.9571210647
 40
1.0
 40
1.0
 40
1.0
 40
1.0
 10
108.7890628977
 20
53.0835384222
 30
0.0
 10
109.3871549397
 20
52.7382376325
 30
0.0
 10
110.5481457314
 20
51.8448245886
 30
0.0
 10
112.0341926591
 20
50.1543071
 30
0.0
 10
113.2573176656
 20
48.1647015296
 30
0.0
 10
114.1168349336
 20
46.0388847067
 30
0.0
 10
114.5424247427
 20
43.9457279018
 30
0.0
 10
114.5009219238
 20
42.0477715902
 30
0.0
 10
114.0333553766
 20
40.6861724596
 30
0.0
 10
113.4058605538
 20
39.8927590594
 30
0.0
 10
113.0282405121
 20
39.6037317642
 30
0.0
 10
112.8290343705
 20
39.4887210654
 30
0.0
  0
SPLINE
  5
582
100
AcDbEntity
  8
3_AXES_OTHER
100
AcDbSpline
 62
7
  6
CONTINUOUS
 70
0
 71
3
 72
16
 73
12
 74
0
 42
0.0000001
 43
0.0000001
 44
0.0000000001
 40
0.0
 40
0.0
 40
0.0
 40
0.0
 40
0.1287370151
 40
0.2703910167
 40
0.4176104249
 40
0.5620193183
 40
0.6957479735
 40
0.8130641488
 40
0.912471743
 40
0.9571209789
 40
1.0
 40
1.0
 40
1.0
 40
1.0
 10
102.5806395109
 20
50.0705527165
 30
0.0
 10
102.5806395109
 20
49.3201215195
 30
0.0
 10
102.7906094362
 20
47.7421693751
 30
0.0
 10
103.5740710425
 20
45.4252400039
 30
0.0
 10
104.7818705129
 20
43.1932459256
 30
0.0
 10
106.3153655061
 20
41.2294150457
 30
0.0
 10
108.053881401
 20
39.6916693854
 30
0.0
 10
109.8624992871
 20
38.6995589175
 30
0.0
 10
111.3978535134
 20
38.3997809543
 30
0.0
 10
112.4854215435
 20
38.5591912243
 30
0.0
 10
112.9625806634
 20
38.7575100074
 30
0.0
 10
113.1790434
 20
38.8824845895
 30
0.0
  0
SPLINE
  5
583
100
AcDbEntity
  8
3_AXES_OTHER
100
AcDbSpline
 62
7
  6
CONTINUOUS
 70
0
 71
3
 72
16
 73
12
 74
0
 42
0.0000001
 43
0.0000001
 44
0.0000000001
 40
0.0
 40
0.0
 40
0.0
 40
0.0
 40
0.1289994552
 40
0.2706783586
 40
0.4177561476
 40
0.5619707991
 40
0.695569054
 40
0.8128945012
 40
0.9124282844
 40
0.9571261128
 40
1.0
 40
1.0
 40
1.0
 40
1.0
 10
102.5136862619
 20
50.0686509006
 30
0.0
 10
102.5191907902
 20
49.3105725561
 30
0.0
 10
102.7393163812
 20
47.7195771636
 30
0.0
 10
103.536971362
 20
45.3856584807
 30
0.0
 10
104.7581734958
 20
43.1396483762
 30
0.0
 10
106.3044155795
 20
41.1636445343
 30
0.0
 10
108.0554674652
 20
39.614588032
 30
0.0
 10
109.8769758789
 20
38.6116084016
 30
0.0
 10
111.4235887339
 20
38.3019433621
 30
0.0
 10
112.5221747919
 20
38.4530831842
 30
0.0
 10
113.0056084324
 20
38.6475905338
 30
0.0
 10
113.2253319307
 20
38.7708995411
 30
0.0
  0
SPLINE
  5
584
100
AcDbEntity
  8
7_ALL_ROUNDS
100
AcDbSpline
 62
7
  6
CONTINUOUS
 70
0
 71
3
 72
9
 73
5
 74
0
 42
0.0000001
 43
0.0000001
 44
0.0000000001
 40
0.0
 40
0.0
 40
0.0
 40
0.0
 40
0.2949656342
 40
1.0
 40
1.0
 40
1.0
 40
1.0
 10
126.3662783345
 20
50.8332553058
 30
0.0
 10
126.3662783345
 20
50.8427099167
 30
0.0
 10
126.3641584852
 20
50.8743352582
 30
0.0
 10
126.347127628
 20
50.9075441332
 30
0.0
 10
126.3275565151
 20
50.9188432747
 30
0.0
  0
SPLINE
  5
585
100
AcDbEntity
  8
7_ALL_ROUNDS
100
AcDbSpline
 62
7
  6
CONTINUOUS
 70
0
 71
3
 72
9
 73
5
 74
0
 42
0.0000001
 43
0.0000001
 44
0.0000000001
 40
0.0
 40
0.0
 40
0.0
 40
0.0
 40
0.2406935903
 40
1.0
 40
1.0
 40
1.0
 40
1.0
 10
126.2340777557
 20
45.2037103373
 30
0.0
 10
126.2528448254
 20
45.2145454453
 30
0.0
 10
126.3219307483
 20
45.2728626794
 30
0.0
 10
126.3662783345
 20
45.3643272606
 30
0.0
 10
126.3662783345
 20
45.4326897277
 30
0.0
  0
SPLINE
  5
586
100
AcDbEntity
  8
7_ALL_ROUNDS
100
AcDbSpline
 62
7
  6
CONTINUOUS
 70
0
 71
3
 72
9
 73
5
 74
0
 42
0.0000001
 43
0.0000001
 44
0.0000000001
 40
0.0
 40
0.0
 40
0.0
 40
0.0
 40
0.2406960175
 40
1.0
 40
1.0
 40
1.0
 40
1.0
 10
123.3328028729
 20
48.5180608209
 30
0.0
 10
123.3328028729
 20
48.5397938673
 30
0.0
 10
123.3488099353
 20
48.6290392832
 30
0.0
 10
123.4060105207
 20
48.713421227
 30
0.0
 10
123.4653848424
 20
48.7477008029
 30
0.0
  0
SPLINE
  5
587
100
AcDbEntity
  8
7_ALL_ROUNDS
100
AcDbSpline
 62
7
  6
CONTINUOUS
 70
0
 71
3
 72
9
 73
5
 74
0
 42
0.0000001
 43
0.0000001
 44
0.0000000001
 40
0.0
 40
0.0
 40
0.0
 40
0.0
 40
0.2949638736
 40
1.0
 40
1.0
 40
1.0
 40
1.0
 10
125.7457947174
 20
50.0642881991
 30
0.0
 10
125.754005923
 20
50.0690289126
 30
0.0
 10
125.7825352582
 20
50.0830454603
 30
0.0
 10
125.819916281
 20
50.0849059956
 30
0.0
 10
125.8395431573
 20
50.0735746598
 30
0.0
  0
SPLINE
  5
588
100
AcDbEntity
  8
7_ALL_ROUNDS
100
AcDbSpline
 62
7
  6
CONTINUOUS
 70
0
 71
3
 72
8
 73
4
 74
0
 42
0.0000001
 43
0.0000001
 44
0.0000000001
 40
0.0
 40
0.0
 40
0.0
 40
0.0
 40
1.0
 40
1.0
 40
1.0
 40
1.0
 10
123.9750007762
 20
48.2006349581
 30
0.0
 10
123.9750007762
 20
48.2226776129
 30
0.0
 10
123.9685017169
 20
48.2463612363
 30
0.0
 10
123.9547450147
 20
48.2635842377
 30
0.0
  0
SPLINE
  5
589
100
AcDbEntity
  8
7_ALL_ROUNDS
100
AcDbSpline
 62
7
  6
CONTINUOUS
 70
0
 71
3
 72
8
 73
4
 74
0
 42
0.0000001
 43
0.0000001
 44
0.0000000001
 40
0.0
 40
0.0
 40
0.0
 40
0.0
 40
1.0
 40
1.0
 40
1.0
 40
1.0
 10
123.9547450147
 20
48.2635842377
 30
0.0
 10
123.9486068816
 20
48.2712690063
 30
0.0
 10
123.9409134383
 20
48.277930749
 30
0.0
 10
123.9323958048
 20
48.2828482957
 30
0.0
  0
SPLINE
  5
58A
100
AcDbEntity
  8
7_ALL_ROUNDS
100
AcDbSpline
 62
7
  6
CONTINUOUS
 70
0
 71
3
 72
8
 73
4
 74
0
 42
0.0000001
 43
0.0000001
 44
0.0000000001
 40
0.0
 40
0.0
 40
0.0
 40
0.0
 40
1.0
 40
1.0
 40
1.0
 40
1.0
 10
123.9332713913
 20
48.0910527987
 30
0.0
 10
123.9579002607
 20
48.1214032706
 30
0.0
 10
123.9750007762
 20
48.1615487411
 30
0.0
 10
123.9750007762
 20
48.2006349581
 30
0.0
  0
SPLINE
  5
58B
100
AcDbEntity
  8
7_ALL_ROUNDS
100
AcDbSpline
 62
7
  6
CONTINUOUS
 70
0
 71
3
 72
8
 73
4
 74
0
 42
0.0000001
 43
0.0000001
 44
0.0000000001
 40
0.0
 40
0.0
 40
0.0
 40
0.0
 40
1.0
 40
1.0
 40
1.0
 40
1.0
 10
124.3400431322
 20
48.4113910025
 30
0.0
 10
124.3400431322
 20
48.4334336573
 30
0.0
 10
124.3335440728
 20
48.4571172808
 30
0.0
 10
124.3197873706
 20
48.4743402822
 30
0.0
  0
SPLINE
  5
58C
100
AcDbEntity
  8
7_ALL_ROUNDS
100
AcDbSpline
 62
7
  6
CONTINUOUS
 70
0
 71
3
 72
8
 73
4
 74
0
 42
0.0000001
 43
0.0000001
 44
0.0000000001
 40
0.0
 40
0.0
 40
0.0
 40
0.0
 40
1.0
 40
1.0
 40
1.0
 40
1.0
 10
124.3197873706
 20
48.4743402822
 30
0.0
 10
124.3136492376
 20
48.4820250508
 30
0.0
 10
124.3059557942
 20
48.4886867934
 30
0.0
 10
124.2974381608
 20
48.4936043402
 30
0.0
  0
SPLINE
  5
58D
100
AcDbEntity
  8
7_ALL_ROUNDS
100
AcDbSpline
 62
7
  6
CONTINUOUS
 70
0
 71
3
 72
8
 73
4
 74
0
 42
0.0000001
 43
0.0000001
 44
0.0000000001
 40
0.0
 40
0.0
 40
0.0
 40
0.0
 40
1.0
 40
1.0
 40
1.0
 40
1.0
 10
124.2781904467
 20
48.2807685499
 30
0.0
 10
124.2854765308
 20
48.2871791138
 30
0.0
 10
124.2921986185
 20
48.2942730915
 30
0.0
 10
124.2983137472
 20
48.3018088431
 30
0.0
  0
SPLINE
  5
58E
100
AcDbEntity
  8
7_ALL_ROUNDS
100
AcDbSpline
 62
7
  6
CONTINUOUS
 70
0
 71
3
 72
8
 73
4
 74
0
 42
0.0000001
 43
0.0000001
 44
0.0000000001
 40
0.0
 40
0.0
 40
0.0
 40
0.0
 40
1.0
 40
1.0
 40
1.0
 40
1.0
 10
124.2983137472
 20
48.3018088431
 30
0.0
 10
124.3229426167
 20
48.3321593151
 30
0.0
 10
124.3400431322
 20
48.3723047855
 30
0.0
 10
124.3400431322
 20
48.4113910025
 30
0.0
  0
SPLINE
  5
58F
100
AcDbEntity
  8
7_ALL_ROUNDS
100
AcDbSpline
 62
7
  6
CONTINUOUS
 70
0
 71
3
 72
8
 73
4
 74
0
 42
0.0000001
 43
0.0000001
 44
0.0000000001
 40
0.0
 40
0.0
 40
0.0
 40
0.0
 40
1.0
 40
1.0
 40
1.0
 40
1.0
 10
124.7165759255
 20
48.6287810144
 30
0.0
 10
124.7165759255
 20
48.6508236693
 30
0.0
 10
124.7100768661
 20
48.6745072927
 30
0.0
 10
124.6963201639
 20
48.6917302941
 30
0.0
  0
SPLINE
  5
590
100
AcDbEntity
  8
7_ALL_ROUNDS
100
AcDbSpline
 62
7
  6
CONTINUOUS
 70
0
 71
3
 72
8
 73
4
 74
0
 42
0.0000001
 43
0.0000001
 44
0.0000000001
 40
0.0
 40
0.0
 40
0.0
 40
0.0
 40
1.0
 40
1.0
 40
1.0
 40
1.0
 10
124.6963201639
 20
48.6917302941
 30
0.0
 10
124.6901820309
 20
48.6994150627
 30
0.0
 10
124.6824885876
 20
48.7060768054
 30
0.0
 10
124.6739709541
 20
48.7109943521
 30
0.0
  0
SPLINE
  5
591
100
AcDbEntity
  8
7_ALL_ROUNDS
100
AcDbSpline
 62
7
  6
CONTINUOUS
 70
0
 71
3
 72
8
 73
4
 74
0
 42
0.0000001
 43
0.0000001
 44
0.0000000001
 40
0.0
 40
0.0
 40
0.0
 40
0.0
 40
1.0
 40
1.0
 40
1.0
 40
1.0
 10
124.6547232401
 20
48.4981585619
 30
0.0
 10
124.6620093242
 20
48.5045691258
 30
0.0
 10
124.6687314119
 20
48.5116631034
 30
0.0
 10
124.6748465405
 20
48.519198855
 30
0.0
  0
SPLINE
  5
592
100
AcDbEntity
  8
7_ALL_ROUNDS
100
AcDbSpline
 62
7
  6
CONTINUOUS
 70
0
 71
3
 72
8
 73
4
 74
0
 42
0.0000001
 43
0.0000001
 44
0.0000000001
 40
0.0
 40
0.0
 40
0.0
 40
0.0
 40
1.0
 40
1.0
 40
1.0
 40
1.0
 10
124.6748465405
 20
48.519198855
 30
0.0
 10
124.69947541
 20
48.549549327
 30
0.0
 10
124.7165759255
 20
48.5896947974
 30
0.0
 10
124.7165759255
 20
48.6287810144
 30
0.0
  0
SPLINE
  5
593
100
AcDbEntity
  8
7_ALL_ROUNDS
100
AcDbSpline
 62
7
  6
CONTINUOUS
 70
0
 71
3
 72
8
 73
4
 74
0
 42
0.0000001
 43
0.0000001
 44
0.0000000001
 40
0.0
 40
0.0
 40
0.0
 40
0.0
 40
1.0
 40
1.0
 40
1.0
 40
1.0
 10
125.0816043621
 20
48.8395290226
 30
0.0
 10
125.0816043621
 20
48.8615716774
 30
0.0
 10
125.0751053027
 20
48.8852553009
 30
0.0
 10
125.0613486005
 20
48.9024783022
 30
0.0
  0
SPLINE
  5
594
100
AcDbEntity
  8
7_ALL_ROUNDS
100
AcDbSpline
 62
7
  6
CONTINUOUS
 70
0
 71
3
 72
8
 73
4
 74
0
 42
0.0000001
 43
0.0000001
 44
0.0000000001
 40
0.0
 40
0.0
 40
0.0
 40
0.0
 40
1.0
 40
1.0
 40
1.0
 40
1.0
 10
125.0613486005
 20
48.9024783022
 30
0.0
 10
125.0552104675
 20
48.9101630708
 30
0.0
 10
125.0475170242
 20
48.9168248135
 30
0.0
 10
125.0389993907
 20
48.9217423602
 30
0.0
  0
SPLINE
  5
595
100
AcDbEntity
  8
7_ALL_ROUNDS
100
AcDbSpline
 62
7
  6
CONTINUOUS
 70
0
 71
3
 72
8
 73
4
 74
0
 42
0.0000001
 43
0.0000001
 44
0.0000000001
 40
0.0
 40
0.0
 40
0.0
 40
0.0
 40
1.0
 40
1.0
 40
1.0
 40
1.0
 10
125.0398749771
 20
48.7299468632
 30
0.0
 10
125.0645038466
 20
48.7602973351
 30
0.0
 10
125.0816043621
 20
48.8004428056
 30
0.0
 10
125.0816043621
 20
48.8395290226
 30
0.0
  0
SPLINE
  5
596
100
AcDbEntity
  8
7_ALL_ROUNDS
100
AcDbSpline
 62
7
  6
CONTINUOUS
 70
0
 71
3
 72
9
 73
5
 74
0
 42
0.0000001
 43
0.0000001
 44
0.0000000001
 40
0.0
 40
0.0
 40
0.0
 40
0.0
 40
0.2208576349
 40
1.0
 40
1.0
 40
1.0
 40
1.0
 10
123.3716364024
 20
44.1593144873
 30
0.0
 10
123.3654547895
 20
44.1628833655
 30
0.0
 10
123.340165044
 20
44.1841586732
 30
0.0
 10
123.3328028729
 20
44.2199683583
 30
0.0
 10
123.3328028729
 20
44.2451493723
 30
0.0
  0
SPLINE
  5
597
100
AcDbEntity
  8
7_ALL_ROUNDS
100
AcDbSpline
 62
7
  6
CONTINUOUS
 70
0
 71
3
 72
9
 73
5
 74
0
 42
0.0000001
 43
0.0000001
 44
0.0000000001
 40
0.0
 40
0.0
 40
0.0
 40
0.0
 40
0.2208589878
 40
1.0
 40
1.0
 40
1.0
 40
1.0
 10
122.8836230446
 20
43.3140458724
 30
0.0
 10
122.8897866759
 20
43.3104873757
 30
0.0
 10
122.9207660239
 20
43.2992566855
 30
0.0
 10
122.9553579801
 20
43.3107518917
 30
0.0
 10
122.977101804
 20
43.3233056193
 30
0.0
  0
SPLINE
  5
598
100
AcDbEntity
  8
3_AXES_OTHER
100
AcDbSpline
 62
7
  6
CONTINUOUS
 70
0
 71
3
 72
11
 73
7
 74
0
 42
0.0000001
 43
0.0000001
 44
0.0000000001
 40
0.0
 40
0.0
 40
0.0
 40
0.0
 40
0.2177725905
 40
0.450955131
 40
0.7101915294
 40
1.0
 40
1.0
 40
1.0
 40
1.0
 10
104.3990823954
 20
54.0899131941
 30
0.0
 10
104.1094698059
 20
53.9227056048
 30
0.0
 10
103.5674141557
 20
53.4672203548
 30
0.0
 10
102.9908817914
 20
52.5239307717
 30
0.0
 10
102.6478338511
 20
51.3616283598
 30
0.0
 10
102.5806395109
 20
50.5155880129
 30
0.0
 10
102.5806395109
 20
50.0705527165
 30
0.0
  0
SPLINE
  5
599
100
AcDbEntity
  8
3_AXES_OTHER
100
AcDbSpline
 62
7
  6
CONTINUOUS
 70
0
 71
3
 72
11
 73
7
 74
0
 42
0.0000001
 43
0.0000001
 44
0.0000000001
 40
0.0
 40
0.0
 40
0.0
 40
0.0
 40
0.2177727611
 40
0.4509564503
 40
0.7101928542
 40
1.0
 40
1.0
 40
1.0
 40
1.0
 10
104.7490914249
 20
53.4836767182
 30
0.0
 10
105.0156073783
 20
53.6375484102
 30
0.0
 10
105.6280176789
 20
53.8599791977
 30
0.0
 10
106.6450593932
 20
53.8854306382
 30
0.0
 10
107.7292117586
 20
53.6240328329
 30
0.0
 10
108.434388177
 20
53.2883053353
 30
0.0
 10
108.7890628977
 20
53.0835384222
 30
0.0
  0
SPLINE
  5
59A
100
AcDbEntity
  8
3_AXES_OTHER
100
AcDbSpline
 62
7
  6
CONTINUOUS
 70
0
 71
3
 72
11
 73
7
 74
0
 42
0.0000001
 43
0.0000001
 44
0.0000000001
 40
0.0
 40
0.0
 40
0.0
 40
0.0
 40
0.2177567027
 40
0.4511289243
 40
0.7104256183
 40
1.0
 40
1.0
 40
1.0
 40
1.0
 10
104.3255903196
 20
54.185792192
 30
0.0
 10
104.0363585288
 20
54.0140673824
 30
0.0
 10
103.4960728726
 20
53.5501605269
 30
0.0
 10
102.9221326108
 20
52.5977135895
 30
0.0
 10
102.5804767706
 20
51.4277674347
 30
0.0
 10
102.5134639398
 20
50.5770542145
 30
0.0
 10
102.5134639398
 20
50.1297477109
 30
0.0
  0
SPLINE
  5
59B
100
AcDbEntity
  8
7_ALL_ROUNDS
100
AcDbSpline
 62
7
  6
CONTINUOUS
 70
0
 71
3
 72
9
 73
5
 74
0
 42
0.0000001
 43
0.0000001
 44
0.0000000001
 40
0.0
 40
0.0
 40
0.0
 40
0.0
 40
0.2949638736
 40
1.0
 40
1.0
 40
1.0
 40
1.0
 10
123.4653848424
 20
44.168600948
 30
0.0
 10
123.4571736367
 20
44.1638602345
 30
0.0
 10
123.4286443015
 20
44.1498436869
 30
0.0
 10
123.3912632787
 20
44.1479831515
 30
0.0
 10
123.3716364024
 20
44.1593144873
 30
0.0
  0
SPLINE
  5
59C
100
AcDbEntity
  8
7_ALL_ROUNDS
100
AcDbSpline
 62
7
  6
CONTINUOUS
 70
0
 71
3
 72
9
 73
5
 74
0
 42
0.0000001
 43
0.0000001
 44
0.0000000001
 40
0.0
 40
0.0
 40
0.0
 40
0.0
 40
0.2406960175
 40
1.0
 40
1.0
 40
1.0
 40
1.0
 10
125.8783766869
 20
45.7148283263
 30
0.0
 10
125.8783766869
 20
45.6930952799
 30
0.0
 10
125.8623696245
 20
45.6038498639
 30
0.0
 10
125.805169039
 20
45.5194679202
 30
0.0
 10
125.7457947174
 20
45.4851883442
 30
0.0
  0
SPLINE
  5
59D
100
AcDbEntity
  8
3_AXES_OTHER
100
AcDbSpline
 62
7
  6
CONTINUOUS
 70
0
 71
3
 72
17
 73
13
 74
0
 42
0.0000001
 43
0.0000001
 44
0.0000000001
 40
0.0
 40
0.0
 40
0.0
 40
0.0
 40
0.1286810566
 40
0.2702734851
 40
0.417428901
 40
0.5617750238
 40
0.6954455507
 40
0.8127107319
 40
0.8646756309
 40
0.9125097891
 40
0.9571396173
 40
1.0
 40
1.0
 40
1.0
 40
1.0
 10
115.4182137742
 20
43.0467721497
 30
0.0
 10
115.4182137742
 20
43.8074598095
 30
0.0
 10
115.2053862085
 20
45.4069765098
 30
0.0
 10
114.4111568446
 20
47.7555821698
 30
0.0
 10
113.1870806114
 20
50.0180439733
 30
0.0
 10
111.6317972632
 20
52.0088515581
 30
0.0
 10
109.8722685165
 20
53.5671629911
 30
0.0
 10
108.2796822525
 20
54.4379567008
 30
0.0
 10
107.0338863432
 20
54.7694175657
 30
0.0
 10
106.1764652998
 20
54.8324665042
 30
0.0
 10
105.3780589269
 20
54.7154707627
 30
0.0
 10
104.8943782096
 20
54.5144350325
 30
0.0
 10
104.6749569846
 20
54.3877523695
 30
0.0
  0
SPLINE
  5
59E
100
AcDbEntity
  8
7_ALL_ROUNDS
100
AcDbSpline
 62
7
  6
CONTINUOUS
 70
0
 71
3
 72
9
 73
5
 74
0
 42
0.0000001
 43
0.0000001
 44
0.0000000001
 40
0.0
 40
0.0
 40
0.0
 40
0.0
 40
0.2208986791
 40
1.0
 40
1.0
 40
1.0
 40
1.0
 10
119.1494772265
 20
25.9136233542
 30
0.0
 10
119.1577207877
 20
25.9183828201
 30
0.0
 10
119.1914353776
 20
25.946755652
 30
0.0
 10
119.2012552197
 20
25.9944971812
 30
0.0
 10
119.2012552197
 20
26.0280698643
 30
0.0
  0
SPLINE
  5
59F
100
AcDbEntity
  8
7_ALL_ROUNDS
100
AcDbSpline
 62
7
  6
CONTINUOUS
 70
0
 71
3
 72
9
 73
5
 74
0
 42
0.0000001
 43
0.0000001
 44
0.0000000001
 40
0.0
 40
0.0
 40
0.0
 40
0.0
 40
0.2208986792
 40
1.0
 40
1.0
 40
1.0
 40
1.0
 10
127.0640292313
 20
30.4830648087
 30
0.0
 10
127.0722727925
 20
30.4878242746
 30
0.0
 10
127.1059873823
 20
30.5161971065
 30
0.0
 10
127.1158072244
 20
30.5639386358
 30
0.0
 10
127.1158072244
 20
30.5975113189
 30
0.0
  0
SPLINE
  5
5A0
100
AcDbEntity
  8
7_ALL_ROUNDS
100
AcDbSpline
 62
7
  6
CONTINUOUS
 70
0
 71
3
 72
9
 73
5
 74
0
 42
0.0000001
 43
0.0000001
 44
0.0000000001
 40
0.0
 40
0.0
 40
0.0
 40
0.0
 40
0.2208984743
 40
1.0
 40
1.0
 40
1.0
 40
1.0
 10
98.0397429376
 20
37.9567247586
 30
0.0
 10
98.031499335
 20
37.9614841451
 30
0.0
 10
97.9977846394
 20
37.9898569598
 30
0.0
 10
97.9879649373
 20
38.0375985635
 30
0.0
 10
97.9879649373
 20
38.0711712729
 30
0.0
  0
SPLINE
  5
5A1
100
AcDbEntity
  8
7_ALL_ROUNDS
100
AcDbSpline
 62
7
  6
CONTINUOUS
 70
0
 71
3
 72
9
 73
5
 74
0
 42
0.0000001
 43
0.0000001
 44
0.0000000001
 40
0.0
 40
0.0
 40
0.0
 40
0.0
 40
0.22089784
 40
1.0
 40
1.0
 40
1.0
 40
1.0
 10
118.8994799115
 20
25.9136224528
 30
0.0
 10
118.8912363381
 20
25.9183818458
 30
0.0
 10
118.8575215674
 20
25.9467545819
 30
0.0
 10
118.8477018291
 20
25.9944962588
 30
0.0
 10
118.8477018291
 20
26.0280690145
 30
0.0
  0
SPLINE
  5
5A2
100
AcDbEntity
  8
3_AXES_OTHER
100
AcDbSpline
 62
7
  6
CONTINUOUS
 70
0
 71
3
 72
15
 73
11
 74
0
 42
0.0000001
 43
0.0000001
 44
0.0000000001
 40
0.0
 40
0.0
 40
0.0
 40
0.0
 40
0.1270911732
 40
0.2667315175
 40
0.4122254605
 40
0.5558647977
 40
0.6902508831
 40
0.8096698736
 40
0.9118067334
 40
1.0
 40
1.0
 40
1.0
 40
1.0
 10
109.1249372204
 20
40.0827753345
 30
0.0
 10
108.5485643413
 20
40.4155368433
 30
0.0
 10
107.4272974294
 20
41.2702206938
 30
0.0
 10
105.9800169561
 20
42.8849023927
 30
0.0
 10
104.7712475218
 20
44.7891269416
 30
0.0
 10
103.8945871646
 20
46.8372251537
 30
0.0
 10
103.4153972343
 20
48.875228356
 30
0.0
 10
103.3735368404
 20
50.755755949
 30
0.0
 10
103.7812317249
 20
52.353824859
 30
0.0
 10
104.4065533791
 20
53.1806080373
 30
0.0
 10
104.7703227369
 20
53.4651550513
 30
0.0
  0
SPLINE
  5
5A3
100
AcDbEntity
  8
3_ALL_AXES
100
AcDbSpline
 62
7
  6
CONTINUOUS
 70
0
 71
3
 72
14
 73
10
 74
0
 42
0.0000001
 43
0.0000001
 44
0.0000000001
 40
0.0
 40
0.0
 40
0.0
 40
0.0
 40
0.0867091864
 40
0.1825917634
 40
0.2967375094
 40
0.4294001197
 40
0.575020384
 40
0.7250406243
 40
1.0
 40
1.0
 40
1.0
 40
1.0
 10
111.5520928315
 20
50.6600356363
 30
0.0
 10
111.4248424193
 20
50.6187969584
 30
0.0
 10
111.176804486
 20
50.4535344504
 30
0.0
 10
110.9690998534
 20
50.0288940876
 30
0.0
 10
110.9172558646
 20
49.4953711485
 30
0.0
 10
111.0111492172
 20
48.8924995236
 30
0.0
 10
111.2413306441
 20
48.2683307632
 30
0.0
 10
111.6867154542
 20
47.5083311187
 30
0.0
 10
112.1639332961
 20
47.0217139344
 30
0.0
 10
112.5312846819
 20
46.8096283109
 30
0.0
  0
SPLINE
  5
5A4
100
AcDbEntity
  8
3_AXES_OTHER
100
AcDbSpline
 62
7
  6
CONTINUOUS
 70
0
 71
3
 72
16
 73
12
 74
0
 42
0.0000001
 43
0.0000001
 44
0.0000000001
 40
0.0
 40
0.0
 40
0.0
 40
0.0
 40
0.1287383092
 40
0.2703900021
 40
0.4176092722
 40
0.5620186356
 40
0.6957474472
 40
0.8130642859
 40
0.912471995
 40
0.9571210647
 40
1.0
 40
1.0
 40
1.0
 40
1.0
 10
108.7890628977
 20
39.8888593614
 30
0.0
 10
108.1909708557
 20
40.2341601511
 30
0.0
 10
107.029980064
 20
41.127573195
 30
0.0
 10
105.5439331363
 20
42.8180906837
 30
0.0
 10
104.3208081298
 20
44.807696254
 30
0.0
 10
103.4612908618
 20
46.9335130769
 30
0.0
 10
103.0357010527
 20
49.0266698818
 30
0.0
 10
103.0772038716
 20
50.9246261934
 30
0.0
 10
103.5447704188
 20
52.286225324
 30
0.0
 10
104.1722652416
 20
53.0796387242
 30
0.0
 10
104.5498852833
 20
53.3686660194
 30
0.0
 10
104.7490914249
 20
53.4836767182
 30
0.0
  0
SPLINE
  5
5A5
100
AcDbEntity
  8
3_AXES_OTHER
100
AcDbSpline
 62
7
  6
CONTINUOUS
 70
0
 71
3
 72
17
 73
13
 74
0
 42
0.0000001
 43
0.0000001
 44
0.0000000001
 40
0.0
 40
0.0
 40
0.0
 40
0.0
 40
0.1286647987
 40
0.2702374623
 40
0.4173761128
 40
0.5617150615
 40
0.6953925063
 40
0.8126784044
 40
0.8646561185
 40
0.9125020437
 40
0.9571394751
 40
1.0
 40
1.0
 40
1.0
 40
1.0
 10
114.9974862845
 20
42.9018450671
 30
0.0
 10
114.9974862845
 20
43.652012537
 30
0.0
 10
114.7876745582
 20
45.2293973678
 30
0.0
 10
114.0046467227
 20
47.5455896316
 30
0.0
 10
112.797780504
 20
49.7769792402
 30
0.0
 10
111.2642699007
 20
51.7407184348
 30
0.0
 10
109.5292227801
 20
53.2782459927
 30
0.0
 10
107.9586858683
 20
54.1379180619
 30
0.0
 10
106.7299505364
 20
54.4657665354
 30
0.0
 10
105.8841613765
 20
54.5287302943
 30
0.0
 10
105.0964667413
 20
54.4142156763
 30
0.0
 10
104.6191169702
 20
54.2165534586
 30
0.0
 10
104.4025321081
 20
54.0919017487
 30
0.0
  0
LINE
  5
5A6
100
AcDbEntity
  8
3_AXES_OTHER
100
AcDbLine
 62
7
  6
CONTINUOUS
 10
104.4025321081
 20
54.0919017487
 11
104.3990823954
 21
54.0899131941
  0
SPLINE
  5
5A7
100
AcDbEntity
  8
7_ALL_ROUNDS
100
AcDbSpline
 62
7
  6
CONTINUOUS
 70
0
 71
3
 72
8
 73
4
 74
0
 42
0.0000001
 43
0.0000001
 44
0.0000000001
 40
0.0
 40
0.0
 40
0.0
 40
0.0
 40
1.0
 40
1.0
 40
1.0
 40
1.0
 10
123.9323955915
 20
48.2828479264
 30
0.0
 10
123.9193664182
 20
48.2903774207
 30
0.0
 10
123.9017879545
 20
48.2903235701
 30
0.0
 10
123.8873632844
 20
48.2860362008
 30
0.0
  0
SPLINE
  5
5A8
100
AcDbEntity
  8
3_AXES_OTHER
100
AcDbSpline
 62
7
  6
CONTINUOUS
 70
0
 71
3
 72
17
 73
13
 74
0
 42
0.0000001
 43
0.0000001
 44
0.0000000001
 40
0.0
 40
0.0
 40
0.0
 40
0.0
 40
0.1286810566
 40
0.2702734851
 40
0.417428901
 40
0.5617750238
 40
0.6954455507
 40
0.8127107319
 40
0.8646756309
 40
0.9125097891
 40
0.9571396173
 40
1.0
 40
1.0
 40
1.0
 40
1.0
 10
115.1000170474
 20
42.8630622804
 30
0.0
 10
115.1000170474
 20
43.6237499403
 30
0.0
 10
114.8871894817
 20
45.2232666406
 30
0.0
 10
114.0929601179
 20
47.5718723005
 30
0.0
 10
112.8688838847
 20
49.834334104
 30
0.0
 10
111.3136005365
 20
51.8251416888
 30
0.0
 10
109.5540717898
 20
53.3834531219
 30
0.0
 10
107.9614855257
 20
54.2542468315
 30
0.0
 10
106.7156896164
 20
54.5857076964
 30
0.0
 10
105.8582685731
 20
54.6487566349
 30
0.0
 10
105.0598622002
 20
54.5317608934
 30
0.0
 10
104.5761814828
 20
54.3307251632
 30
0.0
 10
104.3567602578
 20
54.2040425002
 30
0.0
  0
SPLINE
  5
5A9
100
AcDbEntity
  8
7_ALL_ROUNDS
100
AcDbSpline
 62
7
  6
CONTINUOUS
 70
0
 71
3
 72
8
 73
4
 74
0
 42
0.0000001
 43
0.0000001
 44
0.0000000001
 40
0.0
 40
0.0
 40
0.0
 40
0.0
 40
1.0
 40
1.0
 40
1.0
 40
1.0
 10
124.2974379475
 20
48.4936039709
 30
0.0
 10
124.2840632372
 20
48.5013331493
 30
0.0
 10
124.2659210332
 20
48.501040015
 30
0.0
 10
124.2511811943
 20
48.4964183026
 30
0.0
  0
SPLINE
  5
5AA
100
AcDbEntity
  8
7_ALL_ROUNDS
100
AcDbSpline
 62
7
  6
CONTINUOUS
 70
0
 71
3
 72
9
 73
5
 74
0
 42
0.0000001
 43
0.0000001
 44
0.0000000001
 40
0.0
 40
0.0
 40
0.0
 40
0.0
 40
0.4919008025
 40
1.0
 40
1.0
 40
1.0
 40
1.0
 10
124.2511811943
 20
48.4964183026
 30
0.0
 10
124.2493897002
 20
48.4958565752
 30
0.0
 10
124.2457840901
 20
48.4945960948
 30
0.0
 10
124.2422597893
 20
48.4931247955
 30
0.0
 10
124.2404910586
 20
48.4923294591
 30
0.0
  0
SPLINE
  5
5AB
100
AcDbEntity
  8
3_AXES_OTHER
100
AcDbSpline
 62
7
  6
CONTINUOUS
 70
0
 71
3
 72
11
 73
7
 74
0
 42
0.0000001
 43
0.0000001
 44
0.0000000001
 40
0.0
 40
0.0
 40
0.0
 40
0.0
 40
0.2872616495
 40
0.5468868002
 40
0.781926442
 40
1.0
 40
1.0
 40
1.0
 40
1.0
 10
115.0151638804
 20
42.912051171
 30
0.0
 10
115.0151638804
 20
42.5042840815
 30
0.0
 10
114.9583619733
 20
41.7258345691
 30
0.0
 10
114.6722089843
 20
40.6453898115
 30
0.0
 10
114.1929791673
 20
39.7426210881
 30
0.0
 10
113.737969763
 20
39.2722148406
 30
0.0
 10
113.4902779705
 20
39.0865459286
 30
0.0
  0
SPLINE
  5
5AC
100
AcDbEntity
  8
7_ALL_ROUNDS
100
AcDbSpline
 62
7
  6
CONTINUOUS
 70
0
 71
3
 72
8
 73
4
 74
0
 42
0.0000001
 43
0.0000001
 44
0.0000000001
 40
0.0
 40
0.0
 40
0.0
 40
0.0
 40
1.0
 40
1.0
 40
1.0
 40
1.0
 10
124.6739707408
 20
48.7109939828
 30
0.0
 10
124.6605960305
 20
48.7187231612
 30
0.0
 10
124.6424538265
 20
48.7184300269
 30
0.0
 10
124.6277139876
 20
48.7138083145
 30
0.0
  0
SPLINE
  5
5AD
100
AcDbEntity
  8
7_ALL_ROUNDS
100
AcDbSpline
 62
7
  6
CONTINUOUS
 70
0
 71
3
 72
9
 73
5
 74
0
 42
0.0000001
 43
0.0000001
 44
0.0000000001
 40
0.0
 40
0.0
 40
0.0
 40
0.0
 40
0.4919008025
 40
1.0
 40
1.0
 40
1.0
 40
1.0
 10
124.6277139876
 20
48.7138083145
 30
0.0
 10
124.6259224935
 20
48.7132465872
 30
0.0
 10
124.6223168834
 20
48.7119861068
 30
0.0
 10
124.6187925827
 20
48.7105148074
 30
0.0
 10
124.6170238519
 20
48.709719471
 30
0.0
  0
SPLINE
  5
5AE
100
AcDbEntity
  8
7_ALL_ROUNDS
100
AcDbSpline
 62
7
  6
CONTINUOUS
 70
0
 71
3
 72
8
 73
4
 74
0
 42
0.0000001
 43
0.0000001
 44
0.0000000001
 40
0.0
 40
0.0
 40
0.0
 40
0.0
 40
1.0
 40
1.0
 40
1.0
 40
1.0
 10
125.0389991774
 20
48.9217419909
 30
0.0
 10
125.0259780091
 20
48.9292668591
 30
0.0
 10
125.0084125783
 20
48.9292184029
 30
0.0
 10
124.9939952752
 20
48.9249387025
 30
0.0
  0
SPLINE
  5
5AF
100
AcDbEntity
  8
3_ALL_AXES
100
AcDbSpline
 62
7
  6
CONTINUOUS
 70
0
 71
3
 72
8
 73
4
 74
0
 42
0.0000001
 43
0.0000001
 44
0.0000000001
 40
0.0
 40
0.0
 40
0.0
 40
0.0
 40
1.0
 40
1.0
 40
1.0
 40
1.0
 10
123.8333036367
 20
48.3400572936
 30
0.0
 10
123.8202848703
 20
48.3475378225
 30
0.0
 10
123.8027606632
 20
48.3474677568
 30
0.0
 10
123.7883680631
 20
48.3431899479
 30
0.0
  0
SPLINE
  5
5B0
100
AcDbEntity
  8
3_ALL_AXES
100
AcDbSpline
 62
7
  6
CONTINUOUS
 70
0
 71
3
 72
9
 73
5
 74
0
 42
0.0000001
 43
0.0000001
 44
0.0000000001
 40
0.0
 40
0.0
 40
0.0
 40
0.0
 40
0.7124579933
 40
1.0
 40
1.0
 40
1.0
 40
1.0
 10
124.1983459926
 20
48.5508133381
 30
0.0
 10
124.1864039717
 20
48.5576751735
 30
0.0
 10
124.1645744845
 20
48.5584337137
 30
0.0
 10
124.1465653564
 20
48.5517628175
 30
0.0
 10
124.1414956403
 20
48.5494831399
 30
0.0
  0
SPLINE
  5
5B1
100
AcDbEntity
  8
7_ALL_ROUNDS
100
AcDbSpline
 62
7
  6
CONTINUOUS
 70
0
 71
3
 72
9
 73
5
 74
0
 42
0.0000001
 43
0.0000001
 44
0.0000000001
 40
0.0
 40
0.0
 40
0.0
 40
0.0
 40
0.2406935903
 40
1.0
 40
1.0
 40
1.0
 40
1.0
 10
122.977101804
 20
49.0291788099
 30
0.0
 10
122.9583347344
 20
49.0183437018
 30
0.0
 10
122.8892488114
 20
48.9600264677
 30
0.0
 10
122.8449012252
 20
48.8685618865
 30
0.0
 10
122.8449012252
 20
48.8001994195
 30
0.0
  0
SPLINE
  5
5B2
100
AcDbEntity
  8
3_ALL_AXES
100
AcDbSpline
 62
7
  6
CONTINUOUS
 70
0
 71
3
 72
9
 73
5
 74
0
 42
0.0000001
 43
0.0000001
 44
0.0000000001
 40
0.0
 40
0.0
 40
0.0
 40
0.0
 40
0.7124579933
 40
1.0
 40
1.0
 40
1.0
 40
1.0
 10
124.574878786
 20
48.76820335
 30
0.0
 10
124.562936765
 20
48.7750651854
 30
0.0
 10
124.5411072778
 20
48.7758237256
 30
0.0
 10
124.5230981497
 20
48.7691528294
 30
0.0
 10
124.5180284337
 20
48.7668731518
 30
0.0
  0
SPLINE
  5
5B3
100
AcDbEntity
  8
7_ALL_ROUNDS
100
AcDbSpline
 62
7
  6
CONTINUOUS
 70
0
 71
3
 72
9
 73
5
 74
0
 42
0.0000001
 43
0.0000001
 44
0.0000000001
 40
0.0
 40
0.0
 40
0.0
 40
0.0
 40
0.2949656342
 40
1.0
 40
1.0
 40
1.0
 40
1.0
 10
122.8449012252
 20
43.3996338414
 30
0.0
 10
122.8449012252
 20
43.3901792305
 30
0.0
 10
122.8470210745
 20
43.3585538889
 30
0.0
 10
122.8640519318
 20
43.3253450139
 30
0.0
 10
122.8836230446
 20
43.3140458724
 30
0.0
  0
SPLINE
  5
5B4
100
AcDbEntity
  8
3_ALL_AXES
100
AcDbSpline
 62
7
  6
CONTINUOUS
 70
0
 71
3
 72
8
 73
4
 74
0
 42
0.0000001
 43
0.0000001
 44
0.0000000001
 40
0.0
 40
0.0
 40
0.0
 40
0.0
 40
1.0
 40
1.0
 40
1.0
 40
1.0
 10
124.9399072226
 20
48.9789513581
 30
0.0
 10
124.9268964759
 20
48.9864272789
 30
0.0
 10
124.90938528
 20
48.9863625997
 30
0.0
 10
124.8950000537
 20
48.9820924496
 30
0.0
  0
SPLINE
  5
5B5
100
AcDbEntity
  8
7_ALL_ROUNDS
100
AcDbSpline
 62
7
  6
CONTINUOUS
 70
0
 71
3
 72
9
 73
5
 74
0
 42
0.0000001
 43
0.0000001
 44
0.0000000001
 40
0.0
 40
0.0
 40
0.0
 40
0.0
 40
0.2208576349
 40
1.0
 40
1.0
 40
1.0
 40
1.0
 10
125.8395431573
 20
50.0735746598
 30
0.0
 10
125.8457247702
 20
50.0700057816
 30
0.0
 10
125.8710145158
 20
50.0487304739
 30
0.0
 10
125.8783766869
 20
50.0129207888
 30
0.0
 10
125.8783766869
 20
49.9877397748
 30
0.0
  0
SPLINE
  5
5B6
100
AcDbEntity
  8
7_ALL_ROUNDS
100
AcDbSpline
 62
7
  6
CONTINUOUS
 70
0
 71
3
 72
9
 73
5
 74
0
 42
0.0000001
 43
0.0000001
 44
0.0000000001
 40
0.0
 40
0.0
 40
0.0
 40
0.0
 40
0.2208589878
 40
1.0
 40
1.0
 40
1.0
 40
1.0
 10
126.3275565151
 20
50.9188432747
 30
0.0
 10
126.3213928839
 20
50.9224017714
 30
0.0
 10
126.2904135358
 20
50.9336324616
 30
0.0
 10
126.2558215796
 20
50.9221372555
 30
0.0
 10
126.2340777557
 20
50.9095835278
 30
0.0
  0
SPLINE
  5
5B7
100
AcDbEntity
  8
7_ALL_ROUNDS
100
AcDbSpline
 62
7
  6
CONTINUOUS
 70
0
 71
3
 72
9
 73
5
 74
0
 42
0.0000001
 43
0.0000001
 44
0.0000000001
 40
0.0
 40
0.0
 40
0.0
 40
0.0
 40
0.2208568057
 40
1.0
 40
1.0
 40
1.0
 40
1.0
 10
97.9147408965
 20
66.6228767683
 30
0.0
 10
97.9147408956
 20
66.6133598669
 30
0.0
 10
97.9224479612
 20
66.5699753474
 30
0.0
 10
97.9588889043
 20
66.5376024055
 30
0.0
 10
97.9879649372
 20
66.5208157299
 30
0.0
  0
SPLINE
  5
5B8
100
AcDbEntity
  8
7_ALL_ROUNDS
100
AcDbSpline
 62
7
  6
CONTINUOUS
 70
0
 71
3
 72
9
 73
5
 74
0
 42
0.0000001
 43
0.0000001
 44
0.0000000001
 40
0.0
 40
0.0
 40
0.0
 40
0.0
 40
0.2406960175
 40
1.0
 40
1.0
 40
1.0
 40
1.0
 10
122.7034792802
 20
48.8818475704
 30
0.0
 10
122.7034792802
 20
48.9035180986
 30
0.0
 10
122.719440296
 20
48.9925067876
 30
0.0
 10
122.776476336
 20
49.0766459948
 30
0.0
 10
122.835679859
 20
49.1108269608
 30
0.0
  0
SPLINE
  5
5B9
100
AcDbEntity
  8
7_ALL_ROUNDS
100
AcDbSpline
 62
7
  6
CONTINUOUS
 70
0
 71
3
 72
9
 73
5
 74
0
 42
0.0000001
 43
0.0000001
 44
0.0000000001
 40
0.0
 40
0.0
 40
0.0
 40
0.0
 40
0.2208572441
 40
1.0
 40
1.0
 40
1.0
 40
1.0
 10
127.1890297931
 20
30.6995715075
 30
0.0
 10
127.1890297929
 20
30.6900547084
 30
0.0
 10
127.1813229243
 20
30.6466707461
 30
0.0
 10
127.1448827497
 20
30.6142979811
 30
0.0
 10
127.1158072244
 20
30.5975113189
 30
0.0
  0
SPLINE
  5
5BA
100
AcDbEntity
  8
7_ALL_ROUNDS
100
AcDbSpline
 62
7
  6
CONTINUOUS
 70
0
 71
3
 72
9
 73
5
 74
0
 42
0.0000001
 43
0.0000001
 44
0.0000000001
 40
0.0
 40
0.0
 40
0.0
 40
0.0
 40
0.2949638736
 40
1.0
 40
1.0
 40
1.0
 40
1.0
 10
126.0926558107
 20
50.9912316787
 30
0.0
 10
126.1008433956
 20
50.9959587549
 30
0.0
 10
126.1292906622
 20
51.0099349819
 30
0.0
 10
126.1665641532
 20
51.0117901652
 30
0.0
 10
126.1861345701
 20
51.0004914256
 30
0.0
  0
SPLINE
  5
5BB
100
AcDbEntity
  8
7_ALL_ROUNDS
100
AcDbSpline
 62
7
  6
CONTINUOUS
 70
0
 71
3
 72
9
 73
5
 74
0
 42
0.0000001
 43
0.0000001
 44
0.0000000001
 40
0.0
 40
0.0
 40
0.0
 40
0.0
 40
0.2208576349
 40
1.0
 40
1.0
 40
1.0
 40
1.0
 10
122.7422010996
 20
43.3956940233
 30
0.0
 10
122.736037269
 20
43.3992526352
 30
0.0
 10
122.710820273
 20
43.4204667414
 30
0.0
 10
122.7034792802
 20
43.456173415
 30
0.0
 10
122.7034792802
 20
43.4812819923
 30
0.0
  0
SPLINE
  5
5BC
100
AcDbEntity
  8
7_ALL_ROUNDS
100
AcDbSpline
 62
7
  6
CONTINUOUS
 70
0
 71
3
 72
9
 73
5
 74
0
 42
0.0000001
 43
0.0000001
 44
0.0000000001
 40
0.0
 40
0.0
 40
0.0
 40
0.0
 40
0.5442926901
 40
1.0
 40
1.0
 40
1.0
 40
1.0
 10
125.0669598484
 20
48.8191169849
 30
0.0
 10
125.0669598484
 20
48.8304538118
 30
0.0
 10
125.0630495551
 20
48.8539212695
 30
0.0
 10
125.0398773451
 20
48.8626557333
 30
0.0
 10
125.0304193095
 20
48.8618567666
 30
0.0
  0
SPLINE
  5
5BD
100
AcDbEntity
  8
7_ALL_ROUNDS
100
AcDbSpline
 62
7
  6
CONTINUOUS
 70
0
 71
3
 72
8
 73
4
 74
0
 42
0.0000001
 43
0.0000001
 44
0.0000000001
 40
0.0
 40
0.0
 40
0.0
 40
0.0
 40
1.0
 40
1.0
 40
1.0
 40
1.0
 10
125.030413792
 20
48.734177901
 30
0.0
 10
125.0355681115
 20
48.7396936783
 30
0.0
 10
125.0402577621
 20
48.7456743352
 30
0.0
 10
125.0444417563
 20
48.7519580444
 30
0.0
  0
SPLINE
  5
5BE
100
AcDbEntity
  8
7_ALL_ROUNDS
100
AcDbSpline
 62
7
  6
CONTINUOUS
 70
0
 71
3
 72
8
 73
4
 74
0
 42
0.0000001
 43
0.0000001
 44
0.0000000001
 40
0.0
 40
0.0
 40
0.0
 40
0.0
 40
1.0
 40
1.0
 40
1.0
 40
1.0
 10
125.0444417563
 20
48.7519580444
 30
0.0
 10
125.0575277359
 20
48.7716111527
 30
0.0
 10
125.0669598484
 20
48.7955058111
 30
0.0
 10
125.0669598484
 20
48.8191169849
 30
0.0
  0
SPLINE
  5
5BF
100
AcDbEntity
  8
7_ALL_ROUNDS
100
AcDbSpline
 62
7
  6
CONTINUOUS
 70
0
 71
3
 72
9
 73
5
 74
0
 42
0.0000001
 43
0.0000001
 44
0.0000000001
 40
0.0
 40
0.0
 40
0.0
 40
0.0
 40
0.5279542113
 40
1.0
 40
1.0
 40
1.0
 40
1.0
 10
124.7019314118
 20
48.6083689767
 30
0.0
 10
124.7019314118
 20
48.6210637549
 30
0.0
 10
124.6956823755
 20
48.6497536585
 30
0.0
 10
124.6658996102
 20
48.6524346134
 30
0.0
 10
124.6550771157
 20
48.6490131705
 30
0.0
  0
SPLINE
  5
5C0
100
AcDbEntity
  8
7_ALL_ROUNDS
100
AcDbSpline
 62
7
  6
CONTINUOUS
 70
0
 71
3
 72
8
 73
4
 74
0
 42
0.0000001
 43
0.0000001
 44
0.0000000001
 40
0.0
 40
0.0
 40
0.0
 40
0.0
 40
1.0
 40
1.0
 40
1.0
 40
1.0
 10
124.6553352019
 20
48.513839473
 30
0.0
 10
124.6740528001
 20
48.529635214
 30
0.0
 10
124.6882875191
 20
48.5517763819
 30
0.0
 10
124.6960424098
 20
48.5750081616
 30
0.0
  0
SPLINE
  5
5C1
100
AcDbEntity
  8
7_ALL_ROUNDS
100
AcDbSpline
 62
7
  6
CONTINUOUS
 70
0
 71
3
 72
8
 73
4
 74
0
 42
0.0000001
 43
0.0000001
 44
0.0000000001
 40
0.0
 40
0.0
 40
0.0
 40
0.0
 40
1.0
 40
1.0
 40
1.0
 40
1.0
 10
124.6960424098
 20
48.5750081616
 30
0.0
 10
124.6996178668
 20
48.585719367
 30
0.0
 10
124.7019314118
 20
48.5970767752
 30
0.0
 10
124.7019314118
 20
48.6083689767
 30
0.0
  0
SPLINE
  5
5C2
100
AcDbEntity
  8
7_ALL_ROUNDS
100
AcDbSpline
 62
7
  6
CONTINUOUS
 70
0
 71
3
 72
9
 73
5
 74
0
 42
0.0000001
 43
0.0000001
 44
0.0000000001
 40
0.0
 40
0.0
 40
0.0
 40
0.0
 40
0.5279542113
 40
1.0
 40
1.0
 40
1.0
 40
1.0
 10
124.3253986185
 20
48.3909789648
 30
0.0
 10
124.3253986185
 20
48.403673743
 30
0.0
 10
124.3191495822
 20
48.4323636465
 30
0.0
 10
124.2893668169
 20
48.4350446015
 30
0.0
 10
124.2785443224
 20
48.4316231586
 30
0.0
  0
SPLINE
  5
5C3
100
AcDbEntity
  8
7_ALL_ROUNDS
100
AcDbSpline
 62
7
  6
CONTINUOUS
 70
0
 71
3
 72
8
 73
4
 74
0
 42
0.0000001
 43
0.0000001
 44
0.0000000001
 40
0.0
 40
0.0
 40
0.0
 40
0.0
 40
1.0
 40
1.0
 40
1.0
 40
1.0
 10
124.2788024086
 20
48.2964494611
 30
0.0
 10
124.2975200068
 20
48.312245202
 30
0.0
 10
124.3117547258
 20
48.33438637
 30
0.0
 10
124.3195096165
 20
48.3576181497
 30
0.0
  0
SPLINE
  5
5C4
100
AcDbEntity
  8
7_ALL_ROUNDS
100
AcDbSpline
 62
7
  6
CONTINUOUS
 70
0
 71
3
 72
8
 73
4
 74
0
 42
0.0000001
 43
0.0000001
 44
0.0000000001
 40
0.0
 40
0.0
 40
0.0
 40
0.0
 40
1.0
 40
1.0
 40
1.0
 40
1.0
 10
124.3195096165
 20
48.3576181497
 30
0.0
 10
124.3230850735
 20
48.3683293551
 30
0.0
 10
124.3253986185
 20
48.3796867633
 30
0.0
 10
124.3253986185
 20
48.3909789648
 30
0.0
  0
SPLINE
  5
5C5
100
AcDbEntity
  8
7_ALL_ROUNDS
100
AcDbSpline
 62
7
  6
CONTINUOUS
 70
0
 71
3
 72
9
 73
5
 74
0
 42
0.0000001
 43
0.0000001
 44
0.0000000001
 40
0.0
 40
0.0
 40
0.0
 40
0.0
 40
0.5442745702
 40
1.0
 40
1.0
 40
1.0
 40
1.0
 10
123.9603562625
 20
48.1802229203
 30
0.0
 10
123.9603562625
 20
48.1915617955
 30
0.0
 10
123.9564435431
 20
48.2150363582
 30
0.0
 10
123.9332613471
 20
48.2237639807
 30
0.0
 10
123.9238011942
 20
48.2229614722
 30
0.0
  0
SPLINE
  5
5C6
100
AcDbEntity
  8
7_ALL_ROUNDS
100
AcDbSpline
 62
7
  6
CONTINUOUS
 70
0
 71
3
 72
8
 73
4
 74
0
 42
0.0000001
 43
0.0000001
 44
0.0000000001
 40
0.0
 40
0.0
 40
0.0
 40
0.0
 40
1.0
 40
1.0
 40
1.0
 40
1.0
 10
123.9237956527
 20
48.0952682652
 30
0.0
 10
123.9289557228
 20
48.1007883584
 30
0.0
 10
123.9336502524
 20
48.1067743778
 30
0.0
 10
123.9378381704
 20
48.1130639799
 30
0.0
  0
SPLINE
  5
5C7
100
AcDbEntity
  8
7_ALL_ROUNDS
100
AcDbSpline
 62
7
  6
CONTINUOUS
 70
0
 71
3
 72
8
 73
4
 74
0
 42
0.0000001
 43
0.0000001
 44
0.0000000001
 40
0.0
 40
0.0
 40
0.0
 40
0.0
 40
1.0
 40
1.0
 40
1.0
 40
1.0
 10
123.9378381704
 20
48.1130639799
 30
0.0
 10
123.95092415
 20
48.1327170882
 30
0.0
 10
123.9603562625
 20
48.1566117465
 30
0.0
 10
123.9603562625
 20
48.1802229203
 30
0.0
  0
SPLINE
  5
5C8
100
AcDbEntity
  8
3_AXES_OTHER
100
AcDbSpline
 62
7
  6
CONTINUOUS
 70
0
 71
3
 72
11
 73
7
 74
0
 42
0.0000001
 43
0.0000001
 44
0.0000000001
 40
0.0
 40
0.0
 40
0.0
 40
0.0
 40
0.2177725905
 40
0.450955131
 40
0.7101915294
 40
1.0
 40
1.0
 40
1.0
 40
1.0
 10
113.1790434
 20
38.8824845895
 30
0.0
 10
113.4686559895
 20
39.0496921788
 30
0.0
 10
114.0107116397
 20
39.5051774288
 30
0.0
 10
114.587244004
 20
40.4484670119
 30
0.0
 10
114.9302919443
 20
41.6107694239
 30
0.0
 10
114.9974862845
 20
42.4568097708
 30
0.0
 10
114.9974862845
 20
42.9018450671
 30
0.0
  0
SPLINE
  5
5C9
100
AcDbEntity
  8
7_ALL_ROUNDS
100
AcDbSpline
 62
7
  6
CONTINUOUS
 70
0
 71
3
 72
9
 73
5
 74
0
 42
0.0000001
 43
0.0000001
 44
0.0000000001
 40
0.0
 40
0.0
 40
0.0
 40
0.0
 40
0.2406935903
 40
1.0
 40
1.0
 40
1.0
 40
1.0
 10
125.1624291941
 20
45.8219869667
 30
0.0
 10
125.1812504056
 20
45.8328533334
 30
0.0
 10
125.2505356373
 20
45.8913388092
 30
0.0
 10
125.2950111636
 20
45.9830672601
 30
0.0
 10
125.2950111636
 20
46.0516269488
 30
0.0
  0
SPLINE
  5
5CA
100
AcDbEntity
  8
3_AXES_OTHER
100
AcDbSpline
 62
7
  6
CONTINUOUS
 70
0
 71
3
 72
16
 73
12
 74
0
 42
0.0000001
 43
0.0000001
 44
0.0000000001
 40
0.0
 40
0.0
 40
0.0
 40
0.0
 40
0.0428790129
 40
0.0875288595
 40
0.186938415
 40
0.304256197
 40
0.4379857661
 40
0.5823942845
 40
0.7296120048
 40
0.8712635007
 40
1.0
 40
1.0
 40
1.0
 40
1.0
 10
104.4170758698
 20
54.1002899174
 30
0.0
 10
104.6335416096
 20
54.2252488662
 30
0.0
 10
105.1107306871
 20
54.4234834538
 30
0.0
 10
106.1982987964
 20
54.5827913731
 30
0.0
 10
107.733621652
 20
54.2829124007
 30
0.0
 10
109.5421879531
 20
53.2907516505
 30
0.0
 10
111.280635576
 20
51.7529818485
 30
0.0
 10
112.8140519758
 20
49.7891649868
 30
0.0
 10
114.0217810673
 20
47.5572244406
 30
0.0
 10
114.805206906
 20
45.2403662656
 30
0.0
 10
115.0151638804
 20
43.6624638466
 30
0.0
 10
115.0151638804
 20
42.912051171
 30
0.0
  0
SPLINE
  5
5CB
100
AcDbEntity
  8
3_AXES_OTHER
100
AcDbSpline
 62
7
  6
CONTINUOUS
 70
0
 71
3
 72
11
 73
7
 74
0
 42
0.0000001
 43
0.0000001
 44
0.0000000001
 40
0.0
 40
0.0
 40
0.0
 40
0.0
 40
0.2177727611
 40
0.4509564503
 40
0.7101928542
 40
1.0
 40
1.0
 40
1.0
 40
1.0
 10
112.8290343705
 20
39.4887210654
 30
0.0
 10
112.5625184171
 20
39.3348493735
 30
0.0
 10
111.9501081165
 20
39.1124185859
 30
0.0
 10
110.9330664022
 20
39.0869671454
 30
0.0
 10
109.8489140368
 20
39.3483649507
 30
0.0
 10
109.1437376184
 20
39.6840924484
 30
0.0
 10
108.7890628977
 20
39.8888593614
 30
0.0
  0
SPLINE
  5
5CC
100
AcDbEntity
  8
3_AXES_OTHER
100
AcDbSpline
 62
7
  6
CONTINUOUS
 70
0
 71
3
 72
11
 73
7
 74
0
 42
0.0000001
 43
0.0000001
 44
0.0000000001
 40
0.0
 40
0.0
 40
0.0
 40
0.0
 40
0.218241489
 40
0.4536273446
 40
0.7132760132
 40
1.0
 40
1.0
 40
1.0
 40
1.0
 10
112.8185778468
 20
39.5143461521
 30
0.0
 10
112.5581025279
 20
39.4098442179
 30
0.0
 10
111.9801425717
 20
39.2768367418
 30
0.0
 10
111.0550236953
 20
39.3200670678
 30
0.0
 10
110.0796383436
 20
39.5899460909
 30
0.0
 10
109.4442636275
 20
39.8984163181
 30
0.0
 10
109.1249372204
 20
40.0827753345
 30
0.0
  0
SPLINE
  5
5CD
100
AcDbEntity
  8
3_AXES_OTHER
100
AcDbSpline
 62
7
  6
CONTINUOUS
 70
0
 71
3
 72
11
 73
7
 74
0
 42
0.0000001
 43
0.0000001
 44
0.0000000001
 40
0.0
 40
0.0
 40
0.0
 40
0.0
 40
0.2177725905
 40
0.450955131
 40
0.7101915294
 40
1.0
 40
1.0
 40
1.0
 40
1.0
 10
113.2567207295
 20
38.7887674911
 30
0.0
 10
113.5502915776
 20
38.9582603777
 30
0.0
 10
114.0997557332
 20
39.4199709386
 30
0.0
 10
114.684167811
 20
40.3761528623
 30
0.0
 10
115.0319043335
 20
41.5543409564
 30
0.0
 10
115.1000170474
 20
42.4119444971
 30
0.0
 10
115.1000170474
 20
42.8630622804
 30
0.0
  0
SPLINE
  5
5CE
100
AcDbEntity
  8
3_AXES_OTHER
100
AcDbSpline
 62
7
  6
CONTINUOUS
 70
0
 71
3
 72
11
 73
7
 74
0
 42
0.0000001
 43
0.0000001
 44
0.0000000001
 40
0.0
 40
0.0
 40
0.0
 40
0.0
 40
0.2177725905
 40
0.450955131
 40
0.7101915294
 40
1.0
 40
1.0
 40
1.0
 40
1.0
 10
113.5749174562
 20
38.9724773603
 30
0.0
 10
113.8684883043
 20
39.141970247
 30
0.0
 10
114.41795246
 20
39.6036808079
 30
0.0
 10
115.0023645377
 20
40.5598627315
 30
0.0
 10
115.3501010603
 20
41.7380508256
 30
0.0
 10
115.4182137742
 20
42.5956543663
 30
0.0
 10
115.4182137742
 20
43.0467721497
 30
0.0
  0
SPLINE
  5
5CF
100
AcDbEntity
  8
3_ALL_AXES
100
AcDbSpline
 62
7
  6
CONTINUOUS
 70
0
 71
3
 72
11
 73
7
 74
0
 42
0.0000001
 43
0.0000001
 44
0.0000000001
 40
0.0
 40
0.0
 40
0.0
 40
0.0
 40
0.2198558235
 40
0.449742302
 40
0.7071294366
 40
1.0
 40
1.0
 40
1.0
 40
1.0
 10
113.7851334607
 20
46.7920136374
 30
0.0
 10
113.7122716925
 20
46.7263855638
 30
0.0
 10
113.5347780025
 20
46.6200825345
 30
0.0
 10
113.21564655
 20
46.5752070065
 30
0.0
 10
112.869160291
 20
46.6403497897
 30
0.0
 10
112.6444114509
 20
46.7443160179
 30
0.0
 10
112.5312846819
 20
46.8096283109
 30
0.0
  0
SPLINE
  5
5D0
100
AcDbEntity
  8
7_ALL_ROUNDS
100
AcDbSpline
 62
7
  6
CONTINUOUS
 70
0
 71
3
 72
9
 73
5
 74
0
 42
0.0000001
 43
0.0000001
 44
0.0000000001
 40
0.0
 40
0.0
 40
0.0
 40
0.0
 40
0.5000005583
 40
1.0
 40
1.0
 40
1.0
 40
1.0
 10
118.8477018291
 20
54.4777134715
 30
0.0
 10
118.9001721491
 20
54.4474204034
 30
0.0
 10
119.0244786995
 20
54.4234573392
 30
0.0
 10
119.1487852353
 20
54.4474209426
 30
0.0
 10
119.2012552197
 20
54.4777143214
 30
0.0
  0
SPLINE
  5
5D1
100
AcDbEntity
  8
7_ALL_ROUNDS
100
AcDbSpline
 62
7
  6
CONTINUOUS
 70
0
 71
3
 72
9
 73
5
 74
0
 42
0.0000001
 43
0.0000001
 44
0.0000000001
 40
0.0
 40
0.0
 40
0.0
 40
0.0
 40
0.4999994717
 40
1.0
 40
1.0
 40
1.0
 40
1.0
 10
119.2012552197
 20
26.0280698643
 30
0.0
 10
119.1487852321
 20
25.9977764837
 30
0.0
 10
119.0244786952
 20
25.9738128822
 30
0.0
 10
118.900172146
 20
25.9977759482
 30
0.0
 10
118.8477018291
 20
26.0280690145
 30
0.0
  0
SPLINE
  5
5D2
100
AcDbEntity
  8
7_ALL_ROUNDS
100
AcDbSpline
 62
7
  6
CONTINUOUS
 70
0
 71
3
 72
9
 73
5
 74
0
 42
0.0000001
 43
0.0000001
 44
0.0000000001
 40
0.0
 40
0.0
 40
0.0
 40
0.0
 40
0.2949660799
 40
1.0
 40
1.0
 40
1.0
 40
1.0
 10
127.1158072244
 20
59.0471557759
 30
0.0
 10
127.1267555969
 20
59.053476784
 30
0.0
 10
127.1619602295
 20
59.0770750348
 30
0.0
 10
127.18902979
 20
59.1189986252
 30
0.0
 10
127.1890297931
 20
59.1492159645
 30
0.0
  0
SPLINE
  5
5D3
100
AcDbEntity
  8
7_ALL_ROUNDS
100
AcDbSpline
 62
7
  6
CONTINUOUS
 70
0
 71
3
 72
9
 73
5
 74
0
 42
0.0000001
 43
0.0000001
 44
0.0000000001
 40
0.0
 40
0.0
 40
0.0
 40
0.0
 40
0.2949666631
 40
1.0
 40
1.0
 40
1.0
 40
1.0
 10
97.9879649372
 20
38.0711712729
 30
0.0
 10
97.9770163596
 20
38.0774922941
 30
0.0
 10
97.9418111241
 20
38.1010905742
 30
0.0
 10
97.914740896
 20
38.1430146164
 30
0.0
 10
97.9147408965
 20
38.1732323113
 30
0.0
  0
SPLINE
  5
5D4
100
AcDbEntity
  8
7_ALL_ROUNDS
100
AcDbSpline
 62
7
  6
CONTINUOUS
 70
0
 71
3
 72
9
 73
5
 74
0
 42
0.0000001
 43
0.0000001
 44
0.0000000001
 40
0.0
 40
0.0
 40
0.0
 40
0.0
 40
0.5000333426
 40
1.0
 40
1.0
 40
1.0
 40
1.0
 10
126.9390297931
 20
59.3533415688
 30
0.0
 10
126.991503627
 20
59.3230464721
 30
0.0
 10
127.0744098166
 20
59.2273735827
 30
0.0
 10
127.1158072244
 20
59.107738917
 30
0.0
 10
127.1158072244
 20
59.0471557759
 30
0.0
  0
SPLINE
  5
5D5
100
AcDbEntity
  8
7_ALL_ROUNDS
100
AcDbSpline
 62
7
  6
CONTINUOUS
 70
0
 71
3
 72
9
 73
5
 74
0
 42
0.0000001
 43
0.0000001
 44
0.0000000001
 40
0.0
 40
0.0
 40
0.0
 40
0.0
 40
0.29493408
 40
1.0
 40
1.0
 40
1.0
 40
1.0
 10
126.9390297931
 20
59.3533415688
 30
0.0
 10
126.9499737332
 20
59.3596600178
 30
0.0
 10
126.988002286
 20
59.3783423055
 30
0.0
 10
127.0378217597
 20
59.3808359388
 30
0.0
 10
127.0639917932
 20
59.365744266
 30
0.0
  0
SPLINE
  5
5D6
100
AcDbEntity
  8
7_ALL_ROUNDS
100
AcDbSpline
 62
7
  6
CONTINUOUS
 70
0
 71
3
 72
9
 73
5
 74
0
 42
0.0000001
 43
0.0000001
 44
0.0000000001
 40
0.0
 40
0.0
 40
0.0
 40
0.0
 40
0.2949223711
 40
1.0
 40
1.0
 40
1.0
 40
1.0
 10
106.0792929013
 20
71.3964438272
 30
0.0
 10
106.0902342136
 20
71.4027607591
 30
0.0
 10
106.1282553614
 20
71.4214393997
 30
0.0
 10
106.1780598058
 20
71.4239405324
 30
0.0
 10
106.2042302688
 20
71.4088607234
 30
0.0
  0
SPLINE
  5
5D7
100
AcDbEntity
  8
7_ALL_ROUNDS
100
AcDbSpline
 62
7
  6
CONTINUOUS
 70
0
 71
3
 72
9
 73
5
 74
0
 42
0.0000001
 43
0.0000001
 44
0.0000000001
 40
0.0
 40
0.0
 40
0.0
 40
0.0
 40
0.2949235352
 40
1.0
 40
1.0
 40
1.0
 40
1.0
 10
106.0792929013
 20
71.3964438272
 30
0.0
 10
106.0683511728
 20
71.4027608941
 30
0.0
 10
106.0303287754
 20
71.421439813
 30
0.0
 10
105.9805223222
 20
71.4239398653
 30
0.0
 10
105.9543517471
 20
71.4088585406
 30
0.0
  0
SPLINE
  5
5D8
100
AcDbEntity
  8
7_ALL_ROUNDS
100
AcDbSpline
 62
7
  6
CONTINUOUS
 70
0
 71
3
 72
9
 73
5
 74
0
 42
0.0000001
 43
0.0000001
 44
0.0000000001
 40
0.0
 40
0.0
 40
0.0
 40
0.0
 40
0.2949329326
 40
1.0
 40
1.0
 40
1.0
 40
1.0
 10
98.1647408965
 20
66.8270023726
 30
0.0
 10
98.1537968272
 20
66.833320791
 30
0.0
 10
98.1157676591
 20
66.8520029864
 30
0.0
 10
98.0659476616
 20
66.8544961465
 30
0.0
 10
98.0397773425
 20
66.8394041727
 30
0.0
  0
SPLINE
  5
5D9
100
AcDbEntity
  8
7_ALL_ROUNDS
100
AcDbSpline
 62
7
  6
CONTINUOUS
 70
0
 71
3
 72
9
 73
5
 74
0
 42
0.0000001
 43
0.0000001
 44
0.0000000001
 40
0.0
 40
0.0
 40
0.0
 40
0.0
 40
0.5000327989
 40
1.0
 40
1.0
 40
1.0
 40
1.0
 10
98.1647408965
 20
66.8270023726
 30
0.0
 10
98.1122673618
 20
66.796706944
 30
0.0
 10
98.0293619341
 20
66.701033522
 30
0.0
 10
97.9879649372
 20
66.5813989095
 30
0.0
 10
97.9879649372
 20
66.5208157299
 30
0.0
  0
SPLINE
  5
5DA
100
AcDbEntity
  8
7_ALL_ROUNDS
100
AcDbSpline
 62
7
  6
CONTINUOUS
 70
0
 71
3
 72
9
 73
5
 74
0
 42
0.0000001
 43
0.0000001
 44
0.0000000001
 40
0.0
 40
0.0
 40
0.0
 40
0.0
 40
0.5000344991
 40
1.0
 40
1.0
 40
1.0
 40
1.0
 10
119.0244777884
 20
54.7839001143
 30
0.0
 10
118.9720040752
 20
54.7536045827
 30
0.0
 10
118.8890987024
 20
54.6579310495
 30
0.0
 10
118.8477018291
 20
54.5382964451
 30
0.0
 10
118.8477018291
 20
54.4777134715
 30
0.0
  0
SPLINE
  5
5DB
100
AcDbEntity
  8
7_ALL_ROUNDS
100
AcDbSpline
 62
7
  6
CONTINUOUS
 70
0
 71
3
 72
9
 73
5
 74
0
 42
0.0000001
 43
0.0000001
 44
0.0000000001
 40
0.0
 40
0.0
 40
0.0
 40
0.0
 40
0.5000333426
 40
1.0
 40
1.0
 40
1.0
 40
1.0
 10
119.0244777884
 20
54.7839001143
 30
0.0
 10
119.0769516223
 20
54.7536050175
 30
0.0
 10
119.1598578119
 20
54.6579321281
 30
0.0
 10
119.2012552197
 20
54.5382974624
 30
0.0
 10
119.2012552197
 20
54.4777143214
 30
0.0
  0
ELLIPSE
  5
5DC
100
AcDbEntity
  8
7_ALL_ROUNDS
100
AcDbEllipse
 62
7
  6
CONTINUOUS
 10
99.5294542463
 20
61.1726444453
 30
0.0
 11
0.2210339201
 21
0.8249342118
 31
0.0
 40
0.5176356017
 41
0.4776603895
 42
2.0484445273
  0
ELLIPSE
  5
5DD
100
AcDbEntity
  8
7_ALL_ROUNDS
100
AcDbEllipse
 62
7
  6
CONTINUOUS
 10
114.9868089017
 20
30.0370463017
 30
0.0
 11
0.8249311994
 21
-0.221033113
 31
0.0
 40
0.5176304373
 41
-2.0484567461
 42
-0.4776604193
  0
ENDSEC
  0
SECTION
  2
OBJECTS
  0
DICTIONARY
  5
C
100
AcDbDictionary
280
0
281
1
  3
ACAD_GROUP
350
D
  3
ACAD_MLINESTYLE
350
17
  3
ACAD_LAYOUT
350
1A
  3
ACAD_PLOTSETTINGS
350
19
  3
ACAD_PLOTSTYLENAME
350
E
  0
DICTIONARY
  5
D
102
{ACAD_REACTORS
330
C
102
}
100
AcDbDictionary
280
0
281
1
  0
ACDBDICTIONARYWDFLT
  5
E
102
{ACAD_REACTORS
330
C
102
}
100
AcDbDictionary
281
1
  3
Normal
350
F
100
AcDbDictionaryWithDefault
340
F
  0
DICTIONARY
  5
17
102
{ACAD_REACTORS
330
C
102
}
100
AcDbDictionary
280
0
281
1
  3
Standard
350
18
  0
DICTIONARY
  5
19
102
{ACAD_REACTORS
330
C
102
}
100
AcDbDictionary
281
1
  0
DICTIONARY
  5
1A
102
{ACAD_REACTORS
330
C
102
}
100
AcDbDictionary
281
1
  3
Model
350
5DE
  3
Layout1
350
5DF
  0
ACDBPLACEHOLDER
  5
F
102
{ACAD_REACTORS
330
E
102
}
  0
MLINESTYLE
  5
18
102
{ACAD_REACTORS
330
17
102
}
100
AcDbMlineStyle
  2
STANDARD
 70
0
  3

 62
256
 51
90.0
 52
90.0
 71
2
 49
0.5
 62
256
  6
BYLAYER
 49
-0.5
 62
256
  6
BYLAYER
  0
LAYOUT
  5
5DE
102
{ACAD_REACTORS
330
1A
102
}
100
AcDbPlotSettings
  1

  2
none_device
  4
ANSI_D_(34.00_x_22.00_Inches)
  6

 40
0.0
 41
0.0
 42
0.0
 43
0.0
 44
863.6
 45
558.8
 46
0.0
 47
0.0
 48
0.0
 49
0.0
140
0.0
141
0.0
142
1.0
143
1.0
 70
1024
 72
0
 73
0
 74
0
  7

 75
0
147
1.0
148
0.0
149
0.0
100
AcDbLayout
  1
Model
 70
0
 71
0
 10
0.0
 20
0.0
 11
34.0
 21
22.0
 12
0.0
 22
0.0
 32
0.0
 14
0.0
 24
0.0
 34
0.0
 15
0.0
 25
0.0
 35
0.0
146
0.0
 13
0.0
 23
0.0
 33
0.0
 16
1.0
 26
0.0
 36
0.0
 17
0.0
 27
1.0
 37
0.0
 76
0
330
210
345
0
346
0
  0
LAYOUT
  5
5DF
102
{ACAD_REACTORS
330
1A
102
}
100
AcDbPlotSettings
  1

  2
none_device
  4
ANSI_D_(34.00_x_22.00_Inches)
  6

 40
0.0
 41
0.0
 42
0.0
 43
0.0
 44
863.6
 45
558.8
 46
0.0
 47
0.0
 48
0.0
 49
0.0
140
0.0
141
0.0
142
1.0
143
1.0
 70
0
 72
0
 73
0
 74
0
  7

 75
0
147
1.0
148
0.0
149
0.0
100
AcDbLayout
  1
Layout1
 70
0
 71
1
 10
0.0
 20
0.0
 11
34.0
 21
22.0
 12
0.0
 22
0.0
 32
0.0
 14
0.0
 24
0.0
 34
0.0
 15
0.0
 25
0.0
 35
0.0
146
0.0
 13
0.0
 23
0.0
 33
0.0
 16
1.0
 26
0.0
 36
0.0
 17
0.0
 27
1.0
 37
0.0
 76
0
330
211
345
0
346
0
  0
ENDSEC
  0
EOF
