999
DXF file: Z:\L&T Project Work\CINEMA WEBSITE -04302018\dcs-sc-424-8f-2d-A.dxf
999
Pro/ENGINEER 2016130 by Parametric Technology Corporation
  0
SECTION
  2
HEADER
  9
$ACADVER
  1
AC1015
  9
$DWGCODEPAGE
  3
ANSI_1252
  9
$EXTMAX
 10
8636.0
 20
5588.0
 30
0.0
  9
$EXTMIN
 10
0.0
 20
0.0
 30
0.0
  9
$LIMMIN
 10
0.0
 20
0.0
  9
$LIMMAX
 10
8636.0
 20
5588.0
  9
$VIEWCTR
 10
4318.0
 20
2794.0
  9
$VIEWSIZE
 40
5588.0
  9
$CLAYER
  8
0
  9
$LTSCALE
 40
474.98
  9
$CELTYPE
  6
BYLAYER
  9
$DIMSCALE
 40
1.0
  9
$DIMASZ
 40
40.0
  9
$DIMEXO
 40
1.5875
  9
$DIMDLI
 40
328.168
  9
$DIMEXE
 40
3.175
  9
$DIMCEN
 40
77.724
  9
$DIMLFAC
 40
1.0
  9
$DIMBLK
  1
_FILLED
  9
$DIMALT
 70
0
  9
$DIMALTF
 40
0.0393700787
  9
$DIMTXT
 40
45.72
  9
$DIMTOL
 70
1
  9
$DIMLIM
 70
0
  9
$DIMTFAC
 40
1.0
  9
$DIMTP
 40
0.02
  9
$DIMTM
 40
0.02
  9
$DIMGAP
 40
0.625
  9
$DIMDSEP
 70
46
  9
$AUNITS
 70
0
  9
$PDMODE
 70
3
  9
$PDSIZE
 40
7.9375
  9
$HANDSEED
  5
5AC
  9
$TILEMODE
 70
1
  9
$MEASUREMENT
 70
1
  9
$INSUNITS
 70
4
  0
ENDSEC
  0
SECTION
  2
CLASSES
  0
CLASS
  1
ACDBDICTIONARYWDFLT
  2
AcDbDictionaryWithDefault
  3
AutoCAD 2000
 90
0
280
0
281
0
  0
CLASS
  1
ACDBPLACEHOLDER
  2
AcDbPlaceHolder
  3
AutoCAD 2000
 90
0
280
0
281
0
  0
CLASS
  1
LAYOUT
  2
AcDbLayout
  3
AutoCAD 2000
 90
0
280
0
281
0
  0
ENDSEC
  0
SECTION
  2
TABLES
  0
TABLE
  2
VPORT
  5
8
100
AcDbSymbolTable
 70
2
  0
VPORT
  5
1F4
100
AcDbSymbolTableRecord
100
AcDbViewportTableRecord
  2
*ACTIVE
 70
0
 10
0.0
 20
0.0
 11
1.0
 21
1.0
 12
4318.0
 22
2794.0
 13
0.0
 23
0.0
 14
1.0
 24
1.0
 15
0.0
 25
0.0
 16
0.0
 26
0.0
 36
1.0
 17
0.0
 27
0.0
 37
0.0
 40
5588.0
 41
1.5454545455
 42
50.0
 43
0.0
 44
0.0
 50
0.0
 51
0.0
 71
0
 72
100
 73
1
 74
1
 75
0
 76
0
 77
0
 78
0
  0
ENDTAB
  0
TABLE
  2
LTYPE
  5
5
100
AcDbSymbolTable
 70
6
  0
LTYPE
  5
14
100
AcDbSymbolTableRecord
100
AcDbLinetypeTableRecord
  2
BYBLOCK
 70
0
  3

 72
65
 73
0
 40
0.0
  0
LTYPE
  5
15
100
AcDbSymbolTableRecord
100
AcDbLinetypeTableRecord
  2
BYLAYER
 70
0
  3

 72
65
 73
0
 40
0.0
  0
LTYPE
  5
16
100
AcDbSymbolTableRecord
100
AcDbLinetypeTableRecord
  2
CONTINUOUS
 70
64
  3
Solid line
 72
65
 73
0
 40
0.0
  0
LTYPE
  5
1F5
100
AcDbSymbolTableRecord
100
AcDbLinetypeTableRecord
  2
CENTER
 70
64
  3
____ _ ____ _ ____ _ ____ _ ____ _ ____ _ ____
 72
65
 73
4
 40
0.6
 49
0.375
 74
0
 49
-0.075
 74
0
 49
0.075
 74
0
 49
-0.075
 74
0
  0
LTYPE
  5
1F6
100
AcDbSymbolTableRecord
100
AcDbLinetypeTableRecord
  2
HIDDEN
 70
64
  3
- - - - - - - - - - - - - - - - - - - -
 72
65
 73
2
 40
0.2
 49
0.1
 74
0
 49
-0.1
 74
0
  0
LTYPE
  5
1F7
100
AcDbSymbolTableRecord
100
AcDbLinetypeTableRecord
  2
PHANTOM
 70
64
  3
_____ _ _ _____ _ _ _____ _ _ _____
 72
65
 73
6
 40
0.8
 49
0.45
 74
0
 49
-0.05
 74
0
 49
0.1
 74
0
 49
-0.05
 74
0
 49
0.1
 74
0
 49
-0.05
 74
0
  0
LTYPE
  5
1F8
100
AcDbSymbolTableRecord
100
AcDbLinetypeTableRecord
  2
DOT
 70
64
  3
. . . . . . . . . . . . . . . . . . . .
 72
65
 73
2
 40
0.2
 49
0.1
 74
0
 49
-0.1
 74
0
  0
LTYPE
  5
1F9
100
AcDbSymbolTableRecord
100
AcDbLinetypeTableRecord
  2
DASHED
 70
64
  3
- - - - - - - - - - - - - - - - - - - -
 72
65
 73
2
 40
0.2
 49
0.1
 74
0
 49
-0.1
 74
0
  0
ENDTAB
  0
TABLE
  2
LAYER
  5
2
100
AcDbSymbolTable
 70
36
  0
LAYER
  5
10
100
AcDbSymbolTableRecord
100
AcDbLayerTableRecord
  2
0
 70
0
 62
7
  6
CONTINUOUS
370
-3
390
F
  0
LAYER
  5
1FA
100
AcDbSymbolTableRecord
100
AcDbLayerTableRecord
  2
DEFAULT_1
 70
0
 62
7
  6
CENTER
370
-3
390
F
  0
LAYER
  5
1FB
100
AcDbSymbolTableRecord
100
AcDbLayerTableRecord
  2
DEFAULT_2
 70
0
 62
8
  6
HIDDEN
370
-3
390
F
  0
LAYER
  5
1FC
100
AcDbSymbolTableRecord
100
AcDbLayerTableRecord
  2
DEFAULT_3
 70
0
 62
7
  6
PHANTOM
370
-3
390
F
  0
LAYER
  5
1FD
100
AcDbSymbolTableRecord
100
AcDbLayerTableRecord
  2
1_ALL_PLANES
 70
0
 62
7
  6
CONTINUOUS
370
-3
390
F
  0
LAYER
  5
1FE
100
AcDbSymbolTableRecord
100
AcDbLayerTableRecord
  2
1__DEF_ASM_PLN
 70
0
 62
7
  6
CONTINUOUS
370
-3
390
F
  0
LAYER
  5
1FF
100
AcDbSymbolTableRecord
100
AcDbLayerTableRecord
  2
1__DEF_PLANES
 70
0
 62
7
  6
CONTINUOUS
370
-3
390
F
  0
LAYER
  5
200
100
AcDbSymbolTableRecord
100
AcDbLayerTableRecord
  2
2_ALL_CSYS
 70
0
 62
7
  6
CONTINUOUS
370
-3
390
F
  0
LAYER
  5
201
100
AcDbSymbolTableRecord
100
AcDbLayerTableRecord
  2
2__DEF_ASM_CSYS
 70
0
 62
7
  6
CONTINUOUS
370
-3
390
F
  0
LAYER
  5
202
100
AcDbSymbolTableRecord
100
AcDbLayerTableRecord
  2
2__DEF_CSYS
 70
0
 62
7
  6
CONTINUOUS
370
-3
390
F
  0
LAYER
  5
203
100
AcDbSymbolTableRecord
100
AcDbLayerTableRecord
  2
3_ALL_AXES
 70
0
 62
7
  6
CONTINUOUS
370
-3
390
F
  0
LAYER
  5
204
100
AcDbSymbolTableRecord
100
AcDbLayerTableRecord
  2
3_AXES_OTHER
 70
0
 62
7
  6
CONTINUOUS
370
-3
390
F
  0
LAYER
  5
205
100
AcDbSymbolTableRecord
100
AcDbLayerTableRecord
  2
3_HOLES
 70
0
 62
7
  6
CONTINUOUS
370
-3
390
F
  0
LAYER
  5
206
100
AcDbSymbolTableRecord
100
AcDbLayerTableRecord
  2
4_ALL_POINTS
 70
0
 62
7
  6
CONTINUOUS
370
-3
390
F
  0
LAYER
  5
207
100
AcDbSymbolTableRecord
100
AcDbLayerTableRecord
  2
5_ALL_CURVES
 70
0
 62
7
  6
CONTINUOUS
370
-3
390
F
  0
LAYER
  5
208
100
AcDbSymbolTableRecord
100
AcDbLayerTableRecord
  2
6_ALL_SURFS
 70
0
 62
7
  6
CONTINUOUS
370
-3
390
F
  0
LAYER
  5
209
100
AcDbSymbolTableRecord
100
AcDbLayerTableRecord
  2
6_COPYGEOM
 70
0
 62
7
  6
CONTINUOUS
370
-3
390
F
  0
LAYER
  5
20A
100
AcDbSymbolTableRecord
100
AcDbLayerTableRecord
  2
7_ALL_ROUNDS
 70
0
 62
7
  6
CONTINUOUS
370
-3
390
F
  0
LAYER
  5
20B
100
AcDbSymbolTableRecord
100
AcDbLayerTableRecord
  2
7_MERGES
 70
0
 62
7
  6
CONTINUOUS
370
-3
390
F
  0
LAYER
  5
20C
100
AcDbSymbolTableRecord
100
AcDbLayerTableRecord
  2
8_GDT
 70
0
 62
7
  6
CONTINUOUS
370
-3
390
F
  0
LAYER
  5
20D
100
AcDbSymbolTableRecord
100
AcDbLayerTableRecord
  2
8_SET_DATUMS
 70
0
 62
7
  6
CONTINUOUS
370
-3
390
F
  0
LAYER
  5
20E
100
AcDbSymbolTableRecord
100
AcDbLayerTableRecord
  2
9_COSMETICS
 70
0
 62
7
  6
CONTINUOUS
370
-3
390
F
  0
LAYER
  5
20F
100
AcDbSymbolTableRecord
100
AcDbLayerTableRecord
  2
9_THREADS
 70
0
 62
7
  6
CONTINUOUS
370
-3
390
F
  0
ENDTAB
  0
TABLE
  2
STYLE
  5
3
100
AcDbSymbolTable
 70
1
  0
STYLE
  5
11
100
AcDbSymbolTableRecord
100
AcDbTextStyleTableRecord
  2
STANDARD
 70
0
 40
0.0
 41
1.0
 50
0.0
 71
0
 42
0.2
  3
gothic.ttf
  4

  0
STYLE
  5
210
100
AcDbSymbolTableRecord
100
AcDbTextStyleTableRecord
  2
TEXTSTYLE_1
 70
0
 40
0.0
 41
0.8
 50
0.0
 71
0
 42
0.2
  3
gdt
  4

  0
STYLE
  5
211
100
AcDbSymbolTableRecord
100
AcDbTextStyleTableRecord
  2
TEXTSTYLE_2
 70
0
 40
0.0
 41
1.0
 50
0.0
 71
0
 42
0.2
  3
gothic.ttf
  4

  0
ENDTAB
  0
TABLE
  2
VIEW
  5
6
100
AcDbSymbolTable
 70
0
  0
ENDTAB
  0
TABLE
  2
UCS
  5
7
100
AcDbSymbolTable
 70
0
  0
ENDTAB
  0
TABLE
  2
APPID
  5
9
100
AcDbSymbolTable
 70
1
  0
APPID
  5
212
100
AcDbSymbolTableRecord
100
AcDbRegAppTableRecord
  2
ACAD
 70
0
  0
ENDTAB
  0
TABLE
  2
BLOCK_RECORD
  5
1
100
AcDbSymbolTable
 70
0
  0
BLOCK_RECORD
  5
213
100
AcDbSymbolTableRecord
100
AcDbBlockTableRecord
  2
*Model_Space
  0
BLOCK_RECORD
  5
214
100
AcDbSymbolTableRecord
100
AcDbBlockTableRecord
  2
*Paper_Space
  0
BLOCK_RECORD
  5
215
100
AcDbSymbolTableRecord
100
AcDbBlockTableRecord
  2
_FILLED
  0
BLOCK_RECORD
  5
216
100
AcDbSymbolTableRecord
100
AcDbBlockTableRecord
  2
*D0
  0
BLOCK_RECORD
  5
217
100
AcDbSymbolTableRecord
100
AcDbBlockTableRecord
  2
*D1
  0
BLOCK_RECORD
  5
218
100
AcDbSymbolTableRecord
100
AcDbBlockTableRecord
  2
*D2
  0
BLOCK_RECORD
  5
219
100
AcDbSymbolTableRecord
100
AcDbBlockTableRecord
  2
*D3
  0
BLOCK_RECORD
  5
21A
100
AcDbSymbolTableRecord
100
AcDbBlockTableRecord
  2
*D4
  0
BLOCK_RECORD
  5
21B
100
AcDbSymbolTableRecord
100
AcDbBlockTableRecord
  2
*D5
  0
BLOCK_RECORD
  5
21C
100
AcDbSymbolTableRecord
100
AcDbBlockTableRecord
  2
*D6
  0
BLOCK_RECORD
  5
21D
100
AcDbSymbolTableRecord
100
AcDbBlockTableRecord
  2
*D7
  0
BLOCK_RECORD
  5
21E
100
AcDbSymbolTableRecord
100
AcDbBlockTableRecord
  2
*D8
  0
BLOCK_RECORD
  5
21F
100
AcDbSymbolTableRecord
100
AcDbBlockTableRecord
  2
*D9
  0
BLOCK_RECORD
  5
220
100
AcDbSymbolTableRecord
100
AcDbBlockTableRecord
  2
*D10
  0
BLOCK_RECORD
  5
221
100
AcDbSymbolTableRecord
100
AcDbBlockTableRecord
  2
*D11
  0
BLOCK_RECORD
  5
222
100
AcDbSymbolTableRecord
100
AcDbBlockTableRecord
  2
CG_3D_BL4
  0
BLOCK_RECORD
  5
223
100
AcDbSymbolTableRecord
100
AcDbBlockTableRecord
  2
CG_3D_BL3
  0
BLOCK_RECORD
  5
224
100
AcDbSymbolTableRecord
100
AcDbBlockTableRecord
  2
CG_3D_BL2
  0
BLOCK_RECORD
  5
225
100
AcDbSymbolTableRecord
100
AcDbBlockTableRecord
  2
CG_3D_BL1
  0
BLOCK_RECORD
  5
226
100
AcDbSymbolTableRecord
100
AcDbBlockTableRecord
  2
CG_3D_BL0
  0
ENDTAB
  0
TABLE
  2
DIMSTYLE
  5
A
100
AcDbSymbolTable
 70
1
100
AcDbDimStyleTable
 71
0
  0
DIMSTYLE
105
227
100
AcDbSymbolTableRecord
100
AcDbDimStyleTableRecord
  2
STANDARD
 70
0
  3

  4

 40
1.0
 41
40.0
 42
1.5875
 43
0.38
 44
3.175
 45
0.0
 46
0.0
 47
0.02
 48
0.02
140
45.72
141
0.09
142
0.0
143
25.4
144
1.0
145
0.0
146
1.0
147
0.625
 71
1.0
 72
0.0
 73
1
 74
1
 75
0
 76
0
 77
0
 78
4
170
0
171
2
172
0
173
0
174
0
175
0
176
0
177
0
178
0
270
2
271
2
272
2
273
2
274
2
275
0
280
0
281
0
282
0
283
1
284
4
285
0
286
0
287
3
288
0
340
11
278
46
341
215
342
215
343
215
344
215
  0
DIMSTYLE
105
228
100
AcDbSymbolTableRecord
100
AcDbDimStyleTableRecord
  2
DIMSTYLE_1
 70
0
  3

  4

 40
1.0
 41
40.0
 42
1.5875
 43
0.38
 44
3.175
 45
0.0
 46
0.0
 47
0.01
 48
0.01
140
45.72
141
0.09
142
0.0
143
25.4
144
1.0
145
0.0
146
1.0
147
1.143
 71
0.0
 72
0.0
 73
1
 74
1
 75
0
 76
0
 77
0
 78
4
170
0
171
2
172
0
173
0
174
0
175
0
176
0
177
0
178
0
270
2
271
1
272
1
273
2
274
2
275
0
280
0
281
0
282
0
283
1
284
4
285
0
286
0
287
3
288
0
340
11
278
46
341
215
342
215
343
215
344
215
  0
ENDTAB
  0
ENDSEC
  0
SECTION
  2
BLOCKS
  0
BLOCK
  5
20
100
AcDbEntity
  8
0
100
AcDbBlockBegin
  2
*Model_Space
 70
0
 10
0.0
 20
0.0
 30
0.0
  3
*Model_Space
  1

  0
ENDBLK
  5
21
100
AcDbEntity
  8
0
100
AcDbBlockEnd
  0
BLOCK
  5
1C
100
AcDbEntity
  8
0
100
AcDbBlockBegin
  2
*Paper_Space
 70
0
 10
0.0
 20
0.0
 30
0.0
  3
*Paper_Space
  1

  0
ENDBLK
  5
1D
100
AcDbEntity
  8
0
100
AcDbBlockEnd
  0
BLOCK
  5
229
100
AcDbEntity
  8
0
100
AcDbBlockBegin
 62
2
  6
CONTINUOUS
  2
CG_3D_BL4
 70
64
 10
2651.7823664935
 20
2883.8345473774
  3
CG_3D_BL4
  1

  0
ARC
  5
22A
100
AcDbEntity
  8
0
100
AcDbCircle
 62
7
  6
CONTINUOUS
 10
2651.7823664935
 20
2883.8345473774
 40
47.752
100
AcDbArc
 50
90.0
 51
180.0
  0
ARC
  5
22B
100
AcDbEntity
  8
0
100
AcDbCircle
 62
7
  6
CONTINUOUS
 10
2651.7823664935
 20
2883.8345473774
 40
47.752
100
AcDbArc
 50
180.0
 51
270.0
  0
ARC
  5
22C
100
AcDbEntity
  8
0
100
AcDbCircle
 62
7
  6
CONTINUOUS
 10
2651.7823664935
 20
2883.8345473774
 40
47.752
100
AcDbArc
 50
270.0
 51
360.0
  0
ARC
  5
22D
100
AcDbEntity
  8
0
100
AcDbCircle
 62
7
  6
CONTINUOUS
 10
2651.7823664935
 20
2883.8345473774
 40
47.752
100
AcDbArc
 50
0.0
 51
90.0
  0
LINE
  5
22E
100
AcDbEntity
  8
0
100
AcDbLine
 62
7
  6
CONTINUOUS
 10
2651.7823664935
 20
2883.8345473774
 11
2699.5343664935
 21
2883.8345473774
  0
LINE
  5
22F
100
AcDbEntity
  8
0
100
AcDbLine
 62
7
  6
CONTINUOUS
 10
2651.7823664935
 20
2883.8345473774
 11
2651.7823664935
 21
2836.0825473774
  0
LINE
  5
230
100
AcDbEntity
  8
0
100
AcDbLine
 62
7
  6
CONTINUOUS
 10
2604.0303664935
 20
2883.8345473774
 11
2651.7823664935
 21
2883.8345473774
  0
LINE
  5
231
100
AcDbEntity
  8
0
100
AcDbLine
 62
7
  6
CONTINUOUS
 10
2651.7823664935
 20
2931.5865473774
 11
2651.7823664935
 21
2883.8345473774
  0
LINE
  5
232
100
AcDbEntity
  8
0
100
AcDbLine
 62
2
  6
CONTINUOUS
 10
2651.7823664935
 20
2883.5198302114
 11
2652.0970836594
 21
2883.8345473774
  0
LWPOLYLINE
  5
233
100
AcDbEntity
  8
0
100
AcDbPolyline
 62
7
  6
CONTINUOUS
 90
8
 70
0
 10
2651.7823664935
 20
2883.8345473774
 10
2651.7823664935
 20
2836.0825473774
 10
2666.5385460089
 20
2838.4196966112
 10
2679.850287861
 20
2845.202367862
 10
2690.4145460089
 20
2855.7666260099
 10
2697.1972172596
 20
2869.078367862
 10
2699.5343664935
 20
2883.8345473774
 10
2651.7823664935
 20
2883.8345473774
  0
HATCH
  5
234
100
AcDbEntity
  8
0
100
AcDbHatch
 62
7
  6
CONTINUOUS
 10
0.0
 20
0.0
 30
0.0
210
0.0
220
0.0
230
1.0
  2
SOLID
 70
1
 71
1
 91
1
 92
1
 93
7
 72
1
 10
2651.7823664935
 20
2883.8345473774
 11
2651.7823664935
 21
2836.0825473774
 72
1
 10
2651.7823664935
 20
2836.0825473774
 11
2666.5385460089
 21
2838.4196966112
 72
1
 10
2666.5385460089
 20
2838.4196966112
 11
2679.850287861
 21
2845.202367862
 72
1
 10
2679.850287861
 20
2845.202367862
 11
2690.4145460089
 21
2855.7666260099
 72
1
 10
2690.4145460089
 20
2855.7666260099
 11
2697.1972172596
 21
2869.078367862
 72
1
 10
2697.1972172596
 20
2869.078367862
 11
2699.5343664935
 21
2883.8345473774
 72
1
 10
2699.5343664935
 20
2883.8345473774
 11
2651.7823664935
 21
2883.8345473774
 97
1
330
233
 75
0
 76
1
 98
1
 10
0.0
 20
0.0
  0
LWPOLYLINE
  5
235
100
AcDbEntity
  8
0
100
AcDbPolyline
 62
7
  6
CONTINUOUS
 90
8
 70
0
 10
2651.7823664935
 20
2883.8345473774
 10
2604.0303664935
 20
2883.8345473774
 10
2606.3675157274
 20
2898.5907268928
 10
2613.1501869781
 20
2911.9024687448
 10
2623.714445126
 20
2922.4667268928
 10
2637.0261869781
 20
2929.2493981435
 10
2651.7823664935
 20
2931.5865473774
 10
2651.7823664935
 20
2883.8345473774
  0
HATCH
  5
236
100
AcDbEntity
  8
0
100
AcDbHatch
 62
7
  6
CONTINUOUS
 10
0.0
 20
0.0
 30
0.0
210
0.0
220
0.0
230
1.0
  2
SOLID
 70
1
 71
1
 91
1
 92
1
 93
7
 72
1
 10
2651.7823664935
 20
2883.8345473774
 11
2604.0303664935
 21
2883.8345473774
 72
1
 10
2604.0303664935
 20
2883.8345473774
 11
2606.3675157274
 21
2898.5907268928
 72
1
 10
2606.3675157274
 20
2898.5907268928
 11
2613.1501869781
 21
2911.9024687448
 72
1
 10
2613.1501869781
 20
2911.9024687448
 11
2623.714445126
 21
2922.4667268928
 72
1
 10
2623.714445126
 20
2922.4667268928
 11
2637.0261869781
 21
2929.2493981435
 72
1
 10
2637.0261869781
 20
2929.2493981435
 11
2651.7823664935
 21
2931.5865473774
 72
1
 10
2651.7823664935
 20
2931.5865473774
 11
2651.7823664935
 21
2883.8345473774
 97
1
330
235
 75
0
 76
1
 98
1
 10
0.0
 20
0.0
  0
ENDBLK
  5
237
100
AcDbEntity
  8
0
  6
BYBLOCK
 62
0
100
AcDbBlockEnd
  0
BLOCK
  5
238
100
AcDbEntity
  8
0
100
AcDbBlockBegin
 62
2
  6
CONTINUOUS
  2
CG_3D_BL3
 70
64
 10
1157.56970408
 20
2883.819769912
  3
CG_3D_BL3
  1

  0
ARC
  5
239
100
AcDbEntity
  8
0
100
AcDbCircle
 62
7
  6
CONTINUOUS
 10
1157.56970408
 20
2883.819769912
 40
47.752
100
AcDbArc
 50
90.0
 51
180.0
  0
ARC
  5
23A
100
AcDbEntity
  8
0
100
AcDbCircle
 62
7
  6
CONTINUOUS
 10
1157.56970408
 20
2883.819769912
 40
47.752
100
AcDbArc
 50
180.0
 51
270.0
  0
ARC
  5
23B
100
AcDbEntity
  8
0
100
AcDbCircle
 62
7
  6
CONTINUOUS
 10
1157.56970408
 20
2883.819769912
 40
47.752
100
AcDbArc
 50
270.0
 51
360.0
  0
ARC
  5
23C
100
AcDbEntity
  8
0
100
AcDbCircle
 62
7
  6
CONTINUOUS
 10
1157.56970408
 20
2883.819769912
 40
47.752
100
AcDbArc
 50
0.0
 51
90.0
  0
LINE
  5
23D
100
AcDbEntity
  8
0
100
AcDbLine
 62
7
  6
CONTINUOUS
 10
1157.56970408
 20
2883.819769912
 11
1205.32170408
 21
2883.819769912
  0
LINE
  5
23E
100
AcDbEntity
  8
0
100
AcDbLine
 62
7
  6
CONTINUOUS
 10
1157.56970408
 20
2883.819769912
 11
1157.56970408
 21
2836.067769912
  0
LINE
  5
23F
100
AcDbEntity
  8
0
100
AcDbLine
 62
7
  6
CONTINUOUS
 10
1109.81770408
 20
2883.819769912
 11
1157.56970408
 21
2883.819769912
  0
LINE
  5
240
100
AcDbEntity
  8
0
100
AcDbLine
 62
7
  6
CONTINUOUS
 10
1157.56970408
 20
2931.571769912
 11
1157.56970408
 21
2883.819769912
  0
LINE
  5
241
100
AcDbEntity
  8
0
100
AcDbLine
 62
2
  6
CONTINUOUS
 10
1157.56970408
 20
2883.5050527461
 11
1157.884421246
 21
2883.819769912
  0
LWPOLYLINE
  5
242
100
AcDbEntity
  8
0
100
AcDbPolyline
 62
7
  6
CONTINUOUS
 90
8
 70
0
 10
1157.56970408
 20
2883.819769912
 10
1157.56970408
 20
2836.067769912
 10
1172.3258835954
 20
2838.4049191459
 10
1185.6376254475
 20
2845.1875903966
 10
1196.2018835954
 20
2855.7518485445
 10
1202.9845548462
 20
2869.0635903966
 10
1205.32170408
 20
2883.819769912
 10
1157.56970408
 20
2883.819769912
  0
HATCH
  5
243
100
AcDbEntity
  8
0
100
AcDbHatch
 62
7
  6
CONTINUOUS
 10
0.0
 20
0.0
 30
0.0
210
0.0
220
0.0
230
1.0
  2
SOLID
 70
1
 71
1
 91
1
 92
1
 93
7
 72
1
 10
1157.56970408
 20
2883.819769912
 11
1157.56970408
 21
2836.067769912
 72
1
 10
1157.56970408
 20
2836.067769912
 11
1172.3258835954
 21
2838.4049191459
 72
1
 10
1172.3258835954
 20
2838.4049191459
 11
1185.6376254475
 21
2845.1875903966
 72
1
 10
1185.6376254475
 20
2845.1875903966
 11
1196.2018835954
 21
2855.7518485445
 72
1
 10
1196.2018835954
 20
2855.7518485445
 11
1202.9845548462
 21
2869.0635903966
 72
1
 10
1202.9845548462
 20
2869.0635903966
 11
1205.32170408
 21
2883.819769912
 72
1
 10
1205.32170408
 20
2883.819769912
 11
1157.56970408
 21
2883.819769912
 97
1
330
242
 75
0
 76
1
 98
1
 10
0.0
 20
0.0
  0
LWPOLYLINE
  5
244
100
AcDbEntity
  8
0
100
AcDbPolyline
 62
7
  6
CONTINUOUS
 90
8
 70
0
 10
1157.56970408
 20
2883.819769912
 10
1109.81770408
 20
2883.819769912
 10
1112.1548533139
 20
2898.5759494274
 10
1118.9375245647
 20
2911.8876912795
 10
1129.5017827126
 20
2922.4519494274
 10
1142.8135245647
 20
2929.2346206781
 10
1157.56970408
 20
2931.571769912
 10
1157.56970408
 20
2883.819769912
  0
HATCH
  5
245
100
AcDbEntity
  8
0
100
AcDbHatch
 62
7
  6
CONTINUOUS
 10
0.0
 20
0.0
 30
0.0
210
0.0
220
0.0
230
1.0
  2
SOLID
 70
1
 71
1
 91
1
 92
1
 93
7
 72
1
 10
1157.56970408
 20
2883.819769912
 11
1109.81770408
 21
2883.819769912
 72
1
 10
1109.81770408
 20
2883.819769912
 11
1112.1548533139
 21
2898.5759494274
 72
1
 10
1112.1548533139
 20
2898.5759494274
 11
1118.9375245647
 21
2911.8876912795
 72
1
 10
1118.9375245647
 20
2911.8876912795
 11
1129.5017827126
 21
2922.4519494274
 72
1
 10
1129.5017827126
 20
2922.4519494274
 11
1142.8135245647
 21
2929.2346206781
 72
1
 10
1142.8135245647
 20
2929.2346206781
 11
1157.56970408
 21
2931.571769912
 72
1
 10
1157.56970408
 20
2931.571769912
 11
1157.56970408
 21
2883.819769912
 97
1
330
244
 75
0
 76
1
 98
1
 10
0.0
 20
0.0
  0
ENDBLK
  5
246
100
AcDbEntity
  8
0
  6
BYBLOCK
 62
0
100
AcDbBlockEnd
  0
BLOCK
  5
247
100
AcDbEntity
  8
0
100
AcDbBlockBegin
 62
2
  6
CONTINUOUS
  2
CG_3D_BL2
 70
64
 10
7113.2007388482
 20
2393.095196513
  3
CG_3D_BL2
  1

  0
ARC
  5
248
100
AcDbEntity
  8
0
100
AcDbCircle
 62
7
  6
CONTINUOUS
 10
7113.2007388482
 20
2393.095196513
 40
47.752
100
AcDbArc
 50
90.0
 51
180.0
  0
ARC
  5
249
100
AcDbEntity
  8
0
100
AcDbCircle
 62
7
  6
CONTINUOUS
 10
7113.2007388482
 20
2393.095196513
 40
47.752
100
AcDbArc
 50
180.0
 51
270.0
  0
ARC
  5
24A
100
AcDbEntity
  8
0
100
AcDbCircle
 62
7
  6
CONTINUOUS
 10
7113.2007388482
 20
2393.095196513
 40
47.752
100
AcDbArc
 50
270.0
 51
360.0
  0
ARC
  5
24B
100
AcDbEntity
  8
0
100
AcDbCircle
 62
7
  6
CONTINUOUS
 10
7113.2007388482
 20
2393.095196513
 40
47.752
100
AcDbArc
 50
0.0
 51
90.0
  0
LINE
  5
24C
100
AcDbEntity
  8
0
100
AcDbLine
 62
7
  6
CONTINUOUS
 10
7113.2007388482
 20
2393.095196513
 11
7160.9527388482
 21
2393.095196513
  0
LINE
  5
24D
100
AcDbEntity
  8
0
100
AcDbLine
 62
7
  6
CONTINUOUS
 10
7113.2007388482
 20
2393.095196513
 11
7113.2007388482
 21
2345.343196513
  0
LINE
  5
24E
100
AcDbEntity
  8
0
100
AcDbLine
 62
7
  6
CONTINUOUS
 10
7065.4487388482
 20
2393.095196513
 11
7113.2007388482
 21
2393.095196513
  0
LINE
  5
24F
100
AcDbEntity
  8
0
100
AcDbLine
 62
7
  6
CONTINUOUS
 10
7113.2007388482
 20
2440.847196513
 11
7113.2007388482
 21
2393.095196513
  0
LINE
  5
250
100
AcDbEntity
  8
0
100
AcDbLine
 62
2
  6
CONTINUOUS
 10
7113.2007388482
 20
2392.7804793471
 11
7113.5154560142
 21
2393.095196513
  0
LWPOLYLINE
  5
251
100
AcDbEntity
  8
0
100
AcDbPolyline
 62
7
  6
CONTINUOUS
 90
8
 70
0
 10
7113.2007388482
 20
2393.095196513
 10
7113.2007388482
 20
2345.343196513
 10
7127.9569183636
 20
2347.6803457469
 10
7141.2686602157
 20
2354.4630169976
 10
7151.8329183636
 20
2365.0272751455
 10
7158.6155896144
 20
2378.3390169976
 10
7160.9527388482
 20
2393.095196513
 10
7113.2007388482
 20
2393.095196513
  0
HATCH
  5
252
100
AcDbEntity
  8
0
100
AcDbHatch
 62
7
  6
CONTINUOUS
 10
0.0
 20
0.0
 30
0.0
210
0.0
220
0.0
230
1.0
  2
SOLID
 70
1
 71
1
 91
1
 92
1
 93
7
 72
1
 10
7113.2007388482
 20
2393.095196513
 11
7113.2007388482
 21
2345.343196513
 72
1
 10
7113.2007388482
 20
2345.343196513
 11
7127.9569183636
 21
2347.6803457469
 72
1
 10
7127.9569183636
 20
2347.6803457469
 11
7141.2686602157
 21
2354.4630169976
 72
1
 10
7141.2686602157
 20
2354.4630169976
 11
7151.8329183636
 21
2365.0272751455
 72
1
 10
7151.8329183636
 20
2365.0272751455
 11
7158.6155896144
 21
2378.3390169976
 72
1
 10
7158.6155896144
 20
2378.3390169976
 11
7160.9527388482
 21
2393.095196513
 72
1
 10
7160.9527388482
 20
2393.095196513
 11
7113.2007388482
 21
2393.095196513
 97
1
330
251
 75
0
 76
1
 98
1
 10
0.0
 20
0.0
  0
LWPOLYLINE
  5
253
100
AcDbEntity
  8
0
100
AcDbPolyline
 62
7
  6
CONTINUOUS
 90
8
 70
0
 10
7113.2007388482
 20
2393.095196513
 10
7065.4487388482
 20
2393.095196513
 10
7067.7858880821
 20
2407.8513760284
 10
7074.5685593328
 20
2421.1631178805
 10
7085.1328174808
 20
2431.7273760284
 10
7098.4445593328
 20
2438.5100472791
 10
7113.2007388482
 20
2440.847196513
 10
7113.2007388482
 20
2393.095196513
  0
HATCH
  5
254
100
AcDbEntity
  8
0
100
AcDbHatch
 62
7
  6
CONTINUOUS
 10
0.0
 20
0.0
 30
0.0
210
0.0
220
0.0
230
1.0
  2
SOLID
 70
1
 71
1
 91
1
 92
1
 93
7
 72
1
 10
7113.2007388482
 20
2393.095196513
 11
7065.4487388482
 21
2393.095196513
 72
1
 10
7065.4487388482
 20
2393.095196513
 11
7067.7858880821
 21
2407.8513760284
 72
1
 10
7067.7858880821
 20
2407.8513760284
 11
7074.5685593328
 21
2421.1631178805
 72
1
 10
7074.5685593328
 20
2421.1631178805
 11
7085.1328174808
 21
2431.7273760284
 72
1
 10
7085.1328174808
 20
2431.7273760284
 11
7098.4445593328
 21
2438.5100472791
 72
1
 10
7098.4445593328
 20
2438.5100472791
 11
7113.2007388482
 21
2440.847196513
 72
1
 10
7113.2007388482
 20
2440.847196513
 11
7113.2007388482
 21
2393.095196513
 97
1
330
253
 75
0
 76
1
 98
1
 10
0.0
 20
0.0
  0
ENDBLK
  5
255
100
AcDbEntity
  8
0
  6
BYBLOCK
 62
0
100
AcDbBlockEnd
  0
BLOCK
  5
256
100
AcDbEntity
  8
0
100
AcDbBlockBegin
 62
2
  6
CONTINUOUS
  2
CG_3D_BL1
 70
64
 10
5060.3897089669
 20
2393.1213575854
  3
CG_3D_BL1
  1

  0
ARC
  5
257
100
AcDbEntity
  8
0
100
AcDbCircle
 62
7
  6
CONTINUOUS
 10
5060.3897089669
 20
2393.1213575854
 40
47.752
100
AcDbArc
 50
90.0
 51
180.0
  0
ARC
  5
258
100
AcDbEntity
  8
0
100
AcDbCircle
 62
7
  6
CONTINUOUS
 10
5060.3897089669
 20
2393.1213575854
 40
47.752
100
AcDbArc
 50
180.0
 51
270.0
  0
ARC
  5
259
100
AcDbEntity
  8
0
100
AcDbCircle
 62
7
  6
CONTINUOUS
 10
5060.3897089669
 20
2393.1213575854
 40
47.752
100
AcDbArc
 50
270.0
 51
360.0
  0
ARC
  5
25A
100
AcDbEntity
  8
0
100
AcDbCircle
 62
7
  6
CONTINUOUS
 10
5060.3897089669
 20
2393.1213575854
 40
47.752
100
AcDbArc
 50
0.0
 51
90.0
  0
LINE
  5
25B
100
AcDbEntity
  8
0
100
AcDbLine
 62
7
  6
CONTINUOUS
 10
5060.3897089669
 20
2393.1213575854
 11
5108.1417089669
 21
2393.1213575854
  0
LINE
  5
25C
100
AcDbEntity
  8
0
100
AcDbLine
 62
7
  6
CONTINUOUS
 10
5060.3897089669
 20
2393.1213575854
 11
5060.3897089669
 21
2345.3693575854
  0
LINE
  5
25D
100
AcDbEntity
  8
0
100
AcDbLine
 62
7
  6
CONTINUOUS
 10
5012.6377089669
 20
2393.1213575854
 11
5060.3897089669
 21
2393.1213575854
  0
LINE
  5
25E
100
AcDbEntity
  8
0
100
AcDbLine
 62
7
  6
CONTINUOUS
 10
5060.3897089669
 20
2440.8733575854
 11
5060.3897089669
 21
2393.1213575854
  0
LINE
  5
25F
100
AcDbEntity
  8
0
100
AcDbLine
 62
2
  6
CONTINUOUS
 10
5060.3897089669
 20
2392.8066404195
 11
5060.7044261328
 21
2393.1213575854
  0
LWPOLYLINE
  5
260
100
AcDbEntity
  8
0
100
AcDbPolyline
 62
7
  6
CONTINUOUS
 90
8
 70
0
 10
5060.3897089669
 20
2393.1213575854
 10
5060.3897089669
 20
2345.3693575854
 10
5075.1458884823
 20
2347.7065068193
 10
5088.4576303344
 20
2354.48917807
 10
5099.0218884823
 20
2365.0534362179
 10
5105.804559733
 20
2378.36517807
 10
5108.1417089669
 20
2393.1213575854
 10
5060.3897089669
 20
2393.1213575854
  0
HATCH
  5
261
100
AcDbEntity
  8
0
100
AcDbHatch
 62
7
  6
CONTINUOUS
 10
0.0
 20
0.0
 30
0.0
210
0.0
220
0.0
230
1.0
  2
SOLID
 70
1
 71
1
 91
1
 92
1
 93
7
 72
1
 10
5060.3897089669
 20
2393.1213575854
 11
5060.3897089669
 21
2345.3693575854
 72
1
 10
5060.3897089669
 20
2345.3693575854
 11
5075.1458884823
 21
2347.7065068193
 72
1
 10
5075.1458884823
 20
2347.7065068193
 11
5088.4576303344
 21
2354.48917807
 72
1
 10
5088.4576303344
 20
2354.48917807
 11
5099.0218884823
 21
2365.0534362179
 72
1
 10
5099.0218884823
 20
2365.0534362179
 11
5105.804559733
 21
2378.36517807
 72
1
 10
5105.804559733
 20
2378.36517807
 11
5108.1417089669
 21
2393.1213575854
 72
1
 10
5108.1417089669
 20
2393.1213575854
 11
5060.3897089669
 21
2393.1213575854
 97
1
330
260
 75
0
 76
1
 98
1
 10
0.0
 20
0.0
  0
LWPOLYLINE
  5
262
100
AcDbEntity
  8
0
100
AcDbPolyline
 62
7
  6
CONTINUOUS
 90
8
 70
0
 10
5060.3897089669
 20
2393.1213575854
 10
5012.6377089669
 20
2393.1213575854
 10
5014.9748582008
 20
2407.8775371008
 10
5021.7575294515
 20
2421.1892789529
 10
5032.3217875994
 20
2431.7535371008
 10
5045.6335294515
 20
2438.5362083515
 10
5060.3897089669
 20
2440.8733575854
 10
5060.3897089669
 20
2393.1213575854
  0
HATCH
  5
263
100
AcDbEntity
  8
0
100
AcDbHatch
 62
7
  6
CONTINUOUS
 10
0.0
 20
0.0
 30
0.0
210
0.0
220
0.0
230
1.0
  2
SOLID
 70
1
 71
1
 91
1
 92
1
 93
7
 72
1
 10
5060.3897089669
 20
2393.1213575854
 11
5012.6377089669
 21
2393.1213575854
 72
1
 10
5012.6377089669
 20
2393.1213575854
 11
5014.9748582008
 21
2407.8775371008
 72
1
 10
5014.9748582008
 20
2407.8775371008
 11
5021.7575294515
 21
2421.1892789529
 72
1
 10
5021.7575294515
 20
2421.1892789529
 11
5032.3217875994
 21
2431.7535371008
 72
1
 10
5032.3217875994
 20
2431.7535371008
 11
5045.6335294515
 21
2438.5362083515
 72
1
 10
5045.6335294515
 20
2438.5362083515
 11
5060.3897089669
 21
2440.8733575854
 72
1
 10
5060.3897089669
 20
2440.8733575854
 11
5060.3897089669
 21
2393.1213575854
 97
1
330
262
 75
0
 76
1
 98
1
 10
0.0
 20
0.0
  0
ENDBLK
  5
264
100
AcDbEntity
  8
0
  6
BYBLOCK
 62
0
100
AcDbBlockEnd
  0
BLOCK
  5
265
100
AcDbEntity
  8
0
100
AcDbBlockBegin
 62
2
  6
CONTINUOUS
  2
CG_3D_BL0
 70
64
 10
848.2305376952
 20
1004.0984758189
  3
CG_3D_BL0
  1

  0
ARC
  5
266
100
AcDbEntity
  8
0
100
AcDbCircle
 62
7
  6
CONTINUOUS
 10
848.2305376952
 20
1004.0984758189
 40
47.752
100
AcDbArc
 50
90.0
 51
180.0
  0
ARC
  5
267
100
AcDbEntity
  8
0
100
AcDbCircle
 62
7
  6
CONTINUOUS
 10
848.2305376952
 20
1004.0984758189
 40
47.752
100
AcDbArc
 50
180.0
 51
270.0
  0
ARC
  5
268
100
AcDbEntity
  8
0
100
AcDbCircle
 62
7
  6
CONTINUOUS
 10
848.2305376952
 20
1004.0984758189
 40
47.752
100
AcDbArc
 50
270.0
 51
360.0
  0
ARC
  5
269
100
AcDbEntity
  8
0
100
AcDbCircle
 62
7
  6
CONTINUOUS
 10
848.2305376952
 20
1004.0984758189
 40
47.752
100
AcDbArc
 50
0.0
 51
90.0
  0
LINE
  5
26A
100
AcDbEntity
  8
0
100
AcDbLine
 62
7
  6
CONTINUOUS
 10
848.2305376952
 20
1004.0984758189
 11
895.9825376952
 21
1004.0984758189
  0
LINE
  5
26B
100
AcDbEntity
  8
0
100
AcDbLine
 62
7
  6
CONTINUOUS
 10
848.2305376952
 20
1004.0984758189
 11
848.2305376952
 21
956.3464758189
  0
LINE
  5
26C
100
AcDbEntity
  8
0
100
AcDbLine
 62
7
  6
CONTINUOUS
 10
800.4785376952
 20
1004.0984758189
 11
848.2305376952
 21
1004.0984758189
  0
LINE
  5
26D
100
AcDbEntity
  8
0
100
AcDbLine
 62
7
  6
CONTINUOUS
 10
848.2305376952
 20
1051.8504758189
 11
848.2305376952
 21
1004.0984758189
  0
LINE
  5
26E
100
AcDbEntity
  8
0
100
AcDbLine
 62
2
  6
CONTINUOUS
 10
848.2305376952
 20
1003.7837586529
 11
848.5452548612
 21
1004.0984758189
  0
LWPOLYLINE
  5
26F
100
AcDbEntity
  8
0
100
AcDbPolyline
 62
7
  6
CONTINUOUS
 90
8
 70
0
 10
848.2305376952
 20
1004.0984758189
 10
848.2305376952
 20
956.3464758189
 10
862.9867172106
 20
958.6836250528
 10
876.2984590627
 20
965.4662963035
 10
886.8627172106
 20
976.0305544514
 10
893.6453884614
 20
989.3422963035
 10
895.9825376952
 20
1004.0984758189
 10
848.2305376952
 20
1004.0984758189
  0
HATCH
  5
270
100
AcDbEntity
  8
0
100
AcDbHatch
 62
7
  6
CONTINUOUS
 10
0.0
 20
0.0
 30
0.0
210
0.0
220
0.0
230
1.0
  2
SOLID
 70
1
 71
1
 91
1
 92
1
 93
7
 72
1
 10
848.2305376952
 20
1004.0984758189
 11
848.2305376952
 21
956.3464758189
 72
1
 10
848.2305376952
 20
956.3464758189
 11
862.9867172106
 21
958.6836250528
 72
1
 10
862.9867172106
 20
958.6836250528
 11
876.2984590627
 21
965.4662963035
 72
1
 10
876.2984590627
 20
965.4662963035
 11
886.8627172106
 21
976.0305544514
 72
1
 10
886.8627172106
 20
976.0305544514
 11
893.6453884614
 21
989.3422963035
 72
1
 10
893.6453884614
 20
989.3422963035
 11
895.9825376952
 21
1004.0984758189
 72
1
 10
895.9825376952
 20
1004.0984758189
 11
848.2305376952
 21
1004.0984758189
 97
1
330
26F
 75
0
 76
1
 98
1
 10
0.0
 20
0.0
  0
LWPOLYLINE
  5
271
100
AcDbEntity
  8
0
100
AcDbPolyline
 62
7
  6
CONTINUOUS
 90
8
 70
0
 10
848.2305376952
 20
1004.0984758189
 10
800.4785376952
 20
1004.0984758189
 10
802.8156869291
 20
1018.8546553343
 10
809.5983581798
 20
1032.1663971864
 10
820.1626163278
 20
1042.7306553343
 10
833.4743581798
 20
1049.513326585
 10
848.2305376952
 20
1051.8504758189
 10
848.2305376952
 20
1004.0984758189
  0
HATCH
  5
272
100
AcDbEntity
  8
0
100
AcDbHatch
 62
7
  6
CONTINUOUS
 10
0.0
 20
0.0
 30
0.0
210
0.0
220
0.0
230
1.0
  2
SOLID
 70
1
 71
1
 91
1
 92
1
 93
7
 72
1
 10
848.2305376952
 20
1004.0984758189
 11
800.4785376952
 21
1004.0984758189
 72
1
 10
800.4785376952
 20
1004.0984758189
 11
802.8156869291
 21
1018.8546553343
 72
1
 10
802.8156869291
 20
1018.8546553343
 11
809.5983581798
 21
1032.1663971864
 72
1
 10
809.5983581798
 20
1032.1663971864
 11
820.1626163278
 21
1042.7306553343
 72
1
 10
820.1626163278
 20
1042.7306553343
 11
833.4743581798
 21
1049.513326585
 72
1
 10
833.4743581798
 20
1049.513326585
 11
848.2305376952
 21
1051.8504758189
 72
1
 10
848.2305376952
 20
1051.8504758189
 11
848.2305376952
 21
1004.0984758189
 97
1
330
271
 75
0
 76
1
 98
1
 10
0.0
 20
0.0
  0
ENDBLK
  5
273
100
AcDbEntity
  8
0
  6
BYBLOCK
 62
0
100
AcDbBlockEnd
  0
BLOCK
  5
274
100
AcDbEntity
  8
0
100
AcDbBlockBegin
  2
_FILLED
 70
64
 10
0.0
 20
0.0
  3
_FILLED
  1

  0
SOLID
  5
275
100
AcDbEntity
  8
0
  6
BYBLOCK
 62
0
100
AcDbTrace
 10
0.0
 20
0.0
 11
-1.0
 21
0.1275
 12
-1.0
 22
-0.1275
 13
-1.0
 23
-0.1275
  0
ENDBLK
  5
276
100
AcDbEntity
  8
0
  6
BYBLOCK
 62
0
100
AcDbBlockEnd
  0
BLOCK
  5
277
100
AcDbEntity
  8
0
100
AcDbBlockBegin
 62
2
  6
CONTINUOUS
  2
*D0
 70
65
 10
0.0
 20
0.0
  3
*D0
  1

  0
MTEXT
  5
278
100
AcDbEntity
  8
0
100
AcDbMText
 62
2
  6
CONTINUOUS
  7
STANDARD
 71
2
 72
1
 10
2610.2893649739
 20
4180.4088092908
 30
0.0
 11
1.0
 21
0.0
 31
0.0
 44
0.9
  1
482,6\P[19.00]
 40
45.72
 41
203.9553903346
  0
LINE
  5
279
100
AcDbEntity
  8
0
100
AcDbLine
 62
2
  6
CONTINUOUS
 10
2391.4244579107
 20
3951.5688616405
 11
2391.4244579107
 21
4221.0488092908
  0
LINE
  5
27A
100
AcDbEntity
  8
0
100
AcDbLine
 62
2
  6
CONTINUOUS
 10
2874.0244579107
 20
3951.5688616405
 11
2874.0244579107
 21
4221.0488092908
  0
LINE
  5
27B
100
AcDbEntity
  8
0
100
AcDbLine
 62
2
  6
CONTINUOUS
 10
2391.4244579107
 20
4157.5488092908
 11
2507.8867627434
 21
4157.5488092908
  0
LINE
  5
27C
100
AcDbEntity
  8
0
100
AcDbLine
 62
2
  6
CONTINUOUS
 10
2874.0244579107
 20
4157.5488092908
 11
2757.562153078
 21
4157.5488092908
  0
INSERT
  5
27D
100
AcDbEntity
  8
0
100
AcDbBlockReference
 62
2
  6
CONTINUOUS
  2
_FILLED
 10
2391.4244579107
 20
4157.5488092908
 41
40.0
 42
40.0
 43
40.0
 50
180.0
  0
INSERT
  5
27E
100
AcDbEntity
  8
0
100
AcDbBlockReference
 62
2
  6
CONTINUOUS
  2
_FILLED
 10
2874.0244579107
 20
4157.5488092908
 41
40.0
 42
40.0
 43
40.0
  0
ENDBLK
  5
27F
100
AcDbEntity
  8
0
  6
BYBLOCK
 62
0
100
AcDbBlockEnd
  0
BLOCK
  5
280
100
AcDbEntity
  8
0
100
AcDbBlockBegin
 62
2
  6
CONTINUOUS
  2
*D1
 70
65
 10
0.0
 20
0.0
  3
*D1
  1

  0
MTEXT
  5
281
100
AcDbEntity
  8
0
100
AcDbMText
 62
2
  6
CONTINUOUS
  7
STANDARD
 71
2
 72
1
 10
1135.1132503579
 20
4530.1238673856
 30
0.0
 11
1.0
 21
0.0
 31
0.0
 44
0.9
  1
800,1\P[31.50]
 40
45.72
 41
203.9553903346
  0
LINE
  5
282
100
AcDbEntity
  8
0
100
AcDbLine
 62
2
  6
CONTINUOUS
 10
1557.5983432947
 20
4604.2733899511
 11
1557.5983432947
 21
4443.7638673856
  0
LINE
  5
283
100
AcDbEntity
  8
0
100
AcDbLine
 62
2
  6
CONTINUOUS
 10
757.4983432947
 20
4604.273389951
 11
757.4983432947
 21
4443.7638673856
  0
LINE
  5
284
100
AcDbEntity
  8
0
100
AcDbLine
 62
2
  6
CONTINUOUS
 10
1557.5983432947
 20
4507.2638673856
 11
1282.386038462
 21
4507.2638673856
  0
LINE
  5
285
100
AcDbEntity
  8
0
100
AcDbLine
 62
2
  6
CONTINUOUS
 10
757.4983432947
 20
4507.2638673856
 11
1032.7106481274
 21
4507.2638673856
  0
INSERT
  5
286
100
AcDbEntity
  8
0
100
AcDbBlockReference
 62
2
  6
CONTINUOUS
  2
_FILLED
 10
1557.5983432947
 20
4507.2638673856
 41
40.0
 42
40.0
 43
40.0
  0
INSERT
  5
287
100
AcDbEntity
  8
0
100
AcDbBlockReference
 62
2
  6
CONTINUOUS
  2
_FILLED
 10
757.4983432947
 20
4507.2638673856
 41
40.0
 42
40.0
 43
40.0
 50
180.0
  0
ENDBLK
  5
288
100
AcDbEntity
  8
0
  6
BYBLOCK
 62
0
100
AcDbBlockEnd
  0
BLOCK
  5
289
100
AcDbEntity
  8
0
100
AcDbBlockBegin
 62
2
  6
CONTINUOUS
  2
*D2
 70
65
 10
0.0
 20
0.0
  3
*D2
  1

  0
MTEXT
  5
28A
100
AcDbEntity
  8
0
100
AcDbMText
 62
2
  6
CONTINUOUS
  7
STANDARD
 71
2
 72
1
 10
1912.9672891398
 20
2932.6788616405
 30
0.0
 11
1.0
 21
0.0
 31
0.0
 44
0.9
  1
2032,0\P[80.00]
 40
45.72
 41
203.9553903346
  0
LINE
  5
28B
100
AcDbEntity
  8
0
100
AcDbLine
 62
2
  6
CONTINUOUS
 10
1583.3483432947
 20
3925.8188616405
 11
1981.2262482476
 21
3925.8188616405
  0
LINE
  5
28C
100
AcDbEntity
  8
0
100
AcDbLine
 62
2
  6
CONTINUOUS
 10
1583.3483432947
 20
1893.8188616405
 11
1981.2262482476
 21
1893.8188616405
  0
LINE
  5
28D
100
AcDbEntity
  8
0
100
AcDbLine
 62
2
  6
CONTINUOUS
 10
1917.7262482476
 20
3925.8188616405
 11
1917.7262482476
 21
2955.5388616405
  0
LINE
  5
28E
100
AcDbEntity
  8
0
100
AcDbLine
 62
2
  6
CONTINUOUS
 10
1917.7262482476
 20
1893.8188616405
 11
1917.7262482476
 21
2795.5188616405
  0
INSERT
  5
28F
100
AcDbEntity
  8
0
100
AcDbBlockReference
 62
2
  6
CONTINUOUS
  2
_FILLED
 10
1917.7262482476
 20
3925.8188616405
 41
40.0
 42
40.0
 43
40.0
 50
90.0
  0
INSERT
  5
290
100
AcDbEntity
  8
0
100
AcDbBlockReference
 62
2
  6
CONTINUOUS
  2
_FILLED
 10
1917.7262482476
 20
1893.8188616405
 41
40.0
 42
40.0
 43
40.0
 50
270.0
  0
ENDBLK
  5
291
100
AcDbEntity
  8
0
  6
BYBLOCK
 62
0
100
AcDbBlockEnd
  0
BLOCK
  5
292
100
AcDbEntity
  8
0
100
AcDbBlockBegin
 62
2
  6
CONTINUOUS
  2
*D3
 70
65
 10
0.0
 20
0.0
  3
*D3
  1

  0
MTEXT
  5
293
100
AcDbEntity
  8
0
100
AcDbMText
 62
2
  6
CONTINUOUS
  7
STANDARD
 71
2
 72
1
 10
6148.2560677402
 20
2478.6789837024
 30
0.0
 11
1.0
 21
0.0
 31
0.0
 44
0.9
  1
1016,0\P[40.00]
 40
45.72
 41
203.9553903346
  0
LINE
  5
294
100
AcDbEntity
  8
0
100
AcDbLine
 62
2
  6
CONTINUOUS
 10
5846.2756132975
 20
2904.1346840813
 11
6216.515026848
 21
2904.1346840813
  0
LINE
  5
295
100
AcDbEntity
  8
0
100
AcDbLine
 62
2
  6
CONTINUOUS
 10
5846.2756132975
 20
1888.1346840813
 11
6216.515026848
 21
1888.1346840813
  0
LINE
  5
296
100
AcDbEntity
  8
0
100
AcDbLine
 62
2
  6
CONTINUOUS
 10
6153.015026848
 20
2904.1346840813
 11
6153.015026848
 21
2501.5389837024
  0
LINE
  5
297
100
AcDbEntity
  8
0
100
AcDbLine
 62
2
  6
CONTINUOUS
 10
6153.015026848
 20
1888.1346840813
 11
6153.015026848
 21
2341.5189837024
  0
INSERT
  5
298
100
AcDbEntity
  8
0
100
AcDbBlockReference
 62
2
  6
CONTINUOUS
  2
_FILLED
 10
6153.015026848
 20
2904.1346840813
 41
40.0
 42
40.0
 43
40.0
 50
90.0
  0
INSERT
  5
299
100
AcDbEntity
  8
0
100
AcDbBlockReference
 62
2
  6
CONTINUOUS
  2
_FILLED
 10
6153.015026848
 20
1888.1346840813
 41
40.0
 42
40.0
 43
40.0
 50
270.0
  0
ENDBLK
  5
29A
100
AcDbEntity
  8
0
  6
BYBLOCK
 62
0
100
AcDbBlockEnd
  0
BLOCK
  5
29B
100
AcDbEntity
  8
0
100
AcDbBlockBegin
 62
2
  6
CONTINUOUS
  2
*D4
 70
65
 10
0.0
 20
0.0
  3
*D4
  1

  0
MTEXT
  5
29C
100
AcDbEntity
  8
0
100
AcDbMText
 62
2
  6
CONTINUOUS
  7
STANDARD
 71
2
 72
1
 10
7065.185395862
 20
3137.6013895978
 30
0.0
 11
1.0
 21
0.0
 31
0.0
 44
0.9
  1
482,6\P[19.00]
 40
45.72
 41
203.9553903346
  0
LINE
  5
29D
100
AcDbEntity
  8
0
100
AcDbLine
 62
2
  6
CONTINUOUS
 10
6846.3204887988
 20
2929.8846840813
 11
6846.3204887988
 21
3178.2413895978
  0
LINE
  5
29E
100
AcDbEntity
  8
0
100
AcDbLine
 62
2
  6
CONTINUOUS
 10
7328.9204887988
 20
2929.8846840813
 11
7328.9204887988
 21
3178.2413895978
  0
LINE
  5
29F
100
AcDbEntity
  8
0
100
AcDbLine
 62
2
  6
CONTINUOUS
 10
6846.3204887988
 20
3114.7413895978
 11
6962.7827936315
 21
3114.7413895978
  0
LINE
  5
2A0
100
AcDbEntity
  8
0
100
AcDbLine
 62
2
  6
CONTINUOUS
 10
7328.9204887988
 20
3114.7413895978
 11
7212.4581839661
 21
3114.7413895978
  0
INSERT
  5
2A1
100
AcDbEntity
  8
0
100
AcDbBlockReference
 62
2
  6
CONTINUOUS
  2
_FILLED
 10
6846.3204887988
 20
3114.7413895978
 41
40.0
 42
40.0
 43
40.0
 50
180.0
  0
INSERT
  5
2A2
100
AcDbEntity
  8
0
100
AcDbBlockReference
 62
2
  6
CONTINUOUS
  2
_FILLED
 10
7328.9204887988
 20
3114.7413895978
 41
40.0
 42
40.0
 43
40.0
  0
ENDBLK
  5
2A3
100
AcDbEntity
  8
0
  6
BYBLOCK
 62
0
100
AcDbBlockEnd
  0
BLOCK
  5
2A4
100
AcDbEntity
  8
0
100
AcDbBlockBegin
 62
2
  6
CONTINUOUS
  2
*D5
 70
65
 10
0.0
 20
0.0
  3
*D5
  1

  0
MTEXT
  5
2A5
100
AcDbEntity
  8
0
100
AcDbMText
 62
2
  6
CONTINUOUS
  7
STANDARD
 71
2
 72
1
 10
5015.6666541897
 20
3805.6454094676
 30
0.0
 11
1.0
 21
0.0
 31
0.0
 44
0.9
  1
1600,2\P[63.00]
 40
45.72
 41
203.9553903346
  0
LINE
  5
2A6
100
AcDbEntity
  8
0
100
AcDbLine
 62
2
  6
CONTINUOUS
 10
5820.5256132975
 20
3935.6921453902
 11
5820.5256132975
 21
3719.2854094676
  0
LINE
  5
2A7
100
AcDbEntity
  8
0
100
AcDbLine
 62
2
  6
CONTINUOUS
 10
4220.3256132975
 20
3935.6921453901
 11
4220.3256132975
 21
3719.2854094676
  0
LINE
  5
2A8
100
AcDbEntity
  8
0
100
AcDbLine
 62
2
  6
CONTINUOUS
 10
5820.5256132975
 20
3782.7854094676
 11
5145.2633084648
 21
3782.7854094676
  0
LINE
  5
2A9
100
AcDbEntity
  8
0
100
AcDbLine
 62
2
  6
CONTINUOUS
 10
4220.3256132975
 20
3782.7854094676
 11
4895.5879181302
 21
3782.7854094676
  0
INSERT
  5
2AA
100
AcDbEntity
  8
0
100
AcDbBlockReference
 62
2
  6
CONTINUOUS
  2
_FILLED
 10
5820.5256132975
 20
3782.7854094676
 41
40.0
 42
40.0
 43
40.0
  0
INSERT
  5
2AB
100
AcDbEntity
  8
0
100
AcDbBlockReference
 62
2
  6
CONTINUOUS
  2
_FILLED
 10
4220.3256132975
 20
3782.7854094676
 41
40.0
 42
40.0
 43
40.0
 50
180.0
  0
ENDBLK
  5
2AC
100
AcDbEntity
  8
0
  6
BYBLOCK
 62
0
100
AcDbBlockEnd
  0
BLOCK
  5
2AD
100
AcDbEntity
  8
0
100
AcDbBlockBegin
 62
2
  6
CONTINUOUS
  2
*D6
 70
65
 10
0.0
 20
0.0
  3
*D6
  1

  0
MTEXT
  5
2AE
100
AcDbEntity
  8
0
100
AcDbMText
 62
2
  6
CONTINUOUS
  7
STANDARD
 71
2
 72
1
 10
1335.1382503579
 20
4181.0004466221
 30
0.0
 11
1.0
 21
0.0
 31
0.0
 44
0.9
  1
400,1\P[15.75]
 40
45.72
 41
203.9553903346
  0
LINE
  5
2AF
100
AcDbEntity
  8
0
100
AcDbLine
 62
2
  6
CONTINUOUS
 10
1557.5983432947
 20
3951.5688616405
 11
1557.5983432947
 21
4221.6404466221
  0
LINE
  5
2B0
100
AcDbEntity
  8
0
100
AcDbLine
 62
2
  6
CONTINUOUS
 10
1157.5483432947
 20
3956.0206033799
 11
1157.5483432947
 21
4221.6404466221
  0
LINE
  5
2B1
100
AcDbEntity
  8
0
100
AcDbLine
 62
2
  6
CONTINUOUS
 10
1557.5983432947
 20
4158.1404466221
 11
1482.411038462
 21
4158.1404466221
  0
LINE
  5
2B2
100
AcDbEntity
  8
0
100
AcDbLine
 62
2
  6
CONTINUOUS
 10
1157.5483432947
 20
4158.1404466221
 11
1232.7356481274
 21
4158.1404466221
  0
INSERT
  5
2B3
100
AcDbEntity
  8
0
100
AcDbBlockReference
 62
2
  6
CONTINUOUS
  2
_FILLED
 10
1557.5983432947
 20
4158.1404466221
 41
40.0
 42
40.0
 43
40.0
  0
INSERT
  5
2B4
100
AcDbEntity
  8
0
100
AcDbBlockReference
 62
2
  6
CONTINUOUS
  2
_FILLED
 10
1157.5483432947
 20
4158.1404466221
 41
40.0
 42
40.0
 43
40.0
 50
180.0
  0
ENDBLK
  5
2B5
100
AcDbEntity
  8
0
  6
BYBLOCK
 62
0
100
AcDbBlockEnd
  0
BLOCK
  5
2B6
100
AcDbEntity
  8
0
100
AcDbBlockBegin
 62
2
  6
CONTINUOUS
  2
*D7
 70
65
 10
0.0
 20
0.0
  3
*D7
  1

  0
MTEXT
  5
2B7
100
AcDbEntity
  8
0
100
AcDbMText
 62
2
  6
CONTINUOUS
  7
STANDARD
 71
2
 72
1
 10
2523.6460898533
 20
1784.9357972495
 30
0.0
 11
1.0
 21
0.0
 31
0.0
 44
0.9
  1
254,6\P[10.02]
 40
45.72
 41
203.9553903346
  0
LINE
  5
2B8
100
AcDbEntity
  8
0
100
AcDbLine
 62
2
  6
CONTINUOUS
 10
2397.4244579107
 20
1868.0688616405
 11
2397.4244579107
 21
1698.5757972495
  0
LINE
  5
2B9
100
AcDbEntity
  8
0
100
AcDbLine
 62
2
  6
CONTINUOUS
 10
2652.0244579107
 20
2757.1751648973
 11
2652.0244579107
 21
1698.5757972495
  0
LINE
  5
2BA
100
AcDbEntity
  8
0
100
AcDbLine
 62
2
  6
CONTINUOUS
 10
2397.4244579107
 20
1762.0757972495
 11
2317.4244579107
 21
1762.0757972495
  0
LINE
  5
2BB
100
AcDbEntity
  8
0
100
AcDbLine
 62
2
  6
CONTINUOUS
 10
2652.0244579107
 20
1762.0757972495
 11
2732.0244579107
 21
1762.0757972495
  0
INSERT
  5
2BC
100
AcDbEntity
  8
0
100
AcDbBlockReference
 62
2
  6
CONTINUOUS
  2
_FILLED
 10
2397.4244579107
 20
1762.0757972495
 41
40.0
 42
40.0
 43
40.0
  0
INSERT
  5
2BD
100
AcDbEntity
  8
0
100
AcDbBlockReference
 62
2
  6
CONTINUOUS
  2
_FILLED
 10
2652.0244579107
 20
1762.0757972495
 41
40.0
 42
40.0
 43
40.0
 50
180.0
  0
ENDBLK
  5
2BE
100
AcDbEntity
  8
0
  6
BYBLOCK
 62
0
100
AcDbBlockEnd
  0
BLOCK
  5
2BF
100
AcDbEntity
  8
0
100
AcDbBlockBegin
 62
2
  6
CONTINUOUS
  2
*D8
 70
65
 10
0.0
 20
0.0
  3
*D8
  1

  0
MTEXT
  5
2C0
100
AcDbEntity
  8
0
100
AcDbMText
 62
2
  6
CONTINUOUS
  7
STANDARD
 71
2
 72
1
 10
5418.0905203607
 20
3160.979597543
 30
0.0
 11
1.0
 21
0.0
 31
0.0
 44
0.9
  1
760,0\P[29.92]
 40
45.72
 41
203.9553903346
  0
LINE
  5
2C1
100
AcDbEntity
  8
0
100
AcDbLine
 62
2
  6
CONTINUOUS
 10
5820.5256132975
 20
2929.8846840813
 11
5820.5256132975
 21
3201.619597543
  0
LINE
  5
2C2
100
AcDbEntity
  8
0
100
AcDbLine
 62
2
  6
CONTINUOUS
 10
5060.5256132975
 20
2523.5614365466
 11
5060.5256132975
 21
3201.619597543
  0
LINE
  5
2C3
100
AcDbEntity
  8
0
100
AcDbLine
 62
2
  6
CONTINUOUS
 10
5820.5256132975
 20
3138.119597543
 11
5565.3633084648
 21
3138.119597543
  0
LINE
  5
2C4
100
AcDbEntity
  8
0
100
AcDbLine
 62
2
  6
CONTINUOUS
 10
5060.5256132975
 20
3138.119597543
 11
5315.6879181302
 21
3138.119597543
  0
INSERT
  5
2C5
100
AcDbEntity
  8
0
100
AcDbBlockReference
 62
2
  6
CONTINUOUS
  2
_FILLED
 10
5820.5256132975
 20
3138.119597543
 41
40.0
 42
40.0
 43
40.0
  0
INSERT
  5
2C6
100
AcDbEntity
  8
0
100
AcDbBlockReference
 62
2
  6
CONTINUOUS
  2
_FILLED
 10
5060.5256132975
 20
3138.119597543
 41
40.0
 42
40.0
 43
40.0
 50
180.0
  0
ENDBLK
  5
2C7
100
AcDbEntity
  8
0
  6
BYBLOCK
 62
0
100
AcDbBlockEnd
  0
BLOCK
  5
2C8
100
AcDbEntity
  8
0
100
AcDbBlockBegin
 62
2
  6
CONTINUOUS
  2
*D9
 70
65
 10
0.0
 20
0.0
  3
*D9
  1

  0
MTEXT
  5
2C9
100
AcDbEntity
  8
0
100
AcDbMText
 62
2
  6
CONTINUOUS
  7
STANDARD
 71
2
 72
1
 10
3198.4870789683
 20
2473.7267753647
 30
0.0
 11
1.0
 21
0.0
 31
0.0
 44
0.9
  1
990,0\P[38.98]
 40
45.72
 41
203.9553903346
  0
LINE
  5
2CA
100
AcDbEntity
  8
0
100
AcDbLine
 62
2
  6
CONTINUOUS
 10
2899.7744579107
 20
1893.8188616405
 11
3284.4221719051
 21
1893.8188616405
  0
LINE
  5
2CB
100
AcDbEntity
  8
0
100
AcDbLine
 62
2
  6
CONTINUOUS
 10
2783.8210169565
 20
2883.8188616405
 11
3284.4221719051
 21
2883.8188616405
  0
LINE
  5
2CC
100
AcDbEntity
  8
0
100
AcDbLine
 62
2
  6
CONTINUOUS
 10
3220.9221719051
 20
1893.8188616405
 11
3220.9221719051
 21
2336.5667753647
  0
LINE
  5
2CD
100
AcDbEntity
  8
0
100
AcDbLine
 62
2
  6
CONTINUOUS
 10
3220.9221719051
 20
2883.8188616405
 11
3220.9221719051
 21
2496.5867753647
  0
INSERT
  5
2CE
100
AcDbEntity
  8
0
100
AcDbBlockReference
 62
2
  6
CONTINUOUS
  2
_FILLED
 10
3220.9221719051
 20
1893.8188616405
 41
40.0
 42
40.0
 43
40.0
 50
270.0
  0
INSERT
  5
2CF
100
AcDbEntity
  8
0
100
AcDbBlockReference
 62
2
  6
CONTINUOUS
  2
_FILLED
 10
3220.9221719051
 20
2883.8188616405
 41
40.0
 42
40.0
 43
40.0
 50
90.0
  0
ENDBLK
  5
2D0
100
AcDbEntity
  8
0
  6
BYBLOCK
 62
0
100
AcDbBlockEnd
  0
BLOCK
  5
2D1
100
AcDbEntity
  8
0
100
AcDbBlockBegin
 62
2
  6
CONTINUOUS
  2
*D10
 70
65
 10
0.0
 20
0.0
  3
*D10
  1

  0
MTEXT
  5
2D2
100
AcDbEntity
  8
0
100
AcDbMText
 62
2
  6
CONTINUOUS
  7
STANDARD
 71
2
 72
1
 10
7521.9298393852
 20
2163.4946840813
 30
0.0
 11
1.0
 21
0.0
 31
0.0
 44
0.9
  1
505,0\P[19.88]
 40
45.72
 41
203.9553903346
  0
LINE
  5
2D3
100
AcDbEntity
  8
0
100
AcDbLine
 62
2
  6
CONTINUOUS
 10
7354.6704887988
 20
1888.1346840813
 11
7607.864932322
 21
1888.1346840813
  0
LINE
  5
2D4
100
AcDbEntity
  8
0
100
AcDbLine
 62
2
  6
CONTINUOUS
 10
7255.2706556273
 20
2393.1346840813
 11
7607.864932322
 21
2393.1346840813
  0
LINE
  5
2D5
100
AcDbEntity
  8
0
100
AcDbLine
 62
2
  6
CONTINUOUS
 10
7544.364932322
 20
1888.1346840813
 11
7544.364932322
 21
2026.3346840813
  0
LINE
  5
2D6
100
AcDbEntity
  8
0
100
AcDbLine
 62
2
  6
CONTINUOUS
 10
7544.364932322
 20
2393.1346840813
 11
7544.364932322
 21
2186.3546840813
  0
INSERT
  5
2D7
100
AcDbEntity
  8
0
100
AcDbBlockReference
 62
2
  6
CONTINUOUS
  2
_FILLED
 10
7544.364932322
 20
1888.1346840813
 41
40.0
 42
40.0
 43
40.0
 50
270.0
  0
INSERT
  5
2D8
100
AcDbEntity
  8
0
100
AcDbBlockReference
 62
2
  6
CONTINUOUS
  2
_FILLED
 10
7544.364932322
 20
2393.1346840813
 41
40.0
 42
40.0
 43
40.0
 50
90.0
  0
ENDBLK
  5
2D9
100
AcDbEntity
  8
0
  6
BYBLOCK
 62
0
100
AcDbBlockEnd
  0
BLOCK
  5
2DA
100
AcDbEntity
  8
0
100
AcDbBlockBegin
 62
2
  6
CONTINUOUS
  2
*D11
 70
65
 10
0.0
 20
0.0
  3
*D11
  1

  0
MTEXT
  5
2DB
100
AcDbEntity
  8
0
100
AcDbMText
 62
2
  6
CONTINUOUS
  7
STANDARD
 71
2
 72
1
 10
6957.185395862
 20
1743.3675957541
 30
0.0
 11
1.0
 21
0.0
 31
0.0
 44
0.9
  1
266,6\P[10.50]
 40
45.72
 41
203.9553903346
  0
LINE
  5
2DC
100
AcDbEntity
  8
0
100
AcDbLine
 62
2
  6
CONTINUOUS
 10
6846.3204887988
 20
1862.3846840813
 11
6846.3204887988
 21
1657.0075957541
  0
LINE
  5
2DD
100
AcDbEntity
  8
0
100
AcDbLine
 62
2
  6
CONTINUOUS
 10
7112.9204887988
 20
2269.0596239189
 11
7112.9204887988
 21
1657.0075957541
  0
LINE
  5
2DE
100
AcDbEntity
  8
0
100
AcDbLine
 62
2
  6
CONTINUOUS
 10
6846.3204887988
 20
1720.5075957541
 11
6766.3204887988
 21
1720.5075957541
  0
LINE
  5
2DF
100
AcDbEntity
  8
0
100
AcDbLine
 62
2
  6
CONTINUOUS
 10
7112.9204887988
 20
1720.5075957541
 11
7192.9204887988
 21
1720.5075957541
  0
INSERT
  5
2E0
100
AcDbEntity
  8
0
100
AcDbBlockReference
 62
2
  6
CONTINUOUS
  2
_FILLED
 10
6846.3204887988
 20
1720.5075957541
 41
40.0
 42
40.0
 43
40.0
  0
INSERT
  5
2E1
100
AcDbEntity
  8
0
100
AcDbBlockReference
 62
2
  6
CONTINUOUS
  2
_FILLED
 10
7112.9204887988
 20
1720.5075957541
 41
40.0
 42
40.0
 43
40.0
 50
180.0
  0
ENDBLK
  5
2E2
100
AcDbEntity
  8
0
  6
BYBLOCK
 62
0
100
AcDbBlockEnd
  0
ENDSEC
  0
SECTION
  2
ENTITIES
  0
MTEXT
  5
2E3
100
AcDbEntity
  8
0
100
AcDbMText
 62
2
  6
CONTINUOUS
  7
TEXTSTYLE_2
 71
1
 72
1
 10
115.3557241533
 20
867.5905478687
 30
0.0
 11
1.0
 21
0.0
 31
0.0
  1
A
 40
47.625
 41
49.0413568773
  0
MTEXT
  5
2E4
100
AcDbEntity
  8
0
100
AcDbMText
 62
2
  6
CONTINUOUS
  7
TEXTSTYLE_2
 71
1
 72
1
 10
115.1675752153
 20
2175.0334301207
 30
0.0
 11
1.0
 21
0.0
 31
0.0
  1
B
 40
47.625
 41
38.0645910781
  0
MTEXT
  5
2E5
100
AcDbEntity
  8
0
100
AcDbMText
 62
2
  6
CONTINUOUS
  7
TEXTSTYLE_2
 71
1
 72
1
 10
115.1766897093
 20
3482.7171008047
 30
0.0
 11
1.0
 21
0.0
 31
0.0
  1
C
 40
47.625
 41
53.998605948
  0
MTEXT
  5
2E6
100
AcDbEntity
  8
0
100
AcDbMText
 62
2
  6
CONTINUOUS
  7
TEXTSTYLE_2
 71
1
 72
1
 10
115.0785522653
 20
4790.9030495387
 30
0.0
 11
1.0
 21
0.0
 31
0.0
  1
D
 40
47.625
 41
49.3954460967
  0
MTEXT
  5
2E7
100
AcDbEntity
  8
0
100
AcDbMText
 62
2
  6
CONTINUOUS
  7
TEXTSTYLE_2
 71
1
 72
1
 10
7294.1652961321
 20
236.333024637
 30
0.0
 11
1.0
 21
0.0
 31
0.0
 44
1.0000002
  1
SCALE:  
 40
26.45834
 41
143.111095539
  0
MTEXT
  5
2E8
100
AcDbEntity
  8
0
100
AcDbMText
 62
2
  6
CONTINUOUS
  7
TEXTSTYLE_2
 71
1
 72
1
 10
7296.3545505162
 20
371.378746144
 30
0.0
 11
1.0
 21
0.0
 31
0.0
 44
1.0000002
  1
SIZE
 40
26.45834
 41
64.2278662454
  0
MTEXT
  5
2E9
100
AcDbEntity
  8
0
100
AcDbMText
 62
2
  6
CONTINUOUS
  7
TEXTSTYLE_2
 71
1
 72
1
 10
7530.3705338359
 20
234.4385797573
 30
0.0
 11
1.0
 21
0.0
 31
0.0
 44
1.0000002
  1
CAD FILE:                   
 40
26.64
 41
365.0373234201
  0
MTEXT
  5
2EA
100
AcDbEntity
  8
0
100
AcDbMText
 62
2
  6
CONTINUOUS
  7
TEXTSTYLE_2
 71
1
 72
1
 10
7629.3664303339
 20
370.4553468121
 30
0.0
 11
1.0
 21
0.0
 31
0.0
 44
1.0000002
  1
DWG. NO.
 40
26.45834
 41
185.0116637175
  0
MTEXT
  5
2EB
100
AcDbEntity
  8
0
100
AcDbMText
 62
2
  6
CONTINUOUS
  7
TEXTSTYLE_2
 71
1
 72
1
 10
7312.3537516913
 20
313.0727354177
 30
0.0
 11
1.0
 21
0.0
 31
0.0
 44
1.0000002
  1
B
 40
37.04166
 41
29.6057877323
  0
MTEXT
  5
2EC
100
AcDbEntity
  8
0
100
AcDbMText
 62
2
  6
CONTINUOUS
  7
TEXTSTYLE_2
 71
1
 72
1
 10
8122.2975683238
 20
235.4191680766
 30
0.0
 11
1.0
 21
0.0
 31
0.0
 44
1.0000002
  1
SHEET:
 40
26.45834
 41
109.0791786617
  0
MTEXT
  5
2ED
100
AcDbEntity
  8
0
100
AcDbMText
 62
2
  6
CONTINUOUS
  7
TEXTSTYLE_2
 71
1
 72
1
 10
6606.8619362484
 20
709.0382619608
 30
0.0
 11
1.0
 21
0.0
 31
0.0
 44
1.0000002
  1
DRAWN BY
 40
26.45834
 41
192.9786731599
  0
MTEXT
  5
2EE
100
AcDbEntity
  8
0
100
AcDbMText
 62
2
  6
CONTINUOUS
  7
TEXTSTYLE_2
 71
1
 72
1
 10
6609.5458040892
 20
574.8457203397
 30
0.0
 11
1.0
 21
0.0
 31
0.0
 44
1.0000002
  1
MECH ENGINEER
 40
26.45834
 41
295.8612889219
  0
MTEXT
  5
2EF
100
AcDbEntity
  8
0
100
AcDbMText
 62
2
  6
CONTINUOUS
  7
TEXTSTYLE_2
 71
1
 72
1
 10
6609.5458040892
 20
440.5560469997
 30
0.0
 11
1.0
 21
0.0
 31
0.0
 44
1.0000002
  1
TECH DIRECTOR
 40
26.45834
 41
279.1404049071
  0
MTEXT
  5
2F0
100
AcDbEntity
  8
0
100
AcDbMText
 62
2
  6
CONTINUOUS
  7
TEXTSTYLE_2
 71
1
 72
1
 10
6609.5458040892
 20
304.1070241397
 30
0.0
 11
1.0
 21
0.0
 31
0.0
 44
1.0000002
  1
MFG ENG
 40
26.45834
 41
173.4054030483
  0
MTEXT
  5
2F1
100
AcDbEntity
  8
0
100
AcDbMText
 62
2
  6
CONTINUOUS
  7
TEXTSTYLE_2
 71
1
 72
1
 10
5997.0033448187
 20
746.7853476402
 30
0.0
 11
1.0
 21
0.0
 31
0.0
 44
1.0000002
  1
DECIMALS                    ANGLES
 40
26.45834
 41
528.5766511524
  0
MTEXT
  5
2F2
100
AcDbEntity
  8
0
100
AcDbMText
 62
2
  6
CONTINUOUS
  7
TEXTSTYLE_2
 71
1
 72
1
 10
5929.7755909425
 20
541.5756156867
 30
0.0
 11
1.0
 21
0.0
 31
0.0
 44
1.0000002
  1
MATERIAL
 40
26.45834
 41
171.7333146468
  0
MTEXT
  5
2F3
100
AcDbEntity
  8
0
100
AcDbMText
 62
2
  6
CONTINUOUS
  7
TEXTSTYLE_2
 71
1
 72
1
 10
5931.5906042725
 20
449.0010806485
 30
0.0
 11
1.0
 21
0.0
 31
0.0
 44
1.0000002
  1
FINISH
 40
26.45834
 41
105.4399274349
  0
MTEXT
  5
2F4
100
AcDbEntity
  8
0
100
AcDbMText
 62
2
  6
CONTINUOUS
  7
TEXTSTYLE_2
 71
1
 72
1
 10
5966.1610794318
 20
343.7805798431
 30
0.0
 11
1.0
 21
0.0
 31
0.0
 44
1.0000002
  1
DO  NOT  SCALE  DRAWING
 40
31.75
 41
586.3717472119
  0
MTEXT
  5
2F5
100
AcDbEntity
  8
0
100
AcDbMText
 62
2
  6
CONTINUOUS
  7
TEXTSTYLE_2
 71
1
 72
1
 10
7924.2976051793
 20
175.4200710727
 30
0.0
 11
1.0
 21
0.0
 31
0.0
  1
1
 40
47.625
 41
36.8252788104
  0
MTEXT
  5
2F6
100
AcDbEntity
  8
0
100
AcDbMText
 62
2
  6
CONTINUOUS
  7
TEXTSTYLE_2
 71
1
 72
1
 10
6889.0162256132
 20
177.0743395727
 30
0.0
 11
1.0
 21
0.0
 31
0.0
  1
2
 40
47.625
 41
36.8252788104
  0
MTEXT
  5
2F7
100
AcDbEntity
  8
0
100
AcDbMText
 62
2
  6
CONTINUOUS
  7
TEXTSTYLE_2
 71
1
 72
1
 10
5853.0500740832
 20
176.0196305827
 30
0.0
 11
1.0
 21
0.0
 31
0.0
  1
3
 40
47.625
 41
36.8252788104
  0
MTEXT
  5
2F8
100
AcDbEntity
  8
0
100
AcDbMText
 62
2
  6
CONTINUOUS
  7
TEXTSTYLE_2
 71
1
 72
1
 10
4818.7440002892
 20
176.6369478907
 30
0.0
 11
1.0
 21
0.0
 31
0.0
  1
4
 40
47.625
 41
36.8252788104
  0
MTEXT
  5
2F9
100
AcDbEntity
  8
0
100
AcDbMText
 62
2
  6
CONTINUOUS
  7
TEXTSTYLE_2
 71
1
 72
1
 10
3784.5420109693
 20
176.1116137247
 30
0.0
 11
1.0
 21
0.0
 31
0.0
  1
5
 40
47.625
 41
36.8252788104
  0
MTEXT
  5
2FA
100
AcDbEntity
  8
0
100
AcDbMText
 62
2
  6
CONTINUOUS
  7
TEXTSTYLE_2
 71
1
 72
1
 10
2749.3671435533
 20
177.5249287287
 30
0.0
 11
1.0
 21
0.0
 31
0.0
  1
6
 40
47.625
 41
36.8252788104
  0
MTEXT
  5
2FB
100
AcDbEntity
  8
0
100
AcDbMText
 62
2
  6
CONTINUOUS
  7
TEXTSTYLE_2
 71
1
 72
1
 10
1713.9703059273
 20
176.7106480767
 30
0.0
 11
1.0
 21
0.0
 31
0.0
  1
7
 40
47.625
 41
36.8252788104
  0
MTEXT
  5
2FC
100
AcDbEntity
  8
0
100
AcDbMText
 62
2
  6
CONTINUOUS
  7
TEXTSTYLE_2
 71
1
 72
1
 10
678.1436793113
 20
175.9878137987
 30
0.0
 11
1.0
 21
0.0
 31
0.0
  1
8
 40
47.625
 41
36.8252788104
  0
MTEXT
  5
2FD
100
AcDbEntity
  8
0
100
AcDbMText
 62
2
  6
CONTINUOUS
  7
TEXTSTYLE_2
 71
1
 72
1
 10
692.5245364409
 20
5472.3699509103
 30
0.0
 11
1.0
 21
0.0
 31
0.0
 44
1.0000002
  1
8
 40
47.625
 41
36.8252788104
  0
MTEXT
  5
2FE
100
AcDbEntity
  8
0
100
AcDbMText
 62
2
  6
CONTINUOUS
  7
TEXTSTYLE_2
 71
1
 72
1
 10
5928.2511114969
 20
248.1690017982
 30
0.0
 11
1.0
 21
0.0
 31
0.0
 44
1.0000002
  1
PROJECTION SYMBOL
 40
31.4
 41
453.2572490706
  0
MTEXT
  5
2FF
100
AcDbEntity
  8
0
100
AcDbMText
 62
2
  6
CONTINUOUS
  7
TEXTSTYLE_2
 71
1
 72
1
 10
6823.1111539196
 20
764.8452830798
 30
0.0
 11
1.0
 21
0.0
 31
0.0
 44
1.0000002
  1
APPROVALS
 40
26.45834
 41
213.9289572491
  0
MTEXT
  5
300
100
AcDbEntity
  8
0
100
AcDbMText
 62
2
  6
CONTINUOUS
  7
TEXTSTYLE_2
 71
1
 72
1
 10
1715.6311373613
 20
5472.8170539087
 30
0.0
 11
1.0
 21
0.0
 31
0.0
 44
1.0000002
  1
7
 40
47.625
 41
36.8252788104
  0
MTEXT
  5
301
100
AcDbEntity
  8
0
100
AcDbMText
 62
2
  6
CONTINUOUS
  7
TEXTSTYLE_2
 71
1
 72
1
 10
3784.6466119392
 20
5470.8187460567
 30
0.0
 11
1.0
 21
0.0
 31
0.0
  1
5
 40
47.625
 41
36.8252788104
  0
MTEXT
  5
302
100
AcDbEntity
  8
0
100
AcDbMText
 62
2
  6
CONTINUOUS
  7
TEXTSTYLE_2
 71
1
 72
1
 10
4819.5260756612
 20
5470.9889141447
 30
0.0
 11
1.0
 21
0.0
 31
0.0
  1
4
 40
47.625
 41
36.8252788104
  0
MTEXT
  5
303
100
AcDbEntity
  8
0
100
AcDbMText
 62
2
  6
CONTINUOUS
  7
TEXTSTYLE_2
 71
1
 72
1
 10
5853.9928901613
 20
5470.8659924147
 30
0.0
 11
1.0
 21
0.0
 31
0.0
  1
3
 40
47.625
 41
36.8252788104
  0
MTEXT
  5
304
100
AcDbEntity
  8
0
100
AcDbMText
 62
2
  6
CONTINUOUS
  7
TEXTSTYLE_2
 71
1
 72
1
 10
6889.3309024352
 20
5471.9212581187
 30
0.0
 11
1.0
 21
0.0
 31
0.0
  1
2
 40
47.625
 41
36.8252788104
  0
MTEXT
  5
305
100
AcDbEntity
  8
0
100
AcDbMText
 62
2
  6
CONTINUOUS
  7
TEXTSTYLE_2
 71
1
 72
1
 10
7926.2122827332
 20
5472.3354971887
 30
0.0
 11
1.0
 21
0.0
 31
0.0
  1
1
 40
47.625
 41
36.8252788104
  0
MTEXT
  5
306
100
AcDbEntity
  8
0
100
AcDbMText
 62
2
  6
CONTINUOUS
  7
TEXTSTYLE_2
 71
1
 72
1
 10
8476.7882509392
 20
4789.4957620707
 30
0.0
 11
1.0
 21
0.0
 31
0.0
  1
D
 40
47.625
 41
49.3954460967
  0
MTEXT
  5
307
100
AcDbEntity
  8
0
100
AcDbMText
 62
2
  6
CONTINUOUS
  7
TEXTSTYLE_2
 71
1
 72
1
 10
8471.5185607793
 20
3482.4065494667
 30
0.0
 11
1.0
 21
0.0
 31
0.0
  1
C
 40
47.625
 41
53.998605948
  0
MTEXT
  5
308
100
AcDbEntity
  8
0
100
AcDbMText
 62
2
  6
CONTINUOUS
  7
TEXTSTYLE_2
 71
1
 72
1
 10
8486.0551150092
 20
2173.1072427027
 30
0.0
 11
1.0
 21
0.0
 31
0.0
  1
B
 40
47.625
 41
38.0645910781
  0
MTEXT
  5
309
100
AcDbEntity
  8
0
100
AcDbMText
 62
2
  6
CONTINUOUS
  7
TEXTSTYLE_2
 71
1
 72
1
 10
8475.5976643372
 20
865.8093385587
 30
0.0
 11
1.0
 21
0.0
 31
0.0
  1
A
 40
47.625
 41
49.0413568773
  0
MTEXT
  5
30A
100
AcDbEntity
  8
0
100
AcDbMText
 62
2
  6
CONTINUOUS
  7
TEXTSTYLE_2
 71
1
 72
1
 10
5933.0941833849
 20
929.9762539589
 30
0.0
 11
1.0
 21
0.0
 31
0.0
 44
1.2
  1
UNLESS  OTHERWISE  SPECIFIED\PDIMENSIONS ARE IN MM [IN]\PTOLERANCES ARE:
 40
31.75
 41
641.8457249071
  0
MTEXT
  5
30B
100
AcDbEntity
  8
0
100
AcDbMText
 62
2
  6
CONTINUOUS
  7
TEXTSTYLE_2
 71
1
 72
1
 10
6623.7381519225
 20
914.9485646196
 30
0.0
 11
1.0
 21
0.0
 31
0.0
 44
1.0000002
  1
CAD GENERATED DRAWING\PDO NOT MANUALLY UPDATE
 40
31.75
 41
596.6403345725
  0
MTEXT
  5
30C
100
AcDbEntity
  8
0
100
AcDbMText
 62
2
  6
CONTINUOUS
  7
TEXTSTYLE_2
 71
1
 72
1
 10
200.4577567449
 20
5360.7673871338
 30
0.0
 11
1.0
 21
0.0
 31
0.0
 44
1.0000002
  1
PROPERTY OF QSC, LLC, THAT MAY NOT BE DISCLOSED, REPRODUCED OR
 40
26.45834
 41
1289.0817994052
  0
MTEXT
  5
30D
100
AcDbEntity
  8
0
100
AcDbMText
 62
2
  6
CONTINUOUS
  7
TEXTSTYLE_2
 71
1
 72
1
 10
200.4577567449
 20
5398.9959616358
 30
0.0
 11
1.0
 21
0.0
 31
0.0
 44
1.0000002
  1
THIS DOCUMENT CONTAINS PROPRIETARY INFORMATION WHICH IS THE
 40
26.45834
 41
1236.0667612639
  0
MTEXT
  5
30E
100
AcDbEntity
  8
0
100
AcDbMText
 62
2
  6
CONTINUOUS
  7
TEXTSTYLE_2
 71
1
 72
1
 10
199.8800204929
 20
5321.1456147558
 30
0.0
 11
1.0
 21
0.0
 31
0.0
 44
1.0000002
  1
USED WITHOUT THE EXPRESS WRITTEN CONSENT FROM QSC, LLC.
 40
26.45834
 41
1118.5287824535
  0
MTEXT
  5
30F
100
AcDbEntity
  8
0
100
AcDbMText
 62
2
  6
CONTINUOUS
  7
TEXTSTYLE_2
 71
1
 72
1
 10
8322.5303837768
 20
371.3583322936
 30
0.0
 11
1.0
 21
0.0
 31
0.0
 44
1.0000002
  1
REV
 40
26.45834
 41
68.0638337546
  0
MTEXT
  5
310
100
AcDbEntity
  8
0
100
AcDbMText
 62
2
  6
CONTINUOUS
  7
TEXTSTYLE_2
 71
1
 72
1
 10
2749.4267284093
 20
5471.5603761947
 30
0.0
 11
1.0
 21
0.0
 31
0.0
  1
6
 40
47.625
 41
36.8252788104
  0
MTEXT
  5
311
100
AcDbEntity
  8
0
100
AcDbMText
 62
2
  6
CONTINUOUS
  7
TEXTSTYLE_2
 71
1
 72
1
 10
7380.413407232
 20
369.1510986167
 30
0.0
 11
1.0
 21
0.0
 31
0.0
 44
1.0000002
  1
CAGE CODE
 40
26.45834
 41
228.6826784387
  0
MTEXT
  5
312
100
AcDbEntity
  8
0
100
AcDbMText
 62
2
  6
CONTINUOUS
  7
TEXTSTYLE_2
 71
1
 72
1
 10
7413.9537516912
 20
313.0727354177
 30
0.0
 11
1.0
 21
0.0
 31
0.0
 44
1.0000002
  1
00PW4
 40
37.04166
 41
166.0678139777
  0
MTEXT
  5
313
100
AcDbEntity
  8
0
100
AcDbMText
 62
2
  6
CONTINUOUS
  7
TEXTSTYLE_2
 71
1
 72
1
 10
7816.8633011653
 20
858.283742673
 30
0.0
 11
1.0
 21
0.0
 31
0.0
 44
1.0000002
  1
1675 MACARTHUR BOULEVARD\PCOSTA MESA, CA 92626 USA
 40
30.48
 41
631.1286245353
  0
MTEXT
  5
314
100
AcDbEntity
  8
0
100
AcDbMText
 62
2
  6
CONTINUOUS
  7
TEXTSTYLE_2
 71
1
 72
1
 10
7821.1635939869
 20
930.1406664127
 30
0.0
 11
1.0
 21
0.0
 31
0.0
 44
1.0000002
  1
QSC, LLC
 40
50.8
 41
316.8862453532
  0
MTEXT
  5
315
100
AcDbEntity
  8
0
100
AcDbMText
 62
2
  6
CONTINUOUS
  7
TEXTSTYLE_2
 71
3
 72
1
 10
8453.2939199713
 20
148.2952560167
 30
0.0
 11
1.0
 21
0.0
 31
0.0
 44
1.0000002
  1
Form: QMS100206 Rev A
 40
20.0
 41
325.1301115242
  0
DIMENSION
  5
316
100
AcDbEntity
  8
0
100
AcDbDimension
 62
2
  6
CONTINUOUS
  2
*D0
 10
2874.0244579107
 20
4157.5488092908
 11
2632.7244579107
 21
4123.2588092908
 70
160
 71
2
 42
482.6
  3
DIMSTYLE_1
100
AcDbAlignedDimension
 13
2391.4244579107
 23
3949.9813616405
 14
2874.0244579107
 24
3949.9813616405
100
AcDbRotatedDimension
  0
DIMENSION
  5
317
100
AcDbEntity
  8
0
100
AcDbDimension
 62
2
  6
CONTINUOUS
  2
*D1
 10
757.4983432947
 20
4507.2638673856
 11
1157.5483432947
 21
4472.9738673856
 70
160
 71
2
 42
800.1
  3
DIMSTYLE_1
100
AcDbAlignedDimension
 13
1557.5983432947
 23
4605.8608899511
 14
757.4983432947
 24
4605.860889951
 50
180.0
100
AcDbRotatedDimension
  0
DIMENSION
  5
318
100
AcDbEntity
  8
0
100
AcDbDimension
 62
2
  6
CONTINUOUS
  2
*D2
 10
1917.7262482476
 20
1893.8188616405
 11
1917.7262482476
 21
2875.5288616405
 70
160
 71
2
 42
2032.0
  3
DIMSTYLE_1
100
AcDbAlignedDimension
 13
1581.7608432947
 23
3925.8188616405
 14
1581.7608432947
 24
1893.8188616405
 50
270.0
100
AcDbRotatedDimension
  0
DIMENSION
  5
319
100
AcDbEntity
  8
0
100
AcDbDimension
 62
2
  6
CONTINUOUS
  2
*D3
 10
6153.015026848
 20
1888.1346840813
 11
6153.015026848
 21
2421.5289837024
 70
160
 71
2
 42
1016.0
  3
DIMSTYLE_1
100
AcDbAlignedDimension
 13
5844.6881132975
 23
2904.1346840813
 14
5844.6881132975
 24
1888.1346840813
 50
270.0
100
AcDbRotatedDimension
  0
DIMENSION
  5
31A
100
AcDbEntity
  8
0
100
AcDbDimension
 62
2
  6
CONTINUOUS
  2
*D4
 10
7328.9204887988
 20
3114.7413895978
 11
7087.6204887988
 21
3080.4513895978
 70
160
 71
2
 42
482.6
  3
DIMSTYLE_1
100
AcDbAlignedDimension
 13
6846.3204887988
 23
2928.2971840813
 14
7328.9204887988
 24
2928.2971840813
100
AcDbRotatedDimension
  0
DIMENSION
  5
31B
100
AcDbEntity
  8
0
100
AcDbDimension
 62
2
  6
CONTINUOUS
  2
*D5
 10
4220.3256132975
 20
3782.7854094676
 11
5020.4256132975
 21
3748.4954094676
 70
160
 71
2
 42
1600.2
  3
DIMSTYLE_1
100
AcDbAlignedDimension
 13
5820.5256132975
 23
3937.2796453902
 14
4220.3256132975
 24
3937.2796453901
 50
180.0
100
AcDbRotatedDimension
  0
DIMENSION
  5
31C
100
AcDbEntity
  8
0
100
AcDbDimension
 62
2
  6
CONTINUOUS
  2
*D6
 10
1157.5483432947
 20
4158.1404466221
 11
1357.5733432947
 21
4123.8504466221
 70
160
 71
2
 42
400.05
  3
DIMSTYLE_1
100
AcDbAlignedDimension
 13
1557.5983432947
 23
3949.9813616405
 14
1157.5483432947
 24
3954.4331033799
 50
180.0
100
AcDbRotatedDimension
  0
DIMENSION
  5
31D
100
AcDbEntity
  8
0
100
AcDbDimension
 62
2
  6
CONTINUOUS
  2
*D7
 10
2652.0244579107
 20
1762.0757972495
 11
2546.0811827901
 21
1727.7857972495
 70
160
 71
2
 42
254.6
  3
DIMSTYLE_1
100
AcDbAlignedDimension
 13
2397.4244579107
 23
1869.6563616405
 14
2652.0244579107
 24
2758.7626648973
100
AcDbRotatedDimension
  0
DIMENSION
  5
31E
100
AcDbEntity
  8
0
100
AcDbDimension
 62
2
  6
CONTINUOUS
  2
*D8
 10
5060.5256132975
 20
3138.119597543
 11
5440.5256132975
 21
3103.829597543
 70
160
 71
2
 42
760.0
  3
DIMSTYLE_1
100
AcDbAlignedDimension
 13
5820.5256132975
 23
2928.2971840813
 14
5060.5256132975
 24
2521.9739365466
 50
180.0
100
AcDbRotatedDimension
  0
DIMENSION
  5
31F
100
AcDbEntity
  8
0
100
AcDbDimension
 62
2
  6
CONTINUOUS
  2
*D9
 10
3220.9221719051
 20
2883.8188616405
 11
3220.9221719051
 21
2416.5767753647
 70
160
 71
2
 42
990.0
  3
DIMSTYLE_1
100
AcDbAlignedDimension
 13
2898.1869579107
 23
1893.8188616405
 14
2782.2335169565
 24
2883.8188616405
 50
90.0
100
AcDbRotatedDimension
  0
DIMENSION
  5
320
100
AcDbEntity
  8
0
100
AcDbDimension
 62
2
  6
CONTINUOUS
  2
*D10
 10
7544.364932322
 20
2393.1346840813
 11
7544.364932322
 21
2106.3446840813
 70
160
 71
2
 42
505.0
  3
DIMSTYLE_1
100
AcDbAlignedDimension
 13
7353.0829887988
 23
1888.1346840813
 14
7253.6831556273
 24
2393.1346840813
 50
90.0
100
AcDbRotatedDimension
  0
DIMENSION
  5
321
100
AcDbEntity
  8
0
100
AcDbDimension
 62
2
  6
CONTINUOUS
  2
*D11
 10
7112.9204887988
 20
1720.5075957541
 11
6979.6204887988
 21
1686.2175957541
 70
160
 71
2
 42
266.6
  3
DIMSTYLE_1
100
AcDbAlignedDimension
 13
6846.3204887988
 23
1863.9721840813
 14
7112.9204887988
 24
2270.6471239189
100
AcDbRotatedDimension
  0
LINE
  5
322
100
AcDbEntity
  8
0
100
AcDbLine
 62
2
  6
CONTINUOUS
 10
7282.4115076017
 20
760.3032646625
 11
8460.4115076017
 21
760.3032646625
  0
LINE
  5
323
100
AcDbEntity
  8
0
100
AcDbLine
 62
2
  6
CONTINUOUS
 10
7282.4115076017
 20
760.3032646625
 11
7282.4115076017
 21
378.1157646625
  0
LINE
  5
324
100
AcDbEntity
  8
0
100
AcDbLine
 62
2
  6
CONTINUOUS
 10
7282.4115076017
 20
378.1157646625
 11
8460.4115076017
 21
378.1157646625
  0
LINE
  5
325
100
AcDbEntity
  8
0
100
AcDbLine
 62
2
  6
CONTINUOUS
 10
8460.4115076017
 20
760.3032646625
 11
8460.4115076017
 21
378.1157646625
  0
MTEXT
  5
326
100
AcDbEntity
  8
0
100
AcDbMText
 62
2
  6
CONTINUOUS
  7
TEXTSTYLE_2
 71
2
 72
1
 10
7871.4115076017
 20
653.8761792125
 30
0.0
 11
1.0
 21
0.0
 31
0.0
 44
0.99999996
  1
SPEAKER, FINISHED,\PSC-424-8F
 40
63.5
 41
803.0743494424
  0
LINE
  5
327
100
AcDbEntity
  8
0
100
AcDbLine
 62
2
  6
CONTINUOUS
 10
8250.3210265437
 20
377.9504266525
 11
8459.5710265437
 21
377.9504266525
  0
LINE
  5
328
100
AcDbEntity
  8
0
100
AcDbLine
 62
2
  6
CONTINUOUS
 10
8250.3210265437
 20
377.9504266525
 11
8250.3210265437
 21
252.9504266525
  0
LINE
  5
329
100
AcDbEntity
  8
0
100
AcDbLine
 62
2
  6
CONTINUOUS
 10
8250.3210265437
 20
252.9504266525
 11
8459.5710265437
 21
252.9504266525
  0
LINE
  5
32A
100
AcDbEntity
  8
0
100
AcDbLine
 62
2
  6
CONTINUOUS
 10
8459.5710265437
 20
377.9504266525
 11
8459.5710265437
 21
252.9504266525
  0
MTEXT
  5
32B
100
AcDbEntity
  8
0
100
AcDbMText
 62
2
  6
CONTINUOUS
  7
TEXTSTYLE_2
 71
2
 72
1
 10
8354.9460265437
 20
329.5129266525
 30
0.0
 11
1.0
 21
0.0
 31
0.0
 44
0.9
  1
A
 40
63.5
 41
65.3884758364
  0
LINE
  5
32C
100
AcDbEntity
  8
0
100
AcDbLine
 62
2
  6
CONTINUOUS
 10
7617.0614778006
 20
377.5609341661
 11
8247.0614778006
 21
377.5609341661
  0
LINE
  5
32D
100
AcDbEntity
  8
0
100
AcDbLine
 62
2
  6
CONTINUOUS
 10
7617.0614778006
 20
377.5609341661
 11
7617.0614778006
 21
252.8734341661
  0
LINE
  5
32E
100
AcDbEntity
  8
0
100
AcDbLine
 62
2
  6
CONTINUOUS
 10
7617.0614778006
 20
252.8734341661
 11
8247.0614778006
 21
252.8734341661
  0
LINE
  5
32F
100
AcDbEntity
  8
0
100
AcDbLine
 62
2
  6
CONTINUOUS
 10
8247.0614778006
 20
377.5609341661
 11
8247.0614778006
 21
252.8734341661
  0
MTEXT
  5
330
100
AcDbEntity
  8
0
100
AcDbMText
 62
2
  6
CONTINUOUS
  7
TEXTSTYLE_2
 71
2
 72
1
 10
7932.0614778006
 20
334.4359341661
 30
0.0
 11
1.0
 21
0.0
 31
0.0
 44
0.9
  1
DCS-SC-424-8F-2D
 40
50.8
 41
616.3985130112
  0
LINE
  5
331
100
AcDbEntity
  8
0
100
AcDbLine
 62
2
  6
CONTINUOUS
 10
5919.383260001
 20
552.8284265299
 11
6589.383260001
 21
552.8284265299
  0
LINE
  5
332
100
AcDbEntity
  8
0
100
AcDbLine
 62
2
  6
CONTINUOUS
 10
5919.383260001
 20
552.8284265299
 11
5919.383260001
 21
460.7971765299
  0
LINE
  5
333
100
AcDbEntity
  8
0
100
AcDbLine
 62
2
  6
CONTINUOUS
 10
5919.383260001
 20
460.7971765299
 11
6589.383260001
 21
460.7971765299
  0
LINE
  5
334
100
AcDbEntity
  8
0
100
AcDbLine
 62
2
  6
CONTINUOUS
 10
6589.383260001
 20
552.8284265299
 11
6589.383260001
 21
460.7971765299
  0
MTEXT
  5
335
100
AcDbEntity
  8
0
100
AcDbMText
 62
2
  6
CONTINUOUS
  7
TEXTSTYLE_2
 71
2
 72
1
 10
6321.383260001
 20
529.6728015299
 30
0.0
 11
1.0
 21
0.0
 31
0.0
 44
0.9
  1
N/A
 40
45.72
 41
122.0333085502
  0
LINE
  5
336
100
AcDbEntity
  8
0
100
AcDbLine
 62
2
  6
CONTINUOUS
 10
5919.8019019092
 20
459.7342481116
 11
6589.8019019092
 21
459.7342481116
  0
LINE
  5
337
100
AcDbEntity
  8
0
100
AcDbLine
 62
2
  6
CONTINUOUS
 10
5919.8019019092
 20
459.7342481116
 11
5919.8019019092
 21
367.7029981116
  0
LINE
  5
338
100
AcDbEntity
  8
0
100
AcDbLine
 62
2
  6
CONTINUOUS
 10
5919.8019019092
 20
367.7029981116
 11
6589.8019019092
 21
367.7029981116
  0
LINE
  5
339
100
AcDbEntity
  8
0
100
AcDbLine
 62
2
  6
CONTINUOUS
 10
6589.8019019092
 20
459.7342481116
 11
6589.8019019092
 21
367.7029981116
  0
MTEXT
  5
33A
100
AcDbEntity
  8
0
100
AcDbMText
 62
2
  6
CONTINUOUS
  7
TEXTSTYLE_2
 71
2
 72
1
 10
6321.8019019092
 20
436.5786231116
 30
0.0
 11
1.0
 21
0.0
 31
0.0
 44
0.9
  1
N/A
 40
45.72
 41
122.0333085502
  0
LINE
  5
33B
100
AcDbEntity
  8
0
100
AcDbLine
 62
2
  6
CONTINUOUS
 10
6590.4151057169
 20
721.4700714879
 11
7280.4151057169
 21
721.4700714879
  0
LINE
  5
33C
100
AcDbEntity
  8
0
100
AcDbLine
 62
2
  6
CONTINUOUS
 10
6590.4151057169
 20
721.4700714879
 11
6590.4151057169
 21
592.7200714879
  0
LINE
  5
33D
100
AcDbEntity
  8
0
100
AcDbLine
 62
2
  6
CONTINUOUS
 10
6590.4151057169
 20
592.7200714879
 11
7280.4151057169
 21
592.7200714879
  0
LINE
  5
33E
100
AcDbEntity
  8
0
100
AcDbLine
 62
2
  6
CONTINUOUS
 10
7280.4151057169
 20
721.4700714879
 11
7280.4151057169
 21
592.7200714879
  0
MTEXT
  5
33F
100
AcDbEntity
  8
0
100
AcDbMText
 62
2
  6
CONTINUOUS
  7
TEXTSTYLE_2
 71
1
 72
1
 10
6591.6651057169
 20
656.8763214879
 30
0.0
 11
1.0
 21
0.0
 31
0.0
 44
0.9
  1
 S. STASIAK
 40
31.75
 41
223.5483271375
  0
LINE
  5
340
100
AcDbEntity
  8
0
100
AcDbLine
 62
2
  6
CONTINUOUS
 10
6590.6058167648
 20
593.3816414147
 11
7280.6058167648
 21
593.3816414147
  0
LINE
  5
341
100
AcDbEntity
  8
0
100
AcDbLine
 62
2
  6
CONTINUOUS
 10
6590.6058167648
 20
593.3816414147
 11
6590.6058167648
 21
457.1316414147
  0
LINE
  5
342
100
AcDbEntity
  8
0
100
AcDbLine
 62
2
  6
CONTINUOUS
 10
6590.6058167648
 20
457.1316414147
 11
7280.6058167648
 21
457.1316414147
  0
LINE
  5
343
100
AcDbEntity
  8
0
100
AcDbLine
 62
2
  6
CONTINUOUS
 10
7280.6058167648
 20
593.3816414147
 11
7280.6058167648
 21
457.1316414147
  0
MTEXT
  5
344
100
AcDbEntity
  8
0
100
AcDbMText
 62
2
  6
CONTINUOUS
  7
TEXTSTYLE_2
 71
1
 72
1
 10
6591.8558167648
 20
524.1003914147
 30
0.0
 11
1.0
 21
0.0
 31
0.0
 44
0.9
  1
 B. HAWKINS
 40
31.75
 41
258.6031598513
  0
LINE
  5
345
100
AcDbEntity
  8
0
100
AcDbLine
 62
2
  6
CONTINUOUS
 10
6590.7472941208
 20
456.8646959448
 11
7280.7472941208
 21
456.8646959448
  0
LINE
  5
346
100
AcDbEntity
  8
0
100
AcDbLine
 62
2
  6
CONTINUOUS
 10
6590.7472941208
 20
456.8646959448
 11
6590.7472941208
 21
320.6146959448
  0
LINE
  5
347
100
AcDbEntity
  8
0
100
AcDbLine
 62
2
  6
CONTINUOUS
 10
6590.7472941208
 20
320.6146959448
 11
7280.7472941208
 21
320.6146959448
  0
LINE
  5
348
100
AcDbEntity
  8
0
100
AcDbLine
 62
2
  6
CONTINUOUS
 10
7280.7472941208
 20
456.8646959448
 11
7280.7472941208
 21
320.6146959448
  0
MTEXT
  5
349
100
AcDbEntity
  8
0
100
AcDbMText
 62
2
  6
CONTINUOUS
  7
TEXTSTYLE_2
 71
1
 72
1
 10
6591.9972941208
 20
387.5834459448
 30
0.0
 11
1.0
 21
0.0
 31
0.0
 44
0.9
  1
 L. MERCS
 40
31.75
 41
206.6700743494
  0
LINE
  5
34A
100
AcDbEntity
  8
0
100
AcDbLine
 62
2
  6
CONTINUOUS
 10
6590.6538326002
 20
322.3687807712
 11
7280.6538326002
 21
322.3687807712
  0
LINE
  5
34B
100
AcDbEntity
  8
0
100
AcDbLine
 62
2
  6
CONTINUOUS
 10
6590.6538326002
 20
322.3687807712
 11
6590.6538326002
 21
186.1187807712
  0
LINE
  5
34C
100
AcDbEntity
  8
0
100
AcDbLine
 62
2
  6
CONTINUOUS
 10
6590.6538326002
 20
186.1187807712
 11
7280.6538326002
 21
186.1187807712
  0
LINE
  5
34D
100
AcDbEntity
  8
0
100
AcDbLine
 62
2
  6
CONTINUOUS
 10
7280.6538326002
 20
322.3687807712
 11
7280.6538326002
 21
186.1187807712
  0
MTEXT
  5
34E
100
AcDbEntity
  8
0
100
AcDbMText
 62
2
  6
CONTINUOUS
  7
TEXTSTYLE_2
 71
1
 72
1
 10
6591.9038326002
 20
253.0875307712
 30
0.0
 11
1.0
 21
0.0
 31
0.0
 44
0.9
  1
 M. JEN
 40
31.75
 41
155.3271375465
  0
LINE
  5
34F
100
AcDbEntity
  8
0
100
AcDbLine
 62
2
  6
CONTINUOUS
 10
7282.2061275572
 20
249.032409292
 11
7518.2061275572
 21
249.032409292
  0
LINE
  5
350
100
AcDbEntity
  8
0
100
AcDbLine
 62
2
  6
CONTINUOUS
 10
7282.2061275572
 20
249.032409292
 11
7282.2061275572
 21
187.001159292
  0
LINE
  5
351
100
AcDbEntity
  8
0
100
AcDbLine
 62
2
  6
CONTINUOUS
 10
7282.2061275572
 20
187.001159292
 11
7518.2061275572
 21
187.001159292
  0
LINE
  5
352
100
AcDbEntity
  8
0
100
AcDbLine
 62
2
  6
CONTINUOUS
 10
7518.2061275572
 20
249.032409292
 11
7518.2061275572
 21
187.001159292
  0
MTEXT
  5
353
100
AcDbEntity
  8
0
100
AcDbMText
 62
2
  6
CONTINUOUS
  7
TEXTSTYLE_2
 71
2
 72
1
 10
7459.2061275572
 20
228.016784292
 30
0.0
 11
1.0
 21
0.0
 31
0.0
 44
0.9
  1
1:20
 40
20.0
 41
54.126394052
  0
LINE
  5
354
100
AcDbEntity
  8
0
100
AcDbLine
 62
2
  6
CONTINUOUS
 10
8115.8586342597
 20
249.5021604492
 11
8460.8586342597
 21
249.5021604492
  0
LINE
  5
355
100
AcDbEntity
  8
0
100
AcDbLine
 62
2
  6
CONTINUOUS
 10
8115.8586342597
 20
249.5021604492
 11
8115.8586342597
 21
189.3459104492
  0
LINE
  5
356
100
AcDbEntity
  8
0
100
AcDbLine
 62
2
  6
CONTINUOUS
 10
8115.8586342597
 20
189.3459104492
 11
8460.8586342597
 21
189.3459104492
  0
LINE
  5
357
100
AcDbEntity
  8
0
100
AcDbLine
 62
2
  6
CONTINUOUS
 10
8460.8586342597
 20
249.5021604492
 11
8460.8586342597
 21
189.3459104492
  0
MTEXT
  5
358
100
AcDbEntity
  8
0
100
AcDbMText
 62
2
  6
CONTINUOUS
  7
TEXTSTYLE_2
 71
2
 72
1
 10
8357.3586342597
 20
237.9448654492
 30
0.0
 11
1.0
 21
0.0
 31
0.0
 44
0.9
  1
1 OF 1
 40
37.04166
 41
155.8779149442
  0
LINE
  5
359
100
AcDbEntity
  8
0
100
AcDbLine
 62
2
  6
CONTINUOUS
 10
7518.0604597377
 20
249.3633506818
 11
8114.0604597377
 21
249.3633506818
  0
LINE
  5
35A
100
AcDbEntity
  8
0
100
AcDbLine
 62
2
  6
CONTINUOUS
 10
7518.0604597377
 20
249.3633506818
 11
7518.0604597377
 21
189.2071006818
  0
LINE
  5
35B
100
AcDbEntity
  8
0
100
AcDbLine
 62
2
  6
CONTINUOUS
 10
7518.0604597377
 20
189.2071006818
 11
8114.0604597377
 21
189.2071006818
  0
LINE
  5
35C
100
AcDbEntity
  8
0
100
AcDbLine
 62
2
  6
CONTINUOUS
 10
8114.0604597377
 20
249.3633506818
 11
8114.0604597377
 21
189.2071006818
  0
MTEXT
  5
35D
100
AcDbEntity
  8
0
100
AcDbMText
 62
2
  6
CONTINUOUS
  7
TEXTSTYLE_2
 71
2
 72
1
 10
7890.5604597377
 20
231.9852256818
 30
0.0
 11
1.0
 21
0.0
 31
0.0
 44
0.9
  1
DCS-SC-424-8F-2D.A.1 
 40
25.4
 41
383.4550185874
  0
LINE
  5
35E
100
AcDbEntity
  8
0
100
AcDbLine
 62
2
  6
CONTINUOUS
 10
5921.1640693975
 20
947.5993739071
 11
6588.6640693975
 21
947.5993739071
  0
LINE
  5
35F
100
AcDbEntity
  8
0
100
AcDbLine
 62
2
  6
CONTINUOUS
 10
5921.1640693975
 20
947.5993739071
 11
5921.1640693975
 21
556.3493739071
  0
LINE
  5
360
100
AcDbEntity
  8
0
100
AcDbLine
 62
2
  6
CONTINUOUS
 10
5921.1640693975
 20
556.3493739071
 11
6588.6640693975
 21
556.3493739071
  0
LINE
  5
361
100
AcDbEntity
  8
0
100
AcDbLine
 62
2
  6
CONTINUOUS
 10
6588.6640693975
 20
947.5993739071
 11
6588.6640693975
 21
556.3493739071
  0
MTEXT
  5
362
100
AcDbEntity
  8
0
100
AcDbMText
 62
2
  6
CONTINUOUS
  7
TEXTSTYLE_2
 71
1
 72
1
 10
5989.1640693975
 20
670.0368739071
 30
0.0
 11
1.0
 21
0.0
 31
0.0
 44
0.9
  1
.X \Fgdt;{\Fgdt;`}\Fgothic.ttf;{\Ftxt.shx;\W0.166667;\H31.750000; } 3 [.12]               \Fgdt;{\Fgdt;`}\Fgothic.ttf;1\Fgdt;{\Fgdt;~}
 40
31.75
 41
502.3149008674
  0
LINE
  5
363
100
AcDbEntity
  8
0
100
AcDbLine
 62
2
  6
CONTINUOUS
 10
5620.1514602766
 20
5416.3208325598
 11
8458.4514602766
 21
5416.3208325598
  0
LINE
  5
364
100
AcDbEntity
  8
0
100
AcDbLine
 62
2
  6
CONTINUOUS
 10
5620.1514602766
 20
5416.3208325598
 11
5620.1514602766
 21
5142.0008325599
  0
LINE
  5
365
100
AcDbEntity
  8
0
100
AcDbLine
 62
2
  6
CONTINUOUS
 10
5620.1514602766
 20
5324.8808325598
 11
8458.4514602766
 21
5324.8808325598
  0
LINE
  5
366
100
AcDbEntity
  8
0
100
AcDbLine
 62
2
  6
CONTINUOUS
 10
5620.1514602766
 20
5233.4408325598
 11
8458.4514602766
 21
5233.4408325598
  0
LINE
  5
367
100
AcDbEntity
  8
0
100
AcDbLine
 62
2
  6
CONTINUOUS
 10
5620.1514602766
 20
5142.0008325599
 11
8458.4514602766
 21
5142.0008325599
  0
LINE
  5
368
100
AcDbEntity
  8
0
100
AcDbLine
 62
2
  6
CONTINUOUS
 10
5817.6714602766
 20
5324.8808325598
 11
5817.6714602766
 21
5142.0008325599
  0
LINE
  5
369
100
AcDbEntity
  8
0
100
AcDbLine
 62
2
  6
CONTINUOUS
 10
7887.8714602766
 20
5324.8808325598
 11
7887.8714602766
 21
5142.0008325599
  0
LINE
  5
36A
100
AcDbEntity
  8
0
100
AcDbLine
 62
2
  6
CONTINUOUS
 10
8070.7514602766
 20
5324.8808325598
 11
8070.7514602766
 21
5142.0008325599
  0
LINE
  5
36B
100
AcDbEntity
  8
0
100
AcDbLine
 62
2
  6
CONTINUOUS
 10
8458.4514602766
 20
5416.3208325598
 11
8458.4514602766
 21
5142.0008325599
  0
MTEXT
  5
36C
100
AcDbEntity
  8
0
100
AcDbMText
 62
2
  6
CONTINUOUS
  7
TEXTSTYLE_2
 71
2
 72
1
 10
7039.3014602766
 20
5393.4608325599
 30
0.0
 11
1.0
 21
0.0
 31
0.0
 44
0.9
  1
REVISION
 40
45.72
 41
280.7785873606
  0
MTEXT
  5
36D
100
AcDbEntity
  8
0
100
AcDbMText
 62
2
  6
CONTINUOUS
  7
TEXTSTYLE_2
 71
2
 72
1
 10
5718.9114602766
 20
5302.0208325599
 30
0.0
 11
1.0
 21
0.0
 31
0.0
 44
0.9
  1
REV
 40
45.72
 41
117.6142750929
  0
MTEXT
  5
36E
100
AcDbEntity
  8
0
100
AcDbMText
 62
2
  6
CONTINUOUS
  7
TEXTSTYLE_2
 71
1
 72
1
 10
5835.9594602766
 20
5302.0208325599
 30
0.0
 11
1.0
 21
0.0
 31
0.0
 44
0.9
  1
                                                  DESCRIPTION
 40
45.72
 41
1284.0691449814
  0
MTEXT
  5
36F
100
AcDbEntity
  8
0
100
AcDbMText
 62
2
  6
CONTINUOUS
  7
TEXTSTYLE_2
 71
2
 72
1
 10
7979.3114602766
 20
5302.0208325599
 30
0.0
 11
1.0
 21
0.0
 31
0.0
 44
0.9
  1
BY
 40
45.72
 41
74.2737546468
  0
MTEXT
  5
370
100
AcDbEntity
  8
0
100
AcDbMText
 62
2
  6
CONTINUOUS
  7
TEXTSTYLE_2
 71
2
 72
1
 10
8264.6014602766
 20
5302.0208325599
 30
0.0
 11
1.0
 21
0.0
 31
0.0
 44
0.9
  1
DATE
 40
45.72
 41
155.8559107807
  0
MTEXT
  5
371
100
AcDbEntity
  8
0
100
AcDbMText
 62
2
  6
CONTINUOUS
  7
STANDARD
 71
2
 72
1
 10
5718.9114602766
 20
5210.5808325599
 30
0.0
 11
1.0
 21
0.0
 31
0.0
 44
0.9
  1
A
 40
45.72
 41
47.0797026022
  0
MTEXT
  5
372
100
AcDbEntity
  8
0
100
AcDbMText
 62
2
  6
CONTINUOUS
  7
STANDARD
 71
1
 72
1
 10
5835.9594602766
 20
5210.5808325599
 30
0.0
 11
1.0
 21
0.0
 31
0.0
 44
0.9
  1
INITIAL RELEASE
 40
45.72
 41
461.2791078067
  0
MTEXT
  5
373
100
AcDbEntity
  8
0
100
AcDbMText
 62
2
  6
CONTINUOUS
  7
STANDARD
 71
2
 72
1
 10
7979.3114602766
 20
5210.5808325599
 30
0.0
 11
1.0
 21
0.0
 31
0.0
 44
0.9
  1
SS
 40
45.72
 41
63.5660966543
  0
MTEXT
  5
374
100
AcDbEntity
  8
0
100
AcDbMText
 62
2
  6
CONTINUOUS
  7
STANDARD
 71
2
 72
1
 10
8264.6014602766
 20
5210.5808325599
 30
0.0
 11
1.0
 21
0.0
 31
0.0
 44
0.9
  1
30-APR-18
 40
45.72
 41
307.4627509294
  0
MTEXT
  5
375
100
AcDbEntity
  8
0
100
AcDbMText
 62
2
  6
CONTINUOUS
  7
STANDARD
 71
1
 72
1
 10
256.1396193971
 20
1179.2803730854
 30
0.0
 11
1.0
 21
0.0
 31
0.0
 44
1.2
  1
 \P3. SYMBOL      INDICATES CENTER OF BALANCE.\P2. SYMBOL \Fgdt;{\Fgdt;r}\Fgothic.ttf; INDICATES SUSPENSION POINT, \P   24 TOTAL:  M10-1.5 THD. \P1. NET WEIGHT APPROX. 115.9 KG (255 LBS)\P \P NOTES:  UNLESS OTHERWISE SPECIFIED
 40
71.12
 41
2216.8817843866
  0
MTEXT
  5
376
100
AcDbEntity
  8
0
100
AcDbMText
 62
2
  6
CONTINUOUS
  7
STANDARD
 71
1
 72
1
 10
4631.5764292345
 20
1623.5665872568
 30
0.0
 11
1.0
 21
0.0
 31
0.0
 44
0.9
  1
HORIZONTAL CONFIGURATION
 40
45.72
 41
933.6057992565
  0
MTEXT
  5
377
100
AcDbEntity
  8
0
100
AcDbMText
 62
2
  6
CONTINUOUS
  7
STANDARD
 71
1
 72
1
 10
729.1889162066
 20
1622.8591929183
 30
0.0
 11
1.0
 21
0.0
 31
0.0
 44
0.9
  1
VERTICAL CONFIGURATION
 40
45.72
 41
832.3079553903
  0
INSERT
  5
378
100
AcDbEntity
  8
0
100
AcDbBlockReference
 62
2
  6
CONTINUOUS
  2
CG_3D_BL0
 10
848.2305376952
 20
1004.0984758189
  0
INSERT
  5
379
100
AcDbEntity
  8
0
100
AcDbBlockReference
 62
2
  6
CONTINUOUS
  2
CG_3D_BL1
 10
5060.3897089669
 20
2393.1213575854
  0
INSERT
  5
37A
100
AcDbEntity
  8
0
100
AcDbBlockReference
 62
2
  6
CONTINUOUS
  2
CG_3D_BL2
 10
7113.2007388482
 20
2393.095196513
  0
INSERT
  5
37B
100
AcDbEntity
  8
0
100
AcDbBlockReference
 62
2
  6
CONTINUOUS
  2
CG_3D_BL3
 10
1157.56970408
 20
2883.819769912
  0
INSERT
  5
37C
100
AcDbEntity
  8
0
100
AcDbBlockReference
 62
2
  6
CONTINUOUS
  2
CG_3D_BL4
 10
2651.7823664935
 20
2883.8345473774
  0
LWPOLYLINE
  5
37D
100
AcDbEntity
  8
0
100
AcDbPolyline
 62
7
  6
CONTINUOUS
 90
2
 70
0
 43
4.9999999776
 10
147.8369094487
 20
2822.0622781608
 10
147.8369094487
 20
2785.4005360668
  0
LWPOLYLINE
  5
37E
100
AcDbEntity
  8
0
100
AcDbPolyline
 62
7
  6
CONTINUOUS
 90
2
 70
0
 43
4.9999999776
 10
179.5869094487
 20
5419.9314071148
 10
179.5869094487
 20
187.5314071148
  0
LWPOLYLINE
  5
37F
100
AcDbEntity
  8
0
100
AcDbPolyline
 62
7
  6
CONTINUOUS
 90
2
 70
0
 43
4.9999999776
 10
1214.6369094487
 20
187.5314071148
 10
1214.6369094487
 20
124.0314071148
  0
LWPOLYLINE
  5
380
100
AcDbEntity
  8
0
100
AcDbPolyline
 62
7
  6
CONTINUOUS
 90
2
 70
0
 43
4.9999999776
 10
1214.6369094487
 20
5419.9314071148
 10
1214.6369094487
 20
5483.4314071148
  0
LWPOLYLINE
  5
381
100
AcDbEntity
  8
0
100
AcDbPolyline
 62
7
  6
CONTINUOUS
 90
2
 70
0
 43
4.9999999776
 10
1500.3869094487
 20
5419.9314071148
 10
1500.3869094487
 20
5280.2314071148
  0
LWPOLYLINE
  5
382
100
AcDbEntity
  8
0
100
AcDbPolyline
 62
7
  6
CONTINUOUS
 90
2
 70
0
 43
4.9999999776
 10
6491.1163927427
 20
247.6786266608
 10
6567.3163927447
 20
260.3786266608
  0
LWPOLYLINE
  5
383
100
AcDbEntity
  8
0
100
AcDbPolyline
 62
7
  6
CONTINUOUS
 90
2
 70
0
 43
4.9999999776
 10
4338.1177804947
 20
155.7814071148
 10
4301.4560384027
 20
155.7814071148
  0
LWPOLYLINE
  5
384
100
AcDbEntity
  8
0
100
AcDbPolyline
 62
7
  6
CONTINUOUS
 90
2
 70
0
 43
4.9999999776
 10
8459.9869094487
 20
187.5314071148
 10
179.5869094487
 20
187.5314071148
  0
LWPOLYLINE
  5
385
100
AcDbEntity
  8
0
100
AcDbPolyline
 62
7
  6
CONTINUOUS
 90
2
 70
0
 43
1.9999999396
 10
6407.3979927427
 20
234.9786266608
 10
6473.2347927447
 20
234.9786266608
  0
LWPOLYLINE
  5
386
100
AcDbEntity
  8
0
100
AcDbPolyline
 62
7
  6
CONTINUOUS
 90
2
 70
0
 43
1.9999999396
 10
6481.6586629067
 20
234.9786266608
 10
6575.0889628947
 20
234.9786266608
  0
LWPOLYLINE
  5
387
100
AcDbEntity
  8
0
100
AcDbPolyline
 62
7
  6
CONTINUOUS
 90
2
 70
0
 43
4.9999999776
 10
7282.2646007447
 20
251.0314071148
 10
8459.9869094487
 20
251.0314071148
  0
LWPOLYLINE
  5
388
100
AcDbEntity
  8
0
100
AcDbPolyline
 62
7
  6
CONTINUOUS
 90
2
 70
0
 43
4.9999999776
 10
5919.9869094487
 20
278.9714071148
 10
6589.0171530867
 20
278.9714071148
  0
LWPOLYLINE
  5
389
100
AcDbEntity
  8
0
100
AcDbPolyline
 62
7
  6
CONTINUOUS
 90
2
 70
0
 43
4.9999999776
 10
6588.2945484887
 20
322.5314071148
 10
7281.5419961467
 20
322.5314071148
  0
LWPOLYLINE
  5
38A
100
AcDbEntity
  8
0
100
AcDbPolyline
 62
7
  6
CONTINUOUS
 90
2
 70
0
 43
4.9999999776
 10
5919.9869094487
 20
370.4114071148
 10
6589.0171530867
 20
370.4114071148
  0
LWPOLYLINE
  5
38B
100
AcDbEntity
  8
0
100
AcDbPolyline
 62
7
  6
CONTINUOUS
 90
2
 70
0
 43
4.9999999776
 10
7282.2646007447
 20
380.0314071148
 10
8459.9869094487
 20
380.0314071148
  0
LWPOLYLINE
  5
38C
100
AcDbEntity
  8
0
100
AcDbPolyline
 62
7
  6
CONTINUOUS
 90
2
 70
0
 43
4.9999999776
 10
147.8369094487
 20
2785.4005360668
 10
179.5869094487
 20
2803.7314071148
  0
LWPOLYLINE
  5
38D
100
AcDbEntity
  8
0
100
AcDbPolyline
 62
7
  6
CONTINUOUS
 90
2
 70
0
 43
4.9999999776
 10
6589.0171530867
 20
457.5314071148
 10
7282.2646007447
 20
457.5314071148
  0
LWPOLYLINE
  5
38E
100
AcDbEntity
  8
0
100
AcDbPolyline
 62
7
  6
CONTINUOUS
 90
2
 70
0
 43
4.9999999776
 10
5919.9869094487
 20
461.8514071148
 10
6589.0171530867
 20
461.8514071148
  0
LWPOLYLINE
  5
38F
100
AcDbEntity
  8
0
100
AcDbPolyline
 62
7
  6
CONTINUOUS
 90
2
 70
0
 43
4.9999999776
 10
6589.0171530867
 20
554.6337520588
 10
5919.9869094487
 20
554.6337520588
  0
LWPOLYLINE
  5
390
100
AcDbEntity
  8
0
100
AcDbPolyline
 62
7
  6
CONTINUOUS
 90
2
 70
0
 43
4.9999999776
 10
6589.0171530867
 20
592.5314071148
 10
7282.2646007447
 20
592.5314071148
  0
LWPOLYLINE
  5
391
100
AcDbEntity
  8
0
100
AcDbPolyline
 62
7
  6
CONTINUOUS
 90
2
 70
0
 43
4.9999999776
 10
6589.0171530867
 20
722.0273511288
 10
7282.2646007447
 20
722.0273511288
  0
LWPOLYLINE
  5
392
100
AcDbEntity
  8
0
100
AcDbPolyline
 62
7
  6
CONTINUOUS
 90
2
 70
0
 43
4.9999999776
 10
6491.1163927427
 20
222.2786266608
 10
6567.3163927447
 20
209.5786266608
  0
LWPOLYLINE
  5
393
100
AcDbEntity
  8
0
100
AcDbPolyline
 62
7
  6
CONTINUOUS
 90
2
 70
0
 43
4.9999999776
 10
2249.6869094487
 20
187.5314071148
 10
2249.6869094487
 20
124.0314071148
  0
LWPOLYLINE
  5
394
100
AcDbEntity
  8
0
100
AcDbPolyline
 62
7
  6
CONTINUOUS
 90
2
 70
0
 43
4.9999999776
 10
2249.6869094487
 20
5419.9314071148
 10
2249.6869094487
 20
5483.4314071148
  0
LWPOLYLINE
  5
395
100
AcDbEntity
  8
0
100
AcDbPolyline
 62
7
  6
CONTINUOUS
 90
2
 70
0
 43
4.9999999776
 10
7282.2646007447
 20
759.0314071148
 10
8459.9869094487
 20
759.0314071148
  0
LWPOLYLINE
  5
396
100
AcDbEntity
  8
0
100
AcDbPolyline
 62
7
  6
CONTINUOUS
 90
2
 70
0
 43
4.9999999776
 10
6589.0171530867
 20
775.3673511288
 10
7282.2646007447
 20
775.3673511288
  0
LINE
  5
397
100
AcDbEntity
  8
0
100
AcDbLine
 62
7
  6
CONTINUOUS
 10
7405.854313108
 20
799.8626324135
 11
7432.9538998136
 21
799.8626324135
  0
LINE
  5
398
100
AcDbEntity
  8
0
100
AcDbLine
 62
7
  6
CONTINUOUS
 10
7333.8047974344
 20
810.3473271207
 11
7404.1139267
 21
810.3473271207
  0
LINE
  5
399
100
AcDbEntity
  8
0
100
AcDbLine
 62
7
  6
CONTINUOUS
 10
7434.6942862216
 20
810.3473271207
 11
7448.5196924984
 21
810.3473271207
  0
LINE
  5
39A
100
AcDbEntity
  8
0
100
AcDbLine
 62
7
  6
CONTINUOUS
 10
7486.5994359912
 20
810.3473270839
 11
7612.3684688008
 21
810.3473270839
  0
LINE
  5
39B
100
AcDbEntity
  8
0
100
AcDbLine
 62
7
  6
CONTINUOUS
 10
7587.9076919608
 20
827.9705775959
 11
7486.5994359912
 21
827.9705775959
  0
LINE
  5
39C
100
AcDbEntity
  8
0
100
AcDbLine
 62
7
  6
CONTINUOUS
 10
7791.1917237224
 20
828.3625721399
 11
7686.9216152168
 21
828.3625721399
  0
LINE
  5
39D
100
AcDbEntity
  8
0
100
AcDbLine
 62
7
  6
CONTINUOUS
 10
7351.7454749944
 20
828.9918611895
 11
7403.7181030936
 21
828.9918611895
  0
LINE
  5
39E
100
AcDbEntity
  8
0
100
AcDbLine
 62
7
  6
CONTINUOUS
 10
7434.160356924
 20
828.9918612807
 11
7442.153455228
 21
828.9918612807
  0
LINE
  5
39F
100
AcDbEntity
  8
0
100
AcDbLine
 62
7
  6
CONTINUOUS
 10
7405.4584895208
 20
839.4494622055
 11
7432.4199705896
 21
839.4494622055
  0
LINE
  5
3A0
100
AcDbEntity
  8
0
100
AcDbLine
 62
7
  6
CONTINUOUS
 10
7500.9987508888
 20
846.2601791671
 11
7587.9076919784
 21
846.2601791671
  0
LINE
  5
3A1
100
AcDbEntity
  8
0
100
AcDbLine
 62
7
  6
CONTINUOUS
 10
7612.3684688008
 20
864.5511934871
 11
7526.617966404
 21
864.5511934871
  0
LINE
  5
3A2
100
AcDbEntity
  8
0
100
AcDbLine
 62
7
  6
CONTINUOUS
 10
7526.6179663864
 20
882.1629656999
 11
7628.0637334488
 21
882.1629656999
  0
LINE
  5
3A3
100
AcDbEntity
  8
0
100
AcDbLine
 62
7
  6
CONTINUOUS
 10
7686.921615236
 20
882.3435037447
 11
7791.1917237032
 21
882.3435037447
  0
LINE
  5
3A4
100
AcDbEntity
  8
0
100
AcDbLine
 62
7
  6
CONTINUOUS
 10
7351.745475012
 20
883.1631208759
 11
7442.1534551912
 21
883.1631208759
  0
LINE
  5
3A5
100
AcDbEntity
  8
0
100
AcDbLine
 62
7
  6
CONTINUOUS
 10
7448.5196924984
 20
900.3409567047
 11
7333.8047974344
 21
900.3409567047
  0
LINE
  5
3A6
100
AcDbEntity
  8
0
100
AcDbLine
 62
7
  6
CONTINUOUS
 10
7791.1917237272
 20
900.4466324135
 11
7669.5423865416
 21
900.4466324135
  0
LINE
  5
3A7
100
AcDbEntity
  8
0
100
AcDbLine
 62
7
  6
CONTINUOUS
 10
7628.0637334488
 20
900.4466323959
 11
7500.9987508888
 21
900.4466323959
  0
LWPOLYLINE
  5
3A8
100
AcDbEntity
  8
0
100
AcDbPolyline
 62
7
  6
CONTINUOUS
 90
2
 70
0
 43
4.9999999776
 10
5919.9869094487
 20
949.5314071148
 10
8459.9869094487
 20
949.5314071148
  0
LINE
  5
3A9
100
AcDbEntity
  8
0
100
AcDbLine
 62
7
  6
CONTINUOUS
 10
7669.5423865416
 20
810.3473727671
 11
7791.20159998
 21
810.1963516951
  0
LWPOLYLINE
  5
3AA
100
AcDbEntity
  8
0
100
AcDbPolyline
 62
7
  6
CONTINUOUS
 90
2
 70
0
 43
4.9999999776
 10
179.5869094487
 20
2803.7314071148
 10
147.8369094487
 20
2822.0622781608
  0
LWPOLYLINE
  5
3AB
100
AcDbEntity
  8
0
100
AcDbPolyline
 62
7
  6
CONTINUOUS
 90
2
 70
0
 43
4.9999999776
 10
4319.7869094487
 20
5419.9314071148
 10
4338.1177804947
 20
5451.6814071148
  0
LWPOLYLINE
  5
3AC
100
AcDbEntity
  8
0
100
AcDbPolyline
 62
7
  6
CONTINUOUS
 90
2
 70
0
 43
4.9999999776
 10
179.5869094487
 20
1495.6314071148
 10
116.0869094487
 20
1495.6314071148
  0
LWPOLYLINE
  5
3AD
100
AcDbEntity
  8
0
100
AcDbPolyline
 62
7
  6
CONTINUOUS
 90
2
 70
0
 43
4.9999999776
 10
8459.9869094487
 20
1495.6314071148
 10
8523.4869094487
 20
1495.6314071148
  0
LWPOLYLINE
  5
3AE
100
AcDbEntity
  8
0
100
AcDbPolyline
 62
7
  6
CONTINUOUS
 90
2
 70
0
 43
4.9999999776
 10
4319.7869094487
 20
187.5314071148
 10
4338.1177804947
 20
155.7814071148
  0
LWPOLYLINE
  5
3AF
100
AcDbEntity
  8
0
100
AcDbPolyline
 62
7
  6
CONTINUOUS
 90
2
 70
0
 43
4.9999999776
 10
3284.7369094487
 20
187.5314071148
 10
3284.7369094487
 20
124.0314071148
  0
LWPOLYLINE
  5
3B0
100
AcDbEntity
  8
0
100
AcDbPolyline
 62
7
  6
CONTINUOUS
 90
2
 70
0
 43
4.9999999776
 10
3284.7369094487
 20
5419.9314071148
 10
3284.7369094487
 20
5483.4314071148
  0
LWPOLYLINE
  5
3B1
100
AcDbEntity
  8
0
100
AcDbPolyline
 62
7
  6
CONTINUOUS
 90
2
 70
0
 43
4.9999999776
 10
4319.7869094487
 20
187.5314071148
 10
4319.7869094487
 20
124.0314071148
  0
LWPOLYLINE
  5
3B2
100
AcDbEntity
  8
0
100
AcDbPolyline
 62
7
  6
CONTINUOUS
 90
2
 70
0
 43
4.9999999776
 10
4319.7869094487
 20
5419.9314071148
 10
4319.7869094487
 20
5483.4314071148
  0
LWPOLYLINE
  5
3B3
100
AcDbEntity
  8
0
100
AcDbPolyline
 62
7
  6
CONTINUOUS
 90
2
 70
0
 43
4.9999999776
 10
179.5869094487
 20
2803.7314071148
 10
116.0869094487
 20
2803.7314071148
  0
LWPOLYLINE
  5
3B4
100
AcDbEntity
  8
0
100
AcDbPolyline
 62
7
  6
CONTINUOUS
 90
2
 70
0
 43
4.9999999776
 10
8459.9869094487
 20
2803.7314071148
 10
8523.4869094487
 20
2803.7314071148
  0
LWPOLYLINE
  5
3B5
100
AcDbEntity
  8
0
100
AcDbPolyline
 62
7
  6
CONTINUOUS
 90
2
 70
0
 43
4.9999999776
 10
5354.8369094487
 20
187.5314071148
 10
5354.8369094487
 20
124.0314071148
  0
LWPOLYLINE
  5
3B6
100
AcDbEntity
  8
0
100
AcDbPolyline
 62
7
  6
CONTINUOUS
 90
2
 70
0
 43
4.9999999776
 10
5354.8369094487
 20
5419.9314071148
 10
5354.8369094487
 20
5483.4314071148
  0
LWPOLYLINE
  5
3B7
100
AcDbEntity
  8
0
100
AcDbPolyline
 62
7
  6
CONTINUOUS
 90
2
 70
0
 43
4.9999999776
 10
4319.7869094487
 20
187.5314071148
 10
4301.4560384027
 20
155.7814071148
  0
LWPOLYLINE
  5
3B8
100
AcDbEntity
  8
0
100
AcDbPolyline
 62
7
  6
CONTINUOUS
 90
2
 70
0
 43
4.9999999776
 10
179.5869094487
 20
4111.8314071148
 10
116.0869094487
 20
4111.8314071148
  0
LWPOLYLINE
  5
3B9
100
AcDbEntity
  8
0
100
AcDbPolyline
 62
7
  6
CONTINUOUS
 90
2
 70
0
 43
4.9999999776
 10
8459.9869094487
 20
4111.8314071148
 10
8523.4869094487
 20
4111.8314071148
  0
LWPOLYLINE
  5
3BA
100
AcDbEntity
  8
0
100
AcDbPolyline
 62
7
  6
CONTINUOUS
 90
2
 70
0
 43
4.9999999776
 10
4319.7869094487
 20
5419.9314071148
 10
4301.4560384027
 20
5451.6814071148
  0
LWPOLYLINE
  5
3BB
100
AcDbEntity
  8
0
100
AcDbPolyline
 62
7
  6
CONTINUOUS
 90
2
 70
0
 43
4.9999999776
 10
5919.9869094487
 20
187.5314071148
 10
5919.9869094487
 20
949.5314071148
  0
LWPOLYLINE
  5
3BC
100
AcDbEntity
  8
0
100
AcDbPolyline
 62
7
  6
CONTINUOUS
 90
2
 70
0
 43
4.9999999776
 10
6389.8869094487
 20
124.0314071148
 10
6389.8869094487
 20
278.9714071148
  0
LWPOLYLINE
  5
3BD
100
AcDbEntity
  8
0
100
AcDbPolyline
 62
7
  6
CONTINUOUS
 90
2
 70
0
 43
4.9999999776
 10
6389.8869094487
 20
5419.9314071148
 10
6389.8869094487
 20
5483.4314071148
  0
LWPOLYLINE
  5
3BE
100
AcDbEntity
  8
0
100
AcDbPolyline
 62
7
  6
CONTINUOUS
 90
2
 70
0
 43
1.9999999396
 10
6440.3163927427
 20
202.0602266608
 10
6440.3163927427
 20
267.8970266608
  0
LWPOLYLINE
  5
3BF
100
AcDbEntity
  8
0
100
AcDbPolyline
 62
7
  6
CONTINUOUS
 90
2
 70
0
 43
4.9999999776
 10
8459.9869094487
 20
2803.7314071148
 10
8491.7369094487
 20
2822.0622781608
  0
LWPOLYLINE
  5
3C0
100
AcDbEntity
  8
0
100
AcDbPolyline
 62
7
  6
CONTINUOUS
 90
2
 70
0
 43
4.9999999776
 10
8491.7369094487
 20
2785.4005360668
 10
8459.9869094487
 20
2803.7314071148
  0
LWPOLYLINE
  5
3C1
100
AcDbEntity
  8
0
100
AcDbPolyline
 62
7
  6
CONTINUOUS
 90
2
 70
0
 43
4.9999999776
 10
6491.1163927427
 20
247.6786266608
 10
6491.1163927427
 20
222.2786266608
  0
LWPOLYLINE
  5
3C2
100
AcDbEntity
  8
0
100
AcDbPolyline
 62
7
  6
CONTINUOUS
 90
2
 70
0
 43
4.9999999776
 10
6567.3163927447
 20
260.3786266608
 10
6567.3163927447
 20
209.5786266608
  0
LWPOLYLINE
  5
3C3
100
AcDbEntity
  8
0
100
AcDbPolyline
 62
7
  6
CONTINUOUS
 90
2
 70
0
 43
4.9999999776
 10
6589.0171530867
 20
949.5314071148
 10
6589.0171530867
 20
187.5314071148
  0
LWPOLYLINE
  5
3C4
100
AcDbEntity
  8
0
100
AcDbPolyline
 62
7
  6
CONTINUOUS
 90
2
 70
0
 43
4.9999999776
 10
179.5869094487
 20
5278.2314071148
 10
1500.3869094487
 20
5278.2314071148
  0
LWPOLYLINE
  5
3C5
100
AcDbEntity
  8
0
100
AcDbPolyline
 62
7
  6
CONTINUOUS
 90
2
 70
0
 43
4.9999999776
 10
179.5869094487
 20
5417.9314071148
 10
8459.9869094487
 20
5417.9314071148
  0
LWPOLYLINE
  5
3C6
100
AcDbEntity
  8
0
100
AcDbPolyline
 62
7
  6
CONTINUOUS
 90
2
 70
0
 43
4.9999999776
 10
4338.1177804947
 20
5451.6814071148
 10
4301.4560384027
 20
5451.6814071148
  0
LWPOLYLINE
  5
3C7
100
AcDbEntity
  8
0
100
AcDbPolyline
 62
7
  6
CONTINUOUS
 90
2
 70
0
 43
4.9999999776
 10
7282.2646007447
 20
949.5314071148
 10
7282.2646007447
 20
187.5314071148
  0
LINE
  5
3C8
100
AcDbEntity
  8
0
100
AcDbLine
 62
7
  6
CONTINUOUS
 10
7347.2204702888
 20
833.5168658951
 11
7347.2204702888
 21
878.6381161527
  0
LINE
  5
3C9
100
AcDbEntity
  8
0
100
AcDbLine
 62
7
  6
CONTINUOUS
 10
7643.9835486952
 20
855.5540813127
 11
7643.9914905512
 21
854.8655641191
  0
LWPOLYLINE
  5
3CA
100
AcDbEntity
  8
0
100
AcDbPolyline
 62
7
  6
CONTINUOUS
 90
2
 70
0
 43
4.9999999776
 10
7374.0647124387
 20
378.0314071148
 10
7374.0647124387
 20
251.0314071148
  0
LINE
  5
3CB
100
AcDbEntity
  8
0
100
AcDbLine
 62
7
  6
CONTINUOUS
 10
7403.7181030936
 20
828.9918611895
 11
7403.7181030936
 21
837.7090757799
  0
LINE
  5
3CC
100
AcDbEntity
  8
0
100
AcDbLine
 62
7
  6
CONTINUOUS
 10
7404.1139267
 20
810.3473271207
 11
7404.1139267
 21
801.6030188215
  0
LWPOLYLINE
  5
3CD
100
AcDbEntity
  8
0
100
AcDbPolyline
 62
7
  6
CONTINUOUS
 90
2
 70
0
 43
4.9999999776
 10
7424.9369094487
 20
187.5314071148
 10
7424.9369094487
 20
124.0314071148
  0
LWPOLYLINE
  5
3CE
100
AcDbEntity
  8
0
100
AcDbPolyline
 62
7
  6
CONTINUOUS
 90
2
 70
0
 43
4.9999999776
 10
7424.9369094487
 20
5419.9314071148
 10
7424.9369094487
 20
5483.4314071148
  0
LINE
  5
3CF
100
AcDbEntity
  8
0
100
AcDbLine
 62
7
  6
CONTINUOUS
 10
7434.160356924
 20
828.9918612807
 11
7434.160356924
 21
837.7090758343
  0
LINE
  5
3D0
100
AcDbEntity
  8
0
100
AcDbLine
 62
7
  6
CONTINUOUS
 10
7434.6942862216
 20
801.6030188215
 11
7434.6942862216
 21
810.3473271207
  0
LINE
  5
3D1
100
AcDbEntity
  8
0
100
AcDbLine
 62
7
  6
CONTINUOUS
 10
7446.6784599144
 20
833.5168659671
 11
7446.6784599144
 21
878.6381162263
  0
LINE
  5
3D2
100
AcDbEntity
  8
0
100
AcDbLine
 62
7
  6
CONTINUOUS
 10
7469.850802276
 20
827.1865855191
 11
7469.850802276
 21
883.5016982695
  0
LINE
  5
3D3
100
AcDbEntity
  8
0
100
AcDbLine
 62
7
  6
CONTINUOUS
 10
7482.0744312872
 20
823.4455728903
 11
7482.0744312872
 21
814.8723317879
  0
LWPOLYLINE
  5
3D4
100
AcDbEntity
  8
0
100
AcDbPolyline
 62
7
  6
CONTINUOUS
 90
2
 70
0
 43
4.9999999776
 10
7519.1385000707
 20
251.0314071148
 10
7519.1385000707
 20
187.5314071148
  0
LINE
  5
3D5
100
AcDbEntity
  8
0
100
AcDbLine
 62
7
  6
CONTINUOUS
 10
7522.0929617
 20
869.0761981911
 11
7522.0929617
 21
877.6379610135
  0
LINE
  5
3D6
100
AcDbEntity
  8
0
100
AcDbLine
 62
7
  6
CONTINUOUS
 10
7592.4326966472
 20
841.7351744631
 11
7592.4326966472
 21
832.4955822823
  0
LWPOLYLINE
  5
3D7
100
AcDbEntity
  8
0
100
AcDbPolyline
 62
7
  6
CONTINUOUS
 90
2
 70
0
 43
4.9999999776
 10
7615.3647124387
 20
378.0314071148
 10
7615.3647124387
 20
251.0314071148
  0
LINE
  5
3D8
100
AcDbEntity
  8
0
100
AcDbLine
 62
7
  6
CONTINUOUS
 10
7632.5887381528
 20
886.6879704055
 11
7632.5887381528
 21
895.9216276535
  0
LINE
  5
3D9
100
AcDbEntity
  8
0
100
AcDbLine
 62
7
  6
CONTINUOUS
 10
7682.3966105128
 20
832.8875768439
 11
7682.3966105128
 21
877.8184990215
  0
LINE
  5
3DA
100
AcDbEntity
  8
0
100
AcDbLine
 62
7
  6
CONTINUOUS
 10
7795.7167284088
 20
814.7213455975
 11
7795.7167284088
 21
823.8375674535
  0
LINE
  5
3DB
100
AcDbEntity
  8
0
100
AcDbLine
 62
7
  6
CONTINUOUS
 10
7795.7167284088
 20
886.8685084503
 11
7795.7167284088
 21
895.9216277703
  0
LWPOLYLINE
  5
3DC
100
AcDbEntity
  8
0
100
AcDbPolyline
 62
7
  6
CONTINUOUS
 90
2
 70
0
 43
4.9999999776
 10
8113.8605027007
 20
251.0314071148
 10
8113.8605027007
 20
187.5314071148
  0
LWPOLYLINE
  5
3DD
100
AcDbEntity
  8
0
100
AcDbPolyline
 62
7
  6
CONTINUOUS
 90
2
 70
0
 43
4.9999999776
 10
8249.0320527227
 20
378.0314071148
 10
8249.0320527227
 20
251.0314071148
  0
LWPOLYLINE
  5
3DE
100
AcDbEntity
  8
0
100
AcDbPolyline
 62
7
  6
CONTINUOUS
 90
2
 70
0
 43
4.9999999776
 10
8459.9869094487
 20
187.5314071148
 10
8459.9869094487
 20
5419.9314071148
  0
LWPOLYLINE
  5
3DF
100
AcDbEntity
  8
0
100
AcDbPolyline
 62
7
  6
CONTINUOUS
 90
2
 70
0
 43
4.9999999776
 10
8491.7369094487
 20
2822.0622781608
 10
8491.7369094487
 20
2785.4005360668
  0
LINE
  5
3E0
100
AcDbEntity
  8
7_ALL_ROUNDS
100
AcDbLine
 62
7
  6
CONTINUOUS
 10
4220.3256132975
 20
2898.1346840813
 11
4220.3256132975
 21
1894.1346840813
  0
LINE
  5
3E1
100
AcDbEntity
  8
7_ALL_ROUNDS
100
AcDbLine
 62
9
  6
CONTINUOUS
 10
4226.3256132975
 20
2904.1346840813
 11
4226.3256132975
 21
1888.1346840813
  0
LINE
  5
3E2
100
AcDbEntity
  8
3_AXES_OTHER
100
AcDbLine
 62
7
  6
CONTINUOUS
 10
4235.3256132975
 20
2889.1346840813
 11
4235.3256132975
 21
1903.1346840813
  0
LINE
  5
3E3
100
AcDbEntity
  8
7_ALL_ROUNDS
100
AcDbLine
 62
7
  6
CONTINUOUS
 10
4239.3756132975
 20
2474.7441357196
 11
4239.3756132975
 21
1919.2386840813
  0
LINE
  5
3E4
100
AcDbEntity
  8
6_ALL_SURFS
100
AcDbLine
 62
7
  6
CONTINUOUS
 10
4241.2806132975
 20
2885.2081357196
 11
4241.2806132975
 21
2488.9681357196
  0
LINE
  5
3E5
100
AcDbEntity
  8
3_AXES_OTHER
100
AcDbLine
 62
7
  6
CONTINUOUS
 10
4259.6956132975
 20
2488.9681357196
 11
4259.6956132975
 21
2487.4441357196
  0
LINE
  5
3E6
100
AcDbEntity
  8
0
100
AcDbLine
 62
7
  6
CONTINUOUS
 10
4277.4756132975
 20
2539.7681357196
 11
4353.6756132975
 21
2834.4081357196
  0
LINE
  5
3E7
100
AcDbEntity
  8
0
100
AcDbLine
 62
7
  6
CONTINUOUS
 10
4603.1104499544
 20
2732.7535687587
 11
4277.4756132975
 21
2539.7681357196
  0
LINE
  5
3E8
100
AcDbEntity
  8
7_ALL_ROUNDS
100
AcDbLine
 62
7
  6
CONTINUOUS
 10
4226.3256132975
 20
1888.1346840813
 11
5014.4256132975
 21
1888.1346840813
  0
LINE
  5
3E9
100
AcDbEntity
  8
7_ALL_ROUNDS
100
AcDbLine
 62
7
  6
CONTINUOUS
 10
5026.4256132975
 20
1888.1346840813
 11
5814.5256132975
 21
1888.1346840813
  0
LINE
  5
3EA
100
AcDbEntity
  8
7_ALL_ROUNDS
100
AcDbLine
 62
9
  6
CONTINUOUS
 10
4220.3256132975
 20
1894.1346840813
 11
5820.5256132975
 21
1894.1346840813
  0
LINE
  5
3EB
100
AcDbEntity
  8
0
100
AcDbLine
 62
7
  6
CONTINUOUS
 10
4634.9687599389
 20
2752.7412090403
 11
4887.0756132975
 21
2834.4081357196
  0
LINE
  5
3EC
100
AcDbEntity
  8
3_AXES_OTHER
100
AcDbLine
 62
7
  6
CONTINUOUS
 10
4235.3256132975
 20
1903.1346840813
 11
5005.4256132975
 21
1903.1346840813
  0
LINE
  5
3ED
100
AcDbEntity
  8
3_AXES_OTHER
100
AcDbLine
 62
7
  6
CONTINUOUS
 10
5035.4256132975
 20
1903.1346840813
 11
5805.5256132975
 21
1903.1346840813
  0
LINE
  5
3EE
100
AcDbEntity
  8
7_ALL_ROUNDS
100
AcDbLine
 62
7
  6
CONTINUOUS
 10
4252.0756132975
 20
1906.5386840813
 11
4988.6756132975
 21
1906.5386840813
  0
LINE
  5
3EF
100
AcDbEntity
  8
0
100
AcDbLine
 62
7
  6
CONTINUOUS
 10
4855.2897853723
 20
1960.5390840813
 11
4385.461441215
 21
1960.5390840813
  0
LINE
  5
3F0
100
AcDbEntity
  8
3_AXES_OTHER
100
AcDbLine
 62
9
  6
CONTINUOUS
 10
4620.3756132975
 20
2147.7200222464
 11
4620.3756132975
 21
1960.5390840813
  0
LINE
  5
3F1
100
AcDbEntity
  8
3_AXES_OTHER
100
AcDbLine
 62
9
  6
CONTINUOUS
 10
4620.3756132975
 20
2312.1917669015
 11
4620.3756132975
 21
2420.7691357196
  0
LINE
  5
3F2
100
AcDbEntity
  8
3_AXES_OTHER
100
AcDbLine
 62
7
  6
CONTINUOUS
 10
4981.0556132975
 20
2487.4441357196
 11
4981.0556132975
 21
2488.9681357196
  0
LINE
  5
3F3
100
AcDbEntity
  8
6_ALL_SURFS
100
AcDbLine
 62
7
  6
CONTINUOUS
 10
4999.4706132975
 20
2488.9681357196
 11
4999.4706132975
 21
2885.2081357196
  0
LINE
  5
3F4
100
AcDbEntity
  8
7_ALL_ROUNDS
100
AcDbLine
 62
7
  6
CONTINUOUS
 10
5001.3756132975
 20
2474.7441357196
 11
5001.3756132975
 21
1919.2386840813
  0
LINE
  5
3F5
100
AcDbEntity
  8
3_AXES_OTHER
100
AcDbLine
 62
7
  6
CONTINUOUS
 10
5005.4256132975
 20
1903.1346840813
 11
5005.4256132975
 21
2889.1346840813
  0
LINE
  5
3F6
100
AcDbEntity
  8
7_ALL_ROUNDS
100
AcDbLine
 62
9
  6
CONTINUOUS
 10
5014.4256132975
 20
1888.1346840813
 11
5014.4256132975
 21
2904.1346840813
  0
LINE
  5
3F7
100
AcDbEntity
  8
7_ALL_ROUNDS
100
AcDbLine
 62
7
  6
CONTINUOUS
 10
5020.4256132975
 20
2898.1346840813
 11
5020.4256132975
 21
1894.1346840813
  0
LINE
  5
3F8
100
AcDbEntity
  8
7_ALL_ROUNDS
100
AcDbLine
 62
9
  6
CONTINUOUS
 10
5026.4256132975
 20
2904.1346840813
 11
5026.4256132975
 21
1888.1346840813
  0
LINE
  5
3F9
100
AcDbEntity
  8
3_ALL_AXES
100
AcDbLine
 62
7
  6
CENTER
 10
5060.5256132975
 20
2393.1346840813
 11
4965.3592659327
 21
2393.1346840813
  0
LINE
  5
3FA
100
AcDbEntity
  8
3_ALL_AXES
100
AcDbLine
 62
7
  6
CENTER
 10
5060.5256132975
 20
2393.1346840813
 11
5157.3855346467
 21
2393.1346840813
  0
LINE
  5
3FB
100
AcDbEntity
  8
0
100
AcDbLine
 62
7
  6
CONTINUOUS
 10
4887.0756132975
 20
2834.4081357196
 11
4963.2756132975
 21
2539.7681357196
  0
LINE
  5
3FC
100
AcDbEntity
  8
3_AXES_OTHER
100
AcDbLine
 62
7
  6
CONTINUOUS
 10
5035.4256132975
 20
2889.1346840813
 11
5035.4256132975
 21
1903.1346840813
  0
LINE
  5
3FD
100
AcDbEntity
  8
3_ALL_AXES
100
AcDbLine
 62
7
  6
CENTER
 10
5060.5256132975
 20
2393.1346840813
 11
5060.5256132975
 21
2293.1016343784
  0
LINE
  5
3FE
100
AcDbEntity
  8
3_ALL_AXES
100
AcDbLine
 62
7
  6
CENTER
 10
5060.5256132975
 20
2393.1346840813
 11
5060.5256132975
 21
2489.5936302718
  0
LINE
  5
3FF
100
AcDbEntity
  8
7_ALL_ROUNDS
100
AcDbLine
 62
7
  6
CONTINUOUS
 10
4252.0756132975
 20
2487.4441357196
 11
4988.6756132975
 21
2487.4441357196
  0
LINE
  5
400
100
AcDbEntity
  8
6_ALL_SURFS
100
AcDbLine
 62
7
  6
CONTINUOUS
 10
4241.2806132975
 20
2488.9681357196
 11
4999.4706132975
 21
2488.9681357196
  0
LINE
  5
401
100
AcDbEntity
  8
0
100
AcDbLine
 62
7
  6
CONTINUOUS
 10
4637.6407766405
 20
2732.7535687587
 11
4963.2756132975
 21
2539.7681357196
  0
LINE
  5
402
100
AcDbEntity
  8
0
100
AcDbLine
 62
7
  6
CONTINUOUS
 10
4963.2756132975
 20
2539.7681357196
 11
4277.4756132975
 21
2539.7681357196
  0
LINE
  5
403
100
AcDbEntity
  8
0
100
AcDbLine
 62
7
  6
CONTINUOUS
 10
4605.7824666561
 20
2752.7412090403
 11
4353.6756132975
 21
2834.4081357196
  0
LINE
  5
404
100
AcDbEntity
  8
0
100
AcDbLine
 62
7
  6
CONTINUOUS
 10
4353.6756132975
 20
2834.4081357196
 11
4887.0756132975
 21
2834.4081357196
  0
LINE
  5
405
100
AcDbEntity
  8
6_ALL_SURFS
100
AcDbLine
 62
7
  6
CONTINUOUS
 10
4999.4706132975
 20
2885.2081357196
 11
4241.2806132975
 21
2885.2081357196
  0
LINE
  5
406
100
AcDbEntity
  8
3_AXES_OTHER
100
AcDbLine
 62
7
  6
CONTINUOUS
 10
5805.5256132975
 20
2889.1346840813
 11
5035.4256132975
 21
2889.1346840813
  0
LINE
  5
407
100
AcDbEntity
  8
3_AXES_OTHER
100
AcDbLine
 62
7
  6
CONTINUOUS
 10
5005.4256132975
 20
2889.1346840813
 11
4235.3256132975
 21
2889.1346840813
  0
LINE
  5
408
100
AcDbEntity
  8
7_ALL_ROUNDS
100
AcDbLine
 62
9
  6
CONTINUOUS
 10
4220.3256132975
 20
2898.1346840813
 11
5820.5256132975
 21
2898.1346840813
  0
LINE
  5
409
100
AcDbEntity
  8
7_ALL_ROUNDS
100
AcDbLine
 62
7
  6
CONTINUOUS
 10
4226.3256132975
 20
2904.1346840813
 11
5014.4256132975
 21
2904.1346840813
  0
LINE
  5
40A
100
AcDbEntity
  8
7_ALL_ROUNDS
100
AcDbLine
 62
7
  6
CONTINUOUS
 10
5026.4256132975
 20
2904.1346840813
 11
5814.5256132975
 21
2904.1346840813
  0
LINE
  5
40B
100
AcDbEntity
  8
3_AXES_OTHER
100
AcDbLine
 62
7
  6
CONTINUOUS
 10
5805.5256132975
 20
1903.1346840813
 11
5805.5256132975
 21
2889.1346840813
  0
LINE
  5
40C
100
AcDbEntity
  8
7_ALL_ROUNDS
100
AcDbLine
 62
9
  6
CONTINUOUS
 10
5814.5256132975
 20
1888.1346840813
 11
5814.5256132975
 21
2904.1346840813
  0
LINE
  5
40D
100
AcDbEntity
  8
7_ALL_ROUNDS
100
AcDbLine
 62
7
  6
CONTINUOUS
 10
5820.5256132975
 20
1894.1346840813
 11
5820.5256132975
 21
2898.1346840813
  0
LINE
  5
40E
100
AcDbEntity
  8
7_ALL_ROUNDS
100
AcDbLine
 62
7
  6
CONTINUOUS
 10
4220.3256132975
 20
4438.0421453902
 11
4220.3256132975
 21
3967.4421453902
  0
LINE
  5
40F
100
AcDbEntity
  8
7_ALL_ROUNDS
100
AcDbLine
 62
9
  6
CONTINUOUS
 10
4226.3256132975
 20
3961.4421453902
 11
4226.3256132975
 21
4444.0421453902
  0
LINE
  5
410
100
AcDbEntity
  8
7_ALL_ROUNDS
100
AcDbLine
 62
7
  6
CONTINUOUS
 10
4226.3256132975
 20
3961.4421453902
 11
5014.4256132975
 21
3961.4421453902
  0
LINE
  5
411
100
AcDbEntity
  8
7_ALL_ROUNDS
100
AcDbLine
 62
7
  6
CONTINUOUS
 10
5026.4256132975
 20
3961.4421453902
 11
5814.5256132975
 21
3961.4421453902
  0
LINE
  5
412
100
AcDbEntity
  8
7_ALL_ROUNDS
100
AcDbLine
 62
9
  6
CONTINUOUS
 10
4220.3256132975
 20
3967.4421453901
 11
5820.5256132975
 21
3967.4421453902
  0
LINE
  5
413
100
AcDbEntity
  8
7_ALL_ROUNDS
100
AcDbLine
 62
9
  6
CONTINUOUS
 10
5014.4256132975
 20
3961.4421453902
 11
5014.4256132975
 21
4444.0421453902
  0
LINE
  5
414
100
AcDbEntity
  8
7_ALL_ROUNDS
100
AcDbLine
 62
7
  6
CONTINUOUS
 10
5020.4256132975
 20
4438.0421453902
 11
5020.4256132975
 21
3967.4421453902
  0
LINE
  5
415
100
AcDbEntity
  8
7_ALL_ROUNDS
100
AcDbLine
 62
9
  6
CONTINUOUS
 10
5026.4256132975
 20
3961.4421453902
 11
5026.4256132975
 21
4444.0421453902
  0
LINE
  5
416
100
AcDbEntity
  8
7_ALL_ROUNDS
100
AcDbLine
 62
9
  6
CONTINUOUS
 10
4220.3256132975
 20
4438.0421453902
 11
5820.5256132975
 21
4438.0421453903
  0
LINE
  5
417
100
AcDbEntity
  8
7_ALL_ROUNDS
100
AcDbLine
 62
7
  6
CONTINUOUS
 10
5814.5256132975
 20
4444.0421453902
 11
5026.4256132975
 21
4444.0421453902
  0
LINE
  5
418
100
AcDbEntity
  8
7_ALL_ROUNDS
100
AcDbLine
 62
7
  6
CONTINUOUS
 10
5014.4256132975
 20
4444.0421453902
 11
4226.3256132975
 21
4444.0421453902
  0
LINE
  5
419
100
AcDbEntity
  8
7_ALL_ROUNDS
100
AcDbLine
 62
9
  6
CONTINUOUS
 10
5814.5256132975
 20
3961.4421453902
 11
5814.5256132975
 21
4444.0421453902
  0
LINE
  5
41A
100
AcDbEntity
  8
7_ALL_ROUNDS
100
AcDbLine
 62
7
  6
CONTINUOUS
 10
5820.5256132975
 20
3967.4421453902
 11
5820.5256132975
 21
4438.0421453902
  0
LINE
  5
41B
100
AcDbEntity
  8
7_ALL_ROUNDS
100
AcDbLine
 62
7
  6
CONTINUOUS
 10
6852.3204887988
 20
1888.1346840813
 11
7322.9204887988
 21
1888.1346840813
  0
LINE
  5
41C
100
AcDbEntity
  8
7_ALL_ROUNDS
100
AcDbLine
 62
9
  6
CONTINUOUS
 10
6846.3204887988
 20
1894.1346840813
 11
7328.9204887988
 21
1894.1346840813
  0
LINE
  5
41D
100
AcDbEntity
  8
7_ALL_ROUNDS
100
AcDbLine
 62
7
  6
CONTINUOUS
 10
6846.3204887988
 20
1894.1346840813
 11
6846.3204887988
 21
2898.1346840813
  0
LINE
  5
41E
100
AcDbEntity
  8
7_ALL_ROUNDS
100
AcDbLine
 62
9
  6
CONTINUOUS
 10
6852.3204887988
 20
1888.1346840813
 11
6852.3204887988
 21
2904.1346840813
  0
LINE
  5
41F
100
AcDbEntity
  8
3_ALL_AXES
100
AcDbLine
 62
7
  6
CENTER
 10
7027.1309103799
 20
2393.1346840813
 11
7221.83388824
 21
2393.1346840813
  0
LINE
  5
420
100
AcDbEntity
  8
3_ALL_AXES
100
AcDbLine
 62
7
  6
CENTER
 10
7112.9204887988
 20
2490.474454206
 11
7112.9204887988
 21
2299.9522151343
  0
LINE
  5
421
100
AcDbEntity
  8
7_ALL_ROUNDS
100
AcDbLine
 62
9
  6
CONTINUOUS
 10
7322.9204887988
 20
2904.1346840813
 11
7322.9204887988
 21
1888.1346840813
  0
LINE
  5
422
100
AcDbEntity
  8
7_ALL_ROUNDS
100
AcDbLine
 62
7
  6
CONTINUOUS
 10
7328.9204887988
 20
2898.1346840813
 11
7328.9204887988
 21
1894.1346840813
  0
LINE
  5
423
100
AcDbEntity
  8
7_ALL_ROUNDS
100
AcDbLine
 62
9
  6
CONTINUOUS
 10
6846.3204887988
 20
2898.1346840813
 11
7328.9204887988
 21
2898.1346840813
  0
LINE
  5
424
100
AcDbEntity
  8
7_ALL_ROUNDS
100
AcDbLine
 62
7
  6
CONTINUOUS
 10
6852.3204887988
 20
2904.1346840813
 11
7322.9204887988
 21
2904.1346840813
  0
LINE
  5
425
100
AcDbEntity
  8
7_ALL_ROUNDS
100
AcDbLine
 62
7
  6
CONTINUOUS
 10
763.4983432947
 20
1893.8188616405
 11
1551.5983432947
 21
1893.8188616405
  0
LINE
  5
426
100
AcDbEntity
  8
7_ALL_ROUNDS
100
AcDbLine
 62
9
  6
CONTINUOUS
 10
757.4983432947
 20
1899.8188616405
 11
1557.5983432947
 21
1899.8188616405
  0
LINE
  5
427
100
AcDbEntity
  8
3_AXES_OTHER
100
AcDbLine
 62
7
  6
CONTINUOUS
 10
772.4983432947
 20
1908.8188616405
 11
1542.5983432947
 21
1908.8188616405
  0
LINE
  5
428
100
AcDbEntity
  8
0
100
AcDbLine
 62
7
  6
CONTINUOUS
 10
1172.1414899361
 20
3774.4253865995
 11
1424.2483432947
 21
3856.0923132788
  0
LINE
  5
429
100
AcDbEntity
  8
0
100
AcDbLine
 62
7
  6
CONTINUOUS
 10
1140.2831799517
 20
3754.4377463179
 11
814.6483432947
 21
3561.4523132788
  0
LINE
  5
42A
100
AcDbEntity
  8
0
100
AcDbLine
 62
7
  6
CONTINUOUS
 10
814.6483432947
 20
3561.4523132788
 11
890.8483432947
 21
3856.0923132788
  0
LINE
  5
42B
100
AcDbEntity
  8
7_ALL_ROUNDS
100
AcDbLine
 62
7
  6
CONTINUOUS
 10
757.4983432947
 20
3919.8188616405
 11
757.4983432947
 21
2915.8188616405
  0
LINE
  5
42C
100
AcDbEntity
  8
7_ALL_ROUNDS
100
AcDbLine
 62
7
  6
CONTINUOUS
 10
757.4983432947
 20
2903.8188616405
 11
757.4983432947
 21
1899.8188616405
  0
LINE
  5
42D
100
AcDbEntity
  8
7_ALL_ROUNDS
100
AcDbLine
 62
9
  6
CONTINUOUS
 10
763.4983432947
 20
3925.8188616405
 11
763.4983432947
 21
1893.8188616405
  0
LINE
  5
42E
100
AcDbEntity
  8
3_AXES_OTHER
100
AcDbLine
 62
7
  6
CONTINUOUS
 10
772.4983432947
 20
3910.8188616405
 11
772.4983432947
 21
2924.8188616405
  0
LINE
  5
42F
100
AcDbEntity
  8
3_AXES_OTHER
100
AcDbLine
 62
7
  6
CONTINUOUS
 10
772.4983432947
 20
2894.8188616405
 11
772.4983432947
 21
1908.8188616405
  0
LINE
  5
430
100
AcDbEntity
  8
7_ALL_ROUNDS
100
AcDbLine
 62
7
  6
CONTINUOUS
 10
776.5483432947
 20
3496.4283132788
 11
776.5483432947
 21
2940.9228616405
  0
LINE
  5
431
100
AcDbEntity
  8
6_ALL_SURFS
100
AcDbLine
 62
7
  6
CONTINUOUS
 10
778.4533432947
 20
3906.8923132788
 11
778.4533432947
 21
3510.6523132788
  0
LINE
  5
432
100
AcDbEntity
  8
3_AXES_OTHER
100
AcDbLine
 62
7
  6
CONTINUOUS
 10
796.8683432947
 20
3510.6523132788
 11
796.8683432947
 21
3509.1283132788
  0
LINE
  5
433
100
AcDbEntity
  8
3_AXES_OTHER
100
AcDbLine
 62
9
  6
CONTINUOUS
 10
1157.5483432947
 20
3169.4041998056
 11
1157.5483432947
 21
2982.2232616405
  0
LINE
  5
434
100
AcDbEntity
  8
3_ALL_AXES
100
AcDbLine
 62
7
  6
CENTER
 10
1157.5483432947
 20
2883.8188616405
 11
1157.5483432947
 21
1816.5697175089
  0
LINE
  5
435
100
AcDbEntity
  8
3_AXES_OTHER
100
AcDbLine
 62
9
  6
CONTINUOUS
 10
1157.5483432947
 20
3333.8759444607
 11
1157.5483432947
 21
3442.4533132788
  0
LINE
  5
436
100
AcDbEntity
  8
3_ALL_AXES
100
AcDbLine
 62
7
  6
CENTER
 10
1157.5483432947
 20
2883.8188616405
 11
1157.5483432947
 21
4021.5244439089
  0
LINE
  5
437
100
AcDbEntity
  8
3_ALL_AXES
100
AcDbLine
 62
7
  6
CENTER
 10
1157.5483432947
 20
2883.8188616405
 11
1062.8784534275
 21
2883.8188616405
  0
LINE
  5
438
100
AcDbEntity
  8
3_ALL_AXES
100
AcDbLine
 62
7
  6
CENTER
 10
1157.5483432947
 20
2883.8188616405
 11
1247.308758836
 21
2883.8188616405
  0
LINE
  5
439
100
AcDbEntity
  8
3_AXES_OTHER
100
AcDbLine
 62
7
  6
CONTINUOUS
 10
1542.5983432947
 20
2894.8188616405
 11
772.4983432947
 21
2894.8188616405
  0
LINE
  5
43A
100
AcDbEntity
  8
7_ALL_ROUNDS
100
AcDbLine
 62
9
  6
CONTINUOUS
 10
757.4983432947
 20
2903.8188616405
 11
1557.5983432947
 21
2903.8188616405
  0
LINE
  5
43B
100
AcDbEntity
  8
7_ALL_ROUNDS
100
AcDbLine
 62
7
  6
CONTINUOUS
 10
763.4983432947
 20
2909.8188616405
 11
1551.5983432947
 21
2909.8188616405
  0
LINE
  5
43C
100
AcDbEntity
  8
7_ALL_ROUNDS
100
AcDbLine
 62
9
  6
CONTINUOUS
 10
757.4983432947
 20
2915.8188616405
 11
1557.5983432947
 21
2915.8188616405
  0
LINE
  5
43D
100
AcDbEntity
  8
3_AXES_OTHER
100
AcDbLine
 62
7
  6
CONTINUOUS
 10
772.4983432947
 20
2924.8188616405
 11
1542.5983432947
 21
2924.8188616405
  0
LINE
  5
43E
100
AcDbEntity
  8
7_ALL_ROUNDS
100
AcDbLine
 62
7
  6
CONTINUOUS
 10
789.2483432947
 20
2928.2228616405
 11
1525.8483432947
 21
2928.2228616405
  0
LINE
  5
43F
100
AcDbEntity
  8
0
100
AcDbLine
 62
7
  6
CONTINUOUS
 10
1392.4625153695
 20
2982.2232616405
 11
922.6341712122
 21
2982.2232616405
  0
LINE
  5
440
100
AcDbEntity
  8
3_AXES_OTHER
100
AcDbLine
 62
7
  6
CONTINUOUS
 10
1518.2283432947
 20
3509.1283132788
 11
1518.2283432947
 21
3510.6523132788
  0
LINE
  5
441
100
AcDbEntity
  8
6_ALL_SURFS
100
AcDbLine
 62
7
  6
CONTINUOUS
 10
1536.6433432947
 20
3510.6523132788
 11
1536.6433432947
 21
3906.8923132788
  0
LINE
  5
442
100
AcDbEntity
  8
7_ALL_ROUNDS
100
AcDbLine
 62
7
  6
CONTINUOUS
 10
1538.5483432947
 20
3496.4283132788
 11
1538.5483432947
 21
2940.9228616405
  0
LINE
  5
443
100
AcDbEntity
  8
3_AXES_OTHER
100
AcDbLine
 62
7
  6
CONTINUOUS
 10
1542.5983432947
 20
1908.8188616405
 11
1542.5983432947
 21
2894.8188616405
  0
LINE
  5
444
100
AcDbEntity
  8
3_AXES_OTHER
100
AcDbLine
 62
7
  6
CONTINUOUS
 10
1542.5983432947
 20
2924.8188616405
 11
1542.5983432947
 21
3910.8188616405
  0
LINE
  5
445
100
AcDbEntity
  8
7_ALL_ROUNDS
100
AcDbLine
 62
9
  6
CONTINUOUS
 10
1551.5983432947
 20
1893.8188616405
 11
1551.5983432947
 21
3925.8188616405
  0
LINE
  5
446
100
AcDbEntity
  8
7_ALL_ROUNDS
100
AcDbLine
 62
7
  6
CONTINUOUS
 10
1557.5983432947
 20
1899.8188616405
 11
1557.5983432947
 21
2903.8188616405
  0
LINE
  5
447
100
AcDbEntity
  8
7_ALL_ROUNDS
100
AcDbLine
 62
7
  6
CONTINUOUS
 10
1557.5983432947
 20
2915.8188616405
 11
1557.5983432947
 21
3919.8188616405
  0
LINE
  5
448
100
AcDbEntity
  8
0
100
AcDbLine
 62
7
  6
CONTINUOUS
 10
1424.2483432947
 20
3856.0923132788
 11
1500.4483432947
 21
3561.4523132788
  0
LINE
  5
449
100
AcDbEntity
  8
7_ALL_ROUNDS
100
AcDbLine
 62
7
  6
CONTINUOUS
 10
789.2483432947
 20
3509.1283132788
 11
1525.8483432947
 21
3509.1283132788
  0
LINE
  5
44A
100
AcDbEntity
  8
6_ALL_SURFS
100
AcDbLine
 62
7
  6
CONTINUOUS
 10
778.4533432947
 20
3510.6523132788
 11
1536.6433432947
 21
3510.6523132788
  0
LINE
  5
44B
100
AcDbEntity
  8
0
100
AcDbLine
 62
7
  6
CONTINUOUS
 10
1500.4483432947
 20
3561.4523132788
 11
814.6483432947
 21
3561.4523132788
  0
LINE
  5
44C
100
AcDbEntity
  8
0
100
AcDbLine
 62
7
  6
CONTINUOUS
 10
1174.8135066378
 20
3754.4377463179
 11
1500.4483432947
 21
3561.4523132788
  0
LINE
  5
44D
100
AcDbEntity
  8
0
100
AcDbLine
 62
7
  6
CONTINUOUS
 10
1142.9551966533
 20
3774.4253865995
 11
890.8483432947
 21
3856.0923132788
  0
LINE
  5
44E
100
AcDbEntity
  8
0
100
AcDbLine
 62
7
  6
CONTINUOUS
 10
890.8483432947
 20
3856.0923132788
 11
1424.2483432947
 21
3856.0923132788
  0
LINE
  5
44F
100
AcDbEntity
  8
6_ALL_SURFS
100
AcDbLine
 62
7
  6
CONTINUOUS
 10
1536.6433432947
 20
3906.8923132788
 11
778.4533432947
 21
3906.8923132788
  0
LINE
  5
450
100
AcDbEntity
  8
3_AXES_OTHER
100
AcDbLine
 62
7
  6
CONTINUOUS
 10
1542.5983432947
 20
3910.8188616405
 11
772.4983432947
 21
3910.8188616405
  0
LINE
  5
451
100
AcDbEntity
  8
7_ALL_ROUNDS
100
AcDbLine
 62
9
  6
CONTINUOUS
 10
757.4983432947
 20
3919.8188616405
 11
1557.5983432947
 21
3919.8188616405
  0
LINE
  5
452
100
AcDbEntity
  8
7_ALL_ROUNDS
100
AcDbLine
 62
7
  6
CONTINUOUS
 10
763.4983432947
 20
3925.8188616405
 11
1551.5983432947
 21
3925.8188616405
  0
LINE
  5
453
100
AcDbEntity
  8
7_ALL_ROUNDS
100
AcDbLine
 62
7
  6
CONTINUOUS
 10
757.4983432947
 20
5106.6233899511
 11
757.4983432947
 21
4636.0233899511
  0
LINE
  5
454
100
AcDbEntity
  8
7_ALL_ROUNDS
100
AcDbLine
 62
9
  6
CONTINUOUS
 10
763.4983432947
 20
4630.0233899511
 11
763.4983432947
 21
5112.6233899511
  0
LINE
  5
455
100
AcDbEntity
  8
7_ALL_ROUNDS
100
AcDbLine
 62
7
  6
CONTINUOUS
 10
763.4983432947
 20
4630.0233899511
 11
1551.5983432947
 21
4630.0233899511
  0
LINE
  5
456
100
AcDbEntity
  8
7_ALL_ROUNDS
100
AcDbLine
 62
9
  6
CONTINUOUS
 10
757.4983432947
 20
4636.023389951
 11
1557.5983432947
 21
4636.0233899511
  0
LINE
  5
457
100
AcDbEntity
  8
7_ALL_ROUNDS
100
AcDbLine
 62
9
  6
CONTINUOUS
 10
757.4983432947
 20
5106.6233899511
 11
1557.5983432947
 21
5106.6233899512
  0
LINE
  5
458
100
AcDbEntity
  8
7_ALL_ROUNDS
100
AcDbLine
 62
7
  6
CONTINUOUS
 10
1551.5983432947
 20
5112.6233899511
 11
763.4983432947
 21
5112.6233899511
  0
LINE
  5
459
100
AcDbEntity
  8
7_ALL_ROUNDS
100
AcDbLine
 62
9
  6
CONTINUOUS
 10
1551.5983432947
 20
4630.0233899511
 11
1551.5983432947
 21
5112.6233899511
  0
LINE
  5
45A
100
AcDbEntity
  8
7_ALL_ROUNDS
100
AcDbLine
 62
7
  6
CONTINUOUS
 10
1557.5983432947
 20
4636.0233899511
 11
1557.5983432947
 21
5106.6233899511
  0
LINE
  5
45B
100
AcDbEntity
  8
7_ALL_ROUNDS
100
AcDbLine
 62
7
  6
CONTINUOUS
 10
2397.4244579107
 20
1893.8188616405
 11
2868.0244579107
 21
1893.8188616405
  0
LINE
  5
45C
100
AcDbEntity
  8
7_ALL_ROUNDS
100
AcDbLine
 62
9
  6
CONTINUOUS
 10
2391.4244579107
 20
1899.8188616405
 11
2874.0244579107
 21
1899.8188616405
  0
LINE
  5
45D
100
AcDbEntity
  8
7_ALL_ROUNDS
100
AcDbLine
 62
7
  6
CONTINUOUS
 10
2391.4244579107
 20
1899.8188616405
 11
2391.4244579107
 21
2903.8188616405
  0
LINE
  5
45E
100
AcDbEntity
  8
7_ALL_ROUNDS
100
AcDbLine
 62
7
  6
CONTINUOUS
 10
2391.4244579107
 20
2915.8188616405
 11
2391.4244579107
 21
3919.8188616405
  0
LINE
  5
45F
100
AcDbEntity
  8
7_ALL_ROUNDS
100
AcDbLine
 62
9
  6
CONTINUOUS
 10
2397.4244579107
 20
1893.8188616405
 11
2397.4244579107
 21
3925.8188616405
  0
LINE
  5
460
100
AcDbEntity
  8
7_ALL_ROUNDS
100
AcDbLine
 62
9
  6
CONTINUOUS
 10
2574.6751698355
 20
3661.9918986888
 11
2575.1957508529
 21
3667.9692723091
  0
LINE
  5
461
100
AcDbEntity
  8
7_ALL_ROUNDS
100
AcDbLine
 62
9
  6
CONTINUOUS
 10
2690.7737459859
 20
3707.0458245922
 11
2690.2531649685
 21
3701.0684509719
  0
LINE
  5
462
100
AcDbEntity
  8
3_ALL_AXES
100
AcDbLine
 62
7
  6
CENTER
 10
2561.9744139638
 20
2883.8188616405
 11
2764.7355791984
 21
2883.8188616405
  0
LINE
  5
463
100
AcDbEntity
  8
7_ALL_ROUNDS
100
AcDbLine
 62
9
  6
CONTINUOUS
 10
2391.4244579107
 20
2903.8188616405
 11
2874.0244579107
 21
2903.8188616405
  0
LINE
  5
464
100
AcDbEntity
  8
7_ALL_ROUNDS
100
AcDbLine
 62
7
  6
CONTINUOUS
 10
2397.4244579107
 20
2909.8188616405
 11
2868.0244579107
 21
2909.8188616405
  0
LINE
  5
465
100
AcDbEntity
  8
7_ALL_ROUNDS
100
AcDbLine
 62
9
  6
CONTINUOUS
 10
2391.4244579107
 20
2915.8188616405
 11
2874.0244579107
 21
2915.8188616405
  0
LINE
  5
466
100
AcDbEntity
  8
7_ALL_ROUNDS
100
AcDbLine
 62
9
  6
CONTINUOUS
 10
2574.6751698366
 20
3707.0458245929
 11
2575.1957508528
 21
3701.0684509719
  0
LINE
  5
467
100
AcDbEntity
  8
3_ALL_AXES
100
AcDbLine
 62
7
  6
CENTER
 10
2652.0244579107
 20
2972.9641834198
 11
2652.0244579107
 21
2784.8309379415
  0
LINE
  5
468
100
AcDbEntity
  8
7_ALL_ROUNDS
100
AcDbLine
 62
9
  6
CONTINUOUS
 10
2690.7737459849
 20
3661.9918986881
 11
2690.2531649686
 21
3667.9692723091
  0
LINE
  5
469
100
AcDbEntity
  8
7_ALL_ROUNDS
100
AcDbLine
 62
9
  6
CONTINUOUS
 10
2868.0244579107
 20
3925.8188616405
 11
2868.0244579107
 21
1893.8188616405
  0
LINE
  5
46A
100
AcDbEntity
  8
7_ALL_ROUNDS
100
AcDbLine
 62
7
  6
CONTINUOUS
 10
2874.0244579107
 20
3919.8188616405
 11
2874.0244579107
 21
2915.8188616405
  0
LINE
  5
46B
100
AcDbEntity
  8
7_ALL_ROUNDS
100
AcDbLine
 62
7
  6
CONTINUOUS
 10
2874.0244579107
 20
2903.8188616405
 11
2874.0244579107
 21
1899.8188616405
  0
LINE
  5
46C
100
AcDbEntity
  8
7_ALL_ROUNDS
100
AcDbLine
 62
9
  6
CONTINUOUS
 10
2563.7681698189
 20
3672.8324540156
 11
2569.742250844
 21
3673.3895499729
  0
LINE
  5
46D
100
AcDbEntity
  8
7_ALL_ROUNDS
100
AcDbLine
 62
9
  6
CONTINUOUS
 10
2701.6807460025
 20
3696.2052692654
 11
2695.7066649775
 21
3695.6481733081
  0
LINE
  5
46E
100
AcDbEntity
  8
7_ALL_ROUNDS
100
AcDbLine
 62
9
  6
CONTINUOUS
 10
2701.6807460018
 20
3672.8324540146
 11
2695.7066649775
 21
3673.389549973
  0
LINE
  5
46F
100
AcDbEntity
  8
7_ALL_ROUNDS
100
AcDbLine
 62
9
  6
CONTINUOUS
 10
2563.7681698196
 20
3696.2052692664
 11
2569.742250844
 21
3695.648173308
  0
LINE
  5
470
100
AcDbEntity
  8
7_ALL_ROUNDS
100
AcDbLine
 62
9
  6
CONTINUOUS
 10
2391.4244579107
 20
3919.8188616405
 11
2874.0244579107
 21
3919.8188616405
  0
LINE
  5
471
100
AcDbEntity
  8
7_ALL_ROUNDS
100
AcDbLine
 62
7
  6
CONTINUOUS
 10
2397.4244579107
 20
3925.8188616405
 11
2868.0244579107
 21
3925.8188616405
  0
LWPOLYLINE
  5
472
100
AcDbEntity
  8
0
100
AcDbPolyline
 62
7
  6
CONTINUOUS
 90
2
 70
1
 43
5.0
 10
6414.9163927427
 20
234.9786266608
 42
1.0
 10
6465.7163927427
 20
234.9786266608
 42
1.0
  0
LWPOLYLINE
  5
473
100
AcDbEntity
  8
0
100
AcDbPolyline
 62
7
  6
CONTINUOUS
 90
2
 70
1
 43
5.0
 10
6427.6163927427
 20
234.9786266608
 42
1.0
 10
6453.0163927427
 20
234.9786266608
 42
1.0
  0
ARC
  5
474
100
AcDbEntity
  8
0
100
AcDbCircle
 62
7
  6
CONTINUOUS
 10
7686.921615236
 20
877.8184990215
 40
4.5250047229
100
AcDbArc
 50
90.0
 51
180.0
  0
ARC
  5
475
100
AcDbEntity
  8
0
100
AcDbCircle
 62
7
  6
CONTINUOUS
 10
7351.745475012
 20
878.6381161527
 40
4.5250047229
100
AcDbArc
 50
90.0
 51
180.0
  0
ARC
  5
476
100
AcDbEntity
  8
0
100
AcDbCircle
 62
7
  6
CONTINUOUS
 10
7791.1917237032
 20
886.8685084503
 40
4.5250047046
100
AcDbArc
 50
270.0
 51
360.0
  0
ARC
  5
477
100
AcDbEntity
  8
0
100
AcDbCircle
 62
7
  6
CONTINUOUS
 10
7587.9076919432
 20
841.7351744631
 40
4.5250047046
100
AcDbArc
 50
0.0
 51
89.9999995368
  0
ARC
  5
478
100
AcDbEntity
  8
0
100
AcDbCircle
 62
7
  6
CONTINUOUS
 10
7486.5994359912
 20
823.4455728903
 40
4.5250047046
100
AcDbArc
 50
90.0
 51
180.0
  0
ARC
  5
479
100
AcDbEntity
  8
0
100
AcDbCircle
 62
7
  6
CONTINUOUS
 10
7486.5994359912
 20
814.8723317879
 40
4.5250047046
100
AcDbArc
 50
180.0
 51
270.0
  0
ARC
  5
47A
100
AcDbEntity
  8
0
100
AcDbCircle
 62
7
  6
CONTINUOUS
 10
7628.0637334488
 20
886.6879704055
 40
4.5250047046
100
AcDbArc
 50
270.0
 51
360.0
  0
ARC
  5
47B
100
AcDbEntity
  8
0
100
AcDbCircle
 62
7
  6
CONTINUOUS
 10
7628.0637334488
 20
895.9216276903
 40
4.5250047046
100
AcDbArc
 50
359.9999995369
 51
90.0
  0
ARC
  5
47C
100
AcDbEntity
  8
0
100
AcDbCircle
 62
7
  6
CONTINUOUS
 10
7351.7454749944
 20
833.5168658951
 40
4.5250047046
100
AcDbArc
 50
180.0
 51
270.0
  0
ARC
  5
47D
100
AcDbEntity
  8
0
100
AcDbCircle
 62
7
  6
CONTINUOUS
 10
7526.617966404
 20
869.0761981911
 40
4.5250047046
100
AcDbArc
 50
180.0
 51
270.0
  0
ARC
  5
47E
100
AcDbEntity
  8
0
100
AcDbCircle
 62
7
  6
CONTINUOUS
 10
7686.9216152168
 20
832.8875768439
 40
4.5250047046
100
AcDbArc
 50
180.0
 51
270.0
  0
ARC
  5
47F
100
AcDbEntity
  8
0
100
AcDbCircle
 62
7
  6
CONTINUOUS
 10
7791.1917237224
 20
895.9216277271
 40
4.5250046863
100
AcDbArc
 50
0.000000539
 51
89.9999999245
  0
ARC
  5
480
100
AcDbEntity
  8
0
100
AcDbCircle
 62
7
  6
CONTINUOUS
 10
7791.1917237272
 20
814.7213455975
 40
4.5250046803
100
AcDbArc
 50
270.1250535673
 51
360.0
  0
ARC
  5
481
100
AcDbEntity
  8
0
100
AcDbCircle
 62
7
  6
CONTINUOUS
 10
7791.1917237224
 20
823.8375674535
 40
4.5250046863
100
AcDbArc
 50
0.0
 51
90.0
  0
ARC
  5
482
100
AcDbEntity
  8
0
100
AcDbCircle
 62
7
  6
CONTINUOUS
 10
7526.6179663864
 20
877.6379610135
 40
4.5250046863
100
AcDbArc
 50
90.0
 51
180.0
  0
ARC
  5
483
100
AcDbEntity
  8
0
100
AcDbCircle
 62
7
  6
CONTINUOUS
 10
7442.153455228
 20
833.5168659671
 40
4.5250046863
100
AcDbArc
 50
270.0
 51
360.0
  0
ARC
  5
484
100
AcDbEntity
  8
0
100
AcDbCircle
 62
7
  6
CONTINUOUS
 10
7442.153455228
 20
878.6381161895
 40
4.5250046863
100
AcDbArc
 50
0.0000004631
 51
90.0000004631
  0
ARC
  5
485
100
AcDbEntity
  8
0
100
AcDbCircle
 62
7
  6
CONTINUOUS
 10
7587.9076919608
 20
832.4955822823
 40
4.5250046863
100
AcDbArc
 50
270.0
 51
360.0
  0
ARC
  5
486
100
AcDbEntity
  8
0
100
AcDbCircle
 62
7
  6
CONTINUOUS
 10
7405.4584895208
 20
837.7090757799
 40
1.7403864263
100
AcDbArc
 50
90.0000000001
 51
180.0
  0
ARC
  5
487
100
AcDbEntity
  8
0
100
AcDbCircle
 62
7
  6
CONTINUOUS
 10
7405.854313108
 20
801.6030188215
 40
1.740386408
100
AcDbArc
 50
180.0
 51
270.0
  0
ARC
  5
488
100
AcDbEntity
  8
0
100
AcDbCircle
 62
7
  6
CONTINUOUS
 10
7432.9538998136
 20
801.6030188215
 40
1.740386408
100
AcDbArc
 50
270.0
 51
360.0
  0
ARC
  5
489
100
AcDbEntity
  8
0
100
AcDbCircle
 62
7
  6
CONTINUOUS
 10
7432.4199705528
 20
837.7090758343
 40
1.7403863714
100
AcDbArc
 50
0.0
 51
89.9999987958
  0
ARC
  5
48A
100
AcDbEntity
  8
3_AXES_OTHER
100
AcDbCircle
 62
9
  6
CONTINUOUS
 10
3980.292246391
 20
91.7302957058
 40
2228.7995950459
100
AcDbArc
 50
69.1027388996
 51
71.2165820939
  0
ARC
  5
48B
100
AcDbEntity
  8
3_AXES_OTHER
100
AcDbCircle
 62
7
  6
CONTINUOUS
 10
4620.6472853432
 20
2230.0386027158
 40
82.8245054858
100
AcDbArc
 50
185.6211072702
 51
186.0116793785
  0
ARC
  5
48C
100
AcDbEntity
  8
3_AXES_OTHER
100
AcDbCircle
 62
7
  6
CONTINUOUS
 10
4620.5053436056
 20
2230.2724303586
 40
82.5242100566
100
AcDbArc
 50
309.8971683741
 51
318.0458125749
  0
ARC
  5
48D
100
AcDbEntity
  8
3_AXES_OTHER
100
AcDbCircle
 62
7
  6
CONTINUOUS
 10
4620.1222220709
 20
2229.9934523599
 40
82.2975448418
100
AcDbArc
 50
180.0255985504
 51
185.6256301193
  0
ARC
  5
48E
100
AcDbEntity
  8
3_AXES_OTHER
100
AcDbCircle
 62
7
  6
CONTINUOUS
 10
4620.085889644
 20
2230.1065868509
 40
82.2943554728
100
AcDbArc
 50
221.9429018567
 51
230.1142306042
  0
ARC
  5
48F
100
AcDbEntity
  8
3_AXES_OTHER
100
AcDbCircle
 62
7
  6
CONTINUOUS
 10
4620.0467487376
 20
2230.3504931452
 40
82.2445470503
100
AcDbArc
 50
200.2486186666
 51
230.2585365584
  0
ARC
  5
490
100
AcDbEntity
  8
3_AXES_OTHER
100
AcDbCircle
 62
7
  6
CONTINUOUS
 10
4620.7044778566
 20
2230.3504931459
 40
82.2445470514
100
AcDbArc
 50
309.7414634519
 51
339.7513811656
  0
ARC
  5
491
100
AcDbEntity
  8
3_AXES_OTHER
100
AcDbCircle
 62
7
  6
CONTINUOUS
 10
4620.042603057
 20
2229.8417174208
 40
82.2387163758
100
AcDbArc
 50
129.8788624437
 51
159.9161770167
  0
ARC
  5
492
100
AcDbEntity
  8
3_AXES_OTHER
100
AcDbCircle
 62
7
  6
CONTINUOUS
 10
4620.7086235898
 20
2229.841717449
 40
82.2387163298
100
AcDbArc
 50
20.0838229822
 51
50.1211375816
  0
ARC
  5
493
100
AcDbEntity
  8
3_AXES_OTHER
100
AcDbCircle
 62
7
  6
CONTINUOUS
 10
4619.9471130321
 20
2230.0154382925
 40
82.1302128993
100
AcDbArc
 50
200.0707855745
 51
221.9603141556
  0
ARC
  5
494
100
AcDbEntity
  8
3_AXES_OTHER
100
AcDbCircle
 62
7
  6
CONTINUOUS
 10
4620.8041137624
 20
2230.0154381712
 40
82.1302126571
100
AcDbArc
 50
318.0397999088
 51
339.9292144641
  0
ARC
  5
495
100
AcDbEntity
  8
3_AXES_OTHER
100
AcDbCircle
 62
7
  6
CONTINUOUS
 10
4619.9408187001
 20
2229.9875228639
 40
82.1165776295
100
AcDbArc
 50
186.0278600052
 51
200.0541288943
  0
ARC
  5
496
100
AcDbEntity
  8
3_AXES_OTHER
100
AcDbCircle
 62
7
  6
CONTINUOUS
 10
4619.7832440772
 20
2229.9532023445
 40
81.958559961
100
AcDbArc
 50
159.9272504492
 51
179.8675913547
  0
ARC
  5
497
100
AcDbEntity
  8
3_AXES_OTHER
100
AcDbCircle
 62
7
  6
CONTINUOUS
 10
4620.9679913462
 20
2229.9532041956
 40
81.9585510335
100
AcDbArc
 50
0.1361261289
 51
20.0727504596
  0
ARC
  5
498
100
AcDbEntity
  8
3_AXES_OTHER
100
AcDbCircle
 62
7
  6
CONTINUOUS
 10
4621.0505020097
 20
2229.97192539
 40
81.8760409175
100
AcDbArc
 50
354.2122292948
 51
359.9880687825
  0
ARC
  5
499
100
AcDbEntity
  8
3_AXES_OTHER
100
AcDbCircle
 62
7
  6
CONTINUOUS
 10
4621.1525475775
 20
2229.9084720967
 40
81.7680864087
100
AcDbArc
 50
339.9156953511
 51
354.1313919533
  0
ARC
  5
49A
100
AcDbEntity
  8
7_ALL_ROUNDS
100
AcDbCircle
 62
7
  6
CONTINUOUS
 10
4252.0756132975
 20
2474.7441357196
 40
12.7
100
AcDbArc
 50
90.0
 51
180.0
  0
ARC
  5
49B
100
AcDbEntity
  8
7_ALL_ROUNDS
100
AcDbCircle
 62
7
  6
CONTINUOUS
 10
4252.0756132975
 20
1919.2386840813
 40
12.7
100
AcDbArc
 50
180.0
 51
270.0
  0
ARC
  5
49C
100
AcDbEntity
  8
7_ALL_ROUNDS
100
AcDbCircle
 62
7
  6
CONTINUOUS
 10
4226.3256132975
 20
1894.1346840813
 40
6.0
100
AcDbArc
 50
180.0
 51
270.0
  0
ARC
  5
49D
100
AcDbEntity
  8
7_ALL_ROUNDS
100
AcDbCircle
 62
7
  6
CONTINUOUS
 10
4226.3256132975
 20
2898.1346840813
 40
6.0
100
AcDbArc
 50
90.0
 51
180.0
  0
CIRCLE
  5
49E
100
AcDbEntity
  8
3_AXES_OTHER
100
AcDbCircle
 62
7
  6
CONTINUOUS
 10
4546.1822132975
 20
2468.3941357196
 40
3.175
  0
CIRCLE
  5
49F
100
AcDbEntity
  8
3_AXES_OTHER
100
AcDbCircle
 62
7
  6
CONTINUOUS
 10
4252.0756132975
 20
2471.4421357196
 40
2.7051
  0
CIRCLE
  5
4A0
100
AcDbEntity
  8
3_AXES_OTHER
100
AcDbCircle
 62
7
  6
CONTINUOUS
 10
4252.0756132975
 20
2290.5941357196
 40
2.7051
  0
CIRCLE
  5
4A1
100
AcDbEntity
  8
3_AXES_OTHER
100
AcDbCircle
 62
7
  6
CONTINUOUS
 10
4252.0756132975
 20
2109.7461357196
 40
2.7051
  0
CIRCLE
  5
4A2
100
AcDbEntity
  8
3_AXES_OTHER
100
AcDbCircle
 62
7
  6
CONTINUOUS
 10
4252.0756132975
 20
1928.8981357196
 40
2.7051
  0
ARC
  5
4A3
100
AcDbEntity
  8
3_AXES_OTHER
100
AcDbCircle
 62
9
  6
CONTINUOUS
 10
5260.4589802057
 20
91.7302957011
 40
2228.799595051
100
AcDbArc
 50
108.7834179061
 51
110.8972611004
  0
CIRCLE
  5
4A4
100
AcDbEntity
  8
7_ALL_ROUNDS
100
AcDbCircle
 62
9
  6
CONTINUOUS
 10
5137.0116132975
 20
2015.1092840813
 40
59.8
  0
CIRCLE
  5
4A5
100
AcDbEntity
  8
7_ALL_ROUNDS
100
AcDbCircle
 62
7
  6
CONTINUOUS
 10
5137.0116132975
 20
2015.1092840813
 40
50.8
  0
ARC
  5
4A6
100
AcDbEntity
  8
7_ALL_ROUNDS
100
AcDbCircle
 62
7
  6
CONTINUOUS
 10
4988.6756132975
 20
1919.2386840813
 40
12.7
100
AcDbArc
 50
270.0
 51
360.0
  0
ARC
  5
4A7
100
AcDbEntity
  8
7_ALL_ROUNDS
100
AcDbCircle
 62
7
  6
CONTINUOUS
 10
5026.4256132975
 20
1894.1346840813
 40
6.0
100
AcDbArc
 50
180.0
 51
270.0
  0
ARC
  5
4A8
100
AcDbEntity
  8
7_ALL_ROUNDS
100
AcDbCircle
 62
7
  6
CONTINUOUS
 10
5014.4256132975
 20
1894.1346840813
 40
6.0
100
AcDbArc
 50
270.0
 51
360.0
  0
CIRCLE
  5
4A9
100
AcDbEntity
  8
3_AXES_OTHER
100
AcDbCircle
 62
7
  6
CONTINUOUS
 10
4988.6756132975
 20
2290.5941357196
 40
2.7051
  0
CIRCLE
  5
4AA
100
AcDbEntity
  8
3_AXES_OTHER
100
AcDbCircle
 62
7
  6
CONTINUOUS
 10
4988.6756132975
 20
2109.7461357196
 40
2.7051
  0
CIRCLE
  5
4AB
100
AcDbEntity
  8
3_AXES_OTHER
100
AcDbCircle
 62
7
  6
CONTINUOUS
 10
4988.6756132975
 20
1928.8981357196
 40
2.7051
  0
CIRCLE
  5
4AC
100
AcDbEntity
  8
7_ALL_ROUNDS
100
AcDbCircle
 62
9
  6
CONTINUOUS
 10
5137.0116132975
 20
2504.8212840813
 40
59.8
  0
CIRCLE
  5
4AD
100
AcDbEntity
  8
7_ALL_ROUNDS
100
AcDbCircle
 62
7
  6
CONTINUOUS
 10
5137.0116132975
 20
2504.8212840813
 40
50.8
  0
ARC
  5
4AE
100
AcDbEntity
  8
7_ALL_ROUNDS
100
AcDbCircle
 62
7
  6
CONTINUOUS
 10
4988.6756132975
 20
2474.7441357196
 40
12.7
100
AcDbArc
 50
0.0
 51
90.0
  0
ARC
  5
4AF
100
AcDbEntity
  8
7_ALL_ROUNDS
100
AcDbCircle
 62
7
  6
CONTINUOUS
 10
5026.4256132975
 20
2898.1346840813
 40
6.0
100
AcDbArc
 50
90.0
 51
180.0
  0
ARC
  5
4B0
100
AcDbEntity
  8
7_ALL_ROUNDS
100
AcDbCircle
 62
7
  6
CONTINUOUS
 10
5014.4256132975
 20
2898.1346840813
 40
6.0
100
AcDbArc
 50
0.0
 51
90.0
  0
CIRCLE
  5
4B1
100
AcDbEntity
  8
3_AXES_OTHER
100
AcDbCircle
 62
7
  6
CONTINUOUS
 10
4988.6756132975
 20
2471.4421357196
 40
2.7051
  0
CIRCLE
  5
4B2
100
AcDbEntity
  8
3_AXES_OTHER
100
AcDbCircle
 62
7
  6
CONTINUOUS
 10
5420.4756132975
 20
2151.1346840813
 40
193.675
  0
CIRCLE
  5
4B3
100
AcDbEntity
  8
3_ALL_AXES
100
AcDbCircle
 62
7
  6
CONTINUOUS
 10
5420.4756132975
 20
2151.1346840813
 40
177.675
  0
CIRCLE
  5
4B4
100
AcDbEntity
  8
3_ALL_AXES
100
AcDbCircle
 62
7
  6
CONTINUOUS
 10
5420.4756132975
 20
2151.1346840813
 40
169.675
  0
CIRCLE
  5
4B5
100
AcDbEntity
  8
3_ALL_AXES
100
AcDbCircle
 62
7
  6
CONTINUOUS
 10
5420.4756132975
 20
2151.1346840813
 40
167.675
  0
CIRCLE
  5
4B6
100
AcDbEntity
  8
3_ALL_AXES
100
AcDbCircle
 62
7
  6
CONTINUOUS
 10
5420.4756132975
 20
2151.1346840813
 40
159.675
  0
CIRCLE
  5
4B7
100
AcDbEntity
  8
3_ALL_AXES
100
AcDbCircle
 62
7
  6
CONTINUOUS
 10
5420.4756132975
 20
2151.1346840813
 40
157.675
  0
CIRCLE
  5
4B8
100
AcDbEntity
  8
3_ALL_AXES
100
AcDbCircle
 62
7
  6
CONTINUOUS
 10
5420.4756132975
 20
2151.1346840813
 40
149.675
  0
CIRCLE
  5
4B9
100
AcDbEntity
  8
3_ALL_AXES
100
AcDbCircle
 62
7
  6
CONTINUOUS
 10
5420.4756132975
 20
2151.1346840813
 40
65.0
  0
ARC
  5
4BA
100
AcDbEntity
  8
7_ALL_ROUNDS
100
AcDbCircle
 62
7
  6
CONTINUOUS
 10
5814.5256132975
 20
1894.1346840813
 40
6.0
100
AcDbArc
 50
270.0
 51
360.0
  0
CIRCLE
  5
4BB
100
AcDbEntity
  8
7_ALL_ROUNDS
100
AcDbCircle
 62
9
  6
CONTINUOUS
 10
5703.9396132975
 20
2287.4226840813
 40
59.8
  0
CIRCLE
  5
4BC
100
AcDbEntity
  8
7_ALL_ROUNDS
100
AcDbCircle
 62
7
  6
CONTINUOUS
 10
5703.9396132975
 20
2287.4226840813
 40
50.8
  0
CIRCLE
  5
4BD
100
AcDbEntity
  8
3_AXES_OTHER
100
AcDbCircle
 62
7
  6
CONTINUOUS
 10
5420.4756132975
 20
2641.1346840813
 40
193.675
  0
CIRCLE
  5
4BE
100
AcDbEntity
  8
3_ALL_AXES
100
AcDbCircle
 62
7
  6
CONTINUOUS
 10
5420.4756132975
 20
2641.1346840813
 40
177.675
  0
CIRCLE
  5
4BF
100
AcDbEntity
  8
3_ALL_AXES
100
AcDbCircle
 62
7
  6
CONTINUOUS
 10
5420.4756132975
 20
2641.1346840813
 40
169.675
  0
CIRCLE
  5
4C0
100
AcDbEntity
  8
3_ALL_AXES
100
AcDbCircle
 62
7
  6
CONTINUOUS
 10
5420.4756132975
 20
2641.1346840813
 40
167.675
  0
CIRCLE
  5
4C1
100
AcDbEntity
  8
3_ALL_AXES
100
AcDbCircle
 62
7
  6
CONTINUOUS
 10
5420.4756132975
 20
2641.1346840813
 40
159.675
  0
CIRCLE
  5
4C2
100
AcDbEntity
  8
3_ALL_AXES
100
AcDbCircle
 62
7
  6
CONTINUOUS
 10
5420.4756132975
 20
2641.1346840813
 40
157.675
  0
CIRCLE
  5
4C3
100
AcDbEntity
  8
3_ALL_AXES
100
AcDbCircle
 62
7
  6
CONTINUOUS
 10
5420.4756132975
 20
2641.1346840813
 40
149.675
  0
CIRCLE
  5
4C4
100
AcDbEntity
  8
3_ALL_AXES
100
AcDbCircle
 62
7
  6
CONTINUOUS
 10
5420.4756132975
 20
2641.1346840813
 40
65.0
  0
CIRCLE
  5
4C5
100
AcDbEntity
  8
7_ALL_ROUNDS
100
AcDbCircle
 62
9
  6
CONTINUOUS
 10
5703.9396132975
 20
2777.1346840813
 40
59.8
  0
CIRCLE
  5
4C6
100
AcDbEntity
  8
7_ALL_ROUNDS
100
AcDbCircle
 62
7
  6
CONTINUOUS
 10
5703.9396132975
 20
2777.1346840813
 40
50.8
  0
ARC
  5
4C7
100
AcDbEntity
  8
7_ALL_ROUNDS
100
AcDbCircle
 62
7
  6
CONTINUOUS
 10
5814.5256132975
 20
2898.1346840813
 40
6.0
100
AcDbArc
 50
0.0
 51
90.0
  0
CIRCLE
  5
4C8
100
AcDbEntity
  8
0
100
AcDbCircle
 62
7
  6
CONTINUOUS
 10
4982.3256132975
 20
4037.6421453902
 40
11.0
  0
CIRCLE
  5
4C9
100
AcDbEntity
  8
0
100
AcDbCircle
 62
7
  6
CONTINUOUS
 10
4258.4256132975
 20
4037.6421453902
 40
11.0
  0
ARC
  5
4CA
100
AcDbEntity
  8
7_ALL_ROUNDS
100
AcDbCircle
 62
7
  6
CONTINUOUS
 10
4226.3256132975
 20
3967.4421453902
 40
6.0
100
AcDbArc
 50
180.0
 51
270.0
  0
ARC
  5
4CB
100
AcDbEntity
  8
7_ALL_ROUNDS
100
AcDbCircle
 62
7
  6
CONTINUOUS
 10
5014.4256132975
 20
3967.4421453902
 40
6.0
100
AcDbArc
 50
270.0
 51
360.0
  0
CIRCLE
  5
4CC
100
AcDbEntity
  8
0
100
AcDbCircle
 62
7
  6
CONTINUOUS
 10
4982.3256132975
 20
4037.6421453902
 40
5.5
  0
CIRCLE
  5
4CD
100
AcDbEntity
  8
0
100
AcDbCircle
 62
7
  6
CONTINUOUS
 10
4258.4256132975
 20
4037.6421453902
 40
5.5
  0
CIRCLE
  5
4CE
100
AcDbEntity
  8
0
100
AcDbCircle
 62
7
  6
CONTINUOUS
 10
4258.4256132975
 20
4367.8421453902
 40
11.0
  0
CIRCLE
  5
4CF
100
AcDbEntity
  8
0
100
AcDbCircle
 62
7
  6
CONTINUOUS
 10
4258.4256132975
 20
4367.8421453902
 40
5.5
  0
ARC
  5
4D0
100
AcDbEntity
  8
7_ALL_ROUNDS
100
AcDbCircle
 62
7
  6
CONTINUOUS
 10
4226.3256132975
 20
4438.0421453902
 40
6.0
100
AcDbArc
 50
90.0
 51
180.0
  0
CIRCLE
  5
4D1
100
AcDbEntity
  8
0
100
AcDbCircle
 62
7
  6
CONTINUOUS
 10
4982.3256132975
 20
4367.8421453902
 40
11.0
  0
CIRCLE
  5
4D2
100
AcDbEntity
  8
0
100
AcDbCircle
 62
7
  6
CONTINUOUS
 10
4982.3256132975
 20
4367.8421453902
 40
5.5
  0
ARC
  5
4D3
100
AcDbEntity
  8
7_ALL_ROUNDS
100
AcDbCircle
 62
7
  6
CONTINUOUS
 10
5014.4256132975
 20
4438.0421453902
 40
6.0
100
AcDbArc
 50
0.0
 51
90.0
  0
CIRCLE
  5
4D4
100
AcDbEntity
  8
0
100
AcDbCircle
 62
7
  6
CONTINUOUS
 10
5058.5256132975
 20
4037.6421453902
 40
11.0
  0
CIRCLE
  5
4D5
100
AcDbEntity
  8
0
100
AcDbCircle
 62
7
  6
CONTINUOUS
 10
5782.4256132975
 20
4037.6421453902
 40
11.0
  0
ARC
  5
4D6
100
AcDbEntity
  8
7_ALL_ROUNDS
100
AcDbCircle
 62
7
  6
CONTINUOUS
 10
5026.4256132975
 20
3967.4421453902
 40
6.0
100
AcDbArc
 50
180.0
 51
270.0
  0
ARC
  5
4D7
100
AcDbEntity
  8
7_ALL_ROUNDS
100
AcDbCircle
 62
7
  6
CONTINUOUS
 10
5814.5256132975
 20
3967.4421453902
 40
6.0
100
AcDbArc
 50
270.0
 51
360.0
  0
CIRCLE
  5
4D8
100
AcDbEntity
  8
0
100
AcDbCircle
 62
7
  6
CONTINUOUS
 10
5782.4256132975
 20
4037.6421453902
 40
5.5
  0
CIRCLE
  5
4D9
100
AcDbEntity
  8
0
100
AcDbCircle
 62
7
  6
CONTINUOUS
 10
5058.5256132975
 20
4037.6421453902
 40
5.5
  0
CIRCLE
  5
4DA
100
AcDbEntity
  8
0
100
AcDbCircle
 62
7
  6
CONTINUOUS
 10
5058.5256132975
 20
4367.8421453902
 40
11.0
  0
CIRCLE
  5
4DB
100
AcDbEntity
  8
0
100
AcDbCircle
 62
7
  6
CONTINUOUS
 10
5058.5256132975
 20
4367.8421453902
 40
5.5
  0
ARC
  5
4DC
100
AcDbEntity
  8
7_ALL_ROUNDS
100
AcDbCircle
 62
7
  6
CONTINUOUS
 10
5026.4256132975
 20
4438.0421453902
 40
6.0
100
AcDbArc
 50
90.0
 51
180.0
  0
CIRCLE
  5
4DD
100
AcDbEntity
  8
0
100
AcDbCircle
 62
7
  6
CONTINUOUS
 10
5782.4256132975
 20
4367.8421453902
 40
11.0
  0
CIRCLE
  5
4DE
100
AcDbEntity
  8
0
100
AcDbCircle
 62
7
  6
CONTINUOUS
 10
5782.4256132975
 20
4367.8421453902
 40
5.5
  0
ARC
  5
4DF
100
AcDbEntity
  8
7_ALL_ROUNDS
100
AcDbCircle
 62
7
  6
CONTINUOUS
 10
5814.5256132975
 20
4438.0421453902
 40
6.0
100
AcDbArc
 50
0.0
 51
90.0
  0
CIRCLE
  5
4E0
100
AcDbEntity
  8
0
100
AcDbCircle
 62
7
  6
CONTINUOUS
 10
7252.7204887988
 20
1926.2346840813
 40
11.0
  0
CIRCLE
  5
4E1
100
AcDbEntity
  8
0
100
AcDbCircle
 62
7
  6
CONTINUOUS
 10
6922.5204887988
 20
1926.2346840813
 40
11.0
  0
CIRCLE
  5
4E2
100
AcDbEntity
  8
0
100
AcDbCircle
 62
7
  6
CONTINUOUS
 10
7252.7204887988
 20
2866.0346840813
 40
11.0
  0
CIRCLE
  5
4E3
100
AcDbEntity
  8
0
100
AcDbCircle
 62
7
  6
CONTINUOUS
 10
6922.5204887988
 20
2866.0346840813
 40
11.0
  0
ARC
  5
4E4
100
AcDbEntity
  8
7_ALL_ROUNDS
100
AcDbCircle
 62
7
  6
CONTINUOUS
 10
6852.3204887988
 20
1894.1346840813
 40
6.0
100
AcDbArc
 50
180.0
 51
270.0
  0
ARC
  5
4E5
100
AcDbEntity
  8
7_ALL_ROUNDS
100
AcDbCircle
 62
7
  6
CONTINUOUS
 10
7322.9204887988
 20
1894.1346840813
 40
6.0
100
AcDbArc
 50
270.0
 51
360.0
  0
ARC
  5
4E6
100
AcDbEntity
  8
7_ALL_ROUNDS
100
AcDbCircle
 62
7
  6
CONTINUOUS
 10
6852.3204887988
 20
2898.1346840813
 40
6.0
100
AcDbArc
 50
90.0
 51
180.0
  0
ARC
  5
4E7
100
AcDbEntity
  8
7_ALL_ROUNDS
100
AcDbCircle
 62
7
  6
CONTINUOUS
 10
7322.9204887988
 20
2898.1346840813
 40
6.0
100
AcDbArc
 50
0.0
 51
90.0
  0
CIRCLE
  5
4E8
100
AcDbEntity
  8
0
100
AcDbCircle
 62
7
  6
CONTINUOUS
 10
6922.5204887988
 20
2866.0346840813
 40
5.5
  0
CIRCLE
  5
4E9
100
AcDbEntity
  8
0
100
AcDbCircle
 62
7
  6
CONTINUOUS
 10
7252.7204887988
 20
2866.0346840813
 40
5.5
  0
CIRCLE
  5
4EA
100
AcDbEntity
  8
0
100
AcDbCircle
 62
7
  6
CONTINUOUS
 10
6922.5204887988
 20
1926.2346840813
 40
5.5
  0
CIRCLE
  5
4EB
100
AcDbEntity
  8
0
100
AcDbCircle
 62
7
  6
CONTINUOUS
 10
7252.7204887988
 20
1926.2346840813
 40
5.5
  0
ARC
  5
4EC
100
AcDbEntity
  8
3_AXES_OTHER
100
AcDbCircle
 62
9
  6
CONTINUOUS
 10
517.4649763887
 20
1113.4144732663
 40
2228.7995950446
100
AcDbArc
 50
69.1027388996
 51
71.2165820939
  0
CIRCLE
  5
4ED
100
AcDbEntity
  8
7_ALL_ROUNDS
100
AcDbCircle
 62
9
  6
CONTINUOUS
 10
874.0843432947
 20
2510.5054616405
 40
59.8
  0
CIRCLE
  5
4EE
100
AcDbEntity
  8
7_ALL_ROUNDS
100
AcDbCircle
 62
9
  6
CONTINUOUS
 10
874.0843432947
 20
2020.7934616405
 40
59.8
  0
CIRCLE
  5
4EF
100
AcDbEntity
  8
7_ALL_ROUNDS
100
AcDbCircle
 62
7
  6
CONTINUOUS
 10
874.0843432947
 20
2510.5054616405
 40
50.8
  0
CIRCLE
  5
4F0
100
AcDbEntity
  8
7_ALL_ROUNDS
100
AcDbCircle
 62
7
  6
CONTINUOUS
 10
874.0843432947
 20
2020.7934616405
 40
50.8
  0
ARC
  5
4F1
100
AcDbEntity
  8
7_ALL_ROUNDS
100
AcDbCircle
 62
7
  6
CONTINUOUS
 10
763.4983432947
 20
1899.8188616405
 40
6.0
100
AcDbArc
 50
180.0
 51
270.0
  0
ARC
  5
4F2
100
AcDbEntity
  8
3_AXES_OTHER
100
AcDbCircle
 62
7
  6
CONTINUOUS
 10
1157.2949520692
 20
3251.6776299191
 40
82.2975448428
100
AcDbArc
 50
180.0255985505
 51
185.6256301193
  0
ARC
  5
4F3
100
AcDbEntity
  8
3_AXES_OTHER
100
AcDbCircle
 62
7
  6
CONTINUOUS
 10
1157.2586196409
 20
3251.7907644098
 40
82.2943554724
100
AcDbArc
 50
221.9429018567
 51
230.1142306043
  0
ARC
  5
4F4
100
AcDbEntity
  8
3_AXES_OTHER
100
AcDbCircle
 62
7
  6
CONTINUOUS
 10
1157.2194787348
 20
3252.0346707043
 40
82.2445470503
100
AcDbArc
 50
200.2486186666
 51
230.2585365584
  0
ARC
  5
4F5
100
AcDbEntity
  8
3_AXES_OTHER
100
AcDbCircle
 62
7
  6
CONTINUOUS
 10
1157.2153330542
 20
3251.5258949799
 40
82.2387163758
100
AcDbArc
 50
129.8788624437
 51
159.9161770167
  0
ARC
  5
4F6
100
AcDbEntity
  8
3_AXES_OTHER
100
AcDbCircle
 62
7
  6
CONTINUOUS
 10
1157.1198430293
 20
3251.6996158517
 40
82.1302128993
100
AcDbArc
 50
200.0707855745
 51
221.9603141556
  0
ARC
  5
4F7
100
AcDbEntity
  8
3_AXES_OTHER
100
AcDbCircle
 62
7
  6
CONTINUOUS
 10
1157.1135486972
 20
3251.671700423
 40
82.1165776294
100
AcDbArc
 50
186.0278600052
 51
200.0541288943
  0
ARC
  5
4F8
100
AcDbEntity
  8
3_AXES_OTHER
100
AcDbCircle
 62
7
  6
CONTINUOUS
 10
1156.9559740744
 20
3251.6373799037
 40
81.958559961
100
AcDbArc
 50
159.9272504492
 51
179.8675913547
  0
ARC
  5
4F9
100
AcDbEntity
  8
7_ALL_ROUNDS
100
AcDbCircle
 62
7
  6
CONTINUOUS
 10
789.2483432947
 20
3496.4283132788
 40
12.7
100
AcDbArc
 50
90.0
 51
180.0
  0
ARC
  5
4FA
100
AcDbEntity
  8
7_ALL_ROUNDS
100
AcDbCircle
 62
7
  6
CONTINUOUS
 10
789.2483432947
 20
2940.9228616405
 40
12.7
100
AcDbArc
 50
180.0
 51
270.0
  0
ARC
  5
4FB
100
AcDbEntity
  8
7_ALL_ROUNDS
100
AcDbCircle
 62
7
  6
CONTINUOUS
 10
763.4983432947
 20
2915.8188616405
 40
6.0
100
AcDbArc
 50
180.0
 51
270.0
  0
ARC
  5
4FC
100
AcDbEntity
  8
7_ALL_ROUNDS
100
AcDbCircle
 62
7
  6
CONTINUOUS
 10
763.4983432947
 20
3919.8188616405
 40
6.0
100
AcDbArc
 50
90.0
 51
180.0
  0
ARC
  5
4FD
100
AcDbEntity
  8
7_ALL_ROUNDS
100
AcDbCircle
 62
7
  6
CONTINUOUS
 10
763.4983432947
 20
2903.8188616405
 40
6.0
100
AcDbArc
 50
90.0
 51
180.0
  0
CIRCLE
  5
4FE
100
AcDbEntity
  8
3_AXES_OTHER
100
AcDbCircle
 62
7
  6
CONTINUOUS
 10
1083.3549432947
 20
3490.0783132788
 40
3.175
  0
CIRCLE
  5
4FF
100
AcDbEntity
  8
3_AXES_OTHER
100
AcDbCircle
 62
7
  6
CONTINUOUS
 10
789.2483432947
 20
3493.1263132788
 40
2.7051
  0
CIRCLE
  5
500
100
AcDbEntity
  8
3_AXES_OTHER
100
AcDbCircle
 62
7
  6
CONTINUOUS
 10
789.2483432947
 20
3312.2783132788
 40
2.7051
  0
CIRCLE
  5
501
100
AcDbEntity
  8
3_AXES_OTHER
100
AcDbCircle
 62
7
  6
CONTINUOUS
 10
789.2483432947
 20
3131.4303132788
 40
2.7051
  0
CIRCLE
  5
502
100
AcDbEntity
  8
3_AXES_OTHER
100
AcDbCircle
 62
7
  6
CONTINUOUS
 10
789.2483432947
 20
2950.5823132788
 40
2.7051
  0
CIRCLE
  5
503
100
AcDbEntity
  8
3_AXES_OTHER
100
AcDbCircle
 62
7
  6
CONTINUOUS
 10
1157.5483432947
 20
2156.8188616405
 40
193.675
  0
CIRCLE
  5
504
100
AcDbEntity
  8
3_ALL_AXES
100
AcDbCircle
 62
7
  6
CONTINUOUS
 10
1157.5483432947
 20
2156.8188616405
 40
177.675
  0
CIRCLE
  5
505
100
AcDbEntity
  8
3_ALL_AXES
100
AcDbCircle
 62
7
  6
CONTINUOUS
 10
1157.5483432947
 20
2156.8188616405
 40
169.675
  0
CIRCLE
  5
506
100
AcDbEntity
  8
3_ALL_AXES
100
AcDbCircle
 62
7
  6
CONTINUOUS
 10
1157.5483432947
 20
2156.8188616405
 40
167.675
  0
CIRCLE
  5
507
100
AcDbEntity
  8
3_ALL_AXES
100
AcDbCircle
 62
7
  6
CONTINUOUS
 10
1157.5483432947
 20
2156.8188616405
 40
159.675
  0
CIRCLE
  5
508
100
AcDbEntity
  8
3_ALL_AXES
100
AcDbCircle
 62
7
  6
CONTINUOUS
 10
1157.5483432947
 20
2156.8188616405
 40
157.675
  0
CIRCLE
  5
509
100
AcDbEntity
  8
3_ALL_AXES
100
AcDbCircle
 62
7
  6
CONTINUOUS
 10
1157.5483432947
 20
2156.8188616405
 40
149.675
  0
CIRCLE
  5
50A
100
AcDbEntity
  8
3_ALL_AXES
100
AcDbCircle
 62
7
  6
CONTINUOUS
 10
1157.5483432947
 20
2156.8188616405
 40
65.0
  0
CIRCLE
  5
50B
100
AcDbEntity
  8
7_ALL_ROUNDS
100
AcDbCircle
 62
9
  6
CONTINUOUS
 10
1441.0123432947
 20
2293.1068616405
 40
59.8
  0
CIRCLE
  5
50C
100
AcDbEntity
  8
7_ALL_ROUNDS
100
AcDbCircle
 62
7
  6
CONTINUOUS
 10
1441.0123432947
 20
2293.1068616405
 40
50.8
  0
ARC
  5
50D
100
AcDbEntity
  8
3_AXES_OTHER
100
AcDbCircle
 62
9
  6
CONTINUOUS
 10
1797.631710202
 20
1113.4144732626
 40
2228.7995950484
100
AcDbArc
 50
108.7834179061
 51
110.8972611004
  0
ARC
  5
50E
100
AcDbEntity
  8
7_ALL_ROUNDS
100
AcDbCircle
 62
7
  6
CONTINUOUS
 10
1551.5983432947
 20
1899.8188616405
 40
6.0
100
AcDbArc
 50
270.0
 51
360.0
  0
CIRCLE
  5
50F
100
AcDbEntity
  8
3_AXES_OTHER
100
AcDbCircle
 62
7
  6
CONTINUOUS
 10
1157.5483432947
 20
2646.8188616405
 40
193.675
  0
CIRCLE
  5
510
100
AcDbEntity
  8
3_ALL_AXES
100
AcDbCircle
 62
7
  6
CONTINUOUS
 10
1157.5483432947
 20
2646.8188616405
 40
177.675
  0
CIRCLE
  5
511
100
AcDbEntity
  8
3_ALL_AXES
100
AcDbCircle
 62
7
  6
CONTINUOUS
 10
1157.5483432947
 20
2646.8188616405
 40
169.675
  0
CIRCLE
  5
512
100
AcDbEntity
  8
3_ALL_AXES
100
AcDbCircle
 62
7
  6
CONTINUOUS
 10
1157.5483432947
 20
2646.8188616405
 40
167.675
  0
CIRCLE
  5
513
100
AcDbEntity
  8
3_ALL_AXES
100
AcDbCircle
 62
7
  6
CONTINUOUS
 10
1157.5483432947
 20
2646.8188616405
 40
159.675
  0
CIRCLE
  5
514
100
AcDbEntity
  8
3_ALL_AXES
100
AcDbCircle
 62
7
  6
CONTINUOUS
 10
1157.5483432947
 20
2646.8188616405
 40
157.675
  0
CIRCLE
  5
515
100
AcDbEntity
  8
3_ALL_AXES
100
AcDbCircle
 62
7
  6
CONTINUOUS
 10
1157.5483432947
 20
2646.8188616405
 40
149.675
  0
CIRCLE
  5
516
100
AcDbEntity
  8
3_ALL_AXES
100
AcDbCircle
 62
7
  6
CONTINUOUS
 10
1157.5483432947
 20
2646.8188616405
 40
65.0
  0
ARC
  5
517
100
AcDbEntity
  8
3_AXES_OTHER
100
AcDbCircle
 62
7
  6
CONTINUOUS
 10
1157.8200153884
 20
3251.72278028
 40
82.824505534
100
AcDbArc
 50
185.6211072704
 51
186.0116793785
  0
ARC
  5
518
100
AcDbEntity
  8
3_AXES_OTHER
100
AcDbCircle
 62
7
  6
CONTINUOUS
 10
1157.6780736029
 20
3251.9566079176
 40
82.5242100564
100
AcDbArc
 50
309.8971683741
 51
318.0458125749
  0
ARC
  5
519
100
AcDbEntity
  8
3_AXES_OTHER
100
AcDbCircle
 62
7
  6
CONTINUOUS
 10
1157.8772078538
 20
3252.034670705
 40
82.2445470514
100
AcDbArc
 50
309.7414634519
 51
339.7513811656
  0
ARC
  5
51A
100
AcDbEntity
  8
3_AXES_OTHER
100
AcDbCircle
 62
7
  6
CONTINUOUS
 10
1157.8813535871
 20
3251.5258950082
 40
82.2387163298
100
AcDbArc
 50
20.0838229822
 51
50.1211375816
  0
ARC
  5
51B
100
AcDbEntity
  8
3_AXES_OTHER
100
AcDbCircle
 62
7
  6
CONTINUOUS
 10
1157.9768437596
 20
3251.6996157303
 40
82.1302126571
100
AcDbArc
 50
318.0397999088
 51
339.9292144641
  0
ARC
  5
51C
100
AcDbEntity
  8
3_AXES_OTHER
100
AcDbCircle
 62
7
  6
CONTINUOUS
 10
1158.1407213434
 20
3251.6373817548
 40
81.9585510335
100
AcDbArc
 50
0.1361261289
 51
20.0727504596
  0
ARC
  5
51D
100
AcDbEntity
  8
3_AXES_OTHER
100
AcDbCircle
 62
7
  6
CONTINUOUS
 10
1158.2232320064
 20
3251.6561029492
 40
81.8760409181
100
AcDbArc
 50
354.2122292948
 51
359.9880687825
  0
ARC
  5
51E
100
AcDbEntity
  8
3_AXES_OTHER
100
AcDbCircle
 62
7
  6
CONTINUOUS
 10
1158.3252775748
 20
3251.5926496559
 40
81.7680864086
100
AcDbArc
 50
339.9156953511
 51
354.1313919533
  0
CIRCLE
  5
51F
100
AcDbEntity
  8
7_ALL_ROUNDS
100
AcDbCircle
 62
9
  6
CONTINUOUS
 10
1441.0123432947
 20
2782.8188616405
 40
59.8
  0
CIRCLE
  5
520
100
AcDbEntity
  8
7_ALL_ROUNDS
100
AcDbCircle
 62
7
  6
CONTINUOUS
 10
1441.0123432947
 20
2782.8188616405
 40
50.8
  0
ARC
  5
521
100
AcDbEntity
  8
7_ALL_ROUNDS
100
AcDbCircle
 62
7
  6
CONTINUOUS
 10
1525.8483432947
 20
2940.9228616405
 40
12.7
100
AcDbArc
 50
270.0
 51
360.0
  0
ARC
  5
522
100
AcDbEntity
  8
7_ALL_ROUNDS
100
AcDbCircle
 62
7
  6
CONTINUOUS
 10
1551.5983432947
 20
2915.8188616405
 40
6.0
100
AcDbArc
 50
270.0
 51
360.0
  0
ARC
  5
523
100
AcDbEntity
  8
7_ALL_ROUNDS
100
AcDbCircle
 62
7
  6
CONTINUOUS
 10
1551.5983432947
 20
2903.8188616405
 40
6.0
100
AcDbArc
 50
0.0
 51
90.0
  0
CIRCLE
  5
524
100
AcDbEntity
  8
3_AXES_OTHER
100
AcDbCircle
 62
7
  6
CONTINUOUS
 10
1525.8483432947
 20
3131.4303132788
 40
2.7051
  0
CIRCLE
  5
525
100
AcDbEntity
  8
3_AXES_OTHER
100
AcDbCircle
 62
7
  6
CONTINUOUS
 10
1525.8483432947
 20
2950.5823132788
 40
2.7051
  0
ARC
  5
526
100
AcDbEntity
  8
7_ALL_ROUNDS
100
AcDbCircle
 62
7
  6
CONTINUOUS
 10
1525.8483432947
 20
3496.4283132788
 40
12.7
100
AcDbArc
 50
0.0
 51
90.0
  0
ARC
  5
527
100
AcDbEntity
  8
7_ALL_ROUNDS
100
AcDbCircle
 62
7
  6
CONTINUOUS
 10
1551.5983432947
 20
3919.8188616405
 40
6.0
100
AcDbArc
 50
0.0
 51
90.0
  0
CIRCLE
  5
528
100
AcDbEntity
  8
3_AXES_OTHER
100
AcDbCircle
 62
7
  6
CONTINUOUS
 10
1525.8483432947
 20
3493.1263132788
 40
2.7051
  0
CIRCLE
  5
529
100
AcDbEntity
  8
3_AXES_OTHER
100
AcDbCircle
 62
7
  6
CONTINUOUS
 10
1525.8483432947
 20
3312.2783132788
 40
2.7051
  0
ARC
  5
52A
100
AcDbEntity
  8
7_ALL_ROUNDS
100
AcDbCircle
 62
7
  6
CONTINUOUS
 10
763.4983432947
 20
4636.0233899511
 40
6.0
100
AcDbArc
 50
180.0
 51
270.0
  0
CIRCLE
  5
52B
100
AcDbEntity
  8
0
100
AcDbCircle
 62
7
  6
CONTINUOUS
 10
795.5983432947
 20
4706.2233899511
 40
11.0
  0
CIRCLE
  5
52C
100
AcDbEntity
  8
0
100
AcDbCircle
 62
7
  6
CONTINUOUS
 10
795.5983432947
 20
4706.2233899511
 40
5.5
  0
CIRCLE
  5
52D
100
AcDbEntity
  8
0
100
AcDbCircle
 62
7
  6
CONTINUOUS
 10
795.5983432947
 20
5036.4233899511
 40
11.0
  0
ARC
  5
52E
100
AcDbEntity
  8
7_ALL_ROUNDS
100
AcDbCircle
 62
7
  6
CONTINUOUS
 10
763.4983432947
 20
5106.6233899511
 40
6.0
100
AcDbArc
 50
90.0
 51
180.0
  0
CIRCLE
  5
52F
100
AcDbEntity
  8
0
100
AcDbCircle
 62
7
  6
CONTINUOUS
 10
795.5983432947
 20
5036.4233899511
 40
5.5
  0
CIRCLE
  5
530
100
AcDbEntity
  8
0
100
AcDbCircle
 62
7
  6
CONTINUOUS
 10
1519.4983432947
 20
4706.2233899511
 40
11.0
  0
CIRCLE
  5
531
100
AcDbEntity
  8
0
100
AcDbCircle
 62
7
  6
CONTINUOUS
 10
1519.4983432947
 20
4706.2233899511
 40
5.5
  0
ARC
  5
532
100
AcDbEntity
  8
7_ALL_ROUNDS
100
AcDbCircle
 62
7
  6
CONTINUOUS
 10
1551.5983432947
 20
4636.0233899511
 40
6.0
100
AcDbArc
 50
270.0
 51
360.0
  0
CIRCLE
  5
533
100
AcDbEntity
  8
0
100
AcDbCircle
 62
7
  6
CONTINUOUS
 10
1519.4983432947
 20
5036.4233899511
 40
11.0
  0
ARC
  5
534
100
AcDbEntity
  8
7_ALL_ROUNDS
100
AcDbCircle
 62
7
  6
CONTINUOUS
 10
1551.5983432947
 20
5106.6233899511
 40
6.0
100
AcDbArc
 50
0.0
 51
90.0
  0
CIRCLE
  5
535
100
AcDbEntity
  8
0
100
AcDbCircle
 62
7
  6
CONTINUOUS
 10
1519.4983432947
 20
5036.4233899511
 40
5.5
  0
CIRCLE
  5
536
100
AcDbEntity
  8
0
100
AcDbCircle
 62
7
  6
CONTINUOUS
 10
2467.6244579107
 20
2947.9188616405
 40
11.0
  0
CIRCLE
  5
537
100
AcDbEntity
  8
0
100
AcDbCircle
 62
7
  6
CONTINUOUS
 10
2467.6244579107
 20
1931.9188616405
 40
11.0
  0
CIRCLE
  5
538
100
AcDbEntity
  8
0
100
AcDbCircle
 62
7
  6
CONTINUOUS
 10
2467.6244579107
 20
2871.7188616405
 40
11.0
  0
ARC
  5
539
100
AcDbEntity
  8
7_ALL_ROUNDS
100
AcDbCircle
 62
7
  6
CONTINUOUS
 10
2397.4244579107
 20
2915.8188616405
 40
6.0
100
AcDbArc
 50
180.0
 51
270.0
  0
ARC
  5
53A
100
AcDbEntity
  8
7_ALL_ROUNDS
100
AcDbCircle
 62
7
  6
CONTINUOUS
 10
2397.4244579107
 20
1899.8188616405
 40
6.0
100
AcDbArc
 50
180.0
 51
270.0
  0
ARC
  5
53B
100
AcDbEntity
  8
7_ALL_ROUNDS
100
AcDbCircle
 62
7
  6
CONTINUOUS
 10
2397.4244579107
 20
2903.8188616405
 40
6.0
100
AcDbArc
 50
90.0
 51
180.0
  0
CIRCLE
  5
53C
100
AcDbEntity
  8
0
100
AcDbCircle
 62
7
  6
CONTINUOUS
 10
2467.6244579107
 20
2947.9188616405
 40
5.5
  0
CIRCLE
  5
53D
100
AcDbEntity
  8
0
100
AcDbCircle
 62
7
  6
CONTINUOUS
 10
2467.6244579107
 20
2871.7188616405
 40
5.5
  0
CIRCLE
  5
53E
100
AcDbEntity
  8
0
100
AcDbCircle
 62
7
  6
CONTINUOUS
 10
2467.6244579107
 20
1931.9188616405
 40
5.5
  0
ARC
  5
53F
100
AcDbEntity
  8
7_ALL_ROUNDS
100
AcDbCircle
 62
9
  6
CONTINUOUS
 10
2576.3602421793
 20
3684.5188616405
 40
125.8642157314
100
AcDbArc
 50
354.6724519
 51
5.3275481
  0
ARC
  5
540
100
AcDbEntity
  8
7_ALL_ROUNDS
100
AcDbCircle
 62
7
  6
CONTINUOUS
 10
2576.3602421793
 20
3684.5188616405
 40
119.8642157314
100
AcDbArc
 50
354.6724519
 51
5.3275481
  0
ARC
  5
541
100
AcDbEntity
  8
7_ALL_ROUNDS
100
AcDbCircle
 62
9
  6
CONTINUOUS
 10
2575.7163318691
 20
3695.0910773508
 40
12.0
100
AcDbArc
 50
94.9774408433
 51
174.6724519
  0
ARC
  5
542
100
AcDbEntity
  8
7_ALL_ROUNDS
100
AcDbCircle
 62
9
  6
CONTINUOUS
 10
2575.7163318691
 20
3673.9466459302
 40
12.0
100
AcDbArc
 50
185.3275481
 51
265.0225591567
  0
CIRCLE
  5
543
100
AcDbEntity
  8
0
100
AcDbCircle
 62
7
  6
CONTINUOUS
 10
2467.6244579107
 20
3887.7188616405
 40
11.0
  0
ARC
  5
544
100
AcDbEntity
  8
7_ALL_ROUNDS
100
AcDbCircle
 62
7
  6
CONTINUOUS
 10
2575.7163318691
 20
3673.9466459302
 40
6.0
100
AcDbArc
 50
185.3275481
 51
265.0225591567
  0
ARC
  5
545
100
AcDbEntity
  8
7_ALL_ROUNDS
100
AcDbCircle
 62
7
  6
CONTINUOUS
 10
2575.7163318691
 20
3695.0910773508
 40
6.0
100
AcDbArc
 50
94.9774408433
 51
174.6724519
  0
ARC
  5
546
100
AcDbEntity
  8
7_ALL_ROUNDS
100
AcDbCircle
 62
7
  6
CONTINUOUS
 10
2397.4244579107
 20
3919.8188616405
 40
6.0
100
AcDbArc
 50
90.0
 51
180.0
  0
CIRCLE
  5
547
100
AcDbEntity
  8
0
100
AcDbCircle
 62
7
  6
CONTINUOUS
 10
2467.6244579107
 20
3887.7188616405
 40
5.5
  0
ARC
  5
548
100
AcDbEntity
  8
7_ALL_ROUNDS
100
AcDbCircle
 62
9
  6
CONTINUOUS
 10
2632.7244579107
 20
3040.5169416337
 40
669.0519200068
100
AcDbArc
 50
85.0225591567
 51
94.9774408433
  0
ARC
  5
549
100
AcDbEntity
  8
7_ALL_ROUNDS
100
AcDbCircle
 62
7
  6
CONTINUOUS
 10
2632.7244579107
 20
3040.5169416337
 40
663.0519200068
100
AcDbArc
 50
85.0225591567
 51
94.9774408433
  0
CIRCLE
  5
54A
100
AcDbEntity
  8
0
100
AcDbCircle
 62
7
  6
CONTINUOUS
 10
2797.8244579107
 20
2947.9188616405
 40
11.0
  0
CIRCLE
  5
54B
100
AcDbEntity
  8
0
100
AcDbCircle
 62
7
  6
CONTINUOUS
 10
2797.8244579107
 20
1931.9188616405
 40
11.0
  0
CIRCLE
  5
54C
100
AcDbEntity
  8
0
100
AcDbCircle
 62
7
  6
CONTINUOUS
 10
2797.8244579107
 20
2871.7188616405
 40
11.0
  0
ARC
  5
54D
100
AcDbEntity
  8
7_ALL_ROUNDS
100
AcDbCircle
 62
7
  6
CONTINUOUS
 10
2868.0244579107
 20
2915.8188616405
 40
6.0
100
AcDbArc
 50
270.0
 51
360.0
  0
ARC
  5
54E
100
AcDbEntity
  8
7_ALL_ROUNDS
100
AcDbCircle
 62
7
  6
CONTINUOUS
 10
2868.0244579107
 20
1899.8188616405
 40
6.0
100
AcDbArc
 50
270.0
 51
360.0
  0
ARC
  5
54F
100
AcDbEntity
  8
7_ALL_ROUNDS
100
AcDbCircle
 62
7
  6
CONTINUOUS
 10
2868.0244579107
 20
2903.8188616405
 40
6.0
100
AcDbArc
 50
0.0
 51
90.0
  0
CIRCLE
  5
550
100
AcDbEntity
  8
0
100
AcDbCircle
 62
7
  6
CONTINUOUS
 10
2797.8244579107
 20
2947.9188616405
 40
5.5
  0
CIRCLE
  5
551
100
AcDbEntity
  8
0
100
AcDbCircle
 62
7
  6
CONTINUOUS
 10
2797.8244579107
 20
2871.7188616405
 40
5.5
  0
CIRCLE
  5
552
100
AcDbEntity
  8
0
100
AcDbCircle
 62
7
  6
CONTINUOUS
 10
2797.8244579107
 20
1931.9188616405
 40
5.5
  0
ARC
  5
553
100
AcDbEntity
  8
7_ALL_ROUNDS
100
AcDbCircle
 62
9
  6
CONTINUOUS
 10
2632.7244579107
 20
4328.5207816473
 40
669.0519200068
100
AcDbArc
 50
265.0225591567
 51
274.9774408433
  0
ARC
  5
554
100
AcDbEntity
  8
7_ALL_ROUNDS
100
AcDbCircle
 62
7
  6
CONTINUOUS
 10
2632.7244579107
 20
4328.5207816473
 40
663.0519200068
100
AcDbArc
 50
265.0225591567
 51
274.9774408433
  0
ARC
  5
555
100
AcDbEntity
  8
7_ALL_ROUNDS
100
AcDbCircle
 62
9
  6
CONTINUOUS
 10
2689.0886736421
 20
3684.5188616405
 40
125.8642157314
100
AcDbArc
 50
174.6724519
 51
185.3275481
  0
ARC
  5
556
100
AcDbEntity
  8
7_ALL_ROUNDS
100
AcDbCircle
 62
7
  6
CONTINUOUS
 10
2689.0886736421
 20
3684.5188616405
 40
119.8642157314
100
AcDbArc
 50
174.6724519
 51
185.3275481
  0
ARC
  5
557
100
AcDbEntity
  8
7_ALL_ROUNDS
100
AcDbCircle
 62
9
  6
CONTINUOUS
 10
2689.7325839524
 20
3695.0910773508
 40
12.0
100
AcDbArc
 50
5.3275481
 51
85.0225591567
  0
ARC
  5
558
100
AcDbEntity
  8
7_ALL_ROUNDS
100
AcDbCircle
 62
9
  6
CONTINUOUS
 10
2689.7325839524
 20
3673.9466459302
 40
12.0
100
AcDbArc
 50
274.9774408433
 51
354.6724519
  0
CIRCLE
  5
559
100
AcDbEntity
  8
0
100
AcDbCircle
 62
7
  6
CONTINUOUS
 10
2797.8244579107
 20
3887.7188616405
 40
11.0
  0
ARC
  5
55A
100
AcDbEntity
  8
7_ALL_ROUNDS
100
AcDbCircle
 62
7
  6
CONTINUOUS
 10
2689.7325839524
 20
3673.9466459302
 40
6.0
100
AcDbArc
 50
274.9774408433
 51
354.6724519
  0
ARC
  5
55B
100
AcDbEntity
  8
7_ALL_ROUNDS
100
AcDbCircle
 62
7
  6
CONTINUOUS
 10
2689.7325839524
 20
3695.0910773508
 40
6.0
100
AcDbArc
 50
5.3275481
 51
85.0225591567
  0
ARC
  5
55C
100
AcDbEntity
  8
7_ALL_ROUNDS
100
AcDbCircle
 62
7
  6
CONTINUOUS
 10
2868.0244579107
 20
3919.8188616405
 40
6.0
100
AcDbArc
 50
0.0
 51
90.0
  0
CIRCLE
  5
55D
100
AcDbEntity
  8
0
100
AcDbCircle
 62
7
  6
CONTINUOUS
 10
2797.8244579107
 20
3887.7188616405
 40
5.5
  0
SPLINE
  5
55E
100
AcDbEntity
  8
0
100
AcDbSpline
 62
7
  6
CONTINUOUS
 70
0
 71
3
 72
13
 73
9
 74
0
 42
0.0000001
 43
0.0000001
 44
0.0000000001
 40
0.0
 40
0.0
 40
0.0
 40
0.0
 40
0.1317357684
 40
0.2713541552
 40
0.4178991716
 40
0.5930152361
 40
0.7698067128
 40
1.0
 40
1.0
 40
1.0
 40
1.0
 10
7669.5423865423
 20
900.4466324135
 30
0.0
 10
7666.9852067382
 20
900.2561719644
 30
0.0
 10
7661.7178343966
 20
899.8638546063
 30
0.0
 10
7654.5794958524
 20
895.4405331933
 30
0.0
 10
7649.4550206394
 20
888.0145731649
 30
0.0
 10
7646.1228220957
 20
878.9342587109
 30
0.0
 10
7644.2459243997
 20
867.8343396276
 30
0.0
 10
7644.0731128947
 20
859.9909418808
 30
0.0
 10
7643.9835486948
 20
855.5540813129
 30
0.0
  0
SPLINE
  5
55F
100
AcDbEntity
  8
0
100
AcDbSpline
 62
7
  6
CONTINUOUS
 70
0
 71
3
 72
13
 73
9
 74
0
 42
0.0000001
 43
0.0000001
 44
0.0000000001
 40
0.0
 40
0.0
 40
0.0
 40
0.0
 40
0.2249509061
 40
0.4029463322
 40
0.5792549365
 40
0.726797924
 40
0.8673671114
 40
1.0
 40
1.0
 40
1.0
 40
1.0
 10
7643.9914905515
 20
854.8655641184
 30
0.0
 10
7644.0792895935
 20
850.5591319571
 30
0.0
 10
7644.2676951299
 20
842.8475213057
 30
0.0
 10
7646.1228205595
 20
831.8762703724
 30
0.0
 10
7649.4550590076
 20
822.7969714876
 30
0.0
 10
7654.5793743835
 20
815.3678599247
 30
0.0
 10
7661.7182577273
 20
810.9551120848
 30
0.0
 10
7666.9843458854
 20
810.5378972606
 30
0.0
 10
7669.5423865423
 20
810.3473727668
 30
0.0
  0
SPLINE
  5
560
100
AcDbEntity
  8
0
100
AcDbSpline
 62
7
  6
CONTINUOUS
 70
0
 71
3
 72
13
 73
9
 74
0
 42
0.0000001
 43
0.0000001
 44
0.0000000001
 40
0.0
 40
0.0
 40
0.0
 40
0.0
 40
0.1604571392
 40
0.3334692485
 40
0.4767982758
 40
0.6242014838
 40
0.7505998515
 40
1.0
 40
1.0
 40
1.0
 40
1.0
 10
7612.3684688009
 20
810.3473270834
 30
0.0
 10
7614.488950404
 20
810.4494244886
 30
0.0
 10
7618.8958306123
 20
810.6616077899
 30
0.0
 10
7624.821836203
 20
813.2344076674
 30
0.0
 10
7629.2872766722
 20
817.5590695266
 30
0.0
 10
7631.803728003
 20
822.517127268
 30
0.0
 10
7633.7330537008
 20
829.1684125176
 30
0.0
 10
7633.8113457993
 20
834.1459188522
 30
0.0
 10
7633.8633046407
 20
837.4492602851
 30
0.0
  0
SPLINE
  5
561
100
AcDbEntity
  8
0
100
AcDbSpline
 62
7
  6
CONTINUOUS
 70
0
 71
3
 72
13
 73
9
 74
0
 42
0.0000001
 43
0.0000001
 44
0.0000000001
 40
0.0
 40
0.0
 40
0.0
 40
0.0
 40
0.2494001485
 40
0.3757985162
 40
0.5232017242
 40
0.6665307515
 40
0.8395428608
 40
1.0
 40
1.0
 40
1.0
 40
1.0
 10
7633.8633046407
 20
837.4492602851
 30
0.0
 10
7633.8113457993
 20
840.7526017546
 30
0.0
 10
7633.7330537008
 20
845.7301080525
 30
0.0
 10
7631.803728003
 20
852.3813933753
 30
0.0
 10
7629.2872766722
 20
857.3394511168
 30
0.0
 10
7624.821836203
 20
861.6641129028
 30
0.0
 10
7618.8958306123
 20
864.2369127803
 30
0.0
 10
7614.488950404
 20
864.4490961548
 30
0.0
 10
7612.3684688009
 20
864.5511934868
 30
0.0
  0
SPLINE
  5
562
100
AcDbEntity
  8
0
100
AcDbSpline
 62
7
  6
CONTINUOUS
 70
0
 71
3
 72
13
 73
9
 74
0
 42
0.0000001
 43
0.0000001
 44
0.0000000001
 40
0.0
 40
0.0
 40
0.0
 40
0.0
 40
0.1133740464
 40
0.2392044088
 40
0.3655787964
 40
0.4912154373
 40
0.7445390876
 40
1.0
 40
1.0
 40
1.0
 40
1.0
 10
7500.9987508895
 20
900.4466323952
 30
0.0
 10
7499.5471862072
 20
900.3751360445
 30
0.0
 10
7496.4845746195
 20
900.2242880617
 30
0.0
 10
7491.9353680511
 20
898.8651210488
 30
0.0
 10
7487.8656594194
 20
896.1205395001
 30
0.0
 10
7483.7084157878
 20
891.0649156444
 30
0.0
 10
7481.0924143873
 20
883.1282588268
 30
0.0
 10
7480.80870862
 20
876.6208021501
 30
0.0
 10
7480.6662599498
 20
873.3534057812
 30
0.0
  0
SPLINE
  5
563
100
AcDbEntity
  8
0
100
AcDbSpline
 62
7
  6
CONTINUOUS
 70
0
 71
3
 72
13
 73
9
 74
0
 42
0.0000001
 43
0.0000001
 44
0.0000000001
 40
0.0
 40
0.0
 40
0.0
 40
0.0
 40
0.2554609124
 40
0.5087845627
 40
0.6344212036
 40
0.7607955912
 40
0.8866259536
 40
1.0
 40
1.0
 40
1.0
 40
1.0
 10
7480.6662599498
 20
873.3534057812
 30
0.0
 10
7480.80870862
 20
870.0860093757
 30
0.0
 10
7481.0924143873
 20
863.5785526624
 30
0.0
 10
7483.7084157878
 20
855.6418958815
 30
0.0
 10
7487.8656594194
 20
850.5862720257
 30
0.0
 10
7491.9353680512
 20
847.8416905136
 30
0.0
 10
7496.4845746195
 20
846.4825234641
 30
0.0
 10
7499.5471862072
 20
846.3316754814
 30
0.0
 10
7500.9987508895
 20
846.2601791672
 30
0.0
  0
SPLINE
  5
564
100
AcDbEntity
  8
0
100
AcDbSpline
 62
7
  6
CONTINUOUS
 70
0
 71
3
 72
12
 73
8
 74
0
 42
0.0000001
 43
0.0000001
 44
0.0000000001
 40
0.0
 40
0.0
 40
0.0
 40
0.0
 40
0.2415790084
 40
0.4893269843
 40
0.7378634303
 40
0.8656387112
 40
1.0
 40
1.0
 40
1.0
 40
1.0
 10
7448.5196924991
 20
810.34732712
 30
0.0
 10
7450.9987240216
 20
810.4243973972
 30
0.0
 10
7456.0200918199
 20
810.580506106
 30
0.0
 10
7463.3683395892
 20
813.2010866754
 30
0.0
 10
7467.8310751168
 20
818.1480493067
 30
0.0
 10
7469.7972082676
 20
823.0909800924
 30
0.0
 10
7469.8326408653
 20
825.7987071148
 30
0.0
 10
7469.8508022757
 20
827.1865855196
 30
0.0
  0
SPLINE
  5
565
100
AcDbEntity
  8
0
100
AcDbSpline
 62
7
  6
CONTINUOUS
 70
0
 71
3
 72
12
 73
8
 74
0
 42
0.0000001
 43
0.0000001
 44
0.0000000001
 40
0.0
 40
0.0
 40
0.0
 40
0.0
 40
0.1343612888
 40
0.2621365697
 40
0.5106730157
 40
0.7584209916
 40
1.0
 40
1.0
 40
1.0
 40
1.0
 10
7469.8508022757
 20
883.5016982689
 30
0.0
 10
7469.8326408653
 20
884.8895767469
 30
0.0
 10
7469.7972082676
 20
887.5973037693
 30
0.0
 10
7467.8310751168
 20
892.540234555
 30
0.0
 10
7463.3683395892
 20
897.4871971864
 30
0.0
 10
7456.0200918199
 20
900.1077777191
 30
0.0
 10
7450.9987240216
 20
900.2638863914
 30
0.0
 10
7448.5196924991
 20
900.3409567052
 30
0.0
  0
SPLINE
  5
566
100
AcDbEntity
  8
0
100
AcDbSpline
 62
7
  6
CONTINUOUS
 70
0
 71
3
 72
12
 73
8
 74
0
 42
0.0000001
 43
0.0000001
 44
0.0000000001
 40
0.0
 40
0.0
 40
0.0
 40
0.0
 40
0.1341799809
 40
0.290831959
 40
0.5815217441
 40
0.760783857
 40
1.0
 40
1.0
 40
1.0
 40
1.0
 10
7333.8047974346
 20
900.3409567052
 30
0.0
 10
7331.3026619136
 20
899.913317977
 30
0.0
 10
7325.8793419439
 20
898.9864210551
 30
0.0
 10
7316.7500531403
 20
892.1659505914
 30
0.0
 10
7312.4259586846
 20
880.6911939667
 30
0.0
 10
7309.8959696618
 20
867.6834998012
 30
0.0
 10
7309.7060513055
 20
859.8158534467
 30
0.0
 10
7309.5974875928
 20
855.318444127
 30
0.0
  0
SPLINE
  5
567
100
AcDbEntity
  8
0
100
AcDbSpline
 62
7
  6
CONTINUOUS
 70
0
 71
3
 72
12
 73
8
 74
0
 42
0.0000001
 43
0.0000001
 44
0.0000000001
 40
0.0
 40
0.0
 40
0.0
 40
0.0
 40
0.2392679579
 40
0.4185688994
 40
0.7093216488
 40
0.8660075581
 40
1.0
 40
1.0
 40
1.0
 40
1.0
 10
7309.5974875928
 20
855.318444127
 30
0.0
 10
7309.7060946847
 20
850.8212100796
 30
0.0
 10
7309.8960888264
 20
842.9538703782
 30
0.0
 10
7312.4255319158
 20
829.9439688512
 30
0.0
 10
7316.7522683292
 20
818.4798950519
 30
0.0
 10
7325.8720522374
 20
811.6372771619
 30
0.0
 10
7331.3018517918
 20
810.7543331071
 30
0.0
 10
7333.8047974346
 20
810.34732712
 30
0.0
  0
SPLINE
  5
568
100
AcDbEntity
  8
0
100
AcDbSpline
 62
7
  6
CONTINUOUS
 70
0
 71
3
 72
11
 73
7
 74
0
 42
0.0000001
 43
0.0000001
 44
0.0000000001
 40
0.0
 40
0.0
 40
0.0
 40
0.0
 40
0.2507056669
 40
0.5005171571
 40
0.7500459977
 40
1.0
 40
1.0
 40
1.0
 40
1.0
 10
4634.9687602612
 20
2752.741208662
 30
0.0
 10
4636.1201923281
 20
2751.3898324407
 30
0.0
 10
4638.0364418402
 20
2748.3417229039
 30
0.0
 10
4639.5217692002
 20
2743.1676195052
 30
0.0
 10
4639.4486346664
 20
2737.7901421464
 30
0.0
 10
4638.398279557
 20
2734.3533596883
 30
0.0
 10
4637.6407767082
 20
2732.7535689017
 30
0.0
  0
SPLINE
  5
569
100
AcDbEntity
  8
0
100
AcDbSpline
 62
7
  6
CONTINUOUS
 70
0
 71
3
 72
11
 73
7
 74
0
 42
0.0000001
 43
0.0000001
 44
0.0000000001
 40
0.0
 40
0.0
 40
0.0
 40
0.0
 40
0.2493860016
 40
0.5
 40
0.7506139984
 40
1.0
 40
1.0
 40
1.0
 40
1.0
 10
4605.7824663534
 20
2752.741208685
 30
0.0
 10
4607.5552043866
 20
2754.8217795533
 30
0.0
 10
4612.091668746
 20
2758.2491089452
 30
0.0
 10
4620.3756133132
 20
2760.0409964072
 30
0.0
 10
4628.6595578775
 20
2758.2491089321
 30
0.0
 10
4633.1960222315
 20
2754.8217795331
 30
0.0
 10
4634.9687602612
 20
2752.741208662
 30
0.0
  0
SPLINE
  5
56A
100
AcDbEntity
  8
0
100
AcDbSpline
 62
7
  6
CONTINUOUS
 70
0
 71
3
 72
11
 73
7
 74
0
 42
0.0000001
 43
0.0000001
 44
0.0000000001
 40
0.0
 40
0.0
 40
0.0
 40
0.0
 40
0.2499540023
 40
0.4994828429
 40
0.7492943331
 40
1.0
 40
1.0
 40
1.0
 40
1.0
 10
4603.1104498819
 20
2732.7535689119
 30
0.0
 10
4602.3529470335
 20
2734.3533597004
 30
0.0
 10
4601.3025919256
 20
2737.7901421623
 30
0.0
 10
4601.2294573972
 20
2743.1676195261
 30
0.0
 10
4602.7147847649
 20
2748.3417229276
 30
0.0
 10
4604.6310342832
 20
2751.3898324644
 30
0.0
 10
4605.7824663534
 20
2752.741208685
 30
0.0
  0
SPLINE
  5
56B
100
AcDbEntity
  8
0
100
AcDbSpline
 62
7
  6
CONTINUOUS
 70
0
 71
3
 72
15
 73
11
 74
0
 42
0.0000001
 43
0.0000001
 44
0.0000000001
 40
0.0
 40
0.0
 40
0.0
 40
0.0
 40
0.12431449
 40
0.2491106961
 40
0.3744093628
 40
0.5
 40
0.6255906372
 40
0.7508893039
 40
0.87568551
 40
1.0
 40
1.0
 40
1.0
 40
1.0
 10
4637.6407767082
 20
2732.7535689017
 30
0.0
 10
4636.8807575506
 20
2731.1484638542
 30
0.0
 10
4634.8747146167
 20
2728.1409827745
 30
0.0
 10
4630.7428350562
 20
2724.636714283
 30
0.0
 10
4625.7691024067
 20
2722.4368787713
 30
0.0
 10
4620.3756132917
 20
2721.6635827946
 30
0.0
 10
4614.9821241772
 20
2722.4368787745
 30
0.0
 10
4610.008391529
 20
2724.6367142891
 30
0.0
 10
4605.8765119707
 20
2728.1409827831
 30
0.0
 10
4603.8704690386
 20
2731.148463864
 30
0.0
 10
4603.1104498819
 20
2732.7535689119
 30
0.0
  0
SPLINE
  5
56C
100
AcDbEntity
  8
3_AXES_OTHER
100
AcDbSpline
 62
7
  6
CONTINUOUS
 70
0
 71
3
 72
11
 73
7
 74
0
 42
0.0000001
 43
0.0000001
 44
0.0000000001
 40
0.0
 40
0.0
 40
0.0
 40
0.0
 40
0.2542274193
 40
0.5111243565
 40
0.7624520162
 40
1.0
 40
1.0
 40
1.0
 40
1.0
 10
4620.3756132975
 20
2312.1921627862
 30
0.0
 10
4615.5007113172
 20
2312.1921627862
 30
0.0
 10
4605.6780053541
 20
2311.3230311287
 30
0.0
 10
4591.4995972739
 20
2307.457911724
 30
0.0
 10
4578.5141833759
 20
2301.2992935494
 30
0.0
 10
4570.8078668084
 20
2295.8740865842
 30
0.0
 10
4567.3129512492
 20
2292.95274989
 30
0.0
  0
SPLINE
  5
56D
100
AcDbEntity
  8
3_AXES_OTHER
100
AcDbSpline
 62
7
  6
CONTINUOUS
 70
0
 71
3
 72
11
 73
7
 74
0
 42
0.0000001
 43
0.0000001
 44
0.0000000001
 40
0.0
 40
0.0
 40
0.0
 40
0.0
 40
0.2375479838
 40
0.4888756435
 40
0.7457725807
 40
1.0
 40
1.0
 40
1.0
 40
1.0
 10
4673.4382751415
 20
2292.9527497156
 30
0.0
 10
4669.9433596078
 20
2295.8740864178
 30
0.0
 10
4662.237043081
 20
2301.2992933944
 30
0.0
 10
4649.2516292323
 20
2307.4579115777
 30
0.0
 10
4635.0732211967
 20
2311.3230309871
 30
0.0
 10
4625.2505152624
 20
2312.1921626464
 30
0.0
 10
4620.3756132975
 20
2312.1921626464
 30
0.0
  0
LINE
  5
56E
100
AcDbEntity
  8
3_AXES_OTHER
100
AcDbLine
 62
7
  6
CONTINUOUS
 10
4702.9263110658
 20
2230.1479251659
 11
4702.926541152
 21
2229.9548756028
  0
SPLINE
  5
56F
100
AcDbEntity
  8
3_AXES_OTHER
100
AcDbSpline
 62
7
  6
CONTINUOUS
 70
0
 71
3
 72
11
 73
7
 74
0
 42
0.0000001
 43
0.0000001
 44
0.0000000001
 40
0.0
 40
0.0
 40
0.0
 40
0.0
 40
0.2498323664
 40
0.4997791674
 40
0.7498989355
 40
1.0
 40
1.0
 40
1.0
 40
1.0
 10
4567.4657993953
 20
2167.1096101202
 30
0.0
 10
4571.1359354885
 20
2164.0563111074
 30
0.0
 10
4579.0275329413
 20
2158.5772075394
 30
0.0
 10
4592.0960666122
 20
2152.5304992349
 30
0.0
 10
4606.0170497324
 20
2148.8285382617
 30
0.0
 10
4615.5963259534
 20
2147.9967417297
 30
0.0
 10
4620.3756132975
 20
2147.9967417297
 30
0.0
  0
LINE
  5
570
100
AcDbEntity
  8
3_AXES_OTHER
100
AcDbLine
 62
7
  6
CONTINUOUS
 10
4537.8246854429
 20
2229.9566835473
 11
4537.8249029687
 21
2230.1426056886
  0
SPLINE
  5
571
100
AcDbEntity
  8
3_AXES_OTHER
100
AcDbSpline
 62
7
  6
CONTINUOUS
 70
0
 71
3
 72
11
 73
7
 74
0
 42
0.0000001
 43
0.0000001
 44
0.0000000001
 40
0.0
 40
0.0
 40
0.0
 40
0.0
 40
0.2498323664
 40
0.4997791674
 40
0.7498989355
 40
1.0
 40
1.0
 40
1.0
 40
1.0
 10
4673.2854272108
 20
2167.1096101295
 30
0.0
 10
4669.6152911173
 20
2164.0563111153
 30
0.0
 10
4661.7236936633
 20
2158.5772075446
 30
0.0
 10
4648.6551599898
 20
2152.5304992372
 30
0.0
 10
4634.7341768662
 20
2148.8285382621
 30
0.0
 10
4625.1549006428
 20
2147.9967417297
 30
0.0
 10
4620.3756132975
 20
2147.9967417297
 30
0.0
  0
SPLINE
  5
572
100
AcDbEntity
  8
3_AXES_OTHER
100
AcDbSpline
 62
9
  6
CONTINUOUS
 70
0
 71
3
 72
9
 73
5
 74
0
 42
0.0000001
 43
0.0000001
 44
0.0000000001
 40
0.0
 40
0.0
 40
0.0
 40
0.0
 40
0.240109831
 40
1.0
 40
1.0
 40
1.0
 40
1.0
 10
4697.9472391434
 20
2258.0822194139
 30
0.0
 10
4704.5212712299
 20
2258.7836897512
 30
0.0
 10
4731.866593774
 20
2262.0207514868
 30
0.0
 10
4759.0640324149
 20
2266.4612754121
 30
0.0
 10
4779.6182270428
 20
2270.3742510704
 30
0.0
  0
SPLINE
  5
573
100
AcDbEntity
  8
3_AXES_OTHER
100
AcDbSpline
 62
9
  6
CONTINUOUS
 70
0
 71
3
 72
9
 73
5
 74
0
 42
0.0000001
 43
0.0000001
 44
0.0000000001
 40
0.0
 40
0.0
 40
0.0
 40
0.0
 40
0.478370495
 40
1.0
 40
1.0
 40
1.0
 40
1.0
 10
4779.6182270428
 20
2270.3742510704
 30
0.0
 10
4805.7385925955
 20
2275.3468786262
 30
0.0
 10
4860.0007873399
 20
2287.5664352396
 30
0.0
 10
4913.5185916508
 20
2302.6648006455
 30
0.0
 10
4941.2462953206
 20
2311.1397361977
 30
0.0
  0
SPLINE
  5
574
100
AcDbEntity
  8
3_AXES_OTHER
100
AcDbSpline
 62
9
  6
CONTINUOUS
 70
0
 71
3
 72
9
 73
5
 74
0
 42
0.0000001
 43
0.0000001
 44
0.0000000001
 40
0.0
 40
0.0
 40
0.0
 40
0.0
 40
0.475811529
 40
1.0
 40
1.0
 40
1.0
 40
1.0
 10
4775.2902210517
 20
2173.9228552839
 30
0.0
 10
4805.961096258
 20
2162.2601802332
 30
0.0
 10
4869.9750696328
 20
2136.5699284848
 30
0.0
 10
4933.229286841
 20
2109.0763202441
 30
0.0
 10
4966.2180315027
 20
2094.2932421333
 30
0.0
  0
SPLINE
  5
575
100
AcDbEntity
  8
3_AXES_OTHER
100
AcDbSpline
 62
7
  6
CONTINUOUS
 70
0
 71
3
 72
11
 73
7
 74
0
 42
0.0000001
 43
0.0000001
 44
0.0000000001
 40
0.0
 40
0.0
 40
0.0
 40
0.0
 40
0.2542274193
 40
0.5111243565
 40
0.7624520162
 40
1.0
 40
1.0
 40
1.0
 40
1.0
 10
4620.3756132975
 20
2147.7193778182
 30
0.0
 10
4625.2505152753
 20
2147.7193778182
 30
0.0
 10
4635.0732212334
 20
2148.588509475
 30
0.0
 10
4649.251629307
 20
2152.4536288766
 30
0.0
 10
4662.2370431999
 20
2158.6122470466
 30
0.0
 10
4669.943359765
 20
2164.0374540083
 30
0.0
 10
4673.4382753233
 20
2166.9587907008
 30
0.0
  0
SPLINE
  5
576
100
AcDbEntity
  8
3_AXES_OTHER
100
AcDbSpline
 62
9
  6
CONTINUOUS
 70
0
 71
3
 72
9
 73
5
 74
0
 42
0.0000001
 43
0.0000001
 44
0.0000000001
 40
0.0
 40
0.0
 40
0.0
 40
0.0
 40
0.2381286368
 40
1.0
 40
1.0
 40
1.0
 40
1.0
 10
4673.4377304771
 20
2166.9595615525
 30
0.0
 10
4676.1012500067
 20
2160.9590705285
 30
0.0
 10
4688.0910840837
 20
2136.1186445299
 30
0.0
 10
4703.1053669531
 20
2112.7957687522
 30
0.0
 10
4715.6544680879
 20
2095.9522558029
 30
0.0
  0
SPLINE
  5
577
100
AcDbEntity
  8
3_AXES_OTHER
100
AcDbSpline
 62
9
  6
CONTINUOUS
 70
0
 71
3
 72
11
 73
7
 74
0
 42
0.0000001
 43
0.0000001
 44
0.0000000001
 40
0.0
 40
0.0
 40
0.0
 40
0.0
 40
0.2238583699
 40
0.4642961155
 40
0.7226505665
 40
1.0
 40
1.0
 40
1.0
 40
1.0
 10
4715.6544680879
 20
2095.9522558029
 30
0.0
 10
4724.3523065747
 20
2084.2779411559
 30
0.0
 10
4743.549756515
 20
2060.9141346549
 30
0.0
 10
4776.2094583773
 20
2027.0655307694
 30
0.0
 10
4813.7014521728
 20
1993.2196604342
 30
0.0
 10
4840.9256279977
 20
1971.4478712088
 30
0.0
 10
4855.2897845672
 20
1960.5390840813
 30
0.0
  0
SPLINE
  5
578
100
AcDbEntity
  8
0
100
AcDbSpline
 62
7
  6
CONTINUOUS
 70
0
 71
3
 72
17
 73
13
 74
0
 42
0.0000001
 43
0.0000001
 44
0.0000000001
 40
0.0
 40
0.0
 40
0.0
 40
0.0
 40
0.1249991687
 40
0.1875594338
 40
0.2501229779
 40
0.3750886059
 40
0.5000376267
 40
0.5626055733
 40
0.6251746246
 40
0.7501080396
 40
0.8750442911
 40
1.0
 40
1.0
 40
1.0
 40
1.0
 10
4966.2180311626
 20
2094.29324493
 30
0.0
 10
4967.2108043094
 20
2086.143725077
 30
0.0
 10
4967.6112204847
 20
2073.7418890188
 30
0.0
 10
4965.8469787169
 20
2057.3906050351
 30
0.0
 10
4962.5272971579
 20
2041.2803904071
 30
0.0
 10
4955.3837851416
 20
2021.881398124
 30
0.0
 10
4944.3420088779
 20
2004.3755913377
 30
0.0
 10
4933.3569651036
 20
1992.121376863
 30
0.0
 10
4921.0663757645
 20
1981.1821961618
 30
0.0
 10
4903.4740035726
 20
1970.2377394611
 30
0.0
 10
4879.9688624032
 20
1962.274842322
 30
0.0
 10
4863.4966978791
 20
1960.5390840813
 30
0.0
 10
4855.2897853723
 20
1960.5390840813
 30
0.0
  0
SPLINE
  5
579
100
AcDbEntity
  8
0
100
AcDbSpline
 62
7
  6
CONTINUOUS
 70
0
 71
3
 72
10
 73
6
 74
0
 42
0.0000001
 43
0.0000001
 44
0.0000000001
 40
0.0
 40
0.0
 40
0.0
 40
0.0
 40
0.4999983502
 40
0.7499991296
 40
1.0
 40
1.0
 40
1.0
 40
1.0
 10
4941.2462964053
 20
2311.1397258838
 30
0.0
 10
4944.9851352534
 20
2274.9521147972
 30
0.0
 10
4951.0101213442
 20
2220.7131574759
 30
0.0
 10
4959.6286349191
 20
2148.4647151668
 30
0.0
 10
4964.0183600772
 20
2112.3500016388
 30
0.0
 10
4966.2180311626
 20
2094.29324493
 30
0.0
  0
SPLINE
  5
57A
100
AcDbEntity
  8
0
100
AcDbSpline
 62
7
  6
CONTINUOUS
 70
0
 71
3
 72
15
 73
11
 74
0
 42
0.0000001
 43
0.0000001
 44
0.0000000001
 40
0.0
 40
0.0
 40
0.0
 40
0.0
 40
0.1249991583
 40
0.2500017707
 40
0.3750125288
 40
0.5000231118
 40
0.6250303802
 40
0.7500321126
 40
0.8750200731
 40
1.0
 40
1.0
 40
1.0
 40
1.0
 10
4811.8905159028
 20
2422.7844883257
 30
0.0
 10
4819.6699658933
 20
2422.9256820561
 30
0.0
 10
4835.2918799876
 20
2421.684356186
 30
0.0
 10
4857.952169022
 20
2415.5918589853
 30
0.0
 10
4879.1554552261
 20
2405.5397392689
 30
0.0
 10
4898.3120930475
 20
2391.9878133143
 30
0.0
 10
4914.7244374713
 20
2375.2128641866
 30
0.0
 10
4927.9094275688
 20
2355.7909643663
 30
0.0
 10
4937.1933079988
 20
2334.2254038962
 30
0.0
 10
4940.4467848685
 20
2318.87806758
 30
0.0
 10
4941.2462964053
 20
2311.1397258838
 30
0.0
  0
SPLINE
  5
57B
100
AcDbEntity
  8
0
100
AcDbSpline
 62
7
  6
CONTINUOUS
 70
0
 71
3
 72
10
 73
6
 74
0
 42
0.0000001
 43
0.0000001
 44
0.0000000001
 40
0.0
 40
0.0
 40
0.0
 40
0.0
 40
0.2500000839
 40
0.5000001876
 40
1.0
 40
1.0
 40
1.0
 40
1.0
 10
4620.3756132976
 20
2420.7691357196
 30
0.0
 10
4636.3362922456
 20
2420.7691357196
 30
0.0
 10
4668.2577446329
 20
2420.8587129544
 30
0.0
 10
4732.0983039994
 20
2421.4199436084
 30
0.0
 10
4779.9744369533
 20
2422.2052249773
 30
0.0
 10
4811.8905159028
 20
2422.7844883257
 30
0.0
  0
SPLINE
  5
57C
100
AcDbEntity
  8
0
100
AcDbSpline
 62
7
  6
CONTINUOUS
 70
0
 71
3
 72
10
 73
6
 74
0
 42
0.0000001
 43
0.0000001
 44
0.0000000001
 40
0.0
 40
0.0
 40
0.0
 40
0.0
 40
0.4999998124
 40
0.7499999161
 40
1.0
 40
1.0
 40
1.0
 40
1.0
 10
4428.8607099472
 20
2422.7844883388
 30
0.0
 10
4460.7767890205
 20
2422.2052249882
 30
0.0
 10
4508.652922162
 20
2421.4199436181
 30
0.0
 10
4572.4934817768
 20
2420.8587129514
 30
0.0
 10
4604.4149342887
 20
2420.7691357196
 30
0.0
 10
4620.3756132976
 20
2420.7691357196
 30
0.0
  0
SPLINE
  5
57D
100
AcDbEntity
  8
0
100
AcDbSpline
 62
7
  6
CONTINUOUS
 70
0
 71
3
 72
15
 73
11
 74
0
 42
0.0000001
 43
0.0000001
 44
0.0000000001
 40
0.0
 40
0.0
 40
0.0
 40
0.0
 40
0.12498037
 40
0.2499687809
 40
0.3749705892
 40
0.4999774839
 40
0.6249875466
 40
0.7499981336
 40
0.8750008785
 40
1.0
 40
1.0
 40
1.0
 40
1.0
 10
4299.5049303095
 20
2311.139727023
 30
0.0
 10
4300.3044458273
 20
2318.8780959454
 30
0.0
 10
4303.5579192924
 20
2334.2254925769
 30
0.0
 10
4312.8418832419
 20
2355.791084113
 30
0.0
 10
4326.0268780479
 20
2375.2129892216
 30
0.0
 10
4342.4392132693
 20
2391.9878786398
 30
0.0
 10
4361.595810901
 20
2405.5397408457
 30
0.0
 10
4382.7990576642
 20
2415.5918591325
 30
0.0
 10
4405.4593425177
 20
2421.6843580143
 30
0.0
 10
4421.0812623362
 20
2422.925682026
 30
0.0
 10
4428.8607099472
 20
2422.7844883388
 30
0.0
  0
SPLINE
  5
57E
100
AcDbEntity
  8
0
100
AcDbSpline
 62
7
  6
CONTINUOUS
 70
0
 71
3
 72
10
 73
6
 74
0
 42
0.0000001
 43
0.0000001
 44
0.0000000001
 40
0.0
 40
0.0
 40
0.0
 40
0.0
 40
0.2500008706
 40
0.5000016501
 40
1.0
 40
1.0
 40
1.0
 40
1.0
 10
4274.5331954922
 20
2094.2932454216
 30
0.0
 10
4276.7328671719
 20
2112.3500021224
 30
0.0
 10
4281.1225927177
 20
2148.4647157348
 30
0.0
 10
4289.7411084234
 20
2220.7131580408
 30
0.0
 10
4295.7660860482
 20
2274.9521164088
 30
0.0
 10
4299.5049303095
 20
2311.139727023
 30
0.0
  0
SPLINE
  5
57F
100
AcDbEntity
  8
0
100
AcDbSpline
 62
7
  6
CONTINUOUS
 70
0
 71
3
 72
17
 73
13
 74
0
 42
0.0000001
 43
0.0000001
 44
0.0000000001
 40
0.0
 40
0.0
 40
0.0
 40
0.0
 40
0.1249557339
 40
0.2498920386
 40
0.3748256658
 40
0.4373948875
 40
0.4999630665
 40
0.6249124258
 40
0.7498779169
 40
0.8124412161
 40
0.8750012593
 40
1.0
 40
1.0
 40
1.0
 40
1.0
 10
4385.461441215
 20
1960.5390840813
 30
0.0
 10
4377.2545270533
 20
1960.5390840813
 30
0.0
 10
4360.7823565217
 20
1962.2748412006
 30
0.0
 10
4337.277200812
 20
1970.2377513674
 30
0.0
 10
4319.6847985665
 20
1981.1822189547
 30
0.0
 10
4307.3941998169
 20
1992.1214500668
 30
0.0
 10
4296.4091262096
 20
2004.3757026929
 30
0.0
 10
4285.3673626158
 20
2021.8815555059
 30
0.0
 10
4278.2238896954
 20
2041.2805556828
 30
0.0
 10
4274.9042151536
 20
2057.3907319221
 30
0.0
 10
4273.1400246186
 20
2073.7419622411
 30
0.0
 10
4273.5404254782
 20
2086.1437534915
 30
0.0
 10
4274.5331954922
 20
2094.2932454216
 30
0.0
  0
SPLINE
  5
580
100
AcDbEntity
  8
3_AXES_OTHER
100
AcDbSpline
 62
9
  6
CONTINUOUS
 70
0
 71
3
 72
9
 73
5
 74
0
 42
0.0000001
 43
0.0000001
 44
0.0000000001
 40
0.0
 40
0.0
 40
0.0
 40
0.0
 40
0.475811529
 40
1.0
 40
1.0
 40
1.0
 40
1.0
 10
4465.4610055433
 20
2173.9228552839
 30
0.0
 10
4434.790130337
 20
2162.2601802332
 30
0.0
 10
4370.7761569621
 20
2136.5699284848
 30
0.0
 10
4307.521939754
 20
2109.0763202441
 30
0.0
 10
4274.5331950922
 20
2094.2932421333
 30
0.0
  0
SPLINE
  5
581
100
AcDbEntity
  8
3_AXES_OTHER
100
AcDbSpline
 62
7
  6
CONTINUOUS
 70
0
 71
3
 72
11
 73
7
 74
0
 42
0.0000001
 43
0.0000001
 44
0.0000000001
 40
0.0
 40
0.0
 40
0.0
 40
0.0
 40
0.2375479838
 40
0.4888756435
 40
0.7457725807
 40
1.0
 40
1.0
 40
1.0
 40
1.0
 10
4567.3129514713
 20
2166.9587909583
 30
0.0
 10
4570.8078670046
 20
2164.0374542579
 30
0.0
 10
4578.5141835298
 20
2158.6122472848
 30
0.0
 10
4591.4995973746
 20
2152.4536291061
 30
0.0
 10
4605.6780054047
 20
2148.5885096998
 30
0.0
 10
4615.5007113347
 20
2147.7193780412
 30
0.0
 10
4620.3756132975
 20
2147.7193780412
 30
0.0
  0
SPLINE
  5
582
100
AcDbEntity
  8
3_AXES_OTHER
100
AcDbSpline
 62
9
  6
CONTINUOUS
 70
0
 71
3
 72
9
 73
5
 74
0
 42
0.0000001
 43
0.0000001
 44
0.0000000001
 40
0.0
 40
0.0
 40
0.0
 40
0.0
 40
0.240109831
 40
1.0
 40
1.0
 40
1.0
 40
1.0
 10
4542.8039874516
 20
2258.0822194139
 30
0.0
 10
4536.2299553651
 20
2258.7836897512
 30
0.0
 10
4508.884632821
 20
2262.0207514868
 30
0.0
 10
4481.68719418
 20
2266.4612754121
 30
0.0
 10
4461.1329995521
 20
2270.3742510704
 30
0.0
  0
SPLINE
  5
583
100
AcDbEntity
  8
3_AXES_OTHER
100
AcDbSpline
 62
9
  6
CONTINUOUS
 70
0
 71
3
 72
9
 73
5
 74
0
 42
0.0000001
 43
0.0000001
 44
0.0000000001
 40
0.0
 40
0.0
 40
0.0
 40
0.0
 40
0.478370495
 40
1.0
 40
1.0
 40
1.0
 40
1.0
 10
4461.1329995521
 20
2270.3742510704
 30
0.0
 10
4435.0126339989
 20
2275.3468786263
 30
0.0
 10
4380.7504392532
 20
2287.56643524
 30
0.0
 10
4327.232634941
 20
2302.6648006464
 30
0.0
 10
4299.5049312705
 20
2311.1397361989
 30
0.0
  0
SPLINE
  5
584
100
AcDbEntity
  8
3_AXES_OTHER
100
AcDbSpline
 62
9
  6
CONTINUOUS
 70
0
 71
3
 72
13
 73
9
 74
0
 42
0.0000001
 43
0.0000001
 44
0.0000000001
 40
0.0
 40
0.0
 40
0.0
 40
0.0
 40
0.2030346921
 40
0.3153965258
 40
0.4355401793
 40
0.5638142888
 40
0.7005052936
 40
1.0
 40
1.0
 40
1.0
 40
1.0
 10
4567.3134961179
 20
2292.9522275955
 30
0.0
 10
4560.5415803198
 20
2303.9688231668
 30
0.0
 10
4548.4593915209
 20
2320.1413392156
 30
0.0
 10
4529.8340816447
 20
2340.7044525476
 30
0.0
 10
4513.4481807611
 20
2356.8336340839
 30
0.0
 10
4495.1218628307
 20
2373.1487228054
 30
0.0
 10
4467.2347582809
 20
2395.8519301805
 30
0.0
 10
4444.6571885152
 20
2412.0918135482
 30
0.0
 10
4428.8607035418
 20
2422.7844884515
 30
0.0
  0
LINE
  5
585
100
AcDbEntity
  8
3_AXES_OTHER
100
AcDbLine
 62
7
  6
CONTINUOUS
 10
4702.5091598121
 20
2221.7152223334
 11
4702.4920863923
 21
2221.5478871687
  0
SPLINE
  5
586
100
AcDbEntity
  8
3_AXES_OTHER
100
AcDbSpline
 62
9
  6
CONTINUOUS
 70
0
 71
3
 72
9
 73
5
 74
0
 42
0.0000001
 43
0.0000001
 44
0.0000000001
 40
0.0
 40
0.0
 40
0.0
 40
0.0
 40
0.2381286368
 40
1.0
 40
1.0
 40
1.0
 40
1.0
 10
4567.3134961179
 20
2166.9595615525
 30
0.0
 10
4564.6499765883
 20
2160.9590705285
 30
0.0
 10
4552.6601425113
 20
2136.1186445299
 30
0.0
 10
4537.6458596419
 20
2112.7957687522
 30
0.0
 10
4525.0967585071
 20
2095.9522558029
 30
0.0
  0
SPLINE
  5
587
100
AcDbEntity
  8
3_AXES_OTHER
100
AcDbSpline
 62
9
  6
CONTINUOUS
 70
0
 71
3
 72
11
 73
7
 74
0
 42
0.0000001
 43
0.0000001
 44
0.0000000001
 40
0.0
 40
0.0
 40
0.0
 40
0.0
 40
0.2238583699
 40
0.4642961155
 40
0.7226505665
 40
1.0
 40
1.0
 40
1.0
 40
1.0
 10
4525.0967585071
 20
2095.9522558029
 30
0.0
 10
4516.39892002
 20
2084.2779411555
 30
0.0
 10
4497.2014700789
 20
2060.9141346537
 30
0.0
 10
4464.5417682154
 20
2027.0655307671
 30
0.0
 10
4427.0497744182
 20
1993.2196604308
 30
0.0
 10
4399.8255985921
 20
1971.4478712047
 30
0.0
 10
4385.4614420219
 20
1960.5390840769
 30
0.0
  0
SPLINE
  5
588
100
AcDbEntity
  8
3_AXES_OTHER
100
AcDbSpline
 62
9
  6
CONTINUOUS
 70
0
 71
3
 72
13
 73
9
 74
0
 42
0.0000001
 43
0.0000001
 44
0.0000000001
 40
0.0
 40
0.0
 40
0.0
 40
0.0
 40
0.2030346921
 40
0.3153965258
 40
0.4355401792
 40
0.5638142888
 40
0.7005052936
 40
1.0
 40
1.0
 40
1.0
 40
1.0
 10
4673.4377304771
 20
2292.9522275955
 30
0.0
 10
4680.2096462766
 20
2303.9688231691
 30
0.0
 10
4692.2918350784
 20
2320.1413392212
 30
0.0
 10
4710.9171449594
 20
2340.7044525572
 30
0.0
 10
4727.3030458475
 20
2356.8336340967
 30
0.0
 10
4745.6293637833
 20
2373.1487228216
 30
0.0
 10
4773.5164683416
 20
2395.8519302015
 30
0.0
 10
4796.0940381141
 20
2412.0918135726
 30
0.0
 10
4811.8905230925
 20
2422.7844884781
 30
0.0
  0
SPLINE
  5
589
100
AcDbEntity
  8
0
100
AcDbSpline
 62
7
  6
CONTINUOUS
 70
0
 71
3
 72
11
 73
7
 74
0
 42
0.0000001
 43
0.0000001
 44
0.0000000001
 40
0.0
 40
0.0
 40
0.0
 40
0.0
 40
0.2507056669
 40
0.5005171571
 40
0.7500459977
 40
1.0
 40
1.0
 40
1.0
 40
1.0
 10
1172.1414902585
 20
3774.4253862212
 30
0.0
 10
1173.2929223254
 20
3773.0740099999
 30
0.0
 10
1175.2091718375
 20
3770.025900463
 30
0.0
 10
1176.6944991974
 20
3764.8517970644
 30
0.0
 10
1176.6213646637
 20
3759.4743197056
 30
0.0
 10
1175.5710095542
 20
3756.0375372475
 30
0.0
 10
1174.8135067054
 20
3754.4377464608
 30
0.0
  0
SPLINE
  5
58A
100
AcDbEntity
  8
0
100
AcDbSpline
 62
7
  6
CONTINUOUS
 70
0
 71
3
 72
11
 73
7
 74
0
 42
0.0000001
 43
0.0000001
 44
0.0000000001
 40
0.0
 40
0.0
 40
0.0
 40
0.0
 40
0.2493860016
 40
0.5
 40
0.7506139984
 40
1.0
 40
1.0
 40
1.0
 40
1.0
 10
1142.9551963506
 20
3774.4253862442
 30
0.0
 10
1144.7279343838
 20
3776.5059571124
 30
0.0
 10
1149.2643987433
 20
3779.9332865044
 30
0.0
 10
1157.5483433104
 20
3781.7251739664
 30
0.0
 10
1165.8322878747
 20
3779.9332864913
 30
0.0
 10
1170.3687522287
 20
3776.5059570923
 30
0.0
 10
1172.1414902585
 20
3774.4253862212
 30
0.0
  0
SPLINE
  5
58B
100
AcDbEntity
  8
0
100
AcDbSpline
 62
7
  6
CONTINUOUS
 70
0
 71
3
 72
11
 73
7
 74
0
 42
0.0000001
 43
0.0000001
 44
0.0000000001
 40
0.0
 40
0.0
 40
0.0
 40
0.0
 40
0.2499540023
 40
0.4994828429
 40
0.7492943331
 40
1.0
 40
1.0
 40
1.0
 40
1.0
 10
1140.2831798792
 20
3754.4377464711
 30
0.0
 10
1139.5256770307
 20
3756.0375372595
 30
0.0
 10
1138.4753219228
 20
3759.4743197215
 30
0.0
 10
1138.4021873944
 20
3764.8517970853
 30
0.0
 10
1139.8875147621
 20
3770.0259004867
 30
0.0
 10
1141.8037642804
 20
3773.0740100236
 30
0.0
 10
1142.9551963506
 20
3774.4253862442
 30
0.0
  0
SPLINE
  5
58C
100
AcDbEntity
  8
0
100
AcDbSpline
 62
7
  6
CONTINUOUS
 70
0
 71
3
 72
15
 73
11
 74
0
 42
0.0000001
 43
0.0000001
 44
0.0000000001
 40
0.0
 40
0.0
 40
0.0
 40
0.0
 40
0.12431449
 40
0.2491106961
 40
0.3744093628
 40
0.5
 40
0.6255906372
 40
0.7508893039
 40
0.87568551
 40
1.0
 40
1.0
 40
1.0
 40
1.0
 10
1174.8135067054
 20
3754.4377464608
 30
0.0
 10
1174.0534875478
 20
3752.8326414134
 30
0.0
 10
1172.0474446139
 20
3749.8251603337
 30
0.0
 10
1167.9155650534
 20
3746.3208918422
 30
0.0
 10
1162.9418324039
 20
3744.1210563305
 30
0.0
 10
1157.5483432889
 20
3743.3477603537
 30
0.0
 10
1152.1548541744
 20
3744.1210563337
 30
0.0
 10
1147.1811215262
 20
3746.3208918483
 30
0.0
 10
1143.0492419679
 20
3749.8251603423
 30
0.0
 10
1141.0431990358
 20
3752.8326414232
 30
0.0
 10
1140.2831798792
 20
3754.4377464711
 30
0.0
  0
SPLINE
  5
58D
100
AcDbEntity
  8
3_AXES_OTHER
100
AcDbSpline
 62
7
  6
CONTINUOUS
 70
0
 71
3
 72
11
 73
7
 74
0
 42
0.0000001
 43
0.0000001
 44
0.0000000001
 40
0.0
 40
0.0
 40
0.0
 40
0.0
 40
0.2542274193
 40
0.5111243565
 40
0.7624520162
 40
1.0
 40
1.0
 40
1.0
 40
1.0
 10
1157.5483432947
 20
3333.8763403453
 30
0.0
 10
1152.6734413144
 20
3333.8763403453
 30
0.0
 10
1142.8507353513
 20
3333.0072086879
 30
0.0
 10
1128.6723272711
 20
3329.1420892832
 30
0.0
 10
1115.6869133731
 20
3322.9834711086
 30
0.0
 10
1107.9805968056
 20
3317.5582641433
 30
0.0
 10
1104.4856812464
 20
3314.6369274492
 30
0.0
  0
SPLINE
  5
58E
100
AcDbEntity
  8
3_AXES_OTHER
100
AcDbSpline
 62
7
  6
CONTINUOUS
 70
0
 71
3
 72
11
 73
7
 74
0
 42
0.0000001
 43
0.0000001
 44
0.0000000001
 40
0.0
 40
0.0
 40
0.0
 40
0.0
 40
0.2375479838
 40
0.4888756435
 40
0.7457725807
 40
1.0
 40
1.0
 40
1.0
 40
1.0
 10
1210.6110051387
 20
3314.6369272748
 30
0.0
 10
1207.1160896051
 20
3317.5582639769
 30
0.0
 10
1199.4097730782
 20
3322.9834709536
 30
0.0
 10
1186.4243592295
 20
3329.1420891368
 30
0.0
 10
1172.2459511939
 20
3333.0072085463
 30
0.0
 10
1162.4232452596
 20
3333.8763402056
 30
0.0
 10
1157.5483432947
 20
3333.8763402056
 30
0.0
  0
LINE
  5
58F
100
AcDbEntity
  8
3_AXES_OTHER
100
AcDbLine
 62
7
  6
CONTINUOUS
 10
1240.099041063
 20
3251.8321027251
 11
1240.0992711493
 21
3251.639053162
  0
SPLINE
  5
590
100
AcDbEntity
  8
3_AXES_OTHER
100
AcDbSpline
 62
7
  6
CONTINUOUS
 70
0
 71
3
 72
11
 73
7
 74
0
 42
0.0000001
 43
0.0000001
 44
0.0000000001
 40
0.0
 40
0.0
 40
0.0
 40
0.0
 40
0.2498323664
 40
0.4997791674
 40
0.7498989355
 40
1.0
 40
1.0
 40
1.0
 40
1.0
 10
1104.6385293926
 20
3188.7937876793
 30
0.0
 10
1108.3086654857
 20
3185.7404886666
 30
0.0
 10
1116.2002629385
 20
3180.2613850985
 30
0.0
 10
1129.2687966094
 20
3174.2146767941
 30
0.0
 10
1143.1897797297
 20
3170.5127158209
 30
0.0
 10
1152.7690559507
 20
3169.6809192889
 30
0.0
 10
1157.5483432947
 20
3169.6809192889
 30
0.0
  0
LINE
  5
591
100
AcDbEntity
  8
3_AXES_OTHER
100
AcDbLine
 62
7
  6
CONTINUOUS
 10
1074.9974154402
 20
3251.6408611064
 11
1074.997632966
 21
3251.8267832477
  0
SPLINE
  5
592
100
AcDbEntity
  8
3_AXES_OTHER
100
AcDbSpline
 62
7
  6
CONTINUOUS
 70
0
 71
3
 72
11
 73
7
 74
0
 42
0.0000001
 43
0.0000001
 44
0.0000000001
 40
0.0
 40
0.0
 40
0.0
 40
0.0
 40
0.2498323664
 40
0.4997791674
 40
0.7498989355
 40
1.0
 40
1.0
 40
1.0
 40
1.0
 10
1210.4581572081
 20
3188.7937876886
 30
0.0
 10
1206.7880211145
 20
3185.7404886745
 30
0.0
 10
1198.8964236606
 20
3180.2613851038
 30
0.0
 10
1185.827889987
 20
3174.2146767963
 30
0.0
 10
1171.9069068634
 20
3170.5127158213
 30
0.0
 10
1162.32763064
 20
3169.6809192889
 30
0.0
 10
1157.5483432947
 20
3169.6809192889
 30
0.0
  0
SPLINE
  5
593
100
AcDbEntity
  8
3_AXES_OTHER
100
AcDbSpline
 62
9
  6
CONTINUOUS
 70
0
 71
3
 72
9
 73
5
 74
0
 42
0.0000001
 43
0.0000001
 44
0.0000000001
 40
0.0
 40
0.0
 40
0.0
 40
0.0
 40
0.240109831
 40
1.0
 40
1.0
 40
1.0
 40
1.0
 10
1235.1199691406
 20
3279.7663969731
 30
0.0
 10
1241.6940012272
 20
3280.4678673104
 30
0.0
 10
1269.0393237712
 20
3283.704929046
 30
0.0
 10
1296.2367624122
 20
3288.1454529713
 30
0.0
 10
1316.7909570401
 20
3292.0584286296
 30
0.0
  0
SPLINE
  5
594
100
AcDbEntity
  8
3_AXES_OTHER
100
AcDbSpline
 62
9
  6
CONTINUOUS
 70
0
 71
3
 72
9
 73
5
 74
0
 42
0.0000001
 43
0.0000001
 44
0.0000000001
 40
0.0
 40
0.0
 40
0.0
 40
0.0
 40
0.478370495
 40
1.0
 40
1.0
 40
1.0
 40
1.0
 10
1316.7909570401
 20
3292.0584286296
 30
0.0
 10
1342.9113225927
 20
3297.0310561853
 30
0.0
 10
1397.1735173371
 20
3309.2506127988
 30
0.0
 10
1450.6913216481
 20
3324.3489782047
 30
0.0
 10
1478.4190253179
 20
3332.8239137569
 30
0.0
  0
SPLINE
  5
595
100
AcDbEntity
  8
3_AXES_OTHER
100
AcDbSpline
 62
9
  6
CONTINUOUS
 70
0
 71
3
 72
9
 73
5
 74
0
 42
0.0000001
 43
0.0000001
 44
0.0000000001
 40
0.0
 40
0.0
 40
0.0
 40
0.0
 40
0.475811529
 40
1.0
 40
1.0
 40
1.0
 40
1.0
 10
1312.4629510489
 20
3195.607032843
 30
0.0
 10
1343.1338262552
 20
3183.9443577924
 30
0.0
 10
1407.1477996301
 20
3158.254106044
 30
0.0
 10
1470.4020168382
 20
3130.7604978033
 30
0.0
 10
1503.3907614999
 20
3115.9774196925
 30
0.0
  0
SPLINE
  5
596
100
AcDbEntity
  8
3_AXES_OTHER
100
AcDbSpline
 62
7
  6
CONTINUOUS
 70
0
 71
3
 72
11
 73
7
 74
0
 42
0.0000001
 43
0.0000001
 44
0.0000000001
 40
0.0
 40
0.0
 40
0.0
 40
0.0
 40
0.2542274193
 40
0.5111243565
 40
0.7624520162
 40
1.0
 40
1.0
 40
1.0
 40
1.0
 10
1157.5483432947
 20
3169.4035553774
 30
0.0
 10
1162.4232452725
 20
3169.4035553774
 30
0.0
 10
1172.2459512306
 20
3170.2726870341
 30
0.0
 10
1186.4243593042
 20
3174.1378064357
 30
0.0
 10
1199.4097731972
 20
3180.2964246057
 30
0.0
 10
1207.1160897622
 20
3185.7216315674
 30
0.0
 10
1210.6110053205
 20
3188.6429682599
 30
0.0
  0
SPLINE
  5
597
100
AcDbEntity
  8
3_AXES_OTHER
100
AcDbSpline
 62
9
  6
CONTINUOUS
 70
0
 71
3
 72
9
 73
5
 74
0
 42
0.0000001
 43
0.0000001
 44
0.0000000001
 40
0.0
 40
0.0
 40
0.0
 40
0.0
 40
0.2381286368
 40
1.0
 40
1.0
 40
1.0
 40
1.0
 10
1210.6104604743
 20
3188.6437391116
 30
0.0
 10
1213.2739800039
 20
3182.6432480877
 30
0.0
 10
1225.2638140809
 20
3157.802822089
 30
0.0
 10
1240.2780969503
 20
3134.4799463114
 30
0.0
 10
1252.8271980851
 20
3117.6364333621
 30
0.0
  0
SPLINE
  5
598
100
AcDbEntity
  8
3_AXES_OTHER
100
AcDbSpline
 62
9
  6
CONTINUOUS
 70
0
 71
3
 72
11
 73
7
 74
0
 42
0.0000001
 43
0.0000001
 44
0.0000000001
 40
0.0
 40
0.0
 40
0.0
 40
0.0
 40
0.2238583699
 40
0.4642961155
 40
0.7226505665
 40
1.0
 40
1.0
 40
1.0
 40
1.0
 10
1252.8271980851
 20
3117.6364333621
 30
0.0
 10
1261.5250365719
 20
3105.962118715
 30
0.0
 10
1280.7224865123
 20
3082.5983122141
 30
0.0
 10
1313.3821883745
 20
3048.7497083286
 30
0.0
 10
1350.87418217
 20
3014.9038379934
 30
0.0
 10
1378.0983579949
 20
2993.132048768
 30
0.0
 10
1392.4625145644
 20
2982.2232616405
 30
0.0
  0
SPLINE
  5
599
100
AcDbEntity
  8
0
100
AcDbSpline
 62
7
  6
CONTINUOUS
 70
0
 71
3
 72
17
 73
13
 74
0
 42
0.0000001
 43
0.0000001
 44
0.0000000001
 40
0.0
 40
0.0
 40
0.0
 40
0.0
 40
0.1249991687
 40
0.1875594338
 40
0.2501229779
 40
0.3750886059
 40
0.5000376267
 40
0.5626055733
 40
0.6251746246
 40
0.7501080396
 40
0.8750442911
 40
1.0
 40
1.0
 40
1.0
 40
1.0
 10
1503.3907611598
 20
3115.9774224892
 30
0.0
 10
1504.3835343067
 20
3107.8279026362
 30
0.0
 10
1504.7839504819
 20
3095.426066578
 30
0.0
 10
1503.0197087141
 20
3079.0747825942
 30
0.0
 10
1499.7000271552
 20
3062.9645679663
 30
0.0
 10
1492.5565151388
 20
3043.5655756832
 30
0.0
 10
1481.5147388751
 20
3026.0597688969
 30
0.0
 10
1470.5296951009
 20
3013.8055544222
 30
0.0
 10
1458.2391057617
 20
3002.866373721
 30
0.0
 10
1440.6467335698
 20
2991.9219170203
 30
0.0
 10
1417.1415924004
 20
2983.9590198812
 30
0.0
 10
1400.6694278763
 20
2982.2232616405
 30
0.0
 10
1392.4625153695
 20
2982.2232616405
 30
0.0
  0
SPLINE
  5
59A
100
AcDbEntity
  8
0
100
AcDbSpline
 62
7
  6
CONTINUOUS
 70
0
 71
3
 72
10
 73
6
 74
0
 42
0.0000001
 43
0.0000001
 44
0.0000000001
 40
0.0
 40
0.0
 40
0.0
 40
0.0
 40
0.4999983502
 40
0.7499991296
 40
1.0
 40
1.0
 40
1.0
 40
1.0
 10
1478.4190264025
 20
3332.823903443
 30
0.0
 10
1482.1578652507
 20
3296.6362923563
 30
0.0
 10
1488.1828513414
 20
3242.397335035
 30
0.0
 10
1496.8013649163
 20
3170.148892726
 30
0.0
 10
1501.1910900745
 20
3134.034179198
 30
0.0
 10
1503.3907611598
 20
3115.9774224892
 30
0.0
  0
SPLINE
  5
59B
100
AcDbEntity
  8
0
100
AcDbSpline
 62
7
  6
CONTINUOUS
 70
0
 71
3
 72
15
 73
11
 74
0
 42
0.0000001
 43
0.0000001
 44
0.0000000001
 40
0.0
 40
0.0
 40
0.0
 40
0.0
 40
0.1249991583
 40
0.2500017707
 40
0.3750125288
 40
0.5000231118
 40
0.6250303802
 40
0.7500321126
 40
0.8750200731
 40
1.0
 40
1.0
 40
1.0
 40
1.0
 10
1349.0632459
 20
3444.4686658848
 30
0.0
 10
1356.8426958905
 20
3444.6098596152
 30
0.0
 10
1372.4646099848
 20
3443.3685337452
 30
0.0
 10
1395.1248990193
 20
3437.2760365445
 30
0.0
 10
1416.3281852233
 20
3427.2239168281
 30
0.0
 10
1435.4848230447
 20
3413.6719908735
 30
0.0
 10
1451.8971674685
 20
3396.8970417458
 30
0.0
 10
1465.082157566
 20
3377.4751419255
 30
0.0
 10
1474.366037996
 20
3355.9095814553
 30
0.0
 10
1477.6195148657
 20
3340.5622451391
 30
0.0
 10
1478.4190264025
 20
3332.823903443
 30
0.0
  0
SPLINE
  5
59C
100
AcDbEntity
  8
0
100
AcDbSpline
 62
7
  6
CONTINUOUS
 70
0
 71
3
 72
10
 73
6
 74
0
 42
0.0000001
 43
0.0000001
 44
0.0000000001
 40
0.0
 40
0.0
 40
0.0
 40
0.0
 40
0.2500000839
 40
0.5000001876
 40
1.0
 40
1.0
 40
1.0
 40
1.0
 10
1157.5483432948
 20
3442.4533132788
 30
0.0
 10
1173.5090222428
 20
3442.4533132788
 30
0.0
 10
1205.4304746301
 20
3442.5428905136
 30
0.0
 10
1269.2710339966
 20
3443.1041211676
 30
0.0
 10
1317.1471669506
 20
3443.8894025365
 30
0.0
 10
1349.0632459
 20
3444.4686658848
 30
0.0
  0
SPLINE
  5
59D
100
AcDbEntity
  8
0
100
AcDbSpline
 62
7
  6
CONTINUOUS
 70
0
 71
3
 72
10
 73
6
 74
0
 42
0.0000001
 43
0.0000001
 44
0.0000000001
 40
0.0
 40
0.0
 40
0.0
 40
0.0
 40
0.4999998124
 40
0.7499999161
 40
1.0
 40
1.0
 40
1.0
 40
1.0
 10
966.0334399445
 20
3444.4686658979
 30
0.0
 10
997.9495190177
 20
3443.8894025473
 30
0.0
 10
1045.8256521592
 20
3443.1041211773
 30
0.0
 10
1109.666211774
 20
3442.5428905106
 30
0.0
 10
1141.5876642859
 20
3442.4533132788
 30
0.0
 10
1157.5483432948
 20
3442.4533132788
 30
0.0
  0
SPLINE
  5
59E
100
AcDbEntity
  8
0
100
AcDbSpline
 62
7
  6
CONTINUOUS
 70
0
 71
3
 72
15
 73
11
 74
0
 42
0.0000001
 43
0.0000001
 44
0.0000000001
 40
0.0
 40
0.0
 40
0.0
 40
0.0
 40
0.12498037
 40
0.2499687809
 40
0.3749705892
 40
0.4999774839
 40
0.6249875466
 40
0.7499981336
 40
0.8750008785
 40
1.0
 40
1.0
 40
1.0
 40
1.0
 10
836.6776603067
 20
3332.8239045821
 30
0.0
 10
837.4771758245
 20
3340.5622735046
 30
0.0
 10
840.7306492896
 20
3355.9096701361
 30
0.0
 10
850.0146132392
 20
3377.4752616722
 30
0.0
 10
863.1996080451
 20
3396.8971667808
 30
0.0
 10
879.6119432665
 20
3413.672056199
 30
0.0
 10
898.7685408983
 20
3427.2239184049
 30
0.0
 10
919.9717876614
 20
3437.2760366917
 30
0.0
 10
942.6320725149
 20
3443.3685355735
 30
0.0
 10
958.2539923335
 20
3444.6098595852
 30
0.0
 10
966.0334399445
 20
3444.4686658979
 30
0.0
  0
SPLINE
  5
59F
100
AcDbEntity
  8
0
100
AcDbSpline
 62
7
  6
CONTINUOUS
 70
0
 71
3
 72
10
 73
6
 74
0
 42
0.0000001
 43
0.0000001
 44
0.0000000001
 40
0.0
 40
0.0
 40
0.0
 40
0.0
 40
0.2500008706
 40
0.5000016501
 40
1.0
 40
1.0
 40
1.0
 40
1.0
 10
811.7059254894
 20
3115.9774229808
 30
0.0
 10
813.9055971691
 20
3134.0341796816
 30
0.0
 10
818.2953227149
 20
3170.1488932939
 30
0.0
 10
826.9138384206
 20
3242.3973356
 30
0.0
 10
832.9388160454
 20
3296.636293968
 30
0.0
 10
836.6776603067
 20
3332.8239045821
 30
0.0
  0
SPLINE
  5
5A0
100
AcDbEntity
  8
0
100
AcDbSpline
 62
7
  6
CONTINUOUS
 70
0
 71
3
 72
17
 73
13
 74
0
 42
0.0000001
 43
0.0000001
 44
0.0000000001
 40
0.0
 40
0.0
 40
0.0
 40
0.0
 40
0.1249557339
 40
0.2498920386
 40
0.3748256658
 40
0.4373948875
 40
0.4999630665
 40
0.6249124258
 40
0.7498779169
 40
0.8124412161
 40
0.8750012593
 40
1.0
 40
1.0
 40
1.0
 40
1.0
 10
922.6341712122
 20
2982.2232616405
 30
0.0
 10
914.4272570505
 20
2982.2232616405
 30
0.0
 10
897.9550865189
 20
2983.9590187598
 30
0.0
 10
874.4499308093
 20
2991.9219289266
 30
0.0
 10
856.8575285637
 20
3002.8663965139
 30
0.0
 10
844.5669298142
 20
3013.8056276259
 30
0.0
 10
833.5818562068
 20
3026.059880252
 30
0.0
 10
822.5400926131
 20
3043.5657330651
 30
0.0
 10
815.3966196927
 20
3062.964733242
 30
0.0
 10
812.0769451508
 20
3079.0749094813
 30
0.0
 10
810.3127546158
 20
3095.4261398003
 30
0.0
 10
810.7131554754
 20
3107.8279310507
 30
0.0
 10
811.7059254894
 20
3115.9774229808
 30
0.0
  0
SPLINE
  5
5A1
100
AcDbEntity
  8
3_AXES_OTHER
100
AcDbSpline
 62
9
  6
CONTINUOUS
 70
0
 71
3
 72
9
 73
5
 74
0
 42
0.0000001
 43
0.0000001
 44
0.0000000001
 40
0.0
 40
0.0
 40
0.0
 40
0.0
 40
0.475811529
 40
1.0
 40
1.0
 40
1.0
 40
1.0
 10
1002.6337355405
 20
3195.607032843
 30
0.0
 10
971.9628603342
 20
3183.9443577924
 30
0.0
 10
907.9488869594
 20
3158.254106044
 30
0.0
 10
844.6946697512
 20
3130.7604978032
 30
0.0
 10
811.7059250895
 20
3115.9774196925
 30
0.0
  0
SPLINE
  5
5A2
100
AcDbEntity
  8
3_AXES_OTHER
100
AcDbSpline
 62
7
  6
CONTINUOUS
 70
0
 71
3
 72
11
 73
7
 74
0
 42
0.0000001
 43
0.0000001
 44
0.0000000001
 40
0.0
 40
0.0
 40
0.0
 40
0.0
 40
0.2375479838
 40
0.4888756435
 40
0.7457725807
 40
1.0
 40
1.0
 40
1.0
 40
1.0
 10
1104.4856814686
 20
3188.6429685174
 30
0.0
 10
1107.9805970018
 20
3185.7216318171
 30
0.0
 10
1115.686913527
 20
3180.296424844
 30
0.0
 10
1128.6723273719
 20
3174.1378066653
 30
0.0
 10
1142.8507354019
 20
3170.272687259
 30
0.0
 10
1152.6734413319
 20
3169.4035556004
 30
0.0
 10
1157.5483432947
 20
3169.4035556004
 30
0.0
  0
SPLINE
  5
5A3
100
AcDbEntity
  8
3_AXES_OTHER
100
AcDbSpline
 62
9
  6
CONTINUOUS
 70
0
 71
3
 72
9
 73
5
 74
0
 42
0.0000001
 43
0.0000001
 44
0.0000000001
 40
0.0
 40
0.0
 40
0.0
 40
0.0
 40
0.240109831
 40
1.0
 40
1.0
 40
1.0
 40
1.0
 10
1079.9767174488
 20
3279.7663969731
 30
0.0
 10
1073.4026853623
 20
3280.4678673104
 30
0.0
 10
1046.0573628182
 20
3283.704929046
 30
0.0
 10
1018.8599241773
 20
3288.1454529713
 30
0.0
 10
998.3057295494
 20
3292.0584286296
 30
0.0
  0
SPLINE
  5
5A4
100
AcDbEntity
  8
3_AXES_OTHER
100
AcDbSpline
 62
9
  6
CONTINUOUS
 70
0
 71
3
 72
9
 73
5
 74
0
 42
0.0000001
 43
0.0000001
 44
0.0000000001
 40
0.0
 40
0.0
 40
0.0
 40
0.0
 40
0.478370495
 40
1.0
 40
1.0
 40
1.0
 40
1.0
 10
998.3057295494
 20
3292.0584286296
 30
0.0
 10
972.1853639961
 20
3297.0310561854
 30
0.0
 10
917.9231692504
 20
3309.2506127992
 30
0.0
 10
864.4053649382
 20
3324.3489782056
 30
0.0
 10
836.6776612678
 20
3332.8239137581
 30
0.0
  0
SPLINE
  5
5A5
100
AcDbEntity
  8
3_AXES_OTHER
100
AcDbSpline
 62
9
  6
CONTINUOUS
 70
0
 71
3
 72
13
 73
9
 74
0
 42
0.0000001
 43
0.0000001
 44
0.0000000001
 40
0.0
 40
0.0
 40
0.0
 40
0.0
 40
0.2030346921
 40
0.3153965258
 40
0.4355401793
 40
0.5638142888
 40
0.7005052936
 40
1.0
 40
1.0
 40
1.0
 40
1.0
 10
1104.4862261151
 20
3314.6364051547
 30
0.0
 10
1097.714310317
 20
3325.653000726
 30
0.0
 10
1085.6321215182
 20
3341.8255167748
 30
0.0
 10
1067.0068116419
 20
3362.3886301068
 30
0.0
 10
1050.6209107584
 20
3378.5178116431
 30
0.0
 10
1032.2945928279
 20
3394.8329003646
 30
0.0
 10
1004.4074882781
 20
3417.5361077397
 30
0.0
 10
981.8299185125
 20
3433.7759911074
 30
0.0
 10
966.033433539
 20
3444.4686660107
 30
0.0
  0
LINE
  5
5A6
100
AcDbEntity
  8
3_AXES_OTHER
100
AcDbLine
 62
7
  6
CONTINUOUS
 10
1239.6818898093
 20
3243.3993998926
 11
1239.6648163895
 21
3243.2320647279
  0
SPLINE
  5
5A7
100
AcDbEntity
  8
3_AXES_OTHER
100
AcDbSpline
 62
9
  6
CONTINUOUS
 70
0
 71
3
 72
9
 73
5
 74
0
 42
0.0000001
 43
0.0000001
 44
0.0000000001
 40
0.0
 40
0.0
 40
0.0
 40
0.0
 40
0.2381286368
 40
1.0
 40
1.0
 40
1.0
 40
1.0
 10
1104.4862261151
 20
3188.6437391117
 30
0.0
 10
1101.8227065856
 20
3182.6432480877
 30
0.0
 10
1089.8328725085
 20
3157.802822089
 30
0.0
 10
1074.8185896391
 20
3134.4799463114
 30
0.0
 10
1062.2694885044
 20
3117.6364333621
 30
0.0
  0
SPLINE
  5
5A8
100
AcDbEntity
  8
3_AXES_OTHER
100
AcDbSpline
 62
9
  6
CONTINUOUS
 70
0
 71
3
 72
11
 73
7
 74
0
 42
0.0000001
 43
0.0000001
 44
0.0000000001
 40
0.0
 40
0.0
 40
0.0
 40
0.0
 40
0.2238583699
 40
0.4642961155
 40
0.7226505665
 40
1.0
 40
1.0
 40
1.0
 40
1.0
 10
1062.2694885044
 20
3117.6364333621
 30
0.0
 10
1053.5716500172
 20
3105.9621187146
 30
0.0
 10
1034.3742000762
 20
3082.5983122129
 30
0.0
 10
1001.7144982126
 20
3048.7497083263
 30
0.0
 10
964.2225044154
 20
3014.90383799
 30
0.0
 10
936.9983285893
 20
2993.1320487639
 30
0.0
 10
922.6341720192
 20
2982.223261636
 30
0.0
  0
SPLINE
  5
5A9
100
AcDbEntity
  8
3_AXES_OTHER
100
AcDbSpline
 62
9
  6
CONTINUOUS
 70
0
 71
3
 72
13
 73
9
 74
0
 42
0.0000001
 43
0.0000001
 44
0.0000000001
 40
0.0
 40
0.0
 40
0.0
 40
0.0
 40
0.2030346921
 40
0.3153965258
 40
0.4355401792
 40
0.5638142888
 40
0.7005052936
 40
1.0
 40
1.0
 40
1.0
 40
1.0
 10
1210.6104604743
 20
3314.6364051547
 30
0.0
 10
1217.3823762738
 20
3325.6530007283
 30
0.0
 10
1229.4645650756
 20
3341.8255167804
 30
0.0
 10
1248.0898749566
 20
3362.3886301164
 30
0.0
 10
1264.4757758447
 20
3378.5178116559
 30
0.0
 10
1282.8020937805
 20
3394.8329003808
 30
0.0
 10
1310.6891983388
 20
3417.5361077607
 30
0.0
 10
1333.2667681113
 20
3433.7759911318
 30
0.0
 10
1349.0632530897
 20
3444.4686660373
 30
0.0
  0
ENDSEC
  0
SECTION
  2
OBJECTS
  0
DICTIONARY
  5
C
100
AcDbDictionary
280
0
281
1
  3
ACAD_GROUP
350
D
  3
ACAD_MLINESTYLE
350
17
  3
ACAD_LAYOUT
350
1A
  3
ACAD_PLOTSETTINGS
350
19
  3
ACAD_PLOTSTYLENAME
350
E
  0
DICTIONARY
  5
D
102
{ACAD_REACTORS
330
C
102
}
100
AcDbDictionary
280
0
281
1
  0
ACDBDICTIONARYWDFLT
  5
E
102
{ACAD_REACTORS
330
C
102
}
100
AcDbDictionary
281
1
  3
Normal
350
F
100
AcDbDictionaryWithDefault
340
F
  0
DICTIONARY
  5
17
102
{ACAD_REACTORS
330
C
102
}
100
AcDbDictionary
280
0
281
1
  3
Standard
350
18
  0
DICTIONARY
  5
19
102
{ACAD_REACTORS
330
C
102
}
100
AcDbDictionary
281
1
  0
DICTIONARY
  5
1A
102
{ACAD_REACTORS
330
C
102
}
100
AcDbDictionary
281
1
  3
Model
350
5AA
  3
Layout1
350
5AB
  0
ACDBPLACEHOLDER
  5
F
102
{ACAD_REACTORS
330
E
102
}
  0
MLINESTYLE
  5
18
102
{ACAD_REACTORS
330
17
102
}
100
AcDbMlineStyle
  2
STANDARD
 70
0
  3

 62
256
 51
90.0
 52
90.0
 71
2
 49
0.5
 62
256
  6
BYLAYER
 49
-0.5
 62
256
  6
BYLAYER
  0
LAYOUT
  5
5AA
102
{ACAD_REACTORS
330
1A
102
}
100
AcDbPlotSettings
  1

  2
none_device
  4

  6

 40
0.0
 41
0.0
 42
0.0
 43
0.0
 44
431.8
 45
279.4
 46
0.0
 47
0.0
 48
0.0
 49
0.0
140
0.0
141
0.0
142
1.0
143
1.0
 70
1024
 72
1
 73
0
 74
0
  7

 75
0
147
1.0
148
0.0
149
0.0
100
AcDbLayout
  1
Model
 70
0
 71
0
 10
0.0
 20
0.0
 11
431.8
 21
279.4
 12
0.0
 22
0.0
 32
0.0
 14
0.0
 24
0.0
 34
0.0
 15
0.0
 25
0.0
 35
0.0
146
0.0
 13
0.0
 23
0.0
 33
0.0
 16
1.0
 26
0.0
 36
0.0
 17
0.0
 27
1.0
 37
0.0
 76
0
330
213
345
0
346
0
  0
LAYOUT
  5
5AB
102
{ACAD_REACTORS
330
1A
102
}
100
AcDbPlotSettings
  1

  2
none_device
  4

  6

 40
0.0
 41
0.0
 42
0.0
 43
0.0
 44
431.8
 45
279.4
 46
0.0
 47
0.0
 48
0.0
 49
0.0
140
0.0
141
0.0
142
1.0
143
1.0
 70
0
 72
1
 73
0
 74
0
  7

 75
0
147
1.0
148
0.0
149
0.0
100
AcDbLayout
  1
Layout1
 70
0
 71
1
 10
0.0
 20
0.0
 11
431.8
 21
279.4
 12
0.0
 22
0.0
 32
0.0
 14
0.0
 24
0.0
 34
0.0
 15
0.0
 25
0.0
 35
0.0
146
0.0
 13
0.0
 23
0.0
 33
0.0
 16
1.0
 26
0.0
 36
0.0
 17
0.0
 27
1.0
 37
0.0
 76
0
330
214
345
0
346
0
  0
ENDSEC
  0
EOF
