999
DXF file: fg-015230-2d-B.dxf
999
Pro/ENGINEER 2016130 by Parametric Technology Corporation
  0
SECTION
  2
HEADER
  9
$ACADVER
  1
AC1015
  9
$DWGCODEPAGE
  3
ANSI_1252
  9
$EXTMAX
 10
180.8510638298
 20
117.0212765957
 30
0.0
  9
$EXTMIN
 10
0.0
 20
0.0
 30
0.0
  9
$LIMMIN
 10
0.0
 20
0.0
  9
$LIMMAX
 10
180.8510638298
 20
117.0212765957
  9
$VIEWCTR
 10
90.4255319149
 20
58.5106382979
  9
$VIEWSIZE
 40
117.0212765957
  9
$CLAYER
  8
0
  9
$LTSCALE
 40
9.9468085106
  9
$CELTYPE
  6
BYLAYER
  9
$DIMSCALE
 40
1.0
  9
$DIMASZ
 40
1.9946808511
  9
$DIMEXO
 40
0.0625
  9
$DIMDLI
 40
6.8723404255
  9
$DIMEXE
 40
0.125
  9
$DIMCEN
 40
1.6276595745
  9
$DIMLFAC
 40
1.0
  9
$DIMBLK
  1
_FILLED
  9
$DIMALT
 70
0
  9
$DIMALTF
 40
25.4
  9
$DIMTXT
 40
1.6622340426
  9
$DIMTOL
 70
1
  9
$DIMLIM
 70
0
  9
$DIMTFAC
 40
1.0
  9
$DIMTP
 40
0.01
  9
$DIMTM
 40
0.01
  9
$DIMGAP
 40
0.09
  9
$DIMDSEP
 70
46
  9
$AUNITS
 70
0
  9
$PDMODE
 70
3
  9
$PDSIZE
 40
0.3125
  9
$HANDSEED
  5
6F9
  9
$TILEMODE
 70
1
  9
$MEASUREMENT
 70
0
  9
$INSUNITS
 70
1
  0
ENDSEC
  0
SECTION
  2
CLASSES
  0
CLASS
  1
ACDBDICTIONARYWDFLT
  2
AcDbDictionaryWithDefault
  3
AutoCAD 2000
 90
0
280
0
281
0
  0
CLASS
  1
ACDBPLACEHOLDER
  2
AcDbPlaceHolder
  3
AutoCAD 2000
 90
0
280
0
281
0
  0
CLASS
  1
LAYOUT
  2
AcDbLayout
  3
AutoCAD 2000
 90
0
280
0
281
0
  0
ENDSEC
  0
SECTION
  2
TABLES
  0
TABLE
  2
VPORT
  5
8
100
AcDbSymbolTable
 70
2
  0
VPORT
  5
1F4
100
AcDbSymbolTableRecord
100
AcDbViewportTableRecord
  2
*ACTIVE
 70
0
 10
0.0
 20
0.0
 11
1.0
 21
1.0
 12
90.4255319149
 22
58.5106382979
 13
0.0
 23
0.0
 14
1.0
 24
1.0
 15
0.0
 25
0.0
 16
0.0
 26
0.0
 36
1.0
 17
0.0
 27
0.0
 37
0.0
 40
117.0212765957
 41
1.5454545455
 42
50.0
 43
0.0
 44
0.0
 50
0.0
 51
0.0
 71
0
 72
100
 73
1
 74
1
 75
0
 76
0
 77
0
 78
0
  0
ENDTAB
  0
TABLE
  2
LTYPE
  5
5
100
AcDbSymbolTable
 70
6
  0
LTYPE
  5
14
100
AcDbSymbolTableRecord
100
AcDbLinetypeTableRecord
  2
BYBLOCK
 70
0
  3

 72
65
 73
0
 40
0.0
  0
LTYPE
  5
15
100
AcDbSymbolTableRecord
100
AcDbLinetypeTableRecord
  2
BYLAYER
 70
0
  3

 72
65
 73
0
 40
0.0
  0
LTYPE
  5
16
100
AcDbSymbolTableRecord
100
AcDbLinetypeTableRecord
  2
CONTINUOUS
 70
64
  3
Solid line
 72
65
 73
0
 40
0.0
  0
LTYPE
  5
1F5
100
AcDbSymbolTableRecord
100
AcDbLinetypeTableRecord
  2
CENTER
 70
64
  3
____ _ ____ _ ____ _ ____ _ ____ _ ____ _ ____
 72
65
 73
4
 40
0.6
 49
0.375
 74
0
 49
-0.075
 74
0
 49
0.075
 74
0
 49
-0.075
 74
0
  0
LTYPE
  5
1F6
100
AcDbSymbolTableRecord
100
AcDbLinetypeTableRecord
  2
HIDDEN
 70
64
  3
- - - - - - - - - - - - - - - - - - - -
 72
65
 73
2
 40
0.2
 49
0.1
 74
0
 49
-0.1
 74
0
  0
LTYPE
  5
1F7
100
AcDbSymbolTableRecord
100
AcDbLinetypeTableRecord
  2
PHANTOM
 70
64
  3
_____ _ _ _____ _ _ _____ _ _ _____
 72
65
 73
6
 40
0.8
 49
0.45
 74
0
 49
-0.05
 74
0
 49
0.1
 74
0
 49
-0.05
 74
0
 49
0.1
 74
0
 49
-0.05
 74
0
  0
LTYPE
  5
1F8
100
AcDbSymbolTableRecord
100
AcDbLinetypeTableRecord
  2
DOT
 70
64
  3
. . . . . . . . . . . . . . . . . . . .
 72
65
 73
2
 40
0.2
 49
0.1
 74
0
 49
-0.1
 74
0
  0
LTYPE
  5
1F9
100
AcDbSymbolTableRecord
100
AcDbLinetypeTableRecord
  2
DASHED
 70
64
  3
- - - - - - - - - - - - - - - - - - - -
 72
65
 73
2
 40
0.2
 49
0.1
 74
0
 49
-0.1
 74
0
  0
ENDTAB
  0
TABLE
  2
LAYER
  5
2
100
AcDbSymbolTable
 70
36
  0
LAYER
  5
10
100
AcDbSymbolTableRecord
100
AcDbLayerTableRecord
  2
0
 70
0
 62
7
  6
CONTINUOUS
370
-3
390
F
  0
LAYER
  5
1FA
100
AcDbSymbolTableRecord
100
AcDbLayerTableRecord
  2
DEFAULT_1
 70
0
 62
7
  6
CENTER
370
-3
390
F
  0
LAYER
  5
1FB
100
AcDbSymbolTableRecord
100
AcDbLayerTableRecord
  2
DEFAULT_2
 70
0
 62
8
  6
HIDDEN
370
-3
390
F
  0
LAYER
  5
1FC
100
AcDbSymbolTableRecord
100
AcDbLayerTableRecord
  2
DEFAULT_3
 70
0
 62
7
  6
PHANTOM
370
-3
390
F
  0
LAYER
  5
1FD
100
AcDbSymbolTableRecord
100
AcDbLayerTableRecord
  2
0_SNAPLINES
 70
0
 62
7
  6
CONTINUOUS
370
-3
390
F
  0
LAYER
  5
1FE
100
AcDbSymbolTableRecord
100
AcDbLayerTableRecord
  2
1_ALL_PLANES
 70
0
 62
7
  6
CONTINUOUS
370
-3
390
F
  0
LAYER
  5
1FF
100
AcDbSymbolTableRecord
100
AcDbLayerTableRecord
  2
1__DEF_PLANES
 70
0
 62
7
  6
CONTINUOUS
370
-3
390
F
  0
LAYER
  5
200
100
AcDbSymbolTableRecord
100
AcDbLayerTableRecord
  2
2_ALL_CSYS
 70
0
 62
7
  6
CONTINUOUS
370
-3
390
F
  0
LAYER
  5
201
100
AcDbSymbolTableRecord
100
AcDbLayerTableRecord
  2
2__DEF_CSYS
 70
0
 62
7
  6
CONTINUOUS
370
-3
390
F
  0
LAYER
  5
202
100
AcDbSymbolTableRecord
100
AcDbLayerTableRecord
  2
3_ALL_AXES
 70
0
 62
7
  6
CONTINUOUS
370
-3
390
F
  0
LAYER
  5
203
100
AcDbSymbolTableRecord
100
AcDbLayerTableRecord
  2
3_AXES_OTHER
 70
0
 62
7
  6
CONTINUOUS
370
-3
390
F
  0
LAYER
  5
204
100
AcDbSymbolTableRecord
100
AcDbLayerTableRecord
  2
3_HOLES
 70
0
 62
7
  6
CONTINUOUS
370
-3
390
F
  0
LAYER
  5
205
100
AcDbSymbolTableRecord
100
AcDbLayerTableRecord
  2
4_ALL_POINTS
 70
0
 62
7
  6
CONTINUOUS
370
-3
390
F
  0
LAYER
  5
206
100
AcDbSymbolTableRecord
100
AcDbLayerTableRecord
  2
5_ALL_CURVES
 70
0
 62
7
  6
CONTINUOUS
370
-3
390
F
  0
LAYER
  5
207
100
AcDbSymbolTableRecord
100
AcDbLayerTableRecord
  2
6_ALL_SURFS
 70
0
 62
7
  6
CONTINUOUS
370
-3
390
F
  0
LAYER
  5
208
100
AcDbSymbolTableRecord
100
AcDbLayerTableRecord
  2
6_COPYGEOM
 70
0
 62
7
  6
CONTINUOUS
370
-3
390
F
  0
LAYER
  5
209
100
AcDbSymbolTableRecord
100
AcDbLayerTableRecord
  2
7_ALL_ROUNDS
 70
0
 62
7
  6
CONTINUOUS
370
-3
390
F
  0
LAYER
  5
20A
100
AcDbSymbolTableRecord
100
AcDbLayerTableRecord
  2
7_MERGES
 70
0
 62
7
  6
CONTINUOUS
370
-3
390
F
  0
LAYER
  5
20B
100
AcDbSymbolTableRecord
100
AcDbLayerTableRecord
  2
8_GDT
 70
0
 62
7
  6
CONTINUOUS
370
-3
390
F
  0
LAYER
  5
20C
100
AcDbSymbolTableRecord
100
AcDbLayerTableRecord
  2
8_SET_DATUMS
 70
0
 62
7
  6
CONTINUOUS
370
-3
390
F
  0
LAYER
  5
20D
100
AcDbSymbolTableRecord
100
AcDbLayerTableRecord
  2
9_COSMETICS
 70
0
 62
7
  6
CONTINUOUS
370
-3
390
F
  0
LAYER
  5
20E
100
AcDbSymbolTableRecord
100
AcDbLayerTableRecord
  2
9_THREADS
 70
0
 62
7
  6
CONTINUOUS
370
-3
390
F
  0
ENDTAB
  0
TABLE
  2
STYLE
  5
3
100
AcDbSymbolTable
 70
1
  0
STYLE
  5
11
100
AcDbSymbolTableRecord
100
AcDbTextStyleTableRecord
  2
STANDARD
 70
0
 40
0.0
 41
0.8
 50
0.0
 71
0
 42
0.2
  3
txt
  4

  0
STYLE
  5
20F
100
AcDbSymbolTableRecord
100
AcDbTextStyleTableRecord
  2
TEXTSTYLE_1
 70
0
 40
0.0
 41
0.8
 50
0.0
 71
0
 42
0.2
  3
gdt
  4

  0
ENDTAB
  0
TABLE
  2
VIEW
  5
6
100
AcDbSymbolTable
 70
0
  0
ENDTAB
  0
TABLE
  2
UCS
  5
7
100
AcDbSymbolTable
 70
0
  0
ENDTAB
  0
TABLE
  2
APPID
  5
9
100
AcDbSymbolTable
 70
1
  0
APPID
  5
210
100
AcDbSymbolTableRecord
100
AcDbRegAppTableRecord
  2
ACAD
 70
0
  0
ENDTAB
  0
TABLE
  2
BLOCK_RECORD
  5
1
100
AcDbSymbolTable
 70
0
  0
BLOCK_RECORD
  5
211
100
AcDbSymbolTableRecord
100
AcDbBlockTableRecord
  2
*Model_Space
  0
BLOCK_RECORD
  5
212
100
AcDbSymbolTableRecord
100
AcDbBlockTableRecord
  2
*Paper_Space
  0
BLOCK_RECORD
  5
213
100
AcDbSymbolTableRecord
100
AcDbBlockTableRecord
  2
_FILLED
  0
BLOCK_RECORD
  5
214
100
AcDbSymbolTableRecord
100
AcDbBlockTableRecord
  2
*D0
  0
BLOCK_RECORD
  5
215
100
AcDbSymbolTableRecord
100
AcDbBlockTableRecord
  2
*D1
  0
BLOCK_RECORD
  5
216
100
AcDbSymbolTableRecord
100
AcDbBlockTableRecord
  2
*D2
  0
BLOCK_RECORD
  5
217
100
AcDbSymbolTableRecord
100
AcDbBlockTableRecord
  2
*D3
  0
BLOCK_RECORD
  5
218
100
AcDbSymbolTableRecord
100
AcDbBlockTableRecord
  2
*D4
  0
BLOCK_RECORD
  5
219
100
AcDbSymbolTableRecord
100
AcDbBlockTableRecord
  2
*D5
  0
BLOCK_RECORD
  5
21A
100
AcDbSymbolTableRecord
100
AcDbBlockTableRecord
  2
*D6
  0
BLOCK_RECORD
  5
21B
100
AcDbSymbolTableRecord
100
AcDbBlockTableRecord
  2
CG_3D_BL3
  0
BLOCK_RECORD
  5
21C
100
AcDbSymbolTableRecord
100
AcDbBlockTableRecord
  2
CG_3D_BL2
  0
BLOCK_RECORD
  5
21D
100
AcDbSymbolTableRecord
100
AcDbBlockTableRecord
  2
CG_3D_BL1
  0
BLOCK_RECORD
  5
21E
100
AcDbSymbolTableRecord
100
AcDbBlockTableRecord
  2
RD010411_BL0
  0
ENDTAB
  0
TABLE
  2
DIMSTYLE
  5
A
100
AcDbSymbolTable
 70
1
100
AcDbDimStyleTable
 71
0
  0
DIMSTYLE
105
21F
100
AcDbSymbolTableRecord
100
AcDbDimStyleTableRecord
  2
STANDARD
 70
0
  3

  4

 40
1.0
 41
1.9946808511
 42
0.0625
 43
0.38
 44
0.125
 45
0.0
 46
0.0
 47
0.01
 48
0.01
140
1.6622340426
141
0.09
142
0.0
143
25.4
144
1.0
145
0.0
146
1.0
147
0.09
 71
1.0
 72
0.0
 73
1
 74
1
 75
0
 76
0
 77
0
 78
4
170
0
171
2
172
0
173
0
174
0
175
0
176
0
177
0
178
0
270
2
271
3
272
3
273
2
274
2
275
0
280
0
281
0
282
0
283
1
284
4
285
0
286
0
287
3
288
0
340
11
278
46
341
213
342
213
343
213
344
213
  0
DIMSTYLE
105
220
100
AcDbSymbolTableRecord
100
AcDbDimStyleTableRecord
  2
DIMSTYLE_1
 70
0
  3

  4

 40
1.0
 41
1.9946808511
 42
0.0625
 43
0.38
 44
0.125
 45
0.0
 46
0.0
 47
0.01
 48
0.01
140
1.6622340426
141
0.09
142
0.0
143
25.4
144
1.0
145
0.0
146
1.0
147
0.078125
 71
0.0
 72
0.0
 73
1
 74
1
 75
0
 76
0
 77
0
 78
4
170
0
171
2
172
0
173
0
174
0
175
0
176
0
177
0
178
0
270
2
271
0
272
0
273
2
274
2
275
0
280
0
281
0
282
0
283
1
284
4
285
0
286
0
287
3
288
0
340
11
278
46
341
213
342
213
343
213
344
213
  0
DIMSTYLE
105
221
100
AcDbSymbolTableRecord
100
AcDbDimStyleTableRecord
  2
DIMSTYLE_2
 70
0
  3

  4

 40
1.0
 41
1.9946808511
 42
0.0625
 43
0.38
 44
0.125
 45
0.0
 46
0.0
 47
0.01
 48
0.01
140
1.6622340426
141
0.09
142
0.0
143
25.4
144
1.0
145
0.0
146
1.0
147
0.078125
 71
0.0
 72
0.0
 73
1
 74
1
 75
0
 76
0
 77
0
 78
4
170
0
171
2
172
0
173
0
174
0
175
0
176
0
177
0
178
0
270
2
271
1
272
1
273
2
274
2
275
0
280
0
281
0
282
0
283
1
284
4
285
0
286
0
287
3
288
0
340
11
278
46
341
213
342
213
343
213
344
213
  0
ENDTAB
  0
ENDSEC
  0
SECTION
  2
BLOCKS
  0
BLOCK
  5
20
100
AcDbEntity
  8
0
100
AcDbBlockBegin
  2
*Model_Space
 70
0
 10
0.0
 20
0.0
 30
0.0
  3
*Model_Space
  1

  0
ENDBLK
  5
21
100
AcDbEntity
  8
0
100
AcDbBlockEnd
  0
BLOCK
  5
1C
100
AcDbEntity
  8
0
100
AcDbBlockBegin
  2
*Paper_Space
 70
0
 10
0.0
 20
0.0
 30
0.0
  3
*Paper_Space
  1

  0
ENDBLK
  5
1D
100
AcDbEntity
  8
0
100
AcDbBlockEnd
  0
BLOCK
  5
222
100
AcDbEntity
  8
0
100
AcDbBlockBegin
 62
2
  6
CONTINUOUS
  2
CG_3D_BL3
 70
64
 10
101.8073854577
 20
53.0643112773
  3
CG_3D_BL3
  1

  0
ARC
  5
223
100
AcDbEntity
  8
0
100
AcDbCircle
 62
7
  6
CONTINUOUS
 10
101.8073854577
 20
53.0643112773
 40
0.7446808511
100
AcDbArc
 50
90.0
 51
180.0
  0
ARC
  5
224
100
AcDbEntity
  8
0
100
AcDbCircle
 62
7
  6
CONTINUOUS
 10
101.8073854577
 20
53.0643112773
 40
0.7446808511
100
AcDbArc
 50
180.0
 51
270.0
  0
ARC
  5
225
100
AcDbEntity
  8
0
100
AcDbCircle
 62
7
  6
CONTINUOUS
 10
101.8073854577
 20
53.0643112773
 40
0.7446808511
100
AcDbArc
 50
270.0
 51
360.0
  0
ARC
  5
226
100
AcDbEntity
  8
0
100
AcDbCircle
 62
7
  6
CONTINUOUS
 10
101.8073854577
 20
53.0643112773
 40
0.7446808511
100
AcDbArc
 50
0.0
 51
90.0
  0
LINE
  5
227
100
AcDbEntity
  8
0
100
AcDbLine
 62
7
  6
CONTINUOUS
 10
101.8073854577
 20
53.0643112773
 11
102.5520663088
 21
53.0643112773
  0
LINE
  5
228
100
AcDbEntity
  8
0
100
AcDbLine
 62
7
  6
CONTINUOUS
 10
101.8073854577
 20
53.0643112773
 11
101.8073854577
 21
52.3196304262
  0
LINE
  5
229
100
AcDbEntity
  8
0
100
AcDbLine
 62
7
  6
CONTINUOUS
 10
101.0627046066
 20
53.0643112773
 11
101.8073854577
 21
53.0643112773
  0
LINE
  5
22A
100
AcDbEntity
  8
0
100
AcDbLine
 62
7
  6
CONTINUOUS
 10
101.8073854577
 20
53.8089921284
 11
101.8073854577
 21
53.0643112773
  0
LINE
  5
22B
100
AcDbEntity
  8
0
100
AcDbLine
 62
2
  6
CONTINUOUS
 10
101.8073854577
 20
53.0594033395
 11
101.8122933955
 21
53.0643112773
  0
LWPOLYLINE
  5
22C
100
AcDbEntity
  8
0
100
AcDbPolyline
 62
7
  6
CONTINUOUS
 90
8
 70
0
 10
101.8073854577
 20
53.0643112773
 10
101.8073854577
 20
52.3196304262
 10
102.0375044961
 20
52.3560777013
 10
102.2450978796
 20
52.4618518134
 10
102.4098449216
 20
52.6265988554
 10
102.5156190337
 20
52.8341922389
 10
102.5520663088
 20
53.0643112773
 10
101.8073854577
 20
53.0643112773
  0
HATCH
  5
22D
100
AcDbEntity
  8
0
100
AcDbHatch
 62
7
  6
CONTINUOUS
 10
0.0
 20
0.0
 30
0.0
210
0.0
220
0.0
230
1.0
  2
SOLID
 70
1
 71
1
 91
1
 92
1
 93
7
 72
1
 10
101.8073854577
 20
53.0643112773
 11
101.8073854577
 21
52.3196304262
 72
1
 10
101.8073854577
 20
52.3196304262
 11
102.0375044961
 21
52.3560777013
 72
1
 10
102.0375044961
 20
52.3560777013
 11
102.2450978796
 21
52.4618518134
 72
1
 10
102.2450978796
 20
52.4618518134
 11
102.4098449216
 21
52.6265988554
 72
1
 10
102.4098449216
 20
52.6265988554
 11
102.5156190337
 21
52.8341922389
 72
1
 10
102.5156190337
 20
52.8341922389
 11
102.5520663088
 21
53.0643112773
 72
1
 10
102.5520663088
 20
53.0643112773
 11
101.8073854577
 21
53.0643112773
 97
1
330
22C
 75
0
 76
1
 98
1
 10
0.0
 20
0.0
  0
LWPOLYLINE
  5
22E
100
AcDbEntity
  8
0
100
AcDbPolyline
 62
7
  6
CONTINUOUS
 90
8
 70
0
 10
101.8073854577
 20
53.0643112773
 10
101.0627046066
 20
53.0643112773
 10
101.0991518817
 20
53.2944303157
 10
101.2049259938
 20
53.5020236992
 10
101.3696730358
 20
53.6667707412
 10
101.5772664193
 20
53.7725448533
 10
101.8073854577
 20
53.8089921284
 10
101.8073854577
 20
53.0643112773
  0
HATCH
  5
22F
100
AcDbEntity
  8
0
100
AcDbHatch
 62
7
  6
CONTINUOUS
 10
0.0
 20
0.0
 30
0.0
210
0.0
220
0.0
230
1.0
  2
SOLID
 70
1
 71
1
 91
1
 92
1
 93
7
 72
1
 10
101.8073854577
 20
53.0643112773
 11
101.0627046066
 21
53.0643112773
 72
1
 10
101.0627046066
 20
53.0643112773
 11
101.0991518817
 21
53.2944303157
 72
1
 10
101.0991518817
 20
53.2944303157
 11
101.2049259938
 21
53.5020236992
 72
1
 10
101.2049259938
 20
53.5020236992
 11
101.3696730358
 21
53.6667707412
 72
1
 10
101.3696730358
 20
53.6667707412
 11
101.5772664193
 21
53.7725448533
 72
1
 10
101.5772664193
 20
53.7725448533
 11
101.8073854577
 21
53.8089921284
 72
1
 10
101.8073854577
 20
53.8089921284
 11
101.8073854577
 21
53.0643112773
 97
1
330
22E
 75
0
 76
1
 98
1
 10
0.0
 20
0.0
  0
ENDBLK
  5
230
100
AcDbEntity
  8
0
  6
BYBLOCK
 62
0
100
AcDbBlockEnd
  0
BLOCK
  5
231
100
AcDbEntity
  8
0
100
AcDbBlockBegin
 62
2
  6
CONTINUOUS
  2
CG_3D_BL2
 70
64
 10
51.8690874953
 20
53.0556090284
  3
CG_3D_BL2
  1

  0
ARC
  5
232
100
AcDbEntity
  8
0
100
AcDbCircle
 62
7
  6
CONTINUOUS
 10
51.8690874953
 20
53.0556090284
 40
0.7446808511
100
AcDbArc
 50
90.0
 51
180.0
  0
ARC
  5
233
100
AcDbEntity
  8
0
100
AcDbCircle
 62
7
  6
CONTINUOUS
 10
51.8690874953
 20
53.0556090284
 40
0.7446808511
100
AcDbArc
 50
180.0
 51
270.0
  0
ARC
  5
234
100
AcDbEntity
  8
0
100
AcDbCircle
 62
7
  6
CONTINUOUS
 10
51.8690874953
 20
53.0556090284
 40
0.7446808511
100
AcDbArc
 50
270.0
 51
360.0
  0
ARC
  5
235
100
AcDbEntity
  8
0
100
AcDbCircle
 62
7
  6
CONTINUOUS
 10
51.8690874953
 20
53.0556090284
 40
0.7446808511
100
AcDbArc
 50
0.0
 51
90.0
  0
LINE
  5
236
100
AcDbEntity
  8
0
100
AcDbLine
 62
7
  6
CONTINUOUS
 10
51.8690874953
 20
53.0556090284
 11
52.6137683463
 21
53.0556090284
  0
LINE
  5
237
100
AcDbEntity
  8
0
100
AcDbLine
 62
7
  6
CONTINUOUS
 10
51.8690874953
 20
53.0556090284
 11
51.8690874953
 21
52.3109281773
  0
LINE
  5
238
100
AcDbEntity
  8
0
100
AcDbLine
 62
7
  6
CONTINUOUS
 10
51.1244066442
 20
53.0556090284
 11
51.8690874953
 21
53.0556090284
  0
LINE
  5
239
100
AcDbEntity
  8
0
100
AcDbLine
 62
7
  6
CONTINUOUS
 10
51.8690874953
 20
53.8002898795
 11
51.8690874953
 21
53.0556090284
  0
LINE
  5
23A
100
AcDbEntity
  8
0
100
AcDbLine
 62
2
  6
CONTINUOUS
 10
51.8690874953
 20
53.0507010906
 11
51.8739954331
 21
53.0556090284
  0
LWPOLYLINE
  5
23B
100
AcDbEntity
  8
0
100
AcDbPolyline
 62
7
  6
CONTINUOUS
 90
8
 70
0
 10
51.8690874953
 20
53.0556090284
 10
51.8690874953
 20
52.3109281773
 10
52.0992065336
 20
52.3473754524
 10
52.3067999172
 20
52.4531495645
 10
52.4715469592
 20
52.6178966065
 10
52.5773210712
 20
52.82548999
 10
52.6137683463
 20
53.0556090284
 10
51.8690874953
 20
53.0556090284
  0
HATCH
  5
23C
100
AcDbEntity
  8
0
100
AcDbHatch
 62
7
  6
CONTINUOUS
 10
0.0
 20
0.0
 30
0.0
210
0.0
220
0.0
230
1.0
  2
SOLID
 70
1
 71
1
 91
1
 92
1
 93
7
 72
1
 10
51.8690874953
 20
53.0556090284
 11
51.8690874953
 21
52.3109281773
 72
1
 10
51.8690874953
 20
52.3109281773
 11
52.0992065336
 21
52.3473754524
 72
1
 10
52.0992065336
 20
52.3473754524
 11
52.3067999172
 21
52.4531495645
 72
1
 10
52.3067999172
 20
52.4531495645
 11
52.4715469592
 21
52.6178966065
 72
1
 10
52.4715469592
 20
52.6178966065
 11
52.5773210712
 21
52.82548999
 72
1
 10
52.5773210712
 20
52.82548999
 11
52.6137683463
 21
53.0556090284
 72
1
 10
52.6137683463
 20
53.0556090284
 11
51.8690874953
 21
53.0556090284
 97
1
330
23B
 75
0
 76
1
 98
1
 10
0.0
 20
0.0
  0
LWPOLYLINE
  5
23D
100
AcDbEntity
  8
0
100
AcDbPolyline
 62
7
  6
CONTINUOUS
 90
8
 70
0
 10
51.8690874953
 20
53.0556090284
 10
51.1244066442
 20
53.0556090284
 10
51.1608539193
 20
53.2857280668
 10
51.2666280314
 20
53.4933214503
 10
51.4313750734
 20
53.6580684923
 10
51.6389684569
 20
53.7638426044
 10
51.8690874953
 20
53.8002898795
 10
51.8690874953
 20
53.0556090284
  0
HATCH
  5
23E
100
AcDbEntity
  8
0
100
AcDbHatch
 62
7
  6
CONTINUOUS
 10
0.0
 20
0.0
 30
0.0
210
0.0
220
0.0
230
1.0
  2
SOLID
 70
1
 71
1
 91
1
 92
1
 93
7
 72
1
 10
51.8690874953
 20
53.0556090284
 11
51.1244066442
 21
53.0556090284
 72
1
 10
51.1244066442
 20
53.0556090284
 11
51.1608539193
 21
53.2857280668
 72
1
 10
51.1608539193
 20
53.2857280668
 11
51.2666280314
 21
53.4933214503
 72
1
 10
51.2666280314
 20
53.4933214503
 11
51.4313750734
 21
53.6580684923
 72
1
 10
51.4313750734
 20
53.6580684923
 11
51.6389684569
 21
53.7638426044
 72
1
 10
51.6389684569
 20
53.7638426044
 11
51.8690874953
 21
53.8002898795
 72
1
 10
51.8690874953
 20
53.8002898795
 11
51.8690874953
 21
53.0556090284
 97
1
330
23D
 75
0
 76
1
 98
1
 10
0.0
 20
0.0
  0
ENDBLK
  5
23F
100
AcDbEntity
  8
0
  6
BYBLOCK
 62
0
100
AcDbBlockEnd
  0
BLOCK
  5
240
100
AcDbEntity
  8
0
100
AcDbBlockBegin
 62
2
  6
CONTINUOUS
  2
CG_3D_BL1
 70
64
 10
18.8998184507
 20
21.8790477766
  3
CG_3D_BL1
  1

  0
ARC
  5
241
100
AcDbEntity
  8
0
100
AcDbCircle
 62
7
  6
CONTINUOUS
 10
18.8998184507
 20
21.8790477766
 40
1.0
100
AcDbArc
 50
90.0
 51
180.0
  0
ARC
  5
242
100
AcDbEntity
  8
0
100
AcDbCircle
 62
7
  6
CONTINUOUS
 10
18.8998184507
 20
21.8790477766
 40
1.0
100
AcDbArc
 50
180.0
 51
270.0
  0
ARC
  5
243
100
AcDbEntity
  8
0
100
AcDbCircle
 62
7
  6
CONTINUOUS
 10
18.8998184507
 20
21.8790477766
 40
1.0
100
AcDbArc
 50
270.0
 51
360.0
  0
ARC
  5
244
100
AcDbEntity
  8
0
100
AcDbCircle
 62
7
  6
CONTINUOUS
 10
18.8998184507
 20
21.8790477766
 40
1.0
100
AcDbArc
 50
0.0
 51
90.0
  0
LINE
  5
245
100
AcDbEntity
  8
0
100
AcDbLine
 62
7
  6
CONTINUOUS
 10
18.8998184507
 20
21.8790477766
 11
19.8998184507
 21
21.8790477766
  0
LINE
  5
246
100
AcDbEntity
  8
0
100
AcDbLine
 62
7
  6
CONTINUOUS
 10
18.8998184507
 20
21.8790477766
 11
18.8998184507
 21
20.8790477766
  0
LINE
  5
247
100
AcDbEntity
  8
0
100
AcDbLine
 62
7
  6
CONTINUOUS
 10
17.8998184507
 20
21.8790477766
 11
18.8998184507
 21
21.8790477766
  0
LINE
  5
248
100
AcDbEntity
  8
0
100
AcDbLine
 62
7
  6
CONTINUOUS
 10
18.8998184507
 20
22.8790477766
 11
18.8998184507
 21
21.8790477766
  0
LINE
  5
249
100
AcDbEntity
  8
0
100
AcDbLine
 62
2
  6
CONTINUOUS
 10
18.8998184507
 20
21.8724571172
 11
18.9064091101
 21
21.8790477766
  0
LWPOLYLINE
  5
24A
100
AcDbEntity
  8
0
100
AcDbPolyline
 62
7
  6
CONTINUOUS
 90
8
 70
0
 10
18.8998184507
 20
21.8790477766
 10
18.8998184507
 20
20.8790477766
 10
19.2088354451
 20
20.9279912603
 10
19.487603703
 20
21.0700307822
 10
19.7088354451
 20
21.2912625243
 10
19.850874967
 20
21.5700307822
 10
19.8998184507
 20
21.8790477766
 10
18.8998184507
 20
21.8790477766
  0
HATCH
  5
24B
100
AcDbEntity
  8
0
100
AcDbHatch
 62
7
  6
CONTINUOUS
 10
0.0
 20
0.0
 30
0.0
210
0.0
220
0.0
230
1.0
  2
SOLID
 70
1
 71
1
 91
1
 92
1
 93
7
 72
1
 10
18.8998184507
 20
21.8790477766
 11
18.8998184507
 21
20.8790477766
 72
1
 10
18.8998184507
 20
20.8790477766
 11
19.2088354451
 21
20.9279912603
 72
1
 10
19.2088354451
 20
20.9279912603
 11
19.487603703
 21
21.0700307822
 72
1
 10
19.487603703
 20
21.0700307822
 11
19.7088354451
 21
21.2912625243
 72
1
 10
19.7088354451
 20
21.2912625243
 11
19.850874967
 21
21.5700307822
 72
1
 10
19.850874967
 20
21.5700307822
 11
19.8998184507
 21
21.8790477766
 72
1
 10
19.8998184507
 20
21.8790477766
 11
18.8998184507
 21
21.8790477766
 97
1
330
24A
 75
0
 76
1
 98
1
 10
0.0
 20
0.0
  0
LWPOLYLINE
  5
24C
100
AcDbEntity
  8
0
100
AcDbPolyline
 62
7
  6
CONTINUOUS
 90
8
 70
0
 10
18.8998184507
 20
21.8790477766
 10
17.8998184507
 20
21.8790477766
 10
17.9487619344
 20
22.188064771
 10
18.0908014564
 20
22.4668330289
 10
18.3120331984
 20
22.688064771
 10
18.5908014564
 20
22.8301042929
 10
18.8998184507
 20
22.8790477766
 10
18.8998184507
 20
21.8790477766
  0
HATCH
  5
24D
100
AcDbEntity
  8
0
100
AcDbHatch
 62
7
  6
CONTINUOUS
 10
0.0
 20
0.0
 30
0.0
210
0.0
220
0.0
230
1.0
  2
SOLID
 70
1
 71
1
 91
1
 92
1
 93
7
 72
1
 10
18.8998184507
 20
21.8790477766
 11
17.8998184507
 21
21.8790477766
 72
1
 10
17.8998184507
 20
21.8790477766
 11
17.9487619344
 21
22.188064771
 72
1
 10
17.9487619344
 20
22.188064771
 11
18.0908014564
 21
22.4668330289
 72
1
 10
18.0908014564
 20
22.4668330289
 11
18.3120331984
 21
22.688064771
 72
1
 10
18.3120331984
 20
22.688064771
 11
18.5908014564
 21
22.8301042929
 72
1
 10
18.5908014564
 20
22.8301042929
 11
18.8998184507
 21
22.8790477766
 72
1
 10
18.8998184507
 20
22.8790477766
 11
18.8998184507
 21
21.8790477766
 97
1
330
24C
 75
0
 76
1
 98
1
 10
0.0
 20
0.0
  0
ENDBLK
  5
24E
100
AcDbEntity
  8
0
  6
BYBLOCK
 62
0
100
AcDbBlockEnd
  0
BLOCK
  5
24F
100
AcDbEntity
  8
0
100
AcDbBlockBegin
 62
7
  6
CONTINUOUS
  2
RD010411_BL0
 70
64
 10
126.4768116894
 20
28.7352198423
  3
RD010411_BL0
  1

  0
ARC
  5
250
100
AcDbEntity
  8
0
100
AcDbCircle
 62
7
  6
CONTINUOUS
 10
133.4147007282
 20
29.803059816
 40
0.1316118433
100
AcDbArc
 50
270.0
 51
360.0
  0
LINE
  5
251
100
AcDbEntity
  8
0
100
AcDbLine
 62
7
  6
CONTINUOUS
 10
133.5463125715
 20
29.803059816
 11
133.5463125715
 21
30.0663739564
  0
ARC
  5
252
100
AcDbEntity
  8
0
100
AcDbCircle
 62
7
  6
CONTINUOUS
 10
133.4147007282
 20
30.0663739564
 40
0.1316118433
100
AcDbArc
 50
0.0
 51
90.0
  0
LINE
  5
253
100
AcDbEntity
  8
0
100
AcDbLine
 62
7
  6
CONTINUOUS
 10
133.4147007282
 20
30.1979857997
 11
129.8764737897
 21
30.1979857997
  0
SPLINE
  5
254
100
AcDbEntity
  8
0
100
AcDbSpline
 62
7
  6
CONTINUOUS
 70
0
 71
3
 72
13
 73
9
 74
0
 42
0.0000001
 43
0.0000001
 44
0.0000000001
 40
0.0
 40
0.0
 40
0.0
 40
0.0
 40
0.1310616762
 40
0.2699656353
 40
0.4157607805
 40
0.5899807757
 40
0.76586761
 40
0.9948829976
 40
0.9948829976
 40
0.9948829976
 40
0.9948829976
 10
129.8764737897
 20
30.1979857997
 30
0.0
 10
129.8020970395
 20
30.1924461702
 30
0.0
 10
129.6488930909
 20
30.1810354396
 30
0.0
 10
129.4412712309
 20
30.0523811007
 30
0.0
 10
129.2922235114
 20
29.8363936376
 30
0.0
 10
129.1953049833
 20
29.5722885141
 30
0.0
 10
129.1407145511
 20
29.2494422611
 30
0.0
 10
129.1356882483
 20
29.0213134293
 30
0.0
 10
129.1330832328
 20
28.8922652977
 30
0.0
  0
LINE
  5
255
100
AcDbEntity
  8
0
100
AcDbLine
 62
7
  6
CONTINUOUS
 10
129.1330832328
 20
28.8922652977
 11
129.1333142257
 21
28.8722394583
  0
SPLINE
  5
256
100
AcDbEntity
  8
0
100
AcDbSpline
 62
7
  6
CONTINUOUS
 70
0
 71
3
 72
13
 73
9
 74
0
 42
0.0000001
 43
0.0000001
 44
0.0000000001
 40
0.0
 40
0.0
 40
0.0
 40
0.0
 40
0.2222860645
 40
0.3981728988
 40
0.572392894
 40
0.7181880393
 40
0.8570919984
 40
0.9881536746
 40
0.9881536746
 40
0.9881536746
 40
0.9881536746
 10
129.1333142257
 20
28.8722394583
 30
0.0
 10
129.1358679004
 20
28.7469848983
 30
0.0
 10
129.141347762
 20
28.5226891542
 30
0.0
 10
129.1953049387
 20
28.2035852738
 30
0.0
 10
129.292224627
 20
27.939509688
 30
0.0
 10
129.4412676976
 20
27.7234305604
 30
0.0
 10
129.6489054037
 20
27.5950837599
 30
0.0
 10
129.8020720009
 20
27.5829488746
 30
0.0
 10
129.8764737897
 20
27.5774073822
 30
0.0
  0
LINE
  5
257
100
AcDbEntity
  8
0
100
AcDbLine
 62
7
  6
CONTINUOUS
 10
129.8764737897
 20
27.5774073822
 11
133.4149879842
 21
27.5851305494
  0
ARC
  5
258
100
AcDbEntity
  8
0
100
AcDbCircle
 62
7
  6
CONTINUOUS
 10
133.4147007282
 20
27.7167420789
 40
0.1316118429
100
AcDbArc
 50
270.125053868
 51
360.0
  0
LINE
  5
259
100
AcDbEntity
  8
0
100
AcDbLine
 62
7
  6
CONTINUOUS
 10
133.5463125715
 20
27.7167420789
 11
133.5463125715
 21
27.9697759007
  0
ARC
  5
25A
100
AcDbEntity
  8
0
100
AcDbCircle
 62
7
  6
CONTINUOUS
 10
133.4147007282
 20
27.9697759007
 40
0.1316118433
100
AcDbArc
 50
0.0
 51
90.0
  0
LINE
  5
25B
100
AcDbEntity
  8
0
100
AcDbLine
 62
7
  6
CONTINUOUS
 10
133.4147007282
 20
28.101387744
 11
130.3819566516
 21
28.101387744
  0
LINE
  5
25C
100
AcDbEntity
  8
0
100
AcDbLine
 62
7
  6
CONTINUOUS
 10
130.2503448083
 20
28.2329995873
 11
130.2503448083
 21
29.5398361295
  0
ARC
  5
25D
100
AcDbEntity
  8
0
100
AcDbCircle
 62
7
  6
CONTINUOUS
 10
130.3819566528
 20
29.5398361295
 40
0.1316118433
100
AcDbArc
 50
90.0
 51
180.0
  0
LINE
  5
25E
100
AcDbEntity
  8
0
100
AcDbLine
 62
7
  6
CONTINUOUS
 10
130.3819566516
 20
29.6714479728
 11
133.4147007282
 21
29.6714479728
  0
LINE
  5
25F
100
AcDbEntity
  8
0
100
AcDbLine
 62
7
  6
CONTINUOUS
 10
124.9743046065
 20
28.6219478785
 11
127.5020911407
 21
28.6219478785
  0
ARC
  5
260
100
AcDbEntity
  8
0
100
AcDbCircle
 62
7
  6
CONTINUOUS
 10
127.5020911404
 20
28.4903360355
 40
0.1316118433
100
AcDbArc
 50
0.0
 51
90.0
  0
LINE
  5
261
100
AcDbEntity
  8
0
100
AcDbLine
 62
7
  6
CONTINUOUS
 10
127.633702984
 20
28.4903360352
 11
127.633702984
 21
28.2215982457
  0
LINE
  5
262
100
AcDbEntity
  8
0
100
AcDbLine
 62
7
  6
CONTINUOUS
 10
127.5020911407
 20
28.0899864024
 11
124.555493908
 21
28.0899864024
  0
ARC
  5
263
100
AcDbEntity
  8
0
100
AcDbCircle
 62
7
  6
CONTINUOUS
 10
124.555493908
 20
27.9583745591
 40
0.1316118433
100
AcDbArc
 50
90.0
 51
180.0
  0
LINE
  5
264
100
AcDbEntity
  8
0
100
AcDbLine
 62
7
  6
CONTINUOUS
 10
124.4238820647
 20
27.9583745591
 11
124.4238820647
 21
27.7090178972
  0
ARC
  5
265
100
AcDbEntity
  8
0
100
AcDbCircle
 62
7
  6
CONTINUOUS
 10
124.555493908
 20
27.7090178972
 40
0.1316118433
100
AcDbArc
 50
180.0
 51
270.0
  0
LINE
  5
266
100
AcDbEntity
  8
0
100
AcDbLine
 62
7
  6
CONTINUOUS
 10
124.555493908
 20
27.5774060539
 11
128.2135440894
 21
27.5774060539
  0
SPLINE
  5
267
100
AcDbEntity
  8
0
100
AcDbSpline
 62
7
  6
CONTINUOUS
 70
0
 71
3
 72
13
 73
9
 74
0
 42
0.0000001
 43
0.0000001
 44
0.0000000001
 40
0.0
 40
0.0
 40
0.0
 40
0.0
 40
0.1604571392
 40
0.3334692485
 40
0.4767982758
 40
0.6242014838
 40
0.7505998515
 40
1.0
 40
1.0
 40
1.0
 40
1.0
 10
128.2135440894
 20
27.5774060539
 30
0.0
 10
128.2752192721
 20
27.5803756039
 30
0.0
 10
128.4033954105
 20
27.5865470533
 30
0.0
 10
128.5757560097
 20
27.6613781214
 30
0.0
 10
128.7056353997
 20
27.787162901
 30
0.0
 10
128.778827544
 20
27.9313702913
 30
0.0
 10
128.8349428695
 20
28.1248259829
 30
0.0
 10
128.8372200318
 20
28.2695990449
 30
0.0
 10
128.8387312779
 20
28.3656782499
 30
0.0
  0
SPLINE
  5
268
100
AcDbEntity
  8
0
100
AcDbSpline
 62
7
  6
CONTINUOUS
 70
0
 71
3
 72
13
 73
9
 74
0
 42
0.0000001
 43
0.0000001
 44
0.0000000001
 40
0.0
 40
0.0
 40
0.0
 40
0.0
 40
0.2494001485
 40
0.3757985162
 40
0.5232017242
 40
0.6665307515
 40
0.8395428608
 40
1.0
 40
1.0
 40
1.0
 40
1.0
 10
128.8387312779
 20
28.3656782499
 30
0.0
 10
128.8372200318
 20
28.4617574569
 30
0.0
 10
128.8349428695
 20
28.6065305169
 30
0.0
 10
128.778827544
 20
28.7999862106
 30
0.0
 10
128.7056353997
 20
28.9441936009
 30
0.0
 10
128.5757560097
 20
29.0699783784
 30
0.0
 10
128.4033954105
 20
29.1448094465
 30
0.0
 10
128.2752192721
 20
29.150980898
 30
0.0
 10
128.2135440894
 20
29.1539504459
 30
0.0
  0
LINE
  5
269
100
AcDbEntity
  8
0
100
AcDbLine
 62
7
  6
CONTINUOUS
 10
128.2135440894
 20
29.1539504459
 11
125.7194512764
 21
29.1539504459
  0
LINE
  5
26A
100
AcDbEntity
  8
0
100
AcDbLine
 62
7
  6
CONTINUOUS
 10
125.5878394331
 20
29.2855622892
 11
125.5878394331
 21
29.5345851004
  0
ARC
  5
26B
100
AcDbEntity
  8
0
100
AcDbCircle
 62
7
  6
CONTINUOUS
 10
125.7194512753
 20
29.5345851004
 40
0.1316118433
100
AcDbArc
 50
90.0
 51
180.0
  0
LINE
  5
26C
100
AcDbEntity
  8
0
100
AcDbLine
 62
7
  6
CONTINUOUS
 10
125.7194512764
 20
29.6661969437
 11
128.6700480817
 21
29.6661969437
  0
ARC
  5
26D
100
AcDbEntity
  8
0
100
AcDbCircle
 62
7
  6
CONTINUOUS
 10
128.6700480817
 20
29.797808787
 40
0.1316118433
100
AcDbArc
 50
270.0
 51
360.0
  0
LINE
  5
26E
100
AcDbEntity
  8
0
100
AcDbLine
 62
7
  6
CONTINUOUS
 10
128.801659925
 20
29.797808787
 11
128.801659925
 21
30.0663739564
  0
ARC
  5
26F
100
AcDbEntity
  8
0
100
AcDbCircle
 62
7
  6
CONTINUOUS
 10
128.6700480817
 20
30.0663739564
 40
0.1316118433
100
AcDbArc
 50
0.0
 51
90.0
  0
LINE
  5
270
100
AcDbEntity
  8
0
100
AcDbLine
 62
7
  6
CONTINUOUS
 10
128.6700480817
 20
30.1979857997
 11
124.9743046065
 21
30.1979857997
  0
SPLINE
  5
271
100
AcDbEntity
  8
0
100
AcDbSpline
 62
7
  6
CONTINUOUS
 70
0
 71
3
 72
13
 73
9
 74
0
 42
0.0000001
 43
0.0000001
 44
0.0000000001
 40
0.0
 40
0.0
 40
0.0
 40
0.0
 40
0.1133740464
 40
0.2392044088
 40
0.3655787964
 40
0.4912154373
 40
0.7445390876
 40
1.0
 40
1.0
 40
1.0
 40
1.0
 10
124.9743046065
 20
30.1979857997
 30
0.0
 10
124.9320851794
 20
30.1959062961
 30
0.0
 10
124.8430077124
 20
30.1915188129
 30
0.0
 10
124.7106919462
 20
30.1519868146
 30
0.0
 10
124.592322599
 20
30.0721593984
 30
0.0
 10
124.4714072552
 20
29.9251142523
 30
0.0
 10
124.3953196503
 20
29.6942729369
 30
0.0
 10
124.387067938
 20
29.5050005662
 30
0.0
 10
124.3829247527
 20
29.4099668391
 30
0.0
  0
SPLINE
  5
272
100
AcDbEntity
  8
0
100
AcDbSpline
 62
7
  6
CONTINUOUS
 70
0
 71
3
 72
13
 73
9
 74
0
 42
0.0000001
 43
0.0000001
 44
0.0000000001
 40
0.0
 40
0.0
 40
0.0
 40
0.0
 40
0.2554609124
 40
0.5087845627
 40
0.6344212036
 40
0.7607955912
 40
0.8866259536
 40
1.0
 40
1.0
 40
1.0
 40
1.0
 10
124.3829247527
 20
29.4099668391
 30
0.0
 10
124.387067938
 20
29.3149331121
 30
0.0
 10
124.3953196503
 20
29.1256607393
 30
0.0
 10
124.4714072552
 20
28.8948194259
 30
0.0
 10
124.592322599
 20
28.7477742798
 30
0.0
 10
124.7106919462
 20
28.6679468637
 30
0.0
 10
124.8430077124
 20
28.6284148654
 30
0.0
 10
124.9320851794
 20
28.6240273821
 30
0.0
 10
124.9743046065
 20
28.6219478785
 30
0.0
  0
LINE
  5
273
100
AcDbEntity
  8
0
100
AcDbLine
 62
7
  6
CONTINUOUS
 10
120.1113915511
 20
27.5774060539
 11
122.156364922
 21
27.5774060539
  0
LINE
  5
274
100
AcDbEntity
  8
0
100
AcDbLine
 62
7
  6
CONTINUOUS
 10
122.156364922
 20
27.5774060539
 11
122.156364922
 21
27.3230738246
  0
ARC
  5
275
100
AcDbEntity
  8
0
100
AcDbCircle
 62
7
  6
CONTINUOUS
 10
122.2069848617
 20
27.3230738246
 40
0.0506199397
100
AcDbArc
 50
180.0
 51
270.0
  0
LINE
  5
276
100
AcDbEntity
  8
0
100
AcDbLine
 62
7
  6
CONTINUOUS
 10
122.2069848617
 20
27.2724538848
 11
122.9951888078
 21
27.2724538848
  0
ARC
  5
277
100
AcDbEntity
  8
0
100
AcDbCircle
 62
7
  6
CONTINUOUS
 10
122.9951888078
 20
27.3230738246
 40
0.0506199397
100
AcDbArc
 50
270.0
 51
360.0
  0
LINE
  5
278
100
AcDbEntity
  8
0
100
AcDbLine
 62
7
  6
CONTINUOUS
 10
123.0458087476
 20
27.3230738246
 11
123.0458087476
 21
27.5774060539
  0
LINE
  5
279
100
AcDbEntity
  8
0
100
AcDbLine
 62
7
  6
CONTINUOUS
 10
123.0458087476
 20
27.5774060539
 11
123.4479270492
 21
27.5774060539
  0
SPLINE
  5
27A
100
AcDbEntity
  8
0
100
AcDbSpline
 62
7
  6
CONTINUOUS
 70
0
 71
3
 72
12
 73
8
 74
0
 42
0.0000001
 43
0.0000001
 44
0.0000000001
 40
0.0
 40
0.0
 40
0.0
 40
0.0
 40
0.2415790084
 40
0.4893269843
 40
0.7378634303
 40
0.8656387112
 40
1.0
 40
1.0
 40
1.0
 40
1.0
 10
123.4479270492
 20
27.5774060539
 30
0.0
 10
123.5200308223
 20
27.579647679
 30
0.0
 10
123.6660796141
 20
27.5841881722
 30
0.0
 10
123.8798067814
 20
27.6604089642
 30
0.0
 10
124.009607498
 20
27.8042936483
 30
0.0
 10
124.0667933845
 20
27.9480610643
 30
0.0
 10
124.0678239579
 20
28.0268165506
 30
0.0
 10
124.0683521911
 20
28.0671836321
 30
0.0
  0
LINE
  5
27B
100
AcDbEntity
  8
0
100
AcDbLine
 62
7
  6
CONTINUOUS
 10
124.0683521911
 20
28.0671836321
 11
124.0683521911
 21
29.705134595
  0
SPLINE
  5
27C
100
AcDbEntity
  8
0
100
AcDbSpline
 62
7
  6
CONTINUOUS
 70
0
 71
3
 72
12
 73
8
 74
0
 42
0.0000001
 43
0.0000001
 44
0.0000000001
 40
0.0
 40
0.0
 40
0.0
 40
0.0
 40
0.1343612888
 40
0.2621365697
 40
0.5106730157
 40
0.7584209916
 40
1.0
 40
1.0
 40
1.0
 40
1.0
 10
124.0683521911
 20
29.705134595
 30
0.0
 10
124.0678239579
 20
29.7455016786
 30
0.0
 10
124.0667933845
 20
29.8242571649
 30
0.0
 10
124.009607498
 20
29.9680245808
 30
0.0
 10
123.8798067814
 20
30.1119092649
 30
0.0
 10
123.6660796141
 20
30.1881300549
 30
0.0
 10
123.5200308223
 20
30.1926705481
 30
0.0
 10
123.4479270492
 20
30.1949121732
 30
0.0
  0
LINE
  5
27D
100
AcDbEntity
  8
0
100
AcDbLine
 62
7
  6
CONTINUOUS
 10
123.4479270492
 20
30.1949121732
 11
120.1113915511
 21
30.1949121732
  0
SPLINE
  5
27E
100
AcDbEntity
  8
0
100
AcDbSpline
 62
7
  6
CONTINUOUS
 70
0
 71
3
 72
12
 73
8
 74
0
 42
0.0000001
 43
0.0000001
 44
0.0000000001
 40
0.0
 40
0.0
 40
0.0
 40
0.0
 40
0.1341799809
 40
0.290831959
 40
0.5815217441
 40
0.760783857
 40
1.0
 40
1.0
 40
1.0
 40
1.0
 10
120.1113915511
 20
30.1949121732
 30
0.0
 10
120.0386157882
 20
30.1824741048
 30
0.0
 10
119.8808760317
 20
30.1555148806
 30
0.0
 10
119.6153464671
 20
29.9571383598
 30
0.0
 10
119.4895781897
 20
29.6233897847
 30
0.0
 10
119.4159922951
 20
29.2450550147
 30
0.0
 10
119.4104684327
 20
29.0162209014
 30
0.0
 10
119.4073108074
 20
28.8854116818
 30
0.0
  0
SPLINE
  5
27F
100
AcDbEntity
  8
0
100
AcDbSpline
 62
7
  6
CONTINUOUS
 70
0
 71
3
 72
12
 73
8
 74
0
 42
0.0000001
 43
0.0000001
 44
0.0000000001
 40
0.0
 40
0.0
 40
0.0
 40
0.0
 40
0.2392679579
 40
0.4185688994
 40
0.7093216488
 40
0.8660075581
 40
1.0
 40
1.0
 40
1.0
 40
1.0
 10
119.4073108074
 20
28.8854116818
 30
0.0
 10
119.4104696941
 20
28.7546075606
 30
0.0
 10
119.4159957616
 20
28.5257823666
 30
0.0
 10
119.4895657777
 20
28.1473833943
 30
0.0
 10
119.6154108962
 20
27.8139455345
 30
0.0
 10
119.880664007
 20
27.6149248446
 30
0.0
 10
120.0385922256
 20
27.5892440108
 30
0.0
 10
120.1113915511
 20
27.5774060539
 30
0.0
  0
LINE
  5
280
100
AcDbEntity
  8
0
100
AcDbLine
 62
7
  6
CONTINUOUS
 10
123.3943739532
 20
28.2513027492
 11
123.3943739532
 21
29.5636750717
  0
ARC
  5
281
100
AcDbEntity
  8
0
100
AcDbCircle
 62
7
  6
CONTINUOUS
 10
120.6332044116
 20
28.2513027492
 40
0.1316118433
100
AcDbArc
 50
180.0
 51
270.0
  0
LINE
  5
282
100
AcDbEntity
  8
0
100
AcDbLine
 62
7
  6
CONTINUOUS
 10
120.6332044116
 20
28.1196909059
 11
122.1448522104
 21
28.1196909059
  0
LINE
  5
283
100
AcDbEntity
  8
0
100
AcDbLine
 62
7
  6
CONTINUOUS
 10
122.1448522104
 20
28.1196909059
 11
122.1448522104
 21
28.3732351023
  0
ARC
  5
284
100
AcDbEntity
  8
0
100
AcDbCircle
 62
7
  6
CONTINUOUS
 10
122.1954721511
 20
28.3732351023
 40
0.0506199397
100
AcDbArc
 50
90.0
 51
180.0
  0
LINE
  5
285
100
AcDbEntity
  8
0
100
AcDbLine
 62
7
  6
CONTINUOUS
 10
122.1954721501
 20
28.423855042
 11
122.9796592319
 21
28.423855042
  0
ARC
  5
286
100
AcDbEntity
  8
0
100
AcDbCircle
 62
7
  6
CONTINUOUS
 10
122.9796592301
 20
28.3732351041
 40
0.0506199397
100
AcDbArc
 50
0.0
 51
90.0
  0
LINE
  5
287
100
AcDbEntity
  8
0
100
AcDbLine
 62
7
  6
CONTINUOUS
 10
123.0302791717
 20
28.1196909059
 11
123.2627621099
 21
28.1196909059
  0
ARC
  5
288
100
AcDbEntity
  8
0
100
AcDbCircle
 62
7
  6
CONTINUOUS
 10
123.2627621099
 20
28.2513027492
 40
0.1316118433
100
AcDbArc
 50
270.0
 51
360.0
  0
LINE
  5
289
100
AcDbEntity
  8
0
100
AcDbLine
 62
7
  6
CONTINUOUS
 10
123.0302791717
 20
28.1196909059
 11
123.0302791717
 21
28.3732351023
  0
LINE
  5
28A
100
AcDbEntity
  8
0
100
AcDbLine
 62
7
  6
CONTINUOUS
 10
120.5015925683
 20
28.2513027492
 11
120.5015925683
 21
29.5636750717
  0
ARC
  5
28B
100
AcDbEntity
  8
0
100
AcDbCircle
 62
7
  6
CONTINUOUS
 10
120.6332044134
 20
29.5636750717
 40
0.1316118433
100
AcDbArc
 50
90.0
 51
180.0
  0
LINE
  5
28C
100
AcDbEntity
  8
0
100
AcDbLine
 62
7
  6
CONTINUOUS
 10
120.6332044116
 20
29.695286915
 11
123.2627621099
 21
29.695286915
  0
ARC
  5
28D
100
AcDbEntity
  8
0
100
AcDbCircle
 62
7
  6
CONTINUOUS
 10
123.2627621111
 20
29.5636750705
 40
0.1316118433
100
AcDbArc
 50
0.0000000277
 51
90.0000000277
  0
ARC
  5
28E
100
AcDbEntity
  8
0
100
AcDbCircle
 62
7
  6
CONTINUOUS
 10
125.7194512764
 20
29.2855622892
 40
0.1316118433
100
AcDbArc
 50
180.0
 51
270.0
  0
ARC
  5
28F
100
AcDbEntity
  8
0
100
AcDbCircle
 62
7
  6
CONTINUOUS
 10
127.5020911407
 20
28.2215982457
 40
0.1316118433
100
AcDbArc
 50
270.0
 51
360.0
  0
ARC
  5
290
100
AcDbEntity
  8
0
100
AcDbCircle
 62
7
  6
CONTINUOUS
 10
130.3819566516
 20
28.2329995873
 40
0.1316118433
100
AcDbArc
 50
180.0
 51
270.0
  0
ENDBLK
  5
291
100
AcDbEntity
  8
0
  6
BYBLOCK
 62
0
100
AcDbBlockEnd
  0
BLOCK
  5
292
100
AcDbEntity
  8
0
100
AcDbBlockBegin
  2
_FILLED
 70
64
 10
0.0
 20
0.0
  3
_FILLED
  1

  0
SOLID
  5
293
100
AcDbEntity
  8
0
  6
BYBLOCK
 62
0
100
AcDbTrace
 10
0.0
 20
0.0
 11
-1.0
 21
0.1666666667
 12
-1.0
 22
-0.1666666667
 13
-1.0
 23
-0.1666666667
  0
ENDBLK
  5
294
100
AcDbEntity
  8
0
  6
BYBLOCK
 62
0
100
AcDbBlockEnd
  0
BLOCK
  5
295
100
AcDbEntity
  8
0
100
AcDbBlockBegin
 62
2
  6
CONTINUOUS
  2
*D0
 70
65
 10
0.0
 20
0.0
  3
*D0
  1

  0
MTEXT
  5
296
100
AcDbEntity
  8
0
100
AcDbMText
 62
2
  6
CONTINUOUS
  7
STANDARD
 71
2
 72
1
 10
51.7043581578
 20
78.3681215366
 30
0.0
 11
1.0
 21
0.0
 31
0.0
 44
0.9
  1
445\P[17.5]
 40
1.6622340426
 41
8.7267287234
  0
LINE
  5
297
100
AcDbEntity
  8
0
100
AcDbLine
 62
2
  6
CONTINUOUS
 10
60.6154446527
 20
82.4704440393
 11
60.6154446527
 21
76.2072172812
  0
LINE
  5
298
100
AcDbEntity
  8
0
100
AcDbLine
 62
2
  6
CONTINUOUS
 10
43.1154446527
 20
82.4704440393
 11
43.1154446527
 21
76.2072172812
  0
LINE
  5
299
100
AcDbEntity
  8
0
100
AcDbLine
 62
2
  6
CONTINUOUS
 10
60.6154446527
 20
77.5370045153
 11
56.4535982793
 21
77.5370045153
  0
LINE
  5
29A
100
AcDbEntity
  8
0
100
AcDbLine
 62
2
  6
CONTINUOUS
 10
43.1154446527
 20
77.5370045153
 11
48.9735450879
 21
77.5370045153
  0
INSERT
  5
29B
100
AcDbEntity
  8
0
100
AcDbBlockReference
 62
2
  6
CONTINUOUS
  2
_FILLED
 10
60.6154446527
 20
77.5370045153
 41
1.9946808511
 42
1.9946808511
 43
1.9946808511
  0
INSERT
  5
29C
100
AcDbEntity
  8
0
100
AcDbBlockReference
 62
2
  6
CONTINUOUS
  2
_FILLED
 10
43.1154446527
 20
77.5370045153
 41
1.9946808511
 42
1.9946808511
 43
1.9946808511
 50
180.0
  0
ENDBLK
  5
29D
100
AcDbEntity
  8
0
  6
BYBLOCK
 62
0
100
AcDbBlockEnd
  0
BLOCK
  5
29E
100
AcDbEntity
  8
0
100
AcDbBlockBegin
 62
2
  6
CONTINUOUS
  2
*D1
 70
65
 10
0.0
 20
0.0
  3
*D1
  1

  0
MTEXT
  5
29F
100
AcDbEntity
  8
0
100
AcDbMText
 62
2
  6
CONTINUOUS
  7
STANDARD
 71
2
 72
1
 10
24.9205963619
 20
91.0425719198
 30
0.0
 11
1.0
 21
0.0
 31
0.0
 44
0.9
  1
386\P[15.2]
 40
1.6622340426
 41
8.7267287234
  0
LINE
  5
2A0
100
AcDbEntity
  8
0
100
AcDbLine
 62
2
  6
CONTINUOUS
 10
46.8733996834
 20
96.3853376563
 11
24.6000226537
 21
96.3853376563
  0
LINE
  5
2A1
100
AcDbEntity
  8
0
100
AcDbLine
 62
2
  6
CONTINUOUS
 10
58.0060628467
 20
81.1908494674
 11
24.6000226537
 21
81.1908494674
  0
LINE
  5
2A2
100
AcDbEntity
  8
0
100
AcDbLine
 62
2
  6
CONTINUOUS
 10
25.9298098877
 20
96.3853376563
 11
25.9298098877
 21
91.873688941
  0
LINE
  5
2A3
100
AcDbEntity
  8
0
100
AcDbLine
 62
2
  6
CONTINUOUS
 10
25.9298098877
 20
81.1908494674
 11
25.9298098877
 21
86.0558697921
  0
INSERT
  5
2A4
100
AcDbEntity
  8
0
100
AcDbBlockReference
 62
2
  6
CONTINUOUS
  2
_FILLED
 10
25.9298098877
 20
96.3853376563
 41
1.9946808511
 42
1.9946808511
 43
1.9946808511
 50
90.0
  0
INSERT
  5
2A5
100
AcDbEntity
  8
0
100
AcDbBlockReference
 62
2
  6
CONTINUOUS
  2
_FILLED
 10
25.9298098877
 20
81.1908494674
 41
1.9946808511
 42
1.9946808511
 43
1.9946808511
 50
270.0
  0
ENDBLK
  5
2A6
100
AcDbEntity
  8
0
  6
BYBLOCK
 62
0
100
AcDbBlockEnd
  0
BLOCK
  5
2A7
100
AcDbEntity
  8
0
100
AcDbBlockBegin
 62
2
  6
CONTINUOUS
  2
*D2
 70
65
 10
0.0
 20
0.0
  3
*D2
  1

  0
MTEXT
  5
2A8
100
AcDbEntity
  8
0
100
AcDbMText
 62
2
  6
CONTINUOUS
  7
STANDARD
 71
2
 72
1
 10
65.4762699876
 20
57.3103404061
 30
0.0
 11
1.0
 21
0.0
 31
0.0
 44
0.9
  1
813\P[32.0]
 40
1.6622340426
 41
9.2610182371
  0
LINE
  5
2A9
100
AcDbEntity
  8
0
100
AcDbLine
 62
2
  6
CONTINUOUS
 10
61.0441177972
 20
37.9433152758
 11
68.1714637566
 21
37.9433152758
  0
LINE
  5
2AA
100
AcDbEntity
  8
0
100
AcDbLine
 62
2
  6
CONTINUOUS
 10
61.0441177972
 20
69.9393782679
 11
68.1714637566
 21
69.9393782679
  0
LINE
  5
2AB
100
AcDbEntity
  8
0
100
AcDbLine
 62
2
  6
CONTINUOUS
 10
66.8416765226
 20
37.9433152758
 11
66.8416765226
 21
52.3236382784
  0
LINE
  5
2AC
100
AcDbEntity
  8
0
100
AcDbLine
 62
2
  6
CONTINUOUS
 10
66.8416765226
 20
69.9393782679
 11
66.8416765226
 21
58.1414574274
  0
INSERT
  5
2AD
100
AcDbEntity
  8
0
100
AcDbBlockReference
 62
2
  6
CONTINUOUS
  2
_FILLED
 10
66.8416765226
 20
37.9433152758
 41
1.9946808511
 42
1.9946808511
 43
1.9946808511
 50
270.0
  0
INSERT
  5
2AE
100
AcDbEntity
  8
0
100
AcDbBlockReference
 62
2
  6
CONTINUOUS
  2
_FILLED
 10
66.8416765226
 20
69.9393782679
 41
1.9946808511
 42
1.9946808511
 43
1.9946808511
 50
90.0
  0
ENDBLK
  5
2AF
100
AcDbEntity
  8
0
  6
BYBLOCK
 62
0
100
AcDbBlockEnd
  0
BLOCK
  5
2B0
100
AcDbEntity
  8
0
100
AcDbBlockBegin
 62
2
  6
CONTINUOUS
  2
*D3
 70
65
 10
0.0
 20
0.0
  3
*D3
  1

  0
MTEXT
  5
2B1
100
AcDbEntity
  8
0
100
AcDbMText
 62
2
  6
CONTINUOUS
  7
STANDARD
 71
2
 72
1
 10
55.706155139
 20
36.1008472287
 30
0.0
 11
1.0
 21
0.0
 31
0.0
 44
0.9
  1
222\P[8.8]
 40
1.6622340426
 41
7.4800531915
  0
LINE
  5
2B2
100
AcDbEntity
  8
0
100
AcDbLine
 62
2
  6
CONTINUOUS
 10
51.8654446527
 20
37.0757258015
 11
51.8654446527
 21
33.9399429733
  0
LINE
  5
2B3
100
AcDbEntity
  8
0
100
AcDbLine
 62
2
  6
CONTINUOUS
 10
60.6154446527
 20
37.5146421312
 11
60.6154446527
 21
33.9399429733
  0
LINE
  5
2B4
100
AcDbEntity
  8
0
100
AcDbLine
 62
2
  6
CONTINUOUS
 10
51.8654446527
 20
35.2697302074
 11
46.5462957165
 21
35.2697302074
  0
LINE
  5
2B5
100
AcDbEntity
  8
0
100
AcDbLine
 62
2
  6
CONTINUOUS
 10
60.6154446527
 20
35.2697302074
 11
65.9345935888
 21
35.2697302074
  0
INSERT
  5
2B6
100
AcDbEntity
  8
0
100
AcDbBlockReference
 62
2
  6
CONTINUOUS
  2
_FILLED
 10
51.8654446527
 20
35.2697302074
 41
1.9946808511
 42
1.9946808511
 43
1.9946808511
  0
INSERT
  5
2B7
100
AcDbEntity
  8
0
100
AcDbBlockReference
 62
2
  6
CONTINUOUS
  2
_FILLED
 10
60.6154446527
 20
35.2697302074
 41
1.9946808511
 42
1.9946808511
 43
1.9946808511
 50
180.0
  0
ENDBLK
  5
2B8
100
AcDbEntity
  8
0
  6
BYBLOCK
 62
0
100
AcDbBlockEnd
  0
BLOCK
  5
2B9
100
AcDbEntity
  8
0
100
AcDbBlockBegin
 62
2
  6
CONTINUOUS
  2
*D4
 70
65
 10
0.0
 20
0.0
  3
*D4
  1

  0
MTEXT
  5
2BA
100
AcDbEntity
  8
0
100
AcDbMText
 62
2
  6
CONTINUOUS
  7
STANDARD
 71
2
 72
1
 10
114.6155388918
 20
48.1006616583
 30
0.0
 11
1.0
 21
0.0
 31
0.0
 44
0.9
  1
384\P[15.1]
 40
1.6622340426
 41
8.1924392097
  0
LINE
  5
2BB
100
AcDbEntity
  8
0
100
AcDbLine
 62
2
  6
CONTINUOUS
 10
110.5213754692
 20
37.9433152758
 11
116.7764431471
 21
37.9433152758
  0
LINE
  5
2BC
100
AcDbEntity
  8
0
100
AcDbLine
 62
2
  6
CONTINUOUS
 10
105.5647679412
 20
53.061425512
 11
116.7764431471
 21
53.061425512
  0
LINE
  5
2BD
100
AcDbEntity
  8
0
100
AcDbLine
 62
2
  6
CONTINUOUS
 10
115.4466559131
 20
37.9433152758
 11
115.4466559131
 21
43.1139595306
  0
LINE
  5
2BE
100
AcDbEntity
  8
0
100
AcDbLine
 62
2
  6
CONTINUOUS
 10
115.4466559131
 20
53.061425512
 11
115.4466559131
 21
48.9317786796
  0
INSERT
  5
2BF
100
AcDbEntity
  8
0
100
AcDbBlockReference
 62
2
  6
CONTINUOUS
  2
_FILLED
 10
115.4466559131
 20
37.9433152758
 41
1.9946808511
 42
1.9946808511
 43
1.9946808511
 50
270.0
  0
INSERT
  5
2C0
100
AcDbEntity
  8
0
100
AcDbBlockReference
 62
2
  6
CONTINUOUS
  2
_FILLED
 10
115.4466559131
 20
53.061425512
 41
1.9946808511
 42
1.9946808511
 43
1.9946808511
 50
90.0
  0
ENDBLK
  5
2C1
100
AcDbEntity
  8
0
  6
BYBLOCK
 62
0
100
AcDbBlockEnd
  0
BLOCK
  5
2C2
100
AcDbEntity
  8
0
100
AcDbBlockBegin
 62
2
  6
CONTINUOUS
  2
*D5
 70
65
 10
0.0
 20
0.0
  3
*D5
  1

  0
MTEXT
  5
2C3
100
AcDbEntity
  8
0
100
AcDbMText
 62
2
  6
CONTINUOUS
  7
STANDARD
 71
2
 72
1
 10
106.1203308507
 20
75.5394577525
 30
0.0
 11
1.0
 21
0.0
 31
0.0
 44
0.9
  1
215\P[8.5]
 40
1.6622340426
 41
7.3019566869
  0
LINE
  5
2C4
100
AcDbEntity
  8
0
100
AcDbLine
 62
2
  6
CONTINUOUS
 10
110.2749694954
 20
70.3680514125
 11
110.2749694954
 21
76.0381279652
  0
LINE
  5
2C5
100
AcDbEntity
  8
0
100
AcDbLine
 62
2
  6
CONTINUOUS
 10
101.8104025663
 20
55.0992474331
 11
101.8104025663
 21
76.0381279652
  0
LINE
  5
2C6
100
AcDbEntity
  8
0
100
AcDbLine
 62
2
  6
CONTINUOUS
 10
110.2749694954
 20
74.7083407312
 11
115.5941184316
 21
74.7083407312
  0
LINE
  5
2C7
100
AcDbEntity
  8
0
100
AcDbLine
 62
2
  6
CONTINUOUS
 10
101.8104025663
 20
74.7083407312
 11
96.4912536301
 21
74.7083407312
  0
INSERT
  5
2C8
100
AcDbEntity
  8
0
100
AcDbBlockReference
 62
2
  6
CONTINUOUS
  2
_FILLED
 10
110.2749694954
 20
74.7083407312
 41
1.9946808511
 42
1.9946808511
 43
1.9946808511
 50
180.0
  0
INSERT
  5
2C9
100
AcDbEntity
  8
0
100
AcDbBlockReference
 62
2
  6
CONTINUOUS
  2
_FILLED
 10
101.8104025663
 20
74.7083407312
 41
1.9946808511
 42
1.9946808511
 43
1.9946808511
  0
ENDBLK
  5
2CA
100
AcDbEntity
  8
0
  6
BYBLOCK
 62
0
100
AcDbBlockEnd
  0
BLOCK
  5
2CB
100
AcDbEntity
  8
0
100
AcDbBlockBegin
 62
2
  6
CONTINUOUS
  2
*D6
 70
65
 10
0.0
 20
0.0
  3
*D6
  1

  0
MTEXT
  5
2CC
100
AcDbEntity
  8
0
100
AcDbMText
 62
2
  6
CONTINUOUS
  7
STANDARD
 71
2
 72
1
 10
36.2421244269
 20
94.3399812014
 30
0.0
 11
1.0
 21
0.0
 31
0.0
 44
0.9
  1
211,6\P[8.3]
 40
1.6622340426
 41
8.1924392097
  0
LINE
  5
2CD
100
AcDbEntity
  8
0
100
AcDbLine
 62
2
  6
CONTINUOUS
 10
46.8733996834
 20
96.3853376563
 11
34.9123371929
 21
96.3853376563
  0
LINE
  5
2CE
100
AcDbEntity
  8
0
100
AcDbLine
 62
2
  6
CONTINUOUS
 10
49.9201858153
 20
88.0565974989
 11
34.9123371929
 21
88.0565974989
  0
LINE
  5
2CF
100
AcDbEntity
  8
0
100
AcDbLine
 62
2
  6
CONTINUOUS
 10
36.2421244269
 20
96.3853376563
 11
36.2421244269
 21
101.7044865925
  0
LINE
  5
2D0
100
AcDbEntity
  8
0
100
AcDbLine
 62
2
  6
CONTINUOUS
 10
36.2421244269
 20
88.0565974989
 11
36.2421244269
 21
82.7374485627
  0
INSERT
  5
2D1
100
AcDbEntity
  8
0
100
AcDbBlockReference
 62
2
  6
CONTINUOUS
  2
_FILLED
 10
36.2421244269
 20
96.3853376563
 41
1.9946808511
 42
1.9946808511
 43
1.9946808511
 50
270.0
  0
INSERT
  5
2D2
100
AcDbEntity
  8
0
100
AcDbBlockReference
 62
2
  6
CONTINUOUS
  2
_FILLED
 10
36.2421244269
 20
88.0565974989
 41
1.9946808511
 42
1.9946808511
 43
1.9946808511
 50
90.0
  0
ENDBLK
  5
2D3
100
AcDbEntity
  8
0
  6
BYBLOCK
 62
0
100
AcDbBlockEnd
  0
ENDSEC
  0
SECTION
  2
ENTITIES
  0
MTEXT
  5
2D4
100
AcDbEntity
  8
0
100
AcDbMText
 62
2
  6
CONTINUOUS
  7
STANDARD
 71
1
 72
1
 10
26.2876926689
 20
4.288551345
 30
0.0
 11
1.0
 21
0.0
 31
0.0
 44
0.9
  1
4
 40
1.6622340426
 41
1.9590615502
  0
MTEXT
  5
2D5
100
AcDbEntity
  8
0
100
AcDbMText
 62
2
  6
CONTINUOUS
  7
STANDARD
 71
1
 72
1
 10
67.4910083076
 20
4.2807749021
 30
0.0
 11
1.0
 21
0.0
 31
0.0
 44
0.9
  1
3
 40
1.6622340426
 41
1.7809650456
  0
MTEXT
  5
2D6
100
AcDbEntity
  8
0
100
AcDbMText
 62
2
  6
CONTINUOUS
  7
STANDARD
 71
1
 72
1
 10
108.5989028037
 20
4.2843127763
 30
0.0
 11
1.0
 21
0.0
 31
0.0
 44
0.9
  1
2
 40
1.6622340426
 41
1.9590615502
  0
MTEXT
  5
2D7
100
AcDbEntity
  8
0
100
AcDbMText
 62
2
  6
CONTINUOUS
  7
STANDARD
 71
1
 72
1
 10
149.784024388
 20
4.2844911309
 30
0.0
 11
1.0
 21
0.0
 31
0.0
 44
0.9
  1
1
 40
1.6622340426
 41
1.4247720365
  0
MTEXT
  5
2D8
100
AcDbEntity
  8
0
100
AcDbMText
 62
2
  6
CONTINUOUS
  7
STANDARD
 71
1
 72
1
 10
26.293583738
 20
115.6336010152
 30
0.0
 11
1.0
 21
0.0
 31
0.0
 44
0.9
  1
4
 40
1.6622340426
 41
1.9590615502
  0
MTEXT
  5
2D9
100
AcDbEntity
  8
0
100
AcDbMText
 62
2
  6
CONTINUOUS
  7
STANDARD
 71
1
 72
1
 10
67.4747397164
 20
115.6212450178
 30
0.0
 11
1.0
 21
0.0
 31
0.0
 44
0.9
  1
3
 40
1.6622340426
 41
1.7809650456
  0
MTEXT
  5
2DA
100
AcDbEntity
  8
0
100
AcDbMText
 62
2
  6
CONTINUOUS
  7
STANDARD
 71
1
 72
1
 10
108.6184241366
 20
115.6191557955
 30
0.0
 11
1.0
 21
0.0
 31
0.0
 44
0.9
  1
2
 40
1.6622340426
 41
1.9590615502
  0
MTEXT
  5
2DB
100
AcDbEntity
  8
0
100
AcDbMText
 62
2
  6
CONTINUOUS
  7
STANDARD
 71
1
 72
1
 10
149.785872606
 20
115.6206539736
 30
0.0
 11
1.0
 21
0.0
 31
0.0
 44
0.9
  1
1
 40
1.6622340426
 41
1.4247720365
  0
MTEXT
  5
2DC
100
AcDbEntity
  8
0
100
AcDbMText
 62
2
  6
CONTINUOUS
  7
STANDARD
 71
1
 72
1
 10
2.7049804953
 20
19.7797479704
 30
0.0
 11
1.0
 21
0.0
 31
0.0
 44
0.9
  1
A
 40
1.6622340426
 41
2.1371580547
  0
MTEXT
  5
2DD
100
AcDbEntity
  8
0
100
AcDbMText
 62
2
  6
CONTINUOUS
  7
STANDARD
 71
1
 72
1
 10
2.7632684116
 20
46.3858575774
 30
0.0
 11
1.0
 21
0.0
 31
0.0
 44
0.9
  1
B
 40
1.6622340426
 41
1.9590615502
  0
MTEXT
  5
2DE
100
AcDbEntity
  8
0
100
AcDbMText
 62
2
  6
CONTINUOUS
  7
STANDARD
 71
1
 72
1
 10
2.7478623041
 20
72.9563836537
 30
0.0
 11
1.0
 21
0.0
 31
0.0
 44
0.9
  1
C
 40
1.6622340426
 41
2.0777925532
  0
MTEXT
  5
2DF
100
AcDbEntity
  8
0
100
AcDbMText
 62
2
  6
CONTINUOUS
  7
STANDARD
 71
1
 72
1
 10
2.7701251547
 20
99.596890421
 30
0.0
 11
1.0
 21
0.0
 31
0.0
 44
0.9
  1
D
 40
1.6622340426
 41
2.2558890578
  0
MTEXT
  5
2E0
100
AcDbEntity
  8
0
100
AcDbMText
 62
2
  6
CONTINUOUS
  7
STANDARD
 71
1
 72
1
 10
172.8765831959
 20
19.7765445704
 30
0.0
 11
1.0
 21
0.0
 31
0.0
 44
0.9
  1
A
 40
1.6622340426
 41
2.1371580547
  0
MTEXT
  5
2E1
100
AcDbEntity
  8
0
100
AcDbMText
 62
2
  6
CONTINUOUS
  7
STANDARD
 71
1
 72
1
 10
172.866668734
 20
46.3822674663
 30
0.0
 11
1.0
 21
0.0
 31
0.0
 44
0.9
  1
B
 40
1.6622340426
 41
1.9590615502
  0
MTEXT
  5
2E2
100
AcDbEntity
  8
0
100
AcDbMText
 62
2
  6
CONTINUOUS
  7
STANDARD
 71
1
 72
1
 10
172.8622660453
 20
72.9505506401
 30
0.0
 11
1.0
 21
0.0
 31
0.0
 44
0.9
  1
C
 40
1.6622340426
 41
2.0777925532
  0
MTEXT
  5
2E3
100
AcDbEntity
  8
0
100
AcDbMText
 62
2
  6
CONTINUOUS
  7
STANDARD
 71
1
 72
1
 10
172.866327487
 20
99.5938171357
 30
0.0
 11
1.0
 21
0.0
 31
0.0
 44
0.9
  1
D
 40
1.6622340426
 41
2.2558890578
  0
MTEXT
  5
2E4
100
AcDbEntity
  8
0
100
AcDbMText
 62
5
  6
CONTINUOUS
  7
STANDARD
 71
1
 72
1
 10
5.7898442142
 20
111.3028959586
 30
0.0
 11
1.0
 21
0.0
 31
0.0
 44
0.9
  1
THIS DOCUMENT CONTAINS PROPRIETARY INFORMATION\PWHICH IS THE PROPERTY OF QSC, LLC, THAT MAY NOT BE\PDISCLOSED, REPRODUCED OR USED WITHOUT EXPRESS\PWRITTEN CONSENT FROM QSC, LLC.
 40
0.7978723404
 41
47.2739361702
  0
MTEXT
  5
2E5
100
AcDbEntity
  8
0
100
AcDbMText
 62
2
  6
CONTINUOUS
  7
STANDARD
 71
2
 72
1
 10
76.9675242466
 20
27.5743138151
 30
0.0
 11
1.0
 21
0.0
 31
0.0
 44
0.9
  1
TOLERANCES ARE:
 40
0.9574468085
 41
16.4475683891
  0
MTEXT
  5
2E6
100
AcDbEntity
  8
0
100
AcDbMText
 62
2
  6
CONTINUOUS
  7
STANDARD
 71
2
 72
1
 10
86.481882919
 20
25.1329861131
 30
0.0
 11
1.0
 21
0.0
 31
0.0
 44
0.9
  1
ANGLES\P\Fgdt;{\Fgdt;`}\Ftxt; 1/2
 40
0.9574468085
 41
6.8389057751
  0
MTEXT
  5
2E7
100
AcDbEntity
  8
0
100
AcDbMText
 62
2
  6
CONTINUOUS
  7
STANDARD
 71
2
 72
1
 10
68.7119625618
 20
17.9385097614
 30
0.0
 11
1.0
 21
0.0
 31
0.0
 44
0.9
  1
MATERIAL
 40
0.9574468085
 41
9.1983282675
  0
MTEXT
  5
2E8
100
AcDbEntity
  8
0
100
AcDbMText
 62
2
  6
CONTINUOUS
  7
STANDARD
 71
2
 72
1
 10
67.6929757024
 20
11.4590066697
 30
0.0
 11
1.0
 21
0.0
 31
0.0
 44
0.9
  1
FINISH
 40
0.9574468085
 41
6.5311550152
  0
MTEXT
  5
2E9
100
AcDbEntity
  8
0
100
AcDbMText
 62
2
  6
CONTINUOUS
  7
STANDARD
 71
2
 72
1
 10
141.1680033489
 20
7.2436442738
 30
0.0
 11
1.0
 21
0.0
 31
0.0
 44
0.9
  1
DO NOT SCALE DRAWING
 40
1.329787234
 41
33.1496960486
  0
MTEXT
  5
2EA
100
AcDbEntity
  8
0
100
AcDbMText
 62
2
  6
CONTINUOUS
  7
STANDARD
 71
2
 72
1
 10
92.6484410219
 20
32.0161997186
 30
0.0
 11
1.0
 21
0.0
 31
0.0
 44
0.9
  1
DESIGNER
 40
0.9574468085
 41
9.061550152
  0
MTEXT
  5
2EB
100
AcDbEntity
  8
0
100
AcDbMText
 62
2
  6
CONTINUOUS
  7
STANDARD
 71
2
 72
1
 10
92.4493615722
 20
26.6037223278
 30
0.0
 11
1.0
 21
0.0
 31
0.0
 44
0.9
  1
ENGINEER
 40
0.9574468085
 41
8.787993921
  0
MTEXT
  5
2EC
100
AcDbEntity
  8
0
100
AcDbMText
 62
2
  6
CONTINUOUS
  7
STANDARD
 71
2
 72
1
 10
96.2526532468
 20
21.1122062445
 30
0.0
 11
1.0
 21
0.0
 31
0.0
 44
0.9
  1
TECHNICAL DIRECTOR
 40
0.9574468085
 41
20.4483282675
  0
MTEXT
  5
2ED
100
AcDbEntity
  8
0
100
AcDbMText
 62
2
  6
CONTINUOUS
  7
STANDARD
 71
2
 72
1
 10
97.8612263314
 20
15.5559147605
 30
0.0
 11
1.0
 21
0.0
 31
0.0
 44
0.9
  1
MANUFACTURING ENGINEER
 40
0.9574468085
 41
24.7568389058
  0
MTEXT
  5
2EE
100
AcDbEntity
  8
0
100
AcDbMText
 62
2
  6
CONTINUOUS
  7
STANDARD
 71
2
 72
1
 10
95.2821648976
 20
7.1915156261
 30
0.0
 11
1.0
 21
0.0
 31
0.0
 44
0.9
  1
MODEL INFO:
 40
0.9574468085
 41
11.7287234043
  0
MTEXT
  5
2EF
100
AcDbEntity
  8
0
100
AcDbMText
 62
2
  6
CONTINUOUS
  7
STANDARD
 71
2
 72
1
 10
94.2962860988
 20
9.7697983138
 30
0.0
 11
1.0
 21
0.0
 31
0.0
 44
0.9
  1
DRAWING INFO:
 40
0.9574468085
 41
14.9088145897
  0
MTEXT
  5
2F0
100
AcDbEntity
  8
0
100
AcDbMText
 62
2
  6
CONTINUOUS
  7
STANDARD
 71
2
 72
1
 10
119.5677083126
 20
7.0959609598
 30
0.0
 11
1.0
 21
0.0
 31
0.0
 44
0.9
  1
SCALE:
 40
0.9574468085
 41
6.2917933131
  0
MTEXT
  5
2F1
100
AcDbEntity
  8
0
100
AcDbMText
 62
2
  6
CONTINUOUS
  7
STANDARD
 71
2
 72
1
 10
155.4919439817
 20
7.1136264523
 30
0.0
 11
1.0
 21
0.0
 31
0.0
 44
0.9
  1
SHEET
 40
0.9574468085
 41
5.8130699088
  0
MTEXT
  5
2F2
100
AcDbEntity
  8
0
100
AcDbMText
 62
2
  6
CONTINUOUS
  7
STANDARD
 71
2
 72
1
 10
119.5955260721
 20
12.8758475247
 30
0.0
 11
1.0
 21
0.0
 31
0.0
 44
0.9
  1
SIZE
 40
0.9574468085
 41
4.4794832827
  0
MTEXT
  5
2F3
100
AcDbEntity
  8
0
100
AcDbMText
 62
2
  6
CONTINUOUS
  7
STANDARD
 71
2
 72
1
 10
127.4861447731
 20
12.8874089692
 30
0.0
 11
1.0
 21
0.0
 31
0.0
 44
0.9
  1
CAGE CODE
 40
0.9574468085
 41
10.6344984802
  0
MTEXT
  5
2F4
100
AcDbEntity
  8
0
100
AcDbMText
 62
2
  6
CONTINUOUS
  7
STANDARD
 71
2
 72
1
 10
137.6696781705
 20
12.8652443162
 30
0.0
 11
1.0
 21
0.0
 31
0.0
 44
0.9
  1
DRAWING NO.
 40
0.9574468085
 41
13.2674772036
  0
MTEXT
  5
2F5
100
AcDbEntity
  8
0
100
AcDbMText
 62
2
  6
CONTINUOUS
  7
STANDARD
 71
2
 72
1
 10
167.6822623345
 20
12.8795096456
 30
0.0
 11
1.0
 21
0.0
 31
0.0
 44
0.9
  1
REV
 40
0.9574468085
 41
3.6246200608
  0
MTEXT
  5
2F6
100
AcDbEntity
  8
0
100
AcDbMText
 62
2
  6
CONTINUOUS
  7
STANDARD
 71
2
 72
1
 10
142.6204116613
 20
31.7071451955
 30
0.0
 11
1.0
 21
0.0
 31
0.0
 44
0.9
  1
QSC, LLC
 40
1.6622340426
 41
15.3162993921
  0
MTEXT
  5
2F7
100
AcDbEntity
  8
0
100
AcDbMText
 62
2
  6
CONTINUOUS
  7
STANDARD
 71
1
 72
1
 10
137.3631107852
 20
29.3009591903
 30
0.0
 11
1.0
 21
0.0
 31
0.0
 44
0.9
  1
1675 MACARTHUR BOULEVARD\PCOSTA MESA, CA  92626
 40
1.329787234
 41
38.1363981763
  0
MTEXT
  5
2F8
100
AcDbEntity
  8
0
100
AcDbMText
 62
2
  6
CONTINUOUS
  7
STANDARD
 71
1
 72
1
 10
123.7245583927
 20
10.5986860827
 30
0.0
 11
1.0
 21
0.0
 31
0.0
 44
0.9
  1
00PW4
 40
1.6622340426
 41
11.6950037994
  0
MTEXT
  5
2F9
100
AcDbEntity
  8
0
100
AcDbMText
 62
2
  6
CONTINUOUS
  7
STANDARD
 71
2
 72
1
 10
77.1815837994
 20
31.6147067537
 30
0.0
 11
1.0
 21
0.0
 31
0.0
 44
0.9
  1
UNLESS OTHERWISE SPECIFIED\PDIMENSIONS IN MILLIMETERS [IN]
 40
1.0638297872
 41
34.9544072948
  0
MTEXT
  5
2FA
100
AcDbEntity
  8
0
100
AcDbMText
 62
2
  6
CONTINUOUS
  7
STANDARD
 71
2
 72
1
 10
69.4513591983
 20
25.1480341946
 30
0.0
 11
1.0
 21
0.0
 31
0.0
 44
0.9
  1
DECIMALS\P.X\Fgdt;{\Fgdt;`}\Ftxt;.5[.02]
 40
0.9574468085
 41
9.882218845
  0
MTEXT
  5
2FB
100
AcDbEntity
  8
0
100
AcDbMText
 62
2
  6
CONTINUOUS
  7
STANDARD
 71
2
 72
1
 10
78.7320083806
 20
25.1531309952
 30
0.0
 11
1.0
 21
0.0
 31
0.0
 44
0.9
  1
DECIMALS\P.XX\Fgdt;{\Fgdt;`}\Ftxt;.25[.010]
 40
0.9574468085
 41
13.0623100304
  0
MTEXT
  5
2FC
100
AcDbEntity
  8
0
100
AcDbMText
 62
2
  6
CONTINUOUS
  7
STANDARD
 71
2
 72
1
 10
77.0273537129
 20
20.9740831553
 30
0.0
 11
1.0
 21
0.0
 31
0.0
 44
0.9
  1
DEBURR EDGES .25 [.010] R MAX
 40
0.9574468085
 41
31.287993921
  0
INSERT
  5
2FD
100
AcDbEntity
  8
0
100
AcDbBlockReference
 62
7
  6
CONTINUOUS
  2
RD010411_BL0
 10
126.4768116894
 20
28.7352198423
  0
DIMENSION
  5
2FE
100
AcDbEntity
  8
0
100
AcDbDimension
 62
2
  6
CONTINUOUS
  2
*D0
 10
43.1154446527
 20
77.5370045153
 11
52.7135716836
 21
76.2903289834
 70
160
 71
2
 42
444.5
  3
DIMSTYLE_1
100
AcDbAlignedDimension
 13
60.6154446527
 23
82.5329440393
 14
43.1154446527
 24
82.5329440393
 50
180.0
100
AcDbRotatedDimension
  0
DIMENSION
  5
2FF
100
AcDbEntity
  8
0
100
AcDbDimension
 62
2
  6
CONTINUOUS
  2
*D1
 10
25.9298098877
 20
81.1908494674
 11
25.9298098877
 21
88.9647793666
 70
160
 71
2
 42
385.94
  3
DIMSTYLE_1
100
AcDbAlignedDimension
 13
46.9358996834
 23
96.3853376563
 14
58.0685628467
 24
81.1908494674
 50
270.0
100
AcDbRotatedDimension
  0
DIMENSION
  5
300
100
AcDbEntity
  8
0
100
AcDbDimension
 62
2
  6
CONTINUOUS
  2
*D2
 10
66.8416765226
 20
69.9393782679
 11
66.8416765226
 21
55.2325478529
 70
160
 71
2
 42
812.7
  3
DIMSTYLE_1
100
AcDbAlignedDimension
 13
60.9816177972
 23
37.9433152758
 14
60.9816177972
 24
69.9393782679
 50
90.0
100
AcDbRotatedDimension
  0
DIMENSION
  5
301
100
AcDbEntity
  8
0
100
AcDbDimension
 62
2
  6
CONTINUOUS
  2
*D3
 10
60.6154446527
 20
35.2697302074
 11
56.2404446527
 21
34.0230546755
 70
160
 71
2
 42
222.25
  3
DIMSTYLE_1
100
AcDbAlignedDimension
 13
51.8654446527
 23
37.1382258015
 14
60.6154446527
 24
37.5771421312
100
AcDbRotatedDimension
  0
DIMENSION
  5
302
100
AcDbEntity
  8
0
100
AcDbDimension
 62
2
  6
CONTINUOUS
  2
*D4
 10
115.4466559131
 20
53.061425512
 11
115.4466559131
 21
46.0228691051
 70
160
 71
2
 42
384.0
  3
DIMSTYLE_1
100
AcDbAlignedDimension
 13
110.4588754692
 23
37.9433152758
 14
105.5022679412
 24
53.061425512
 50
90.0
100
AcDbRotatedDimension
  0
DIMENSION
  5
303
100
AcDbEntity
  8
0
100
AcDbDimension
 62
2
  6
CONTINUOUS
  2
*D5
 10
101.8104025663
 20
74.7083407312
 11
106.832716869
 21
73.4616651993
 70
160
 71
2
 42
215.0
  3
DIMSTYLE_1
100
AcDbAlignedDimension
 13
110.2749694954
 23
70.3055514125
 14
101.8104025663
 24
55.0367474331
 50
180.0
100
AcDbRotatedDimension
  0
DIMENSION
  5
304
100
AcDbEntity
  8
0
100
AcDbDimension
 62
2
  6
CONTINUOUS
  2
*D6
 10
36.2421244269
 20
88.0565974989
 11
36.2421244269
 21
92.2621886482
 70
160
 71
2
 42
211.55
  3
DIMSTYLE_2
100
AcDbAlignedDimension
 13
46.9358996834
 23
96.3853376563
 14
49.9826858153
 24
88.0565974989
 50
270.0
100
AcDbRotatedDimension
  0
LWPOLYLINE
  5
305
100
AcDbEntity
  8
0
100
AcDbPolyline
 62
2
  6
CONTINUOUS
 90
2
 70
0
 43
0.2127659574
 10
170.3081841976
 20
111.7166836896
 10
63.0475458997
 20
111.7166836896
  0
LWPOLYLINE
  5
306
100
AcDbEntity
  8
0
100
AcDbPolyline
 62
2
  6
CONTINUOUS
 90
2
 70
0
 43
0.2127659574
 10
170.2018012189
 20
111.7166836896
 10
170.2018012189
 20
101.7432794343
  0
LWPOLYLINE
  5
307
100
AcDbEntity
  8
0
100
AcDbPolyline
 62
2
  6
CONTINUOUS
 90
2
 70
0
 43
0.2127659574
 10
170.2018012189
 20
108.3922156045
 10
63.1539288784
 20
108.3922156045
  0
LWPOLYLINE
  5
308
100
AcDbEntity
  8
0
100
AcDbPolyline
 62
2
  6
CONTINUOUS
 90
2
 70
0
 43
0.2127659574
 10
170.2018012189
 20
105.0677475194
 10
63.1539288784
 20
105.0677475194
  0
LWPOLYLINE
  5
309
100
AcDbEntity
  8
0
100
AcDbPolyline
 62
2
  6
CONTINUOUS
 90
2
 70
0
 43
0.2127659574
 10
170.3081841976
 20
101.7432794343
 10
63.0475458997
 20
101.7432794343
  0
LWPOLYLINE
  5
30A
100
AcDbEntity
  8
0
100
AcDbPolyline
 62
2
  6
CONTINUOUS
 90
2
 70
0
 43
0.2127659574
 10
162.2230778146
 20
108.3922156045
 10
162.2230778146
 20
101.7432794343
  0
LWPOLYLINE
  5
30B
100
AcDbEntity
  8
0
100
AcDbPolyline
 62
2
  6
CONTINUOUS
 90
2
 70
0
 43
0.2127659574
 10
150.2549927082
 20
108.3922156045
 10
150.2549927082
 20
101.7432794343
  0
LWPOLYLINE
  5
30C
100
AcDbEntity
  8
0
100
AcDbPolyline
 62
2
  6
CONTINUOUS
 90
2
 70
0
 43
0.2127659574
 10
144.935843772
 20
108.3922156045
 10
144.935843772
 20
101.7432794343
  0
LWPOLYLINE
  5
30D
100
AcDbEntity
  8
0
100
AcDbPolyline
 62
2
  6
CONTINUOUS
 90
2
 70
0
 43
0.2127659574
 10
77.1166948359
 20
108.3922156045
 10
77.1166948359
 20
101.7432794343
  0
LWPOLYLINE
  5
30E
100
AcDbEntity
  8
0
100
AcDbPolyline
 62
2
  6
CONTINUOUS
 90
2
 70
0
 43
0.2127659574
 10
68.4730778146
 20
108.3922156045
 10
68.4730778146
 20
101.7432794343
  0
LWPOLYLINE
  5
30F
100
AcDbEntity
  8
0
100
AcDbPolyline
 62
2
  6
CONTINUOUS
 90
2
 70
0
 43
0.2127659574
 10
63.1539288784
 20
111.7166836896
 10
63.1539288784
 20
101.7432794343
  0
MTEXT
  5
310
100
AcDbEntity
  8
0
100
AcDbMText
 62
2
  6
CONTINUOUS
  7
STANDARD
 71
2
 72
1
 10
116.6778650486
 20
110.8855666683
 30
0.0
 11
1.0
 21
0.0
 31
0.0
 44
0.9
  1
REVISIONS
 40
1.6622340426
 41
16.8598024316
  0
MTEXT
  5
311
100
AcDbEntity
  8
0
100
AcDbMText
 62
2
  6
CONTINUOUS
  7
STANDARD
 71
2
 72
1
 10
166.2124395167
 20
107.559768796
 30
0.0
 11
1.0
 21
0.0
 31
0.0
 44
0.9
  1
ISSUED
 40
1.6595744681
 41
11.4984802432
  0
MTEXT
  5
312
100
AcDbEntity
  8
0
100
AcDbMText
 62
2
  6
CONTINUOUS
  7
STANDARD
 71
2
 72
1
 10
156.2390352614
 20
107.559768796
 30
0.0
 11
1.0
 21
0.0
 31
0.0
 44
0.9
  1
EFF DATE
 40
1.6595744681
 41
15.5881458967
  0
MTEXT
  5
313
100
AcDbEntity
  8
0
100
AcDbMText
 62
2
  6
CONTINUOUS
  7
STANDARD
 71
2
 72
1
 10
147.5954182401
 20
107.5610985832
 30
0.0
 11
1.0
 21
0.0
 31
0.0
 44
0.9
  1
BY
 40
1.6622340426
 41
4.0962196049
  0
MTEXT
  5
314
100
AcDbEntity
  8
0
100
AcDbMText
 62
2
  6
CONTINUOUS
  7
STANDARD
 71
2
 72
1
 10
111.026269304
 20
107.559768796
 30
0.0
 11
1.0
 21
0.0
 31
0.0
 44
0.9
  1
DESCRIPTION
 40
1.6595744681
 41
21.2188449848
  0
MTEXT
  5
315
100
AcDbEntity
  8
0
100
AcDbMText
 62
2
  6
CONTINUOUS
  7
STANDARD
 71
2
 72
1
 10
72.7948863252
 20
107.5610985832
 30
0.0
 11
1.0
 21
0.0
 31
0.0
 44
0.9
  1
ECO
 40
1.6622340426
 41
5.8178191489
  0
MTEXT
  5
316
100
AcDbEntity
  8
0
100
AcDbMText
 62
2
  6
CONTINUOUS
  7
STANDARD
 71
2
 72
1
 10
65.8135033465
 20
107.559768796
 30
0.0
 11
1.0
 21
0.0
 31
0.0
 44
0.9
  1
REV
 40
1.6595744681
 41
5.8085106383
  0
MTEXT
  5
317
100
AcDbEntity
  8
0
100
AcDbMText
 62
2
  6
CONTINUOUS
  7
STANDARD
 71
2
 72
1
 10
166.2124395167
 20
104.2366304981
 30
0.0
 11
1.0
 21
0.0
 31
0.0
 44
0.9
  1
DD
 40
1.6622340426
 41
4.9867021277
  0
MTEXT
  5
318
100
AcDbEntity
  8
0
100
AcDbMText
 62
2
  6
CONTINUOUS
  7
STANDARD
 71
2
 72
1
 10
156.2390352614
 20
104.2366304981
 30
0.0
 11
1.0
 21
0.0
 31
0.0
 44
0.9
  1
16-SEP-13
 40
1.6622340426
 41
16.3255129179
  0
MTEXT
  5
319
100
AcDbEntity
  8
0
100
AcDbMText
 62
2
  6
CONTINUOUS
  7
STANDARD
 71
2
 72
1
 10
147.5954182401
 20
104.2366304981
 30
0.0
 11
1.0
 21
0.0
 31
0.0
 44
0.9
  1
 VU 
 40
1.6622340426
 41
8.4299012158
  0
MTEXT
  5
31A
100
AcDbEntity
  8
0
100
AcDbMText
 62
2
  6
CONTINUOUS
  7
STANDARD
 71
1
 72
1
 10
77.7815884529
 20
104.2366304981
 30
0.0
 11
1.0
 21
0.0
 31
0.0
 44
0.9
  1
ADD MOUNTING INFORMATION
 40
1.6622340426
 41
47.9079597264
  0
MTEXT
  5
31B
100
AcDbEntity
  8
0
100
AcDbMText
 62
2
  6
CONTINUOUS
  7
STANDARD
 71
2
 72
1
 10
72.7948863252
 20
104.2366304981
 30
0.0
 11
1.0
 21
0.0
 31
0.0
 44
0.9
  1
13080
 40
1.6622340426
 41
9.5578457447
  0
MTEXT
  5
31C
100
AcDbEntity
  8
0
100
AcDbMText
 62
2
  6
CONTINUOUS
  7
STANDARD
 71
2
 72
1
 10
65.8135033465
 20
104.2366304981
 30
0.0
 11
1.0
 21
0.0
 31
0.0
 44
0.9
  1
B
 40
1.6622340426
 41
2.4339855623
  0
LINE
  5
31D
100
AcDbEntity
  8
0
100
AcDbLine
 62
2
  6
CONTINUOUS
 10
65.1595744681
 20
18.6170212766
 11
89.0957446809
 21
18.6170212766
  0
LINE
  5
31E
100
AcDbEntity
  8
0
100
AcDbLine
 62
2
  6
CONTINUOUS
 10
65.1595744681
 20
18.6170212766
 11
65.1595744681
 21
11.9680851064
  0
LINE
  5
31F
100
AcDbEntity
  8
0
100
AcDbLine
 62
2
  6
CONTINUOUS
 10
65.1595744681
 20
11.9680851064
 11
89.0957446809
 21
11.9680851064
  0
LINE
  5
320
100
AcDbEntity
  8
0
100
AcDbLine
 62
2
  6
CONTINUOUS
 10
89.0957446809
 20
18.6170212766
 11
89.0957446809
 21
11.9680851064
  0
LINE
  5
321
100
AcDbEntity
  8
0
100
AcDbLine
 62
2
  6
CONTINUOUS
 10
65.1595744681
 20
11.9680851064
 11
89.0957446809
 21
11.9680851064
  0
LINE
  5
322
100
AcDbEntity
  8
0
100
AcDbLine
 62
2
  6
CONTINUOUS
 10
65.1595744681
 20
11.9680851064
 11
65.1595744681
 21
5.3191489362
  0
LINE
  5
323
100
AcDbEntity
  8
0
100
AcDbLine
 62
2
  6
CONTINUOUS
 10
65.1595744681
 20
5.3191489362
 11
89.0957446809
 21
5.3191489362
  0
LINE
  5
324
100
AcDbEntity
  8
0
100
AcDbLine
 62
2
  6
CONTINUOUS
 10
89.0957446809
 20
11.9680851064
 11
89.0957446809
 21
5.3191489362
  0
LINE
  5
325
100
AcDbEntity
  8
0
100
AcDbLine
 62
2
  6
CONTINUOUS
 10
89.0957446809
 20
29.2553191489
 11
107.7127659574
 21
29.2553191489
  0
LINE
  5
326
100
AcDbEntity
  8
0
100
AcDbLine
 62
2
  6
CONTINUOUS
 10
89.0957446809
 20
29.2553191489
 11
89.0957446809
 21
24.6841755319
  0
LINE
  5
327
100
AcDbEntity
  8
0
100
AcDbLine
 62
2
  6
CONTINUOUS
 10
89.0957446809
 20
24.6841755319
 11
107.7127659574
 21
24.6841755319
  0
LINE
  5
328
100
AcDbEntity
  8
0
100
AcDbLine
 62
2
  6
CONTINUOUS
 10
107.7127659574
 20
29.2553191489
 11
107.7127659574
 21
24.6841755319
  0
MTEXT
  5
329
100
AcDbEntity
  8
0
100
AcDbMText
 62
2
  6
CONTINUOUS
  7
STANDARD
 71
1
 72
1
 10
89.7606382979
 20
27.1775265957
 30
0.0
 11
1.0
 21
0.0
 31
0.0
 44
0.9
  1
J. DELARM 
 40
1.6622340426
 41
18.8188639818
  0
LINE
  5
32A
100
AcDbEntity
  8
0
100
AcDbLine
 62
2
  6
CONTINUOUS
 10
89.0957446809
 20
24.6010638298
 11
107.7127659574
 21
24.6010638298
  0
LINE
  5
32B
100
AcDbEntity
  8
0
100
AcDbLine
 62
2
  6
CONTINUOUS
 10
89.0957446809
 20
24.6010638298
 11
89.0957446809
 21
19.920212766
  0
LINE
  5
32C
100
AcDbEntity
  8
0
100
AcDbLine
 62
2
  6
CONTINUOUS
 10
89.0957446809
 20
19.920212766
 11
107.7127659574
 21
19.920212766
  0
LINE
  5
32D
100
AcDbEntity
  8
0
100
AcDbLine
 62
2
  6
CONTINUOUS
 10
107.7127659574
 20
24.6010638298
 11
107.7127659574
 21
19.920212766
  0
MTEXT
  5
32E
100
AcDbEntity
  8
0
100
AcDbMText
 62
2
  6
CONTINUOUS
  7
STANDARD
 71
1
 72
1
 10
89.7606382979
 20
22.4135638298
 30
0.0
 11
1.0
 21
0.0
 31
0.0
 44
0.9
  1
P. SANCHEZ 
 40
1.6622340426
 41
21.134118541
  0
LINE
  5
32F
100
AcDbEntity
  8
0
100
AcDbLine
 62
2
  6
CONTINUOUS
 10
89.0957446809
 20
19.9468085106
 11
107.7127659574
 21
19.9468085106
  0
LINE
  5
330
100
AcDbEntity
  8
0
100
AcDbLine
 62
2
  6
CONTINUOUS
 10
89.0957446809
 20
19.9468085106
 11
89.0957446809
 21
15.3756648936
  0
LINE
  5
331
100
AcDbEntity
  8
0
100
AcDbLine
 62
2
  6
CONTINUOUS
 10
89.0957446809
 20
15.3756648936
 11
107.7127659574
 21
15.3756648936
  0
LINE
  5
332
100
AcDbEntity
  8
0
100
AcDbLine
 62
2
  6
CONTINUOUS
 10
107.7127659574
 20
19.9468085106
 11
107.7127659574
 21
15.3756648936
  0
MTEXT
  5
333
100
AcDbEntity
  8
0
100
AcDbMText
 62
2
  6
CONTINUOUS
  7
STANDARD
 71
1
 72
1
 10
89.7606382979
 20
17.8690159574
 30
0.0
 11
1.0
 21
0.0
 31
0.0
 44
0.9
  1
-
 40
1.6622340426
 41
1.7809650456
  0
LINE
  5
334
100
AcDbEntity
  8
0
100
AcDbLine
 62
2
  6
CONTINUOUS
 10
89.0957446809
 20
15.2925531915
 11
107.7127659574
 21
15.2925531915
  0
LINE
  5
335
100
AcDbEntity
  8
0
100
AcDbLine
 62
2
  6
CONTINUOUS
 10
89.0957446809
 20
15.2925531915
 11
89.0957446809
 21
10.6117021277
  0
LINE
  5
336
100
AcDbEntity
  8
0
100
AcDbLine
 62
2
  6
CONTINUOUS
 10
89.0957446809
 20
10.6117021277
 11
107.7127659574
 21
10.6117021277
  0
LINE
  5
337
100
AcDbEntity
  8
0
100
AcDbLine
 62
2
  6
CONTINUOUS
 10
107.7127659574
 20
15.2925531915
 11
107.7127659574
 21
10.6117021277
  0
MTEXT
  5
338
100
AcDbEntity
  8
0
100
AcDbMText
 62
2
  6
CONTINUOUS
  7
STANDARD
 71
1
 72
1
 10
89.7606382979
 20
13.1050531915
 30
0.0
 11
1.0
 21
0.0
 31
0.0
 44
0.9
  1
-
 40
1.6622340426
 41
1.7809650456
  0
LINE
  5
339
100
AcDbEntity
  8
0
100
AcDbLine
 62
2
  6
CONTINUOUS
 10
107.7127659574
 20
29.2553191489
 11
117.0212765957
 21
29.2553191489
  0
LINE
  5
33A
100
AcDbEntity
  8
0
100
AcDbLine
 62
2
  6
CONTINUOUS
 10
107.7127659574
 20
29.2553191489
 11
107.7127659574
 21
24.5744680851
  0
LINE
  5
33B
100
AcDbEntity
  8
0
100
AcDbLine
 62
2
  6
CONTINUOUS
 10
107.7127659574
 20
24.5744680851
 11
117.0212765957
 21
24.5744680851
  0
LINE
  5
33C
100
AcDbEntity
  8
0
100
AcDbLine
 62
2
  6
CONTINUOUS
 10
117.0212765957
 20
29.2553191489
 11
117.0212765957
 21
24.5744680851
  0
MTEXT
  5
33D
100
AcDbEntity
  8
0
100
AcDbMText
 62
2
  6
CONTINUOUS
  7
STANDARD
 71
2
 72
1
 10
112.3670212766
 20
26.6821808511
 30
0.0
 11
1.0
 21
0.0
 31
0.0
 44
0.9
  1
08-OCT-12
 40
1.2765957447
 41
13.085106383
  0
LINE
  5
33E
100
AcDbEntity
  8
0
100
AcDbLine
 62
2
  6
CONTINUOUS
 10
107.7127659574
 20
24.6010638298
 11
117.0212765957
 21
24.6010638298
  0
LINE
  5
33F
100
AcDbEntity
  8
0
100
AcDbLine
 62
2
  6
CONTINUOUS
 10
107.7127659574
 20
24.6010638298
 11
107.7127659574
 21
19.920212766
  0
LINE
  5
340
100
AcDbEntity
  8
0
100
AcDbLine
 62
2
  6
CONTINUOUS
 10
107.7127659574
 20
19.920212766
 11
117.0212765957
 21
19.920212766
  0
LINE
  5
341
100
AcDbEntity
  8
0
100
AcDbLine
 62
2
  6
CONTINUOUS
 10
117.0212765957
 20
24.6010638298
 11
117.0212765957
 21
19.920212766
  0
MTEXT
  5
342
100
AcDbEntity
  8
0
100
AcDbMText
 62
2
  6
CONTINUOUS
  7
STANDARD
 71
2
 72
1
 10
112.3670212766
 20
22.0279255319
 30
0.0
 11
1.0
 21
0.0
 31
0.0
 44
0.9
  1
15-OCT-12
 40
1.2765957447
 41
12.537993921
  0
LINE
  5
343
100
AcDbEntity
  8
0
100
AcDbLine
 62
2
  6
CONTINUOUS
 10
107.7127659574
 20
19.9468085106
 11
117.0212765957
 21
19.9468085106
  0
LINE
  5
344
100
AcDbEntity
  8
0
100
AcDbLine
 62
2
  6
CONTINUOUS
 10
107.7127659574
 20
19.9468085106
 11
107.7127659574
 21
15.2659574468
  0
LINE
  5
345
100
AcDbEntity
  8
0
100
AcDbLine
 62
2
  6
CONTINUOUS
 10
107.7127659574
 20
15.2659574468
 11
117.0212765957
 21
15.2659574468
  0
LINE
  5
346
100
AcDbEntity
  8
0
100
AcDbLine
 62
2
  6
CONTINUOUS
 10
117.0212765957
 20
19.9468085106
 11
117.0212765957
 21
15.2659574468
  0
MTEXT
  5
347
100
AcDbEntity
  8
0
100
AcDbMText
 62
2
  6
CONTINUOUS
  7
STANDARD
 71
2
 72
1
 10
112.3670212766
 20
17.3736702128
 30
0.0
 11
1.0
 21
0.0
 31
0.0
 44
0.9
  1
-
 40
1.2765957447
 41
1.367781155
  0
LINE
  5
348
100
AcDbEntity
  8
0
100
AcDbLine
 62
2
  6
CONTINUOUS
 10
107.7127659574
 20
15.2925531915
 11
117.0212765957
 21
15.2925531915
  0
LINE
  5
349
100
AcDbEntity
  8
0
100
AcDbLine
 62
2
  6
CONTINUOUS
 10
107.7127659574
 20
15.2925531915
 11
107.7127659574
 21
10.7214095745
  0
LINE
  5
34A
100
AcDbEntity
  8
0
100
AcDbLine
 62
2
  6
CONTINUOUS
 10
107.7127659574
 20
10.7214095745
 11
117.0212765957
 21
10.7214095745
  0
LINE
  5
34B
100
AcDbEntity
  8
0
100
AcDbLine
 62
2
  6
CONTINUOUS
 10
117.0212765957
 20
15.2925531915
 11
117.0212765957
 21
10.7214095745
  0
MTEXT
  5
34C
100
AcDbEntity
  8
0
100
AcDbMText
 62
2
  6
CONTINUOUS
  7
STANDARD
 71
2
 72
1
 10
112.3670212766
 20
12.8291223404
 30
0.0
 11
1.0
 21
0.0
 31
0.0
 44
0.9
  1
-
 40
1.2765957447
 41
1.367781155
  0
LINE
  5
34D
100
AcDbEntity
  8
0
100
AcDbLine
 62
2
  6
CONTINUOUS
 10
89.0957446809
 20
10.6382978723
 11
117.0212765957
 21
10.6382978723
  0
LINE
  5
34E
100
AcDbEntity
  8
0
100
AcDbLine
 62
2
  6
CONTINUOUS
 10
89.0957446809
 20
10.6382978723
 11
89.0957446809
 21
7.9787234043
  0
LINE
  5
34F
100
AcDbEntity
  8
0
100
AcDbLine
 62
2
  6
CONTINUOUS
 10
89.0957446809
 20
7.9787234043
 11
117.0212765957
 21
7.9787234043
  0
LINE
  5
350
100
AcDbEntity
  8
0
100
AcDbLine
 62
2
  6
CONTINUOUS
 10
117.0212765957
 20
10.6382978723
 11
117.0212765957
 21
7.9787234043
  0
MTEXT
  5
351
100
AcDbEntity
  8
0
100
AcDbMText
 62
2
  6
CONTINUOUS
  7
STANDARD
 71
3
 72
1
 10
116.3563829787
 20
9.9800531915
 30
0.0
 11
1.0
 21
0.0
 31
0.0
 44
0.9
  1
FG-015230-2D.B.3
 40
1.170212766
 41
20.3951367781
  0
LINE
  5
352
100
AcDbEntity
  8
0
100
AcDbLine
 62
2
  6
CONTINUOUS
 10
89.0957446809
 20
7.9787234043
 11
117.0212765957
 21
7.9787234043
  0
LINE
  5
353
100
AcDbEntity
  8
0
100
AcDbLine
 62
2
  6
CONTINUOUS
 10
89.0957446809
 20
7.9787234043
 11
89.0957446809
 21
5.3191489362
  0
LINE
  5
354
100
AcDbEntity
  8
0
100
AcDbLine
 62
2
  6
CONTINUOUS
 10
89.0957446809
 20
5.3191489362
 11
117.0212765957
 21
5.3191489362
  0
LINE
  5
355
100
AcDbEntity
  8
0
100
AcDbLine
 62
2
  6
CONTINUOUS
 10
117.0212765957
 20
7.9787234043
 11
117.0212765957
 21
5.3191489362
  0
MTEXT
  5
356
100
AcDbEntity
  8
0
100
AcDbMText
 62
2
  6
CONTINUOUS
  7
STANDARD
 71
3
 72
1
 10
116.3563829787
 20
7.3204787234
 30
0.0
 11
1.0
 21
0.0
 31
0.0
 44
0.9
  1
FG-015230-3D.B.0
 40
1.170212766
 41
20.3951367781
  0
LINE
  5
357
100
AcDbEntity
  8
0
100
AcDbLine
 62
2
  6
CONTINUOUS
 10
117.0212765957
 20
25.2659574468
 11
170.2127659574
 21
25.2659574468
  0
LINE
  5
358
100
AcDbEntity
  8
0
100
AcDbLine
 62
2
  6
CONTINUOUS
 10
117.0212765957
 20
25.2659574468
 11
117.0212765957
 21
13.2978723404
  0
LINE
  5
359
100
AcDbEntity
  8
0
100
AcDbLine
 62
2
  6
CONTINUOUS
 10
117.0212765957
 20
13.2978723404
 11
170.2127659574
 21
13.2978723404
  0
LINE
  5
35A
100
AcDbEntity
  8
0
100
AcDbLine
 62
2
  6
CONTINUOUS
 10
170.2127659574
 20
25.2659574468
 11
170.2127659574
 21
13.2978723404
  0
MTEXT
  5
35B
100
AcDbEntity
  8
0
100
AcDbMText
 62
2
  6
CONTINUOUS
  7
STANDARD
 71
2
 72
1
 10
143.6170212766
 20
20.7180851064
 30
0.0
 11
1.0
 21
0.0
 31
0.0
 44
1.02
  1
SPEAKER, FINISHED, AP-5152
 40
2.1276595745
 41
61.4741641337
  0
LINE
  5
35C
100
AcDbEntity
  8
0
100
AcDbLine
 62
2
  6
CONTINUOUS
 10
117.0328968398
 20
13.2759624201
 11
122.352045776
 21
13.2759624201
  0
LINE
  5
35D
100
AcDbEntity
  8
0
100
AcDbLine
 62
2
  6
CONTINUOUS
 10
117.0328968398
 20
13.2759624201
 11
117.0328968398
 21
7.956813484
  0
LINE
  5
35E
100
AcDbEntity
  8
0
100
AcDbLine
 62
2
  6
CONTINUOUS
 10
117.0328968398
 20
7.956813484
 11
122.352045776
 21
7.956813484
  0
LINE
  5
35F
100
AcDbEntity
  8
0
100
AcDbLine
 62
2
  6
CONTINUOUS
 10
122.352045776
 20
13.2759624201
 11
122.352045776
 21
7.956813484
  0
MTEXT
  5
360
100
AcDbEntity
  8
0
100
AcDbMText
 62
2
  6
CONTINUOUS
  7
STANDARD
 71
2
 72
1
 10
119.6924713079
 20
10.9155900797
 30
0.0
 11
1.0
 21
0.0
 31
0.0
 44
0.9
  1
B
 40
2.1276595745
 41
2.5075987842
  0
LINE
  5
361
100
AcDbEntity
  8
0
100
AcDbLine
 62
2
  6
CONTINUOUS
 10
132.9842286978
 20
13.2444105226
 11
164.8991223148
 21
13.2444105226
  0
LINE
  5
362
100
AcDbEntity
  8
0
100
AcDbLine
 62
2
  6
CONTINUOUS
 10
132.9842286978
 20
13.2444105226
 11
132.9842286978
 21
7.9252615864
  0
LINE
  5
363
100
AcDbEntity
  8
0
100
AcDbLine
 62
2
  6
CONTINUOUS
 10
132.9842286978
 20
7.9252615864
 11
164.8991223148
 21
7.9252615864
  0
LINE
  5
364
100
AcDbEntity
  8
0
100
AcDbLine
 62
2
  6
CONTINUOUS
 10
164.8991223148
 20
13.2444105226
 11
164.8991223148
 21
7.9252615864
  0
MTEXT
  5
365
100
AcDbEntity
  8
0
100
AcDbMText
 62
2
  6
CONTINUOUS
  7
STANDARD
 71
2
 72
1
 10
148.9416755063
 20
11.2031871183
 30
0.0
 11
1.0
 21
0.0
 31
0.0
 44
0.9
  1
FG-015230-2D
 40
2.4468085106
 41
32.9445288754
  0
LINE
  5
366
100
AcDbEntity
  8
0
100
AcDbLine
 62
2
  6
CONTINUOUS
 10
164.8797861305
 20
13.2796576874
 11
170.1989350667
 21
13.2796576874
  0
LINE
  5
367
100
AcDbEntity
  8
0
100
AcDbLine
 62
2
  6
CONTINUOUS
 10
164.8797861305
 20
13.2796576874
 11
164.8797861305
 21
7.9605087513
  0
LINE
  5
368
100
AcDbEntity
  8
0
100
AcDbLine
 62
2
  6
CONTINUOUS
 10
164.8797861305
 20
7.9605087513
 11
170.1989350667
 21
7.9605087513
  0
LINE
  5
369
100
AcDbEntity
  8
0
100
AcDbLine
 62
2
  6
CONTINUOUS
 10
170.1989350667
 20
13.2796576874
 11
170.1989350667
 21
7.9605087513
  0
MTEXT
  5
36A
100
AcDbEntity
  8
0
100
AcDbMText
 62
2
  6
CONTINUOUS
  7
STANDARD
 71
2
 72
1
 10
167.5393605986
 20
10.7065193896
 30
0.0
 11
1.0
 21
0.0
 31
0.0
 44
0.9
  1
B
 40
1.914893617
 41
2.2568389058
  0
LINE
  5
36B
100
AcDbEntity
  8
0
100
AcDbLine
 62
2
  6
CONTINUOUS
 10
152.9321342486
 20
7.903498762
 11
170.2193682912
 21
7.903498762
  0
LINE
  5
36C
100
AcDbEntity
  8
0
100
AcDbLine
 62
2
  6
CONTINUOUS
 10
152.9321342486
 20
7.903498762
 11
152.9321342486
 21
5.2439242939
  0
LINE
  5
36D
100
AcDbEntity
  8
0
100
AcDbLine
 62
2
  6
CONTINUOUS
 10
152.9321342486
 20
5.2439242939
 11
170.2193682912
 21
5.2439242939
  0
LINE
  5
36E
100
AcDbEntity
  8
0
100
AcDbLine
 62
2
  6
CONTINUOUS
 10
170.2193682912
 20
7.903498762
 11
170.2193682912
 21
5.2439242939
  0
MTEXT
  5
36F
100
AcDbEntity
  8
0
100
AcDbMText
 62
2
  6
CONTINUOUS
  7
STANDARD
 71
3
 72
1
 10
169.5544746742
 20
7.5644030173
 30
0.0
 11
1.0
 21
0.0
 31
0.0
 44
0.9
  1
1 OF 1
 40
1.4893617021
 41
9.414893617
  0
LINE
  5
370
100
AcDbEntity
  8
0
100
AcDbLine
 62
2
  6
CONTINUOUS
 10
117.0027639585
 20
7.9662044352
 11
129.6410618309
 21
7.9662044352
  0
LINE
  5
371
100
AcDbEntity
  8
0
100
AcDbLine
 62
2
  6
CONTINUOUS
 10
117.0027639585
 20
7.9662044352
 11
117.0027639585
 21
5.2650741161
  0
LINE
  5
372
100
AcDbEntity
  8
0
100
AcDbLine
 62
2
  6
CONTINUOUS
 10
117.0027639585
 20
5.2650741161
 11
129.6410618309
 21
5.2650741161
  0
LINE
  5
373
100
AcDbEntity
  8
0
100
AcDbLine
 62
2
  6
CONTINUOUS
 10
129.6410618309
 20
7.9662044352
 11
129.6410618309
 21
5.2650741161
  0
MTEXT
  5
374
100
AcDbEntity
  8
0
100
AcDbMText
 62
2
  6
CONTINUOUS
  7
STANDARD
 71
3
 72
1
 10
128.9761682138
 20
7.372786882
 30
0.0
 11
1.0
 21
0.0
 31
0.0
 44
0.9
  1
0.094
 40
1.2765957447
 41
7.1124620061
  0
MTEXT
  5
375
100
AcDbEntity
  8
0
100
AcDbMText
 62
2
  6
CONTINUOUS
  7
STANDARD
 71
1
 72
1
 10
6.2624623495
 20
28.5748395213
 30
0.0
 11
1.0
 21
0.0
 31
0.0
 44
1.2
  3
5. PARTS ARE SYMMETRICAL ABOUT CENTER LINES \P   UNLESS OTHERWISE NOTED.\P4. SYMBOL    INDICATES CENTER OF BALANCE.\P3. SYMBOL \Fgdt;{\Fgdt;r}\Ftxt; INDICATES SUSPENSION POINT, \P   15 TOTAL:  M10-1.5 THD. \P2. TOLERANCES (MM): X \Fgdt;{\Fgdt;`}\Ftxt
  1
; 5, ANGLES: \Fgdt;{\Fgdt;`}\Ftxt; 1\Fgdt;{\Fgdt;~}\Ftxt;.\P1. NET WEIGHT APPROX. 36.3 KG (80 LBS)\PNOTE:  UNLESS OTHERWISE SPECIFIED
 40
1.4893617021
 41
76.914893617
  0
LEADER
  5
376
100
AcDbEntity
  8
0
100
AcDbLeader
 62
2
  6
CONTINUOUS
  3
STANDARD
 71
1
 72
0
 73
0
 75
0
 40
1.6622340426
 41
37.1628039514
 76
3
 10
52.215844185
 20
88.3110980742
 30
0.0
 10
63.7964872778
 20
94.7538111225
 30
0.0
 10
66.4560617459
 20
94.7538111225
 30
0.0
340
377
1001
ACAD
1000
DSTYLE
1002
{
1070
77
1070
0
1002
}
  0
MTEXT
  5
377
102
{ACAD_REACTORS
330
376
102
}
100
AcDbEntity
  8
0
100
AcDbMText
 62
2
  6
CONTINUOUS
  7
STANDARD
 71
1
 72
1
 10
66.4560617459
 20
95.5849281438
 30
0.0
 11
1.0
 21
0.0
 31
0.0
 44
0.9
  1
MOUNTING LOCATION TOP/BOTTOM\PUSES M10 FASTENER
 40
1.6622340426
 41
55.7442059271
  0
MTEXT
  5
378
100
AcDbEntity
  8
0
100
AcDbMText
 62
2
  6
CONTINUOUS
  7
STANDARD
 71
1
 72
1
 10
140.3133919933
 20
56.216239901
 30
0.0
 11
1.0
 21
0.0
 31
0.0
 44
0.9
  1
AP-5152
 40
1.6622340426
 41
13.2978723404
  0
INSERT
  5
379
100
AcDbEntity
  8
0
100
AcDbBlockReference
 62
2
  6
CONTINUOUS
  2
CG_3D_BL1
 10
18.8998184507
 20
21.8790477766
  0
INSERT
  5
37A
100
AcDbEntity
  8
0
100
AcDbBlockReference
 62
2
  6
CONTINUOUS
  2
CG_3D_BL2
 10
51.8690874953
 20
53.0556090284
  0
INSERT
  5
37B
100
AcDbEntity
  8
0
100
AcDbBlockReference
 62
2
  6
CONTINUOUS
  2
CG_3D_BL3
 10
101.8073854577
 20
53.0643112773
  0
LINE
  5
37C
100
AcDbEntity
  8
DEFAULT_3
100
AcDbLine
 62
7
  6
PHANTOM
 10
-0.0000206583
 20
-0.0
 11
-0.0000206583
 21
117.02109673
  0
LWPOLYLINE
  5
37D
100
AcDbEntity
  8
0
100
AcDbPolyline
 62
7
  6
CONTINUOUS
 90
2
 70
0
 43
0.2127659663
 10
2.7926430014
 20
56.7165248797
 10
2.7926430014
 20
60.3049267805
  0
LWPOLYLINE
  5
37E
100
AcDbEntity
  8
0
100
AcDbPolyline
 62
7
  6
CONTINUOUS
 90
2
 70
0
 43
0.3191489387
 10
5.3177382628
 20
111.6982360531
 10
5.3177382628
 20
5.3191489362
  0
LINE
  5
37F
100
AcDbEntity
  8
DEFAULT_3
100
AcDbLine
 62
7
  6
PHANTOM
 10
-0.0000206583
 20
-0.0
 11
180.8510638298
 21
-0.0
  0
LWPOLYLINE
  5
380
100
AcDbEntity
  8
0
100
AcDbPolyline
 62
7
  6
CONTINUOUS
 90
2
 70
0
 43
0.3191489387
 10
37.7774318626
 20
111.7652519357
 10
37.7774318626
 20
106.4461029996
  0
LWPOLYLINE
  5
381
100
AcDbEntity
  8
0
100
AcDbPolyline
 62
7
  6
CONTINUOUS
 90
2
 70
0
 43
0.2127659663
 10
85.9720836173
 20
2.7972699091
 10
89.560485518
 20
2.7972699091
  0
LWPOLYLINE
  5
382
100
AcDbEntity
  8
0
100
AcDbPolyline
 62
7
  6
CONTINUOUS
 90
2
 70
0
 43
0.3191489387
 10
5.3177382628
 20
5.3191489362
 10
170.2127659574
 20
5.3191489362
  0
LWPOLYLINE
  5
383
100
AcDbEntity
  8
0
100
AcDbPolyline
 62
7
  6
CONTINUOUS
 90
2
 70
0
 43
0.2127659663
 10
89.0957446809
 20
7.9787234043
 10
170.2127659574
 20
7.9787234043
  0
LWPOLYLINE
  5
384
100
AcDbEntity
  8
0
100
AcDbPolyline
 62
7
  6
CONTINUOUS
 90
2
 70
0
 43
0.2127659663
 10
46.5415737727
 20
5.3184622642
 10
46.5415737727
 20
-0.0006866719
  0
LWPOLYLINE
  5
385
100
AcDbEntity
  8
0
100
AcDbPolyline
 62
7
  6
CONTINUOUS
 90
2
 70
0
 43
0.2127659663
 10
46.5422317459
 20
111.6999177865
 10
46.5422317459
 20
117.0190667227
  0
LWPOLYLINE
  5
386
100
AcDbEntity
  8
0
100
AcDbPolyline
 62
7
  6
CONTINUOUS
 90
2
 70
0
 43
0.2127659663
 10
5.3196353193
 20
58.5107258301
 10
2.7926430014
 20
56.7165248797
  0
LINE
  5
387
100
AcDbEntity
  8
0
100
AcDbLine
 62
7
  6
CONTINUOUS
 10
89.0929876191
 20
11.9569009062
 11
65.1892908431
 21
5.4703319196
  0
LWPOLYLINE
  5
388
100
AcDbEntity
  8
0
100
AcDbPolyline
 62
7
  6
CONTINUOUS
 90
2
 70
0
 43
0.2127659663
 10
89.0957446809
 20
10.6382978723
 10
117.0212765957
 20
10.6382978723
  0
LWPOLYLINE
  5
389
100
AcDbEntity
  8
0
100
AcDbPolyline
 62
7
  6
CONTINUOUS
 90
2
 70
0
 43
0.2127659663
 10
89.0957446809
 20
11.9680851064
 10
65.1595744681
 20
11.9680851064
  0
LWPOLYLINE
  5
38A
100
AcDbEntity
  8
0
100
AcDbPolyline
 62
7
  6
CONTINUOUS
 90
2
 70
0
 43
0.2127659663
 10
117.0212765957
 20
13.2978723404
 10
170.2127659574
 20
13.2978723404
  0
LWPOLYLINE
  5
38B
100
AcDbEntity
  8
0
100
AcDbPolyline
 62
7
  6
CONTINUOUS
 90
2
 70
0
 43
0.2127659663
 10
5.3196353193
 20
58.5107258301
 10
2.7926430014
 20
60.3049267805
  0
LINE
  5
38C
100
AcDbEntity
  8
0
100
AcDbLine
 62
7
  6
CONTINUOUS
 10
89.1205900403
 20
18.5538795776
 11
65.1892908431
 21
12.067310591
  0
LWPOLYLINE
  5
38D
100
AcDbEntity
  8
0
100
AcDbPolyline
 62
7
  6
CONTINUOUS
 90
2
 70
0
 43
0.2127659663
 10
89.1135998318
 20
16.153869772
 10
117.0391317467
 20
16.153869772
  0
LWPOLYLINE
  5
38E
100
AcDbEntity
  8
0
100
AcDbPolyline
 62
7
  6
CONTINUOUS
 90
2
 70
0
 43
0.2127659663
 10
65.1595744681
 20
18.6170212766
 10
89.0957446809
 20
18.6170212766
  0
LWPOLYLINE
  5
38F
100
AcDbEntity
  8
0
100
AcDbPolyline
 62
7
  6
CONTINUOUS
 90
2
 70
0
 43
0.2127659663
 10
87.7626611589
 20
111.7025443476
 10
89.5568621092
 20
114.2295366654
  0
LWPOLYLINE
  5
390
100
AcDbEntity
  8
0
100
AcDbPolyline
 62
7
  6
CONTINUOUS
 90
2
 70
0
 43
0.2127659663
 10
89.0696821223
 20
21.6551346366
 10
116.9952140372
 20
21.6551346366
  0
LWPOLYLINE
  5
391
100
AcDbEntity
  8
0
100
AcDbPolyline
 62
7
  6
CONTINUOUS
 90
2
 70
0
 43
0.2127659663
 10
117.0212765957
 20
25.2659574468
 10
170.2127659574
 20
25.2659574468
  0
LWPOLYLINE
  5
392
100
AcDbEntity
  8
0
100
AcDbPolyline
 62
7
  6
CONTINUOUS
 90
2
 70
0
 43
0.2127659663
 10
89.163161946
 20
27.0872472028
 10
117.0886938609
 20
27.0872472028
  0
LINE
  5
393
100
AcDbEntity
  8
0
100
AcDbLine
 62
7
  6
CONTINUOUS
 10
65.2442423039
 20
32.4712781183
 11
89.0513306057
 21
18.6355644821
  0
LWPOLYLINE
  5
394
100
AcDbEntity
  8
0
100
AcDbPolyline
 62
7
  6
CONTINUOUS
 90
2
 70
0
 43
0.2127659663
 10
87.7662845676
 20
5.324262227
 10
89.560485518
 20
2.7972699091
  0
LWPOLYLINE
  5
395
100
AcDbEntity
  8
0
100
AcDbPolyline
 62
7
  6
CONTINUOUS
 90
2
 70
0
 43
0.2127659663
 10
65.1595744681
 20
5.3191489362
 10
65.1595744681
 20
32.579787234
  0
LWPOLYLINE
  5
396
100
AcDbEntity
  8
0
100
AcDbPolyline
 62
7
  6
CONTINUOUS
 90
2
 70
0
 43
0.2127659663
 10
5.3189005153
 20
31.9131583379
 10
-0.0002484208
 20
31.9131583379
  0
LWPOLYLINE
  5
397
100
AcDbEntity
  8
0
100
AcDbPolyline
 62
7
  6
CONTINUOUS
 90
2
 70
0
 43
0.2127659663
 10
170.3144480998
 20
31.913259911
 10
175.633597036
 20
31.913259911
  0
LWPOLYLINE
  5
398
100
AcDbEntity
  8
0
100
AcDbPolyline
 62
7
  6
CONTINUOUS
 90
2
 70
0
 43
0.2127659663
 10
65.1595744681
 20
32.579787234
 10
170.2127659574
 20
32.579787234
  0
LWPOLYLINE
  5
399
100
AcDbEntity
  8
0
100
AcDbPolyline
 62
7
  6
CONTINUOUS
 90
2
 70
0
 43
0.2127659663
 10
87.7626611589
 20
111.7025443476
 10
87.7626611589
 20
117.0216932837
  0
LWPOLYLINE
  5
39A
100
AcDbEntity
  8
0
100
AcDbPolyline
 62
7
  6
CONTINUOUS
 90
2
 70
0
 43
0.2127659663
 10
87.7662845676
 20
5.324262227
 10
87.7662845676
 20
0.0051132908
  0
LWPOLYLINE
  5
39B
100
AcDbEntity
  8
0
100
AcDbPolyline
 62
7
  6
CONTINUOUS
 90
2
 70
0
 43
0.2127659663
 10
89.0957446809
 20
5.3191489362
 10
89.0957446809
 20
32.579787234
  0
LWPOLYLINE
  5
39C
100
AcDbEntity
  8
0
100
AcDbPolyline
 62
7
  6
CONTINUOUS
 90
2
 70
0
 43
0.2127659663
 10
170.24933835
 20
58.5105118955
 10
175.5684872862
 20
58.5105118955
  0
LWPOLYLINE
  5
39D
100
AcDbEntity
  8
0
100
AcDbPolyline
 62
7
  6
CONTINUOUS
 90
2
 70
0
 43
0.2127659663
 10
5.3196353193
 20
58.5107258301
 10
0.0004863831
 20
58.5107258301
  0
LINE
  5
39E
100
AcDbEntity
  8
0
100
AcDbLine
 62
7
  6
CONTINUOUS
 10
89.1548396852
 20
32.4712781183
 11
65.2097392774
 21
18.6700675086
  0
LWPOLYLINE
  5
39F
100
AcDbEntity
  8
0
100
AcDbPolyline
 62
7
  6
CONTINUOUS
 90
2
 70
0
 43
0.2127659663
 10
117.0212765957
 20
5.3191489362
 10
117.0212765957
 20
32.579787234
  0
LWPOLYLINE
  5
3A0
100
AcDbEntity
  8
0
100
AcDbPolyline
 62
7
  6
CONTINUOUS
 90
2
 70
0
 43
0.2127659663
 10
122.3404255319
 20
7.9787234043
 10
122.3404255319
 20
13.2978723404
  0
LWPOLYLINE
  5
3A1
100
AcDbEntity
  8
0
100
AcDbPolyline
 62
7
  6
CONTINUOUS
 90
2
 70
0
 43
0.2127659663
 10
87.7662845676
 20
5.324262227
 10
85.9720836173
 20
2.7972699091
  0
LWPOLYLINE
  5
3A2
100
AcDbEntity
  8
0
100
AcDbPolyline
 62
7
  6
CONTINUOUS
 90
2
 70
0
 43
0.2127659663
 10
170.2609730604
 20
85.1030487608
 10
175.5801219965
 20
85.1030487608
  0
LWPOLYLINE
  5
3A3
100
AcDbEntity
  8
0
100
AcDbPolyline
 62
7
  6
CONTINUOUS
 90
2
 70
0
 43
0.2127659663
 10
5.3177369333
 20
85.103394197
 10
-0.0014120028
 20
85.103394197
  0
LWPOLYLINE
  5
3A4
100
AcDbEntity
  8
0
100
AcDbPolyline
 62
7
  6
CONTINUOUS
 90
2
 70
0
 43
0.2127659663
 10
87.7626611589
 20
111.7025443476
 10
85.9684602085
 20
114.2295366654
  0
LWPOLYLINE
  5
3A5
100
AcDbEntity
  8
0
100
AcDbPolyline
 62
7
  6
CONTINUOUS
 90
2
 70
0
 43
0.2127659663
 10
128.9863076617
 20
111.7173595753
 10
128.9863076617
 20
117.0365085114
  0
LWPOLYLINE
  5
3A6
100
AcDbEntity
  8
0
100
AcDbPolyline
 62
7
  6
CONTINUOUS
 90
2
 70
0
 43
0.2127659663
 10
128.9892616514
 20
5.3156596186
 10
128.9892616514
 20
-0.0034893176
  0
LWPOLYLINE
  5
3A7
100
AcDbEntity
  8
0
100
AcDbPolyline
 62
7
  6
CONTINUOUS
 90
2
 70
0
 43
0.2127659663
 10
129.6130741122
 20
5.3696825059
 10
129.6130741122
 20
8.0292569739
  0
LWPOLYLINE
  5
3A8
100
AcDbEntity
  8
0
100
AcDbPolyline
 62
7
  6
CONTINUOUS
 90
2
 70
0
 43
0.2127659663
 10
132.9787234043
 20
7.9787234043
 10
132.9787234043
 20
13.2978723404
  0
LWPOLYLINE
  5
3A9
100
AcDbEntity
  8
0
100
AcDbPolyline
 62
7
  6
CONTINUOUS
 90
2
 70
0
 43
0.2127659663
 10
170.24933835
 20
58.5105118955
 10
172.7763306679
 20
60.3047128459
  0
LWPOLYLINE
  5
3AA
100
AcDbEntity
  8
0
100
AcDbPolyline
 62
7
  6
CONTINUOUS
 90
2
 70
0
 43
0.3191489387
 10
37.7774318626
 20
106.4461029996
 10
5.1976446285
 20
106.4461029996
  0
LWPOLYLINE
  5
3AB
100
AcDbEntity
  8
0
100
AcDbPolyline
 62
7
  6
CONTINUOUS
 90
2
 70
0
 43
0.2127659663
 10
170.24933835
 20
58.5105118955
 10
172.7763306679
 20
56.7163109451
  0
LWPOLYLINE
  5
3AC
100
AcDbEntity
  8
0
100
AcDbPolyline
 62
7
  6
CONTINUOUS
 90
2
 70
0
 43
0.3191489387
 10
170.2127659574
 20
111.6982360531
 10
5.3177382628
 20
111.6982360531
  0
LWPOLYLINE
  5
3AD
100
AcDbEntity
  8
0
100
AcDbPolyline
 62
7
  6
CONTINUOUS
 90
2
 70
0
 43
0.2127659663
 10
85.9684602085
 20
114.2295366654
 10
89.5568621092
 20
114.2295366654
  0
LWPOLYLINE
  5
3AE
100
AcDbEntity
  8
0
100
AcDbPolyline
 62
7
  6
CONTINUOUS
 90
2
 70
0
 43
0.2127659663
 10
152.9255319149
 20
5.3191489362
 10
152.9255319149
 20
7.9787234043
  0
LINE
  5
3AF
100
AcDbEntity
  8
DEFAULT_3
100
AcDbLine
 62
7
  6
PHANTOM
 10
-0.0000206583
 20
117.02109673
 11
180.8511698795
 21
117.02109673
  0
LWPOLYLINE
  5
3B0
100
AcDbEntity
  8
0
100
AcDbPolyline
 62
7
  6
CONTINUOUS
 90
2
 70
0
 43
0.2127659663
 10
164.8936170213
 20
7.9787234043
 10
164.8936170213
 20
13.2978723404
  0
LWPOLYLINE
  5
3B1
100
AcDbEntity
  8
0
100
AcDbPolyline
 62
7
  6
CONTINUOUS
 90
2
 70
0
 43
0.3191489387
 10
170.2127659574
 20
111.6982360531
 10
170.2127659574
 20
5.3191489362
  0
LWPOLYLINE
  5
3B2
100
AcDbEntity
  8
0
100
AcDbPolyline
 62
7
  6
CONTINUOUS
 90
2
 70
0
 43
0.2127659663
 10
172.7763306679
 20
56.7163109451
 10
172.7763306679
 20
60.3047128459
  0
LINE
  5
3B3
100
AcDbEntity
  8
DEFAULT_3
100
AcDbLine
 62
7
  6
PHANTOM
 10
180.8510638298
 20
-0.0
 11
180.8510638298
 21
117.0173849893
  0
LINE
  5
3B4
100
AcDbEntity
  8
7_ALL_ROUNDS
100
AcDbLine
 62
7
  6
CONTINUOUS
 10
43.3516651251
 20
37.9433152758
 11
60.3792241802
 21
37.9433152758
  0
LINE
  5
3B5
100
AcDbEntity
  8
7_ALL_ROUNDS
100
AcDbLine
 62
9
  6
CONTINUOUS
 10
54.6054288345
 20
38.1795357482
 11
49.1254604708
 21
38.1795357482
  0
LINE
  5
3B6
100
AcDbEntity
  8
7_ALL_ROUNDS
100
AcDbLine
 62
9
  6
CONTINUOUS
 10
43.1154446527
 20
38.1795357482
 11
49.0789707254
 21
38.1795357482
  0
LINE
  5
3B7
100
AcDbEntity
  8
7_ALL_ROUNDS
100
AcDbLine
 62
9
  6
CONTINUOUS
 10
54.65191858
 20
38.1795357482
 11
60.6154446527
 21
38.1795357482
  0
LINE
  5
3B8
100
AcDbEntity
  8
0
100
AcDbLine
 62
7
  6
CONTINUOUS
 10
43.1154446527
 20
38.5338664569
 11
45.0599328416
 21
38.5338664569
  0
LINE
  5
3B9
100
AcDbEntity
  8
0
100
AcDbLine
 62
7
  6
CONTINUOUS
 10
58.6709564637
 20
38.5338664569
 11
60.6154446527
 21
38.5338664569
  0
LINE
  5
3BA
100
AcDbEntity
  8
3_ALL_AXES
100
AcDbLine
 62
7
  6
CONTINUOUS
 10
45.0599328416
 20
38.5338664569
 11
58.6709564637
 21
38.5338664569
  0
LINE
  5
3BB
100
AcDbEntity
  8
3_AXES_OTHER
100
AcDbLine
 62
7
  6
CONTINUOUS
 10
58.6550923315
 20
39.124417638
 11
45.0757969738
 21
39.124417638
  0
LINE
  5
3BC
100
AcDbEntity
  8
3_AXES_OTHER
100
AcDbLine
 62
7
  6
CONTINUOUS
 10
48.7079643377
 20
39.124417638
 11
44.3674131566
 21
43.2582759057
  0
LINE
  5
3BD
100
AcDbEntity
  8
7_ALL_ROUNDS
100
AcDbLine
 62
7
  6
CONTINUOUS
 10
43.1154446527
 20
69.7031577955
 11
43.1154446527
 21
69.3488270868
  0
LINE
  5
3BE
100
AcDbEntity
  8
7_ALL_ROUNDS
100
AcDbLine
 62
7
  6
CONTINUOUS
 10
43.1154446527
 20
38.1795357482
 11
43.1154446527
 21
38.5338664569
  0
LINE
  5
3BF
100
AcDbEntity
  8
3_AXES_OTHER
100
AcDbLine
 62
7
  6
CONTINUOUS
 10
43.1154446527
 20
38.5338664569
 11
43.1154446527
 21
69.3488270868
  0
LINE
  5
3C0
100
AcDbEntity
  8
3_AXES_OTHER
100
AcDbLine
 62
7
  6
CONTINUOUS
 10
43.32410607
 20
38.5338664569
 11
43.32410607
 21
69.3488270868
  0
LINE
  5
3C1
100
AcDbEntity
  8
3_AXES_OTHER
100
AcDbLine
 62
7
  6
CONTINUOUS
 10
43.853633629
 20
55.1362286616
 11
43.853633629
 21
68.6795357482
  0
LINE
  5
3C2
100
AcDbEntity
  8
3_AXES_OTHER
100
AcDbLine
 62
7
  6
CONTINUOUS
 10
44.3674131566
 20
38.5338664569
 11
44.3674131566
 21
43.2582759057
  0
LINE
  5
3C3
100
AcDbEntity
  8
7_ALL_ROUNDS
100
AcDbLine
 62
7
  6
CONTINUOUS
 10
45.0599328416
 20
69.7031577955
 11
45.0599328416
 21
69.3488270868
  0
LINE
  5
3C4
100
AcDbEntity
  8
7_ALL_ROUNDS
100
AcDbLine
 62
7
  6
CONTINUOUS
 10
45.0599328416
 20
38.1795357482
 11
45.0599328416
 21
38.5338664569
  0
LINE
  5
3C5
100
AcDbEntity
  8
3_AXES_OTHER
100
AcDbLine
 62
7
  6
CONTINUOUS
 10
45.0757969738
 20
69.3488270868
 11
45.0757969738
 21
68.7582759057
  0
LINE
  5
3C6
100
AcDbEntity
  8
3_AXES_OTHER
100
AcDbLine
 62
7
  6
CONTINUOUS
 10
45.0757969738
 20
39.124417638
 11
45.0757969738
 21
38.5338664569
  0
LINE
  5
3C7
100
AcDbEntity
  8
3_AXES_OTHER
100
AcDbLine
 62
7
  6
CONTINUOUS
 10
51.3308252103
 20
61.4560171234
 11
43.853633629
 21
55.1362286616
  0
LINE
  5
3C8
100
AcDbEntity
  8
3_AXES_OTHER
100
AcDbLine
 62
7
  6
CONTINUOUS
 10
52.400064095
 20
62.3597472864
 11
59.8772556763
 21
68.6795357482
  0
LINE
  5
3C9
100
AcDbEntity
  8
7_ALL_ROUNDS
100
AcDbLine
 62
7
  6
CONTINUOUS
 10
49.0789707254
 20
38.1795357482
 11
49.0789707254
 21
38.5338664569
  0
LINE
  5
3CA
100
AcDbEntity
  8
7_ALL_ROUNDS
100
AcDbLine
 62
7
  6
CONTINUOUS
 10
49.0789707254
 20
69.3488270868
 11
49.0789707254
 21
69.7031577955
  0
LINE
  5
3CB
100
AcDbEntity
  8
7_ALL_ROUNDS
100
AcDbLine
 62
7
  6
CONTINUOUS
 10
49.1254604708
 20
38.1795357482
 11
49.1254604708
 21
38.5338664569
  0
LINE
  5
3CC
100
AcDbEntity
  8
7_ALL_ROUNDS
100
AcDbLine
 62
7
  6
CONTINUOUS
 10
49.1254604708
 20
69.3488270868
 11
49.1254604708
 21
69.7031577955
  0
LINE
  5
3CD
100
AcDbEntity
  8
3_ALL_AXES
100
AcDbLine
 62
7
  6
CENTER
 10
51.8654446527
 20
53.061425512
 11
51.8654446527
 21
37.5755667176
  0
LINE
  5
3CE
100
AcDbEntity
  8
3_ALL_AXES
100
AcDbLine
 62
7
  6
CENTER
 10
51.8654446527
 20
53.061425512
 11
51.8654446527
 21
70.4165514554
  0
LINE
  5
3CF
100
AcDbEntity
  8
3_ALL_AXES
100
AcDbLine
 62
7
  6
CENTER
 10
51.8654446527
 20
53.061425512
 11
50.0010375842
 21
53.061425512
  0
LINE
  5
3D0
100
AcDbEntity
  8
3_ALL_AXES
100
AcDbLine
 62
7
  6
CENTER
 10
51.8654446527
 20
53.061425512
 11
53.7907926046
 21
53.061425512
  0
LINE
  5
3D1
100
AcDbEntity
  8
3_AXES_OTHER
100
AcDbLine
 62
7
  6
CONTINUOUS
 10
59.3634761487
 20
55.0437089766
 11
54.4028462275
 21
55.0437089766
  0
LINE
  5
3D2
100
AcDbEntity
  8
3_AXES_OTHER
100
AcDbLine
 62
7
  6
CONTINUOUS
 10
59.8772556763
 20
55.1362286616
 11
43.853633629
 21
55.1362286616
  0
LINE
  5
3D3
100
AcDbEntity
  8
3_AXES_OTHER
100
AcDbLine
 62
7
  6
CONTINUOUS
 10
54.4028462275
 20
55.0437089766
 11
59.3634761487
 21
50.3192995277
  0
LINE
  5
3D4
100
AcDbEntity
  8
7_ALL_ROUNDS
100
AcDbLine
 62
7
  6
CONTINUOUS
 10
54.6054288345
 20
38.1795357482
 11
54.6054288345
 21
38.5338664569
  0
LINE
  5
3D5
100
AcDbEntity
  8
7_ALL_ROUNDS
100
AcDbLine
 62
7
  6
CONTINUOUS
 10
54.6054288345
 20
69.3488270868
 11
54.6054288345
 21
69.7031577955
  0
LINE
  5
3D6
100
AcDbEntity
  8
7_ALL_ROUNDS
100
AcDbLine
 62
7
  6
CONTINUOUS
 10
54.65191858
 20
38.1795357482
 11
54.65191858
 21
38.5338664569
  0
LINE
  5
3D7
100
AcDbEntity
  8
7_ALL_ROUNDS
100
AcDbLine
 62
7
  6
CONTINUOUS
 10
54.65191858
 20
69.3488270868
 11
54.65191858
 21
69.7031577955
  0
LINE
  5
3D8
100
AcDbEntity
  8
3_AXES_OTHER
100
AcDbLine
 62
7
  6
CONTINUOUS
 10
52.400064095
 20
61.4560171234
 11
59.8772556763
 21
55.1362286616
  0
LINE
  5
3D9
100
AcDbEntity
  8
3_AXES_OTHER
100
AcDbLine
 62
7
  6
CONTINUOUS
 10
51.3308252103
 20
62.3597472864
 11
43.853633629
 21
68.6795357482
  0
LINE
  5
3DA
100
AcDbEntity
  8
3_AXES_OTHER
100
AcDbLine
 62
7
  6
CONTINUOUS
 10
58.6550923315
 20
69.3488270868
 11
58.6550923315
 21
68.7582759057
  0
LINE
  5
3DB
100
AcDbEntity
  8
3_AXES_OTHER
100
AcDbLine
 62
7
  6
CONTINUOUS
 10
58.6550923315
 20
39.124417638
 11
58.6550923315
 21
38.5338664569
  0
LINE
  5
3DC
100
AcDbEntity
  8
7_ALL_ROUNDS
100
AcDbLine
 62
7
  6
CONTINUOUS
 10
58.6709564637
 20
69.7031577955
 11
58.6709564637
 21
69.3488270868
  0
LINE
  5
3DD
100
AcDbEntity
  8
7_ALL_ROUNDS
100
AcDbLine
 62
7
  6
CONTINUOUS
 10
58.6709564637
 20
38.1795357482
 11
58.6709564637
 21
38.5338664569
  0
LINE
  5
3DE
100
AcDbEntity
  8
3_AXES_OTHER
100
AcDbLine
 62
7
  6
CONTINUOUS
 10
59.3634761487
 20
50.3192995277
 11
59.3634761487
 21
55.0437089766
  0
LINE
  5
3DF
100
AcDbEntity
  8
3_AXES_OTHER
100
AcDbLine
 62
7
  6
CONTINUOUS
 10
59.8772556763
 20
68.6795357482
 11
59.8772556763
 21
55.1362286616
  0
LINE
  5
3E0
100
AcDbEntity
  8
3_AXES_OTHER
100
AcDbLine
 62
7
  6
CONTINUOUS
 10
60.4067832353
 20
69.3488270868
 11
60.4067832353
 21
38.5338664569
  0
LINE
  5
3E1
100
AcDbEntity
  8
7_ALL_ROUNDS
100
AcDbLine
 62
7
  6
CONTINUOUS
 10
60.6154446527
 20
69.7031577955
 11
60.6154446527
 21
69.3488270868
  0
LINE
  5
3E2
100
AcDbEntity
  8
7_ALL_ROUNDS
100
AcDbLine
 62
7
  6
CONTINUOUS
 10
60.6154446527
 20
38.1795357482
 11
60.6154446527
 21
38.5338664569
  0
LINE
  5
3E3
100
AcDbEntity
  8
3_AXES_OTHER
100
AcDbLine
 62
7
  6
CONTINUOUS
 10
60.6154446527
 20
38.5338664569
 11
60.6154446527
 21
69.3488270868
  0
LINE
  5
3E4
100
AcDbEntity
  8
3_AXES_OTHER
100
AcDbLine
 62
7
  6
CONTINUOUS
 10
43.853633629
 20
68.6795357482
 11
59.8772556763
 21
68.6795357482
  0
LINE
  5
3E5
100
AcDbEntity
  8
3_AXES_OTHER
100
AcDbLine
 62
7
  6
CONTINUOUS
 10
58.6550923315
 20
68.7582759057
 11
45.0757969738
 21
68.7582759057
  0
LINE
  5
3E6
100
AcDbEntity
  8
3_ALL_AXES
100
AcDbLine
 62
7
  6
CONTINUOUS
 10
43.1154446527
 20
69.3488270868
 11
60.6154446527
 21
69.3488270868
  0
LINE
  5
3E7
100
AcDbEntity
  8
7_ALL_ROUNDS
100
AcDbLine
 62
9
  6
CONTINUOUS
 10
43.1154446527
 20
69.7031577955
 11
49.0789707254
 21
69.7031577955
  0
LINE
  5
3E8
100
AcDbEntity
  8
7_ALL_ROUNDS
100
AcDbLine
 62
9
  6
CONTINUOUS
 10
49.1254604708
 20
69.7031577955
 11
54.6054288345
 21
69.7031577955
  0
LINE
  5
3E9
100
AcDbEntity
  8
7_ALL_ROUNDS
100
AcDbLine
 62
9
  6
CONTINUOUS
 10
54.65191858
 20
69.7031577955
 11
60.6154446527
 21
69.7031577955
  0
LINE
  5
3EA
100
AcDbEntity
  8
7_ALL_ROUNDS
100
AcDbLine
 62
7
  6
CONTINUOUS
 10
43.3516651251
 20
69.9393782679
 11
60.3792241802
 21
69.9393782679
  0
LINE
  5
3EB
100
AcDbEntity
  8
7_ALL_ROUNDS
100
AcDbLine
 62
7
  6
CONTINUOUS
 10
43.1154446527
 20
83.1353376563
 11
43.1154446527
 21
83.8912431682
  0
LINE
  5
3EC
100
AcDbEntity
  8
7_ALL_ROUNDS
100
AcDbLine
 62
9
  6
CONTINUOUS
 10
43.3516651251
 20
83.1729365112
 11
43.3516651251
 21
83.8538295208
  0
LINE
  5
3ED
100
AcDbEntity
  8
3_ALL_AXES
100
AcDbLine
 62
7
  6
CENTER
 10
45.2368487819
 20
85.2731219888
 11
45.2368487819
 21
83.9927567685
  0
LINE
  5
3EE
100
AcDbEntity
  8
3_ALL_AXES
100
AcDbLine
 62
7
  6
CENTER
 10
45.2368487819
 20
85.2731219888
 11
45.2368487819
 21
86.5534872091
  0
LINE
  5
3EF
100
AcDbEntity
  8
7_ALL_ROUNDS
100
AcDbLine
 62
7
  6
CONTINUOUS
 10
47.0627650443
 20
96.0398461535
 11
43.1154446527
 21
83.8912431682
  0
LINE
  5
3F0
100
AcDbEntity
  8
7_ALL_ROUNDS
100
AcDbLine
 62
9
  6
CONTINUOUS
 10
47.2874240639
 20
95.9668500131
 11
43.3516651251
 21
83.8538295208
  0
LINE
  5
3F1
100
AcDbEntity
  8
3_ALL_AXES
100
AcDbLine
 62
7
  6
CONTINUOUS
 10
50.9445627629
 20
81.9753358302
 11
51.1044840227
 21
81.9753358302
  0
LINE
  5
3F2
100
AcDbEntity
  8
3_ALL_AXES
100
AcDbLine
 62
7
  6
CONTINUOUS
 10
50.5037399283
 20
82.0292846491
 11
50.927637566
 21
82.0292846491
  0
LINE
  5
3F3
100
AcDbEntity
  8
3_ALL_AXES
100
AcDbLine
 62
7
  6
CONTINUOUS
 10
51.1214092196
 20
82.0292846491
 11
51.2025037078
 21
82.0292846491
  0
LINE
  5
3F4
100
AcDbEntity
  8
3_ALL_AXES
100
AcDbLine
 62
7
  6
CONTINUOUS
 10
51.4368698495
 20
82.0292846491
 11
52.2037399283
 21
82.0292846491
  0
LINE
  5
3F5
100
AcDbEntity
  8
3_ALL_AXES
100
AcDbLine
 62
7
  6
CONTINUOUS
 10
52.5487911094
 20
82.0292846491
 11
53.2897674873
 21
82.0292846491
  0
LINE
  5
3F6
100
AcDbEntity
  8
3_ALL_AXES
100
AcDbLine
 62
7
  6
CONTINUOUS
 10
53.2897674873
 20
82.1404027594
 11
52.6578147314
 21
82.1404027594
  0
LINE
  5
3F7
100
AcDbEntity
  8
3_ALL_AXES
100
AcDbLine
 62
7
  6
CONTINUOUS
 10
52.0480509519
 20
82.1404027594
 11
51.4368698495
 21
82.1404027594
  0
LINE
  5
3F8
100
AcDbEntity
  8
3_ALL_AXES
100
AcDbLine
 62
7
  6
CONTINUOUS
 10
51.1584328416
 20
82.1404027594
 11
51.1214092196
 21
82.1404027594
  0
LINE
  5
3F9
100
AcDbEntity
  8
3_ALL_AXES
100
AcDbLine
 62
7
  6
CONTINUOUS
 10
50.927637566
 20
82.1404027594
 11
50.6161769361
 21
82.1404027594
  0
LINE
  5
3FA
100
AcDbEntity
  8
3_ALL_AXES
100
AcDbLine
 62
7
  6
CONTINUOUS
 10
51.1044840227
 20
82.1943752003
 11
50.9445627629
 21
82.1943752003
  0
LINE
  5
3FB
100
AcDbEntity
  8
3_ALL_AXES
100
AcDbLine
 62
7
  6
CONTINUOUS
 10
51.5253580385
 20
82.2515208696
 11
52.0480509519
 21
82.2515208696
  0
LINE
  5
3FC
100
AcDbEntity
  8
3_ALL_AXES
100
AcDbLine
 62
7
  6
CONTINUOUS
 10
52.2037399283
 20
82.3580366176
 11
51.6810470149
 21
82.3580366176
  0
LINE
  5
3FD
100
AcDbEntity
  8
3_ALL_AXES
100
AcDbLine
 62
7
  6
CONTINUOUS
 10
50.6161769361
 20
82.4691547279
 11
51.1584328416
 21
82.4691547279
  0
LINE
  5
3FE
100
AcDbEntity
  8
3_ALL_AXES
100
AcDbLine
 62
7
  6
CONTINUOUS
 10
51.6810470149
 20
82.4691547279
 11
52.2922281172
 21
82.4691547279
  0
LINE
  5
3FF
100
AcDbEntity
  8
3_ALL_AXES
100
AcDbLine
 62
7
  6
CONTINUOUS
 10
52.6578147314
 20
82.4691547279
 11
53.2897674873
 21
82.4691547279
  0
LINE
  5
400
100
AcDbEntity
  8
7_ALL_ROUNDS
100
AcDbLine
 62
9
  6
CONTINUOUS
 10
56.4434652414
 20
95.9668500131
 11
56.6681242604
 21
96.0398461555
  0
LINE
  5
401
100
AcDbEntity
  8
3_ALL_AXES
100
AcDbLine
 62
7
  6
CONTINUOUS
 10
53.2897674873
 20
82.5802728381
 11
52.5487911094
 21
82.5802728381
  0
LINE
  5
402
100
AcDbEntity
  8
3_ALL_AXES
100
AcDbLine
 62
7
  6
CONTINUOUS
 10
52.2922281172
 20
82.5802728381
 11
51.5253580385
 21
82.5802728381
  0
LINE
  5
403
100
AcDbEntity
  8
3_ALL_AXES
100
AcDbLine
 62
7
  6
CONTINUOUS
 10
51.2025037078
 20
82.5802728381
 11
50.5037399283
 21
82.5802728381
  0
LINE
  5
404
100
AcDbEntity
  8
7_ALL_ROUNDS
100
AcDbLine
 62
9
  6
CONTINUOUS
 10
47.5382933025
 20
96.1491171839
 11
47.5382933004
 21
96.3853376563
  0
LINE
  5
405
100
AcDbEntity
  8
3_ALL_AXES
100
AcDbLine
 62
7
  6
CENTER
 10
58.4940405234
 20
85.2731219888
 11
57.2136753031
 21
85.2731219888
  0
LINE
  5
406
100
AcDbEntity
  8
3_ALL_AXES
100
AcDbLine
 62
7
  6
CENTER
 10
45.2368487819
 20
85.2731219888
 11
43.9564835616
 21
85.2731219888
  0
LINE
  5
407
100
AcDbEntity
  8
3_ALL_AXES
100
AcDbLine
 62
7
  6
CENTER
 10
45.2368487819
 20
85.2731219888
 11
46.5172140022
 21
85.2731219888
  0
LINE
  5
408
100
AcDbEntity
  8
3_ALL_AXES
100
AcDbLine
 62
7
  6
CENTER
 10
58.4940405234
 20
85.2731219888
 11
59.7744057437
 21
85.2731219888
  0
LINE
  5
409
100
AcDbEntity
  8
3_ALL_AXES
100
AcDbLine
 62
7
  6
CONTINUOUS
 10
50.579129692
 20
82.1774500035
 11
50.579129692
 21
82.4321074838
  0
LINE
  5
40A
100
AcDbEntity
  8
3_ALL_AXES
100
AcDbLine
 62
7
  6
CONTINUOUS
 10
50.927637566
 20
82.1774500035
 11
50.927637566
 21
82.1404027594
  0
LINE
  5
40B
100
AcDbEntity
  8
3_ALL_AXES
100
AcDbLine
 62
7
  6
CONTINUOUS
 10
50.927637566
 20
82.0292846491
 11
50.927637566
 21
81.9922610271
  0
LINE
  5
40C
100
AcDbEntity
  8
3_ALL_AXES
100
AcDbLine
 62
7
  6
CONTINUOUS
 10
51.1214092196
 20
81.9922610271
 11
51.1214092196
 21
82.0292846491
  0
LINE
  5
40D
100
AcDbEntity
  8
3_ALL_AXES
100
AcDbLine
 62
7
  6
CONTINUOUS
 10
51.1214092196
 20
82.1404027594
 11
51.1214092196
 21
82.1774500035
  0
LINE
  5
40E
100
AcDbEntity
  8
3_ALL_AXES
100
AcDbLine
 62
7
  6
CONTINUOUS
 10
51.1954800857
 20
82.4321074838
 11
51.1954800857
 21
82.1774500035
  0
LINE
  5
40F
100
AcDbEntity
  8
3_ALL_AXES
100
AcDbLine
 62
7
  6
CONTINUOUS
 10
51.3324289046
 20
82.1331822869
 11
51.3324289046
 21
82.476221657
  0
LINE
  5
410
100
AcDbEntity
  8
3_ALL_AXES
100
AcDbLine
 62
7
  6
CONTINUOUS
 10
51.3998226054
 20
82.1033555153
 11
51.3998226054
 21
82.0663318932
  0
LINE
  5
411
100
AcDbEntity
  8
3_ALL_AXES
100
AcDbLine
 62
7
  6
CONTINUOUS
 10
51.6439997708
 20
82.3950838617
 11
51.6439997708
 21
82.4321074838
  0
LINE
  5
412
100
AcDbEntity
  8
3_ALL_AXES
100
AcDbLine
 62
7
  6
CENTER
 10
51.8654446527
 20
94.7947864752
 11
51.8654446527
 21
93.5144212549
  0
LINE
  5
413
100
AcDbEntity
  8
3_ALL_AXES
100
AcDbLine
 62
7
  6
CENTER
 10
51.8654446527
 20
88.0565974989
 11
51.8654446527
 21
80.995515489
  0
LINE
  5
414
100
AcDbEntity
  8
3_ALL_AXES
100
AcDbLine
 62
7
  6
CENTER
 10
51.8654446527
 20
94.7947864752
 11
51.8654446527
 21
96.0751516955
  0
LINE
  5
415
100
AcDbEntity
  8
3_ALL_AXES
100
AcDbLine
 62
7
  6
CENTER
 10
51.8654446527
 20
88.0565974989
 11
51.8654446527
 21
93.5144212549
  0
LINE
  5
416
100
AcDbEntity
  8
3_ALL_AXES
100
AcDbLine
 62
7
  6
CENTER
 10
51.8654446527
 20
96.0751516955
 11
51.8654446527
 21
97.1041159975
  0
LINE
  5
417
100
AcDbEntity
  8
7_ALL_ROUNDS
100
AcDbLine
 62
7
  6
CONTINUOUS
 10
49.0789707254
 20
81.4406342671
 11
49.5355703114
 21
82.845903296
  0
LINE
  5
418
100
AcDbEntity
  8
7_ALL_ROUNDS
100
AcDbLine
 62
7
  6
CONTINUOUS
 10
49.1254604708
 20
81.4422962725
 11
49.57713223
 21
82.83239901
  0
LINE
  5
419
100
AcDbEntity
  8
3_ALL_AXES
100
AcDbLine
 62
7
  6
CENTER
 10
51.8654446527
 20
88.0565974989
 11
50.5850794324
 21
88.0565974989
  0
LINE
  5
41A
100
AcDbEntity
  8
3_ALL_AXES
100
AcDbLine
 62
7
  6
CENTER
 10
51.8654446527
 20
88.0565974989
 11
53.145809873
 21
88.0565974989
  0
LINE
  5
41B
100
AcDbEntity
  8
3_ALL_AXES
100
AcDbLine
 62
7
  6
CONTINUOUS
 10
52.085098196
 20
82.2144736255
 11
52.085098196
 21
82.1774500035
  0
LINE
  5
41C
100
AcDbEntity
  8
3_ALL_AXES
100
AcDbLine
 62
7
  6
CONTINUOUS
 10
52.3292753613
 20
82.506201972
 11
52.3292753613
 21
82.543225594
  0
LINE
  5
41D
100
AcDbEntity
  8
3_ALL_AXES
100
AcDbLine
 62
7
  6
CONTINUOUS
 10
52.393125755
 20
82.3054263814
 11
52.393125755
 21
82.2955838617
  0
LINE
  5
41E
100
AcDbEntity
  8
3_ALL_AXES
100
AcDbLine
 62
7
  6
CONTINUOUS
 10
52.6207674873
 20
82.1774500035
 11
52.6207674873
 21
82.4321074838
  0
LINE
  5
41F
100
AcDbEntity
  8
7_ALL_ROUNDS
100
AcDbLine
 62
7
  6
CONTINUOUS
 10
54.6054288345
 20
81.4422962725
 11
54.1537570753
 21
82.83239901
  0
LINE
  5
420
100
AcDbEntity
  8
7_ALL_ROUNDS
100
AcDbLine
 62
7
  6
CONTINUOUS
 10
54.65191858
 20
81.4406342671
 11
54.195318994
 21
82.845903296
  0
LINE
  5
421
100
AcDbEntity
  8
3_ALL_AXES
100
AcDbLine
 62
7
  6
CONTINUOUS
 10
53.3268147314
 20
82.0663318932
 11
53.3268147314
 21
82.1033555153
  0
LINE
  5
422
100
AcDbEntity
  8
3_ALL_AXES
100
AcDbLine
 62
7
  6
CONTINUOUS
 10
53.3268147314
 20
82.506201972
 11
53.3268147314
 21
82.543225594
  0
LINE
  5
423
100
AcDbEntity
  8
7_ALL_ROUNDS
100
AcDbLine
 62
9
  6
CONTINUOUS
 10
56.1925960029
 20
96.1491171839
 11
56.1925960029
 21
96.3853376563
  0
LINE
  5
424
100
AcDbEntity
  8
7_ALL_ROUNDS
100
AcDbLine
 62
9
  6
CONTINUOUS
 10
47.2874240639
 20
95.9668500131
 11
47.0627650443
 21
96.0398461535
  0
LINE
  5
425
100
AcDbEntity
  8
3_ALL_AXES
100
AcDbLine
 62
7
  6
CENTER
 10
51.8654446527
 20
94.7947864752
 11
50.5850794324
 21
94.7947864752
  0
LINE
  5
426
100
AcDbEntity
  8
3_ALL_AXES
100
AcDbLine
 62
7
  6
CENTER
 10
51.8654446527
 20
94.7947864752
 11
53.145809873
 21
94.7947864752
  0
LINE
  5
427
100
AcDbEntity
  8
3_ALL_AXES
100
AcDbLine
 62
7
  6
CENTER
 10
58.4940405234
 20
85.2731219888
 11
58.4940405234
 21
83.9927567685
  0
LINE
  5
428
100
AcDbEntity
  8
3_ALL_AXES
100
AcDbLine
 62
7
  6
CENTER
 10
58.4940405234
 20
85.2731219888
 11
58.4940405234
 21
86.5534872091
  0
LINE
  5
429
100
AcDbEntity
  8
7_ALL_ROUNDS
100
AcDbLine
 62
9
  6
CONTINUOUS
 10
60.3792241802
 20
83.8538295208
 11
56.4434652414
 21
95.9668500131
  0
LINE
  5
42A
100
AcDbEntity
  8
7_ALL_ROUNDS
100
AcDbLine
 62
7
  6
CONTINUOUS
 10
60.6154446527
 20
83.8912431682
 11
56.668124261
 21
96.0398461535
  0
LINE
  5
42B
100
AcDbEntity
  8
7_ALL_ROUNDS
100
AcDbLine
 62
9
  6
CONTINUOUS
 10
56.1925960029
 20
96.1491171839
 11
47.5382933025
 21
96.1491171839
  0
LINE
  5
42C
100
AcDbEntity
  8
7_ALL_ROUNDS
100
AcDbLine
 62
7
  6
CONTINUOUS
 10
56.1925960029
 20
96.3853376563
 11
47.5382933025
 21
96.3853376563
  0
LINE
  5
42D
100
AcDbEntity
  8
7_ALL_ROUNDS
100
AcDbLine
 62
9
  6
CONTINUOUS
 10
60.3792241802
 20
83.8538295208
 11
60.3792241802
 21
83.1729365112
  0
LINE
  5
42E
100
AcDbEntity
  8
7_ALL_ROUNDS
100
AcDbLine
 62
7
  6
CONTINUOUS
 10
60.6154446527
 20
83.8912431682
 11
60.6154446527
 21
83.1353376563
  0
LINE
  5
42F
100
AcDbEntity
  8
7_ALL_ROUNDS
100
AcDbLine
 62
7
  6
CONTINUOUS
 10
95.3200481225
 20
37.9433152758
 11
110.038749023
 21
37.9433152758
  0
LINE
  5
430
100
AcDbEntity
  8
7_ALL_ROUNDS
100
AcDbLine
 62
9
  6
CONTINUOUS
 10
95.0804813064
 20
38.1795357482
 11
110.2749694954
 21
38.1795357482
  0
LINE
  5
431
100
AcDbEntity
  8
3_AXES_OTHER
100
AcDbLine
 62
7
  6
CONTINUOUS
 10
97.7808750072
 20
38.5338664569
 11
97.0249694954
 21
38.5338664569
  0
LINE
  5
432
100
AcDbEntity
  8
0
100
AcDbLine
 62
7
  6
CONTINUOUS
 10
95.0804813064
 20
38.5338664569
 11
97.0249694954
 21
38.5338664569
  0
LINE
  5
433
100
AcDbEntity
  8
3_AXES_OTHER
100
AcDbLine
 62
7
  6
CONTINUOUS
 10
95.2202093761
 20
39.124417638
 11
97.2218198891
 21
39.124417638
  0
LINE
  5
434
100
AcDbEntity
  8
7_ALL_ROUNDS
100
AcDbLine
 62
7
  6
CONTINUOUS
 10
95.0804813064
 20
69.7031577955
 11
95.0804813064
 21
69.3488270868
  0
LINE
  5
435
100
AcDbEntity
  8
7_ALL_ROUNDS
100
AcDbLine
 62
7
  6
CONTINUOUS
 10
95.0804813064
 20
38.1795357482
 11
95.0804813064
 21
38.5338664569
  0
LINE
  5
436
100
AcDbEntity
  8
3_AXES_OTHER
100
AcDbLine
 62
7
  6
CONTINUOUS
 10
95.2202093761
 20
69.3488270868
 11
95.2202093761
 21
68.7582759057
  0
LINE
  5
437
100
AcDbEntity
  8
3_AXES_OTHER
100
AcDbLine
 62
7
  6
CONTINUOUS
 10
95.2202093761
 20
39.124417638
 11
95.2202093761
 21
38.5338664569
  0
LINE
  5
438
100
AcDbEntity
  8
3_AXES_OTHER
100
AcDbLine
 62
7
  6
CONTINUOUS
 10
96.2044613446
 20
39.124417638
 11
96.2044613446
 21
38.5338664569
  0
LINE
  5
439
100
AcDbEntity
  8
3_AXES_OTHER
100
AcDbLine
 62
7
  6
CONTINUOUS
 10
96.2044613446
 20
68.7582759057
 11
96.2044613446
 21
69.3488270868
  0
LINE
  5
43A
100
AcDbEntity
  8
7_ALL_ROUNDS
100
AcDbLine
 62
7
  6
CONTINUOUS
 10
97.0249694954
 20
69.7031577955
 11
97.0249694954
 21
69.3488270868
  0
LINE
  5
43B
100
AcDbEntity
  8
7_ALL_ROUNDS
100
AcDbLine
 62
7
  6
CONTINUOUS
 10
97.0249694954
 20
38.1795357482
 11
97.0249694954
 21
38.5338664569
  0
LINE
  5
43C
100
AcDbEntity
  8
3_AXES_OTHER
100
AcDbLine
 62
7
  6
CONTINUOUS
 10
97.2218198891
 20
69.3488270868
 11
97.2218198891
 21
38.5338664569
  0
LINE
  5
43D
100
AcDbEntity
  8
7_ALL_ROUNDS
100
AcDbLine
 62
7
  6
CONTINUOUS
 10
97.7808750072
 20
38.1795357482
 11
97.7808750072
 21
38.5338664569
  0
LINE
  5
43E
100
AcDbEntity
  8
3_AXES_OTHER
100
AcDbLine
 62
7
  6
CONTINUOUS
 10
97.7808750072
 20
38.5338664569
 11
97.7808750072
 21
69.3488270868
  0
LINE
  5
43F
100
AcDbEntity
  8
7_ALL_ROUNDS
100
AcDbLine
 62
7
  6
CONTINUOUS
 10
97.7808750072
 20
69.3488270868
 11
97.7808750072
 21
69.7031577955
  0
LINE
  5
440
100
AcDbEntity
  8
3_ALL_AXES
100
AcDbLine
 62
7
  6
CENTER
 10
101.8104025663
 20
54.4343538161
 11
101.8104025663
 21
51.6268598821
  0
LINE
  5
441
100
AcDbEntity
  8
3_ALL_AXES
100
AcDbLine
 62
7
  6
CENTER
 10
100.0302886184
 20
53.061425512
 11
103.4729509207
 21
53.061425512
  0
LINE
  5
442
100
AcDbEntity
  8
7_ALL_ROUNDS
100
AcDbLine
 62
9
  6
CONTINUOUS
 10
109.9294779926
 20
69.7031577955
 11
109.9294779926
 21
38.1795357482
  0
LINE
  5
443
100
AcDbEntity
  8
7_ALL_ROUNDS
100
AcDbLine
 62
7
  6
CONTINUOUS
 10
110.2749694954
 20
69.7031577955
 11
110.2749694954
 21
38.1795357482
  0
LINE
  5
444
100
AcDbEntity
  8
3_AXES_OTHER
100
AcDbLine
 62
7
  6
CONTINUOUS
 10
95.2202093761
 20
68.7582759057
 11
97.2218198891
 21
68.7582759057
  0
LINE
  5
445
100
AcDbEntity
  8
3_ALL_AXES
100
AcDbLine
 62
7
  6
CONTINUOUS
 10
95.0804813064
 20
69.3488270868
 11
97.0249694954
 21
69.3488270868
  0
LINE
  5
446
100
AcDbEntity
  8
3_AXES_OTHER
100
AcDbLine
 62
7
  6
CONTINUOUS
 10
97.0249694954
 20
69.3488270868
 11
97.7808750072
 21
69.3488270868
  0
LINE
  5
447
100
AcDbEntity
  8
7_ALL_ROUNDS
100
AcDbLine
 62
9
  6
CONTINUOUS
 10
95.0804813064
 20
69.7031577955
 11
110.2749694954
 21
69.7031577955
  0
LINE
  5
448
100
AcDbEntity
  8
7_ALL_ROUNDS
100
AcDbLine
 62
7
  6
CONTINUOUS
 10
95.3200481225
 20
69.9393782679
 11
110.038749023
 21
69.9393782679
  0
LINE
  5
449
100
AcDbEntity
  8
7_ALL_ROUNDS
100
AcDbLine
 62
7
  6
CONTINUOUS
 10
137.3799532775
 20
88.5215506358
 11
137.35862736
 21
88.5041630652
  0
LINE
  5
44A
100
AcDbEntity
  8
7_ALL_ROUNDS
100
AcDbLine
 62
7
  6
CONTINUOUS
 10
137.3956486134
 20
88.5306147153
 11
137.8106748623
 21
88.7702929808
  0
LINE
  5
44B
100
AcDbEntity
  8
7_ALL_ROUNDS
100
AcDbLine
 62
7
  6
CONTINUOUS
 10
137.4936742267
 20
88.5208965894
 11
137.893186961
 21
88.7516157776
  0
LINE
  5
44C
100
AcDbEntity
  8
7_ALL_ROUNDS
100
AcDbLine
 62
7
  6
CONTINUOUS
 10
137.8206833977
 20
88.7745843069
 11
137.8106862964
 21
88.7702995841
  0
LINE
  5
44D
100
AcDbEntity
  8
7_ALL_ROUNDS
100
AcDbLine
 62
7
  6
CONTINUOUS
 10
147.2544476947
 20
91.5504822067
 11
137.8209035948
 21
88.7746458927
  0
LINE
  5
44E
100
AcDbEntity
  8
7_ALL_ROUNDS
100
AcDbLine
 62
7
  6
CONTINUOUS
 10
147.3097790855
 20
91.5224639441
 11
137.893186961
 21
88.7516157776
  0
LINE
  5
44F
100
AcDbEntity
  8
0
100
AcDbLine
 62
7
  6
CONTINUOUS
 10
140.0861858561
 20
88.4470043443
 11
140.0860820882
 21
88.4469453036
  0
LINE
  5
450
100
AcDbEntity
  8
7_ALL_ROUNDS
100
AcDbLine
 62
7
  6
CONTINUOUS
 10
137.3579373432
 20
65.6801585734
 11
137.3833031912
 21
65.6609581336
  0
LINE
  5
451
100
AcDbEntity
  8
3_AXES_OTHER
100
AcDbLine
 62
7
  6
CONTINUOUS
 10
137.5709445519
 20
67.3091702189
 11
138.1831030863
 21
66.9556477702
  0
LINE
  5
452
100
AcDbEntity
  8
3_AXES_OTHER
100
AcDbLine
 62
7
  6
CONTINUOUS
 10
145.0326079569
 20
63.0000486922
 11
147.5941742905
 21
61.5207403891
  0
LINE
  5
453
100
AcDbEntity
  8
7_ALL_ROUNDS
100
AcDbLine
 62
7
  6
CONTINUOUS
 10
140.0236311236
 20
86.0479240953
 11
140.930183197
 21
86.3146785769
  0
LINE
  5
454
100
AcDbEntity
  8
7_ALL_ROUNDS
100
AcDbLine
 62
7
  6
CONTINUOUS
 10
140.0518434201
 20
86.0327223453
 11
140.9466459619
 21
86.2960195074
  0
LINE
  5
455
100
AcDbEntity
  8
3_ALL_AXES
100
AcDbLine
 62
7
  6
CONTINUOUS
 10
139.8377351755
 20
85.5931669828
 11
139.8659881277
 21
85.6014804618
  0
LINE
  5
456
100
AcDbEntity
  8
3_AXES_OTHER
100
AcDbLine
 62
7
  6
CONTINUOUS
 10
141.4275433185
 20
65.4820357074
 11
138.0018127273
 21
66.7709404551
  0
LINE
  5
457
100
AcDbEntity
  8
3_AXES_OTHER
100
AcDbLine
 62
7
  6
CONTINUOUS
 10
148.0446305705
 20
61.6394705699
 11
147.9221988636
 21
61.7101750597
  0
LINE
  5
458
100
AcDbEntity
  8
3_AXES_OTHER
100
AcDbLine
 62
7
  6
CONTINUOUS
 10
141.4275433185
 20
65.4820357074
 11
143.7375755238
 21
64.1479887311
  0
LINE
  5
459
100
AcDbEntity
  8
3_ALL_AXES
100
AcDbLine
 62
7
  6
CONTINUOUS
 10
141.1502760116
 20
85.7345666231
 11
141.2996958247
 21
85.8208567837
  0
LINE
  5
45A
100
AcDbEntity
  8
3_ALL_AXES
100
AcDbLine
 62
7
  6
CONTINUOUS
 10
141.2678266204
 20
85.5662699268
 11
141.2461030775
 21
85.5537245491
  0
LINE
  5
45B
100
AcDbEntity
  8
3_ALL_AXES
100
AcDbLine
 62
7
  6
CONTINUOUS
 10
141.3547623724
 20
85.6164754507
 11
141.3330249694
 21
85.6039220687
  0
LINE
  5
45C
100
AcDbEntity
  8
3_ALL_AXES
100
AcDbLine
 62
7
  6
CONTINUOUS
 10
141.2678266204
 20
85.5395994658
 11
141.2592634989
 21
85.5346542506
  0
LINE
  5
45D
100
AcDbEntity
  8
3_ALL_AXES
100
AcDbLine
 62
7
  6
CONTINUOUS
 10
141.3547623724
 20
85.5898049897
 11
141.3330249694
 21
85.5772516077
  0
LINE
  5
45E
100
AcDbEntity
  8
3_ALL_AXES
100
AcDbLine
 62
7
  6
CONTINUOUS
 10
141.3597982426
 20
85.488065425
 11
141.3815217855
 21
85.5006108028
  0
LINE
  5
45F
100
AcDbEntity
  8
3_ALL_AXES
100
AcDbLine
 62
7
  6
CONTINUOUS
 10
141.4467201344
 20
85.5382629446
 11
141.4684575375
 21
85.5508163267
  0
LINE
  5
460
100
AcDbEntity
  8
3_ALL_AXES
100
AcDbLine
 62
7
  6
CONTINUOUS
 10
141.6613382965
 20
85.6120077274
 11
141.5119184834
 21
85.5257175669
  0
LINE
  5
461
100
AcDbEntity
  8
3_ALL_AXES
100
AcDbLine
 62
7
  6
CONTINUOUS
 10
141.6613382965
 20
85.5853372664
 11
141.5119184834
 21
85.4990471058
  0
LINE
  5
462
100
AcDbEntity
  8
3_ALL_AXES
100
AcDbLine
 62
7
  6
CONTINUOUS
 10
141.5662989515
 20
85.4643127186
 11
141.7675766777
 21
85.5805508997
  0
LINE
  5
463
100
AcDbEntity
  8
3_ALL_AXES
100
AcDbLine
 62
7
  6
CONTINUOUS
 10
141.5883412789
 20
85.4313697626
 11
141.566617736
 21
85.4188243848
  0
LINE
  5
464
100
AcDbEntity
  8
3_ALL_AXES
100
AcDbLine
 62
7
  6
CONTINUOUS
 10
141.5883412789
 20
85.4046993015
 11
141.566617736
 21
85.3921539238
  0
LINE
  5
465
100
AcDbEntity
  8
3_ALL_AXES
100
AcDbLine
 62
7
  6
CONTINUOUS
 10
141.9027828626
 20
85.4474823819
 11
141.9245064055
 21
85.4600277597
  0
LINE
  5
466
100
AcDbEntity
  8
3_ALL_AXES
100
AcDbLine
 62
7
  6
CONTINUOUS
 10
142.0556238335
 20
85.2368176877
 11
142.0339002906
 21
85.22427231
  0
LINE
  5
467
100
AcDbEntity
  8
3_ALL_AXES
100
AcDbLine
 62
7
  6
CONTINUOUS
 10
142.0556238335
 20
85.2101472267
 11
142.0339002906
 21
85.1976018489
  0
LINE
  5
468
100
AcDbEntity
  8
0
100
AcDbLine
 62
7
  6
CONTINUOUS
 10
149.5623217293
 20
89.4273146618
 11
149.5622179614
 21
89.4272556211
  0
LINE
  5
469
100
AcDbEntity
  8
0
100
AcDbLine
 62
7
  6
CONTINUOUS
 10
145.60870161
 20
87.144093262
 11
145.6085978421
 21
87.1440342213
  0
LINE
  5
46A
100
AcDbEntity
  8
3_AXES_OTHER
100
AcDbLine
 62
7
  6
CONTINUOUS
 10
145.9694395659
 20
62.1696243056
 11
143.7375755238
 21
64.1479887311
  0
LINE
  5
46B
100
AcDbEntity
  8
0
100
AcDbLine
 62
7
  6
CONTINUOUS
 10
137.056162141
 20
66.4142524091
 11
137.056162141
 21
66.6542865583
  0
LINE
  5
46C
100
AcDbEntity
  8
3_ALL_AXES
100
AcDbLine
 62
7
  6
CONTINUOUS
 10
137.056162141
 20
87.5292563969
 11
137.056162141
 21
87.7692905461
  0
LINE
  5
46D
100
AcDbEntity
  8
3_ALL_AXES
100
AcDbLine
 62
7
  6
CONTINUOUS
 10
142.3700654172
 20
85.2529303071
 11
142.3917889601
 21
85.2654756849
  0
LINE
  5
46E
100
AcDbEntity
  8
3_ALL_AXES
100
AcDbLine
 62
7
  6
CONTINUOUS
 10
142.2897248072
 20
85.1632623396
 11
142.2839497267
 21
85.1599272222
  0
LINE
  5
46F
100
AcDbEntity
  8
3_ALL_AXES
100
AcDbLine
 62
7
  6
CONTINUOUS
 10
142.2897248072
 20
85.1365918786
 11
142.2839497267
 21
85.1332567611
  0
LINE
  5
470
100
AcDbEntity
  8
3_ALL_AXES
100
AcDbLine
 62
7
  6
CONTINUOUS
 10
142.3482032724
 20
85.0427618784
 11
142.4976230856
 21
85.1290520389
  0
LINE
  5
471
100
AcDbEntity
  8
3_ALL_AXES
100
AcDbLine
 62
7
  6
CONTINUOUS
 10
142.697276859
 20
84.765867088
 11
142.7190004019
 21
84.7784124658
  0
LINE
  5
472
100
AcDbEntity
  8
3_ALL_AXES
100
AcDbLine
 62
7
  6
CONTINUOUS
 10
142.9553698272
 20
84.9149161545
 11
142.9770933701
 21
84.9274615323
  0
LINE
  5
473
100
AcDbEntity
  8
3_AXES_OTHER
100
AcDbLine
 62
7
  6
CONTINUOUS
 10
140.8378480516
 20
65.7039040093
 11
138.1831030863
 21
70.1561030923
  0
LINE
  5
474
100
AcDbEntity
  8
7_ALL_ROUNDS
100
AcDbLine
 62
7
  6
CONTINUOUS
 10
137.3330112347
 20
87.1104047445
 11
137.3330112347
 21
86.8703705954
  0
LINE
  5
475
100
AcDbEntity
  8
7_ALL_ROUNDS
100
AcDbLine
 62
7
  6
CONTINUOUS
 10
137.3330112347
 20
65.7553666076
 11
137.3330112347
 21
65.9954007567
  0
LINE
  5
476
100
AcDbEntity
  8
3_AXES_OTHER
100
AcDbLine
 62
7
  6
CONTINUOUS
 10
137.424304676
 20
86.825025504
 11
137.424304676
 21
86.5122847192
  0
LINE
  5
477
100
AcDbEntity
  8
3_AXES_OTHER
100
AcDbLine
 62
7
  6
CONTINUOUS
 10
137.424304676
 20
66.437428711
 11
137.424304676
 21
66.0373717958
  0
LINE
  5
478
100
AcDbEntity
  8
3_AXES_OTHER
100
AcDbLine
 62
7
  6
CONTINUOUS
 10
137.5709445519
 20
67.3091702189
 11
137.5709445519
 21
86.4369698965
  0
LINE
  5
479
100
AcDbEntity
  8
3_AXES_OTHER
100
AcDbLine
 62
7
  6
CONTINUOUS
 10
137.8816438835
 20
78.3766743118
 11
137.8816438835
 21
86.2773934857
  0
LINE
  5
47A
100
AcDbEntity
  8
3_AXES_OTHER
100
AcDbLine
 62
7
  6
CONTINUOUS
 10
138.1831030863
 20
66.9556477702
 11
138.1831030863
 21
70.1561030923
  0
LINE
  5
47B
100
AcDbEntity
  8
7_ALL_ROUNDS
100
AcDbLine
 62
7
  6
CONTINUOUS
 10
143.1760475937
 20
84.2284898669
 11
143.6319722611
 21
84.7452396432
  0
LINE
  5
47C
100
AcDbEntity
  8
7_ALL_ROUNDS
100
AcDbLine
 62
7
  6
CONTINUOUS
 10
143.2023709037
 20
84.2121972244
 11
143.6642822564
 21
84.7357323724
  0
LINE
  5
47D
100
AcDbEntity
  8
3_ALL_AXES
100
AcDbLine
 62
7
  6
CONTINUOUS
 10
143.0813495923
 20
83.7211012485
 11
143.1076521872
 21
83.7509128841
  0
LINE
  5
47E
100
AcDbEntity
  8
7_ALL_ROUNDS
100
AcDbLine
 62
7
  6
CONTINUOUS
 10
139.8377351755
 20
64.478162995
 11
139.8377351755
 21
64.7181971441
  0
LINE
  5
47F
100
AcDbEntity
  8
7_ALL_ROUNDS
100
AcDbLine
 62
7
  6
CONTINUOUS
 10
139.8377351755
 20
85.5931669828
 11
139.8377351755
 21
85.833201132
  0
LINE
  5
480
100
AcDbEntity
  8
7_ALL_ROUNDS
100
AcDbLine
 62
7
  6
CONTINUOUS
 10
139.8659881277
 20
64.462973208
 11
139.8659881277
 21
64.7030073572
  0
LINE
  5
481
100
AcDbEntity
  8
7_ALL_ROUNDS
100
AcDbLine
 62
7
  6
CONTINUOUS
 10
139.8659881277
 20
85.5779771958
 11
139.8659881277
 21
85.818011345
  0
LINE
  5
482
100
AcDbEntity
  8
3_AXES_OTHER
100
AcDbLine
 62
7
  6
CONTINUOUS
 10
145.3919315146
 20
81.9109685697
 11
145.8102132207
 21
82.1525268665
  0
LINE
  5
483
100
AcDbEntity
  8
0
100
AcDbLine
 62
7
  6
CONTINUOUS
 10
147.864818984
 20
83.9548323391
 11
147.8647152162
 21
83.9547732984
  0
LINE
  5
484
100
AcDbEntity
  8
3_AXES_OTHER
100
AcDbLine
 62
7
  6
CONTINUOUS
 10
144.1168982005
 20
81.1914934526
 11
137.8816438835
 21
78.3766743118
  0
LINE
  5
485
100
AcDbEntity
  8
3_ALL_AXES
100
AcDbLine
 62
7
  6
CONTINUOUS
 10
140.930183197
 20
86.3146785769
 11
140.930183197
 21
86.2911753109
  0
LINE
  5
486
100
AcDbEntity
  8
3_ALL_AXES
100
AcDbLine
 62
7
  6
CONTINUOUS
 10
141.0940960283
 20
85.8531393865
 11
141.0940960283
 21
85.8264689254
  0
LINE
  5
487
100
AcDbEntity
  8
3_ALL_AXES
100
AcDbLine
 62
7
  6
CONTINUOUS
 10
141.1412720844
 20
85.6953427801
 11
141.1412720844
 21
85.709459859
  0
LINE
  5
488
100
AcDbEntity
  8
3_ALL_AXES
100
AcDbLine
 62
7
  6
CONTINUOUS
 10
141.1502760116
 20
85.709459859
 11
141.1502760116
 21
85.682789398
  0
LINE
  5
489
100
AcDbEntity
  8
3_ALL_AXES
100
AcDbLine
 62
7
  6
CONTINUOUS
 10
141.1905930416
 20
86.292873548
 11
141.1905930416
 21
86.2637624718
  0
LINE
  5
48A
100
AcDbEntity
  8
3_ALL_AXES
100
AcDbLine
 62
7
  6
CONTINUOUS
 10
141.2461030775
 20
85.5537245491
 11
141.2461030775
 21
85.5422544132
  0
LINE
  5
48B
100
AcDbEntity
  8
3_ALL_AXES
100
AcDbLine
 62
7
  6
CONTINUOUS
 10
141.2678266204
 20
85.5662699268
 11
141.2678266204
 21
85.5395994658
  0
LINE
  5
48C
100
AcDbEntity
  8
3_ALL_AXES
100
AcDbLine
 62
7
  6
CONTINUOUS
 10
141.3330249694
 20
85.6039220687
 11
141.3330249694
 21
85.5772516077
  0
LINE
  5
48D
100
AcDbEntity
  8
3_ALL_AXES
100
AcDbLine
 62
7
  6
CONTINUOUS
 10
141.34239677
 20
85.8966079731
 11
141.34239677
 21
85.8699375121
  0
LINE
  5
48E
100
AcDbEntity
  8
3_ALL_AXES
100
AcDbLine
 62
7
  6
CONTINUOUS
 10
141.3547623724
 20
85.6164754507
 11
141.3547623724
 21
85.5898049897
  0
LINE
  5
48F
100
AcDbEntity
  8
3_ALL_AXES
100
AcDbLine
 62
7
  6
CONTINUOUS
 10
141.3746240293
 20
85.6164754507
 11
141.3746240293
 21
85.5898049897
  0
LINE
  5
490
100
AcDbEntity
  8
3_ALL_AXES
100
AcDbLine
 62
7
  6
CONTINUOUS
 10
141.4467201344
 20
85.5382629446
 11
141.4467201344
 21
85.5115924836
  0
LINE
  5
491
100
AcDbEntity
  8
3_ALL_AXES
100
AcDbLine
 62
7
  6
CONTINUOUS
 10
141.4684436773
 20
85.5257175669
 11
141.4684436773
 21
85.4990471058
  0
LINE
  5
492
100
AcDbEntity
  8
3_ALL_AXES
100
AcDbLine
 62
7
  6
CONTINUOUS
 10
141.4684575375
 20
85.5622864626
 11
141.4684575375
 21
85.5508163267
  0
LINE
  5
493
100
AcDbEntity
  8
3_ALL_AXES
100
AcDbLine
 62
7
  6
CONTINUOUS
 10
141.5119184834
 20
85.5257175669
 11
141.5119184834
 21
85.4990471058
  0
LINE
  5
494
100
AcDbEntity
  8
3_ALL_AXES
100
AcDbLine
 62
7
  6
CONTINUOUS
 10
141.566617736
 20
85.4188243848
 11
141.566617736
 21
85.3921539238
  0
LINE
  5
495
100
AcDbEntity
  8
3_ALL_AXES
100
AcDbLine
 62
7
  6
CONTINUOUS
 10
141.5883412789
 20
85.4313697626
 11
141.5883412789
 21
85.4046993015
  0
LINE
  5
496
100
AcDbEntity
  8
3_ALL_AXES
100
AcDbLine
 62
7
  6
CONTINUOUS
 10
141.631816085
 20
85.4313697626
 11
141.631816085
 21
85.4046993015
  0
LINE
  5
497
100
AcDbEntity
  8
3_ALL_AXES
100
AcDbLine
 62
7
  6
CONTINUOUS
 10
141.6613382965
 20
85.6120077274
 11
141.6613382965
 21
85.5853372664
  0
LINE
  5
498
100
AcDbEntity
  8
3_ALL_AXES
100
AcDbLine
 62
7
  6
CONTINUOUS
 10
141.6703422237
 20
85.5978906484
 11
141.6703422237
 21
85.6120077274
  0
LINE
  5
499
100
AcDbEntity
  8
7_ALL_ROUNDS
100
AcDbLine
 62
7
  6
CONTINUOUS
 10
147.8840762487
 20
82.9818626054
 11
147.4845635144
 21
82.7511434172
  0
LINE
  5
49A
100
AcDbEntity
  8
7_ALL_ROUNDS
100
AcDbLine
 62
7
  6
CONTINUOUS
 10
148.0446305705
 20
82.7544745578
 11
147.6011043871
 21
82.4983375383
  0
LINE
  5
49B
100
AcDbEntity
  8
3_AXES_OTHER
100
AcDbLine
 62
7
  6
CONTINUOUS
 10
147.6011043871
 20
82.2583033892
 11
148.0446305705
 21
82.5144404086
  0
LINE
  5
49C
100
AcDbEntity
  8
3_ALL_AXES
100
AcDbLine
 62
7
  6
CONTINUOUS
 10
141.752395146
 20
85.6598333115
 11
141.752395146
 21
85.6331628505
  0
LINE
  5
49D
100
AcDbEntity
  8
3_ALL_AXES
100
AcDbLine
 62
7
  6
CONTINUOUS
 10
141.7699490807
 20
85.5372730818
 11
141.7699490807
 21
85.5106026207
  0
LINE
  5
49E
100
AcDbEntity
  8
3_ALL_AXES
100
AcDbLine
 62
7
  6
CONTINUOUS
 10
141.8937789355
 20
85.4082585389
 11
141.8937789355
 21
85.4223756178
  0
LINE
  5
49F
100
AcDbEntity
  8
3_ALL_AXES
100
AcDbLine
 62
7
  6
CONTINUOUS
 10
141.9027828626
 20
85.4223756178
 11
141.9027828626
 21
85.3957051568
  0
LINE
  5
4A0
100
AcDbEntity
  8
3_ALL_AXES
100
AcDbLine
 62
7
  6
CONTINUOUS
 10
141.941829337
 20
85.5504347892
 11
141.941829337
 21
85.5237643282
  0
LINE
  5
4A1
100
AcDbEntity
  8
3_ALL_AXES
100
AcDbLine
 62
7
  6
CONTINUOUS
 10
141.9904254845
 20
85.22427231
 11
141.9904254845
 21
85.1976018489
  0
LINE
  5
4A2
100
AcDbEntity
  8
3_ALL_AXES
100
AcDbLine
 62
7
  6
CONTINUOUS
 10
142.0339002906
 20
85.22427231
 11
142.0339002906
 21
85.1976018489
  0
LINE
  5
4A3
100
AcDbEntity
  8
3_ALL_AXES
100
AcDbLine
 62
7
  6
CONTINUOUS
 10
142.0556238335
 20
85.2368176877
 11
142.0556238335
 21
85.2101472267
  0
LINE
  5
4A4
100
AcDbEntity
  8
3_ALL_AXES
100
AcDbLine
 62
7
  6
CONTINUOUS
 10
142.0646277606
 20
85.2227006088
 11
142.0646277606
 21
85.2368176877
  0
LINE
  5
4A5
100
AcDbEntity
  8
3_ALL_AXES
100
AcDbLine
 62
7
  6
CONTINUOUS
 10
142.2094719783
 20
85.2452622051
 11
142.2094719783
 21
85.2185917441
  0
LINE
  5
4A6
100
AcDbEntity
  8
3_ALL_AXES
100
AcDbLine
 62
7
  6
CONTINUOUS
 10
142.2839497267
 20
85.1599272222
 11
142.2839497267
 21
85.1332567611
  0
LINE
  5
4A7
100
AcDbEntity
  8
3_ALL_AXES
100
AcDbLine
 62
7
  6
CONTINUOUS
 10
142.2897248072
 20
85.1632623396
 11
142.2897248072
 21
85.1365918786
  0
LINE
  5
4A8
100
AcDbEntity
  8
3_ALL_AXES
100
AcDbLine
 62
7
  6
CONTINUOUS
 10
142.3391993453
 20
85.0035380353
 11
142.3391993453
 21
85.0176551143
  0
LINE
  5
4A9
100
AcDbEntity
  8
3_ALL_AXES
100
AcDbLine
 62
7
  6
CONTINUOUS
 10
142.3482032724
 20
85.0176551143
 11
142.3482032724
 21
84.9909846533
  0
LINE
  5
4AA
100
AcDbEntity
  8
3_ALL_AXES
100
AcDbLine
 62
7
  6
CONTINUOUS
 10
142.3917889601
 20
85.290582449
 11
142.3917889601
 21
85.2639119879
  0
LINE
  5
4AB
100
AcDbEntity
  8
3_ALL_AXES
100
AcDbLine
 62
7
  6
CONTINUOUS
 10
142.5423268288
 20
85.2036466097
 11
142.5423268288
 21
85.1769761486
  0
LINE
  5
4AC
100
AcDbEntity
  8
3_ALL_AXES
100
AcDbLine
 62
7
  6
CONTINUOUS
 10
142.7190004019
 20
84.8035192299
 11
142.7190004019
 21
84.7768487688
  0
LINE
  5
4AD
100
AcDbEntity
  8
7_ALL_ROUNDS
100
AcDbLine
 62
7
  6
CONTINUOUS
 10
147.8840762487
 20
82.9818626054
 11
152.6820695837
 21
88.4199583261
  0
LINE
  5
4AE
100
AcDbEntity
  8
3_ALL_AXES
100
AcDbLine
 62
7
  6
CONTINUOUS
 10
142.9770933701
 20
84.9525682964
 11
142.9770933701
 21
84.9258978353
  0
LINE
  5
4AF
100
AcDbEntity
  8
7_ALL_ROUNDS
100
AcDbLine
 62
7
  6
CONTINUOUS
 10
143.0813495923
 20
62.6060972607
 11
143.0813495923
 21
62.8461314099
  0
LINE
  5
4B0
100
AcDbEntity
  8
7_ALL_ROUNDS
100
AcDbLine
 62
7
  6
CONTINUOUS
 10
143.0813495923
 20
83.7211012485
 11
143.0813495923
 21
83.9611353977
  0
LINE
  5
4B1
100
AcDbEntity
  8
7_ALL_ROUNDS
100
AcDbLine
 62
7
  6
CONTINUOUS
 10
143.1076521872
 20
62.5897811395
 11
143.1076521872
 21
62.8298152887
  0
LINE
  5
4B2
100
AcDbEntity
  8
7_ALL_ROUNDS
100
AcDbLine
 62
7
  6
CONTINUOUS
 10
143.1076521872
 20
83.7047851273
 11
143.1076521872
 21
83.9448192765
  0
LINE
  5
4B3
100
AcDbEntity
  8
3_ALL_AXES
100
AcDbLine
 62
7
  6
CONTINUOUS
 10
143.6265247261
 20
84.8861194384
 11
143.6265247261
 21
84.8497561235
  0
LINE
  5
4B4
100
AcDbEntity
  8
3_ALL_AXES
100
AcDbLine
 62
7
  6
CONTINUOUS
 10
143.6319722611
 20
84.7452396432
 11
143.6319722611
 21
84.6991118865
  0
LINE
  5
4B5
100
AcDbEntity
  8
3_ALL_AXES
100
AcDbLine
 62
7
  6
CONTINUOUS
 10
143.6528661477
 20
84.7227932356
 11
143.6528661477
 21
84.7954991919
  0
LINE
  5
4B6
100
AcDbEntity
  8
7_ALL_ROUNDS
100
AcDbLine
 62
7
  6
CONTINUOUS
 10
148.0446305705
 20
82.7544745578
 11
152.8567182071
 21
88.2085449071
  0
LINE
  5
4B7
100
AcDbEntity
  8
3_ALL_AXES
100
AcDbLine
 62
7
  6
CONTINUOUS
 10
140.2893598644
 20
75.095662089
 11
140.2894283893
 21
75.0957016058
  0
LINE
  5
4B8
100
AcDbEntity
  8
3_ALL_AXES
100
AcDbLine
 62
7
  6
CONTINUOUS
 10
140.4167460354
 20
74.8749717339
 11
140.4168151012
 21
74.8750115628
  0
LINE
  5
4B9
100
AcDbEntity
  8
3_AXES_OTHER
100
AcDbLine
 62
7
  6
CONTINUOUS
 10
146.9820157561
 20
73.0585206656
 11
144.0713751774
 21
74.7394198556
  0
LINE
  5
4BA
100
AcDbEntity
  8
3_AXES_OTHER
100
AcDbLine
 62
7
  6
CONTINUOUS
 10
147.2834749588
 20
72.9471031186
 11
137.8816438835
 21
78.3766743118
  0
LINE
  5
4BB
100
AcDbEntity
  8
3_AXES_OTHER
100
AcDbLine
 62
7
  6
CONTINUOUS
 10
144.0713751774
 20
74.7394198556
 11
146.9820157561
 21
69.8580653434
  0
LINE
  5
4BC
100
AcDbEntity
  8
7_ALL_ROUNDS
100
AcDbLine
 62
7
  6
CONTINUOUS
 10
145.3192545747
 20
82.4983375383
 11
145.3192545747
 21
82.2583033892
  0
LINE
  5
4BD
100
AcDbEntity
  8
7_ALL_ROUNDS
100
AcDbLine
 62
7
  6
CONTINUOUS
 10
145.3192545747
 20
61.1432994013
 11
145.3192545747
 21
61.3833335505
  0
LINE
  5
4BE
100
AcDbEntity
  8
3_AXES_OTHER
100
AcDbLine
 62
7
  6
CONTINUOUS
 10
145.3919315146
 20
82.2426452191
 11
145.3919315146
 21
81.9109685697
  0
LINE
  5
4BF
100
AcDbEntity
  8
3_AXES_OTHER
100
AcDbLine
 62
7
  6
CONTINUOUS
 10
145.3919315146
 20
61.8361125616
 11
145.3919315146
 21
61.4360556463
  0
LINE
  5
4C0
100
AcDbEntity
  8
3_AXES_OTHER
100
AcDbLine
 62
7
  6
CONTINUOUS
 10
145.9694395659
 20
62.1696243056
 11
145.9694395659
 21
61.7695673904
  0
LINE
  5
4C1
100
AcDbEntity
  8
3_AXES_OTHER
100
AcDbLine
 62
7
  6
CONTINUOUS
 10
144.7442721702
 20
80.8291840678
 11
147.2834749588
 21
72.9471031186
  0
LINE
  5
4C2
100
AcDbEntity
  8
3_AXES_OTHER
100
AcDbLine
 62
7
  6
CONTINUOUS
 10
146.9820157561
 20
69.8580653434
 11
146.9820157561
 21
73.0585206656
  0
LINE
  5
4C3
100
AcDbEntity
  8
3_AXES_OTHER
100
AcDbLine
 62
7
  6
CONTINUOUS
 10
147.2834749588
 20
82.1217417087
 11
147.2834749588
 21
72.9471031186
  0
LINE
  5
4C4
100
AcDbEntity
  8
3_AXES_OTHER
100
AcDbLine
 62
7
  6
CONTINUOUS
 10
147.5941742905
 20
82.2583033892
 11
147.5941742905
 21
61.5207403891
  0
LINE
  5
4C5
100
AcDbEntity
  8
7_ALL_ROUNDS
100
AcDbLine
 62
7
  6
CONTINUOUS
 10
147.6011043871
 20
82.4983375383
 11
147.6011043871
 21
82.2583033892
  0
LINE
  5
4C6
100
AcDbEntity
  8
7_ALL_ROUNDS
100
AcDbLine
 62
7
  6
CONTINUOUS
 10
147.6011043871
 20
61.1432994013
 11
147.6011043871
 21
61.3833335505
  0
LINE
  5
4C7
100
AcDbEntity
  8
3_AXES_OTHER
100
AcDbLine
 62
7
  6
CONTINUOUS
 10
147.9221988636
 20
61.7101750597
 11
147.9221988636
 21
82.4437359189
  0
LINE
  5
4C8
100
AcDbEntity
  8
7_ALL_ROUNDS
100
AcDbLine
 62
7
  6
CONTINUOUS
 10
148.0446305705
 20
61.3994364208
 11
148.0446305705
 21
61.6394705699
  0
LINE
  5
4C9
100
AcDbEntity
  8
3_AXES_OTHER
100
AcDbLine
 62
7
  6
CONTINUOUS
 10
148.0446305705
 20
61.6394705699
 11
148.0446305705
 21
82.5144404086
  0
LINE
  5
4CA
100
AcDbEntity
  8
7_ALL_ROUNDS
100
AcDbLine
 62
7
  6
CONTINUOUS
 10
148.0446305705
 20
82.5144404086
 11
148.0446305705
 21
82.7544745578
  0
LINE
  5
4CB
100
AcDbEntity
  8
3_AXES_OTHER
100
AcDbLine
 62
7
  6
CONTINUOUS
 10
144.1168982005
 20
81.8037071147
 11
141.1451773526
 21
84.5430147797
  0
LINE
  5
4CC
100
AcDbEntity
  8
3_AXES_OTHER
100
AcDbLine
 62
7
  6
CONTINUOUS
 10
137.3330112347
 20
67.3131723598
 11
137.5709445519
 21
67.4505791984
  0
LINE
  5
4CD
100
AcDbEntity
  8
3_AXES_OTHER
100
AcDbLine
 62
7
  6
CONTINUOUS
 10
138.1831030863
 20
66.9556477702
 11
139.6026420973
 21
67.7754336247
  0
LINE
  5
4CE
100
AcDbEntity
  8
3_AXES_OTHER
100
AcDbLine
 62
7
  6
CONTINUOUS
 10
137.424304676
 20
66.437428711
 11
138.0018127273
 21
66.7709404551
  0
LINE
  5
4CF
100
AcDbEntity
  8
3_AXES_OTHER
100
AcDbLine
 62
7
  6
CONTINUOUS
 10
144.7442721702
 20
81.4413977299
 11
147.2834749588
 21
82.1217417087
  0
LINE
  5
4D0
100
AcDbEntity
  8
3_ALL_AXES
100
AcDbLine
 62
7
  6
CONTINUOUS
 10
141.2461030775
 20
85.5422544132
 11
141.3399365857
 21
85.488065425
  0
LINE
  5
4D1
100
AcDbEntity
  8
3_ALL_AXES
100
AcDbLine
 62
7
  6
CONTINUOUS
 10
141.0191054529
 20
85.7099067648
 11
141.2678266204
 21
85.5662699268
  0
LINE
  5
4D2
100
AcDbEntity
  8
3_ALL_AXES
100
AcDbLine
 62
7
  6
CONTINUOUS
 10
141.3815217855
 20
85.5006108028
 11
141.4291038288
 21
85.4731321031
  0
LINE
  5
4D3
100
AcDbEntity
  8
3_ALL_AXES
100
AcDbLine
 62
7
  6
CONTINUOUS
 10
141.566617736
 20
85.3937176207
 11
142.0165773591
 21
85.1338652804
  0
LINE
  5
4D4
100
AcDbEntity
  8
3_ALL_AXES
100
AcDbLine
 62
7
  6
CONTINUOUS
 10
142.2190355117
 20
85.0169454013
 11
142.6538020529
 21
84.765867088
  0
LINE
  5
4D5
100
AcDbEntity
  8
3_AXES_OTHER
100
AcDbLine
 62
7
  6
CONTINUOUS
 10
147.197556906
 20
82.1713595099
 11
147.2834749588
 21
82.1217417087
  0
LINE
  5
4D6
100
AcDbEntity
  8
3_ALL_AXES
100
AcDbLine
 62
7
  6
CONTINUOUS
 10
142.7190004019
 20
84.7768487688
 11
142.3482032724
 21
84.9909846533
  0
LINE
  5
4D7
100
AcDbEntity
  8
3_ALL_AXES
100
AcDbLine
 62
7
  6
CONTINUOUS
 10
141.9904254845
 20
85.1976018489
 11
141.631816085
 21
85.4046993015
  0
LINE
  5
4D8
100
AcDbEntity
  8
3_ALL_AXES
100
AcDbLine
 62
7
  6
CONTINUOUS
 10
141.4684436773
 20
85.4990471058
 11
141.4467201344
 21
85.5115924836
  0
LINE
  5
4D9
100
AcDbEntity
  8
3_ALL_AXES
100
AcDbLine
 62
7
  6
CONTINUOUS
 10
141.3330249694
 20
85.5772516077
 11
141.1502760116
 21
85.682789398
  0
LINE
  5
4DA
100
AcDbEntity
  8
3_ALL_AXES
100
AcDbLine
 62
7
  6
CONTINUOUS
 10
142.7190004019
 20
84.8035192299
 11
142.3482032724
 21
85.0176551143
  0
LINE
  5
4DB
100
AcDbEntity
  8
3_ALL_AXES
100
AcDbLine
 62
7
  6
CONTINUOUS
 10
141.9904254845
 20
85.22427231
 11
141.631816085
 21
85.4313697626
  0
LINE
  5
4DC
100
AcDbEntity
  8
3_ALL_AXES
100
AcDbLine
 62
7
  6
CONTINUOUS
 10
141.4684436773
 20
85.5257175669
 11
141.4467201344
 21
85.5382629446
  0
LINE
  5
4DD
100
AcDbEntity
  8
3_ALL_AXES
100
AcDbLine
 62
7
  6
CONTINUOUS
 10
141.3330249694
 20
85.6039220687
 11
141.1502760116
 21
85.709459859
  0
LINE
  5
4DE
100
AcDbEntity
  8
3_ALL_AXES
100
AcDbLine
 62
7
  6
CONTINUOUS
 10
141.4552971162
 20
85.5432161641
 11
141.3746240293
 21
85.5898049897
  0
LINE
  5
4DF
100
AcDbEntity
  8
3_ALL_AXES
100
AcDbLine
 62
7
  6
CONTINUOUS
 10
141.4684575375
 20
85.5622864626
 11
141.3746240293
 21
85.6164754507
  0
LINE
  5
4E0
100
AcDbEntity
  8
3_ALL_AXES
100
AcDbLine
 62
7
  6
CONTINUOUS
 10
141.7489347178
 20
85.4390378646
 11
142.0556238335
 21
85.2619244518
  0
LINE
  5
4E1
100
AcDbEntity
  8
3_ALL_AXES
100
AcDbLine
 62
7
  6
CONTINUOUS
 10
142.2094719783
 20
85.2185917441
 11
141.9027828626
 21
85.3957051568
  0
LINE
  5
4E2
100
AcDbEntity
  8
3_ALL_AXES
100
AcDbLine
 62
7
  6
CONTINUOUS
 10
142.2094719783
 20
85.2452622051
 11
141.9027828626
 21
85.4223756178
  0
LINE
  5
4E3
100
AcDbEntity
  8
3_ALL_AXES
100
AcDbLine
 62
7
  6
CONTINUOUS
 10
141.3431706308
 20
85.8208567837
 11
141.6613382965
 21
85.6371144915
  0
LINE
  5
4E4
100
AcDbEntity
  8
3_ALL_AXES
100
AcDbLine
 62
7
  6
CONTINUOUS
 10
141.9679812116
 20
85.4600277597
 11
142.3265906111
 21
85.2529303071
  0
LINE
  5
4E5
100
AcDbEntity
  8
3_ALL_AXES
100
AcDbLine
 62
7
  6
CONTINUOUS
 10
142.5410978917
 20
85.1290520389
 11
142.9118950211
 21
84.9149161545
  0
LINE
  5
4E6
100
AcDbEntity
  8
3_ALL_AXES
100
AcDbLine
 62
7
  6
CONTINUOUS
 10
142.9770933701
 20
84.9258978353
 11
142.5423268288
 21
85.1769761486
  0
LINE
  5
4E7
100
AcDbEntity
  8
3_ALL_AXES
100
AcDbLine
 62
7
  6
CONTINUOUS
 10
142.3917889601
 20
85.2639119879
 11
141.941829337
 21
85.5237643282
  0
LINE
  5
4E8
100
AcDbEntity
  8
3_ALL_AXES
100
AcDbLine
 62
7
  6
CONTINUOUS
 10
141.752395146
 20
85.6331628505
 11
141.34239677
 21
85.8699375121
  0
LINE
  5
4E9
100
AcDbEntity
  8
3_ALL_AXES
100
AcDbLine
 62
7
  6
CONTINUOUS
 10
142.9770933701
 20
84.9525682964
 11
142.5423268288
 21
85.2036466097
  0
LINE
  5
4EA
100
AcDbEntity
  8
3_ALL_AXES
100
AcDbLine
 62
7
  6
CONTINUOUS
 10
142.3917889601
 20
85.290582449
 11
141.941829337
 21
85.5504347892
  0
LINE
  5
4EB
100
AcDbEntity
  8
3_ALL_AXES
100
AcDbLine
 62
7
  6
CONTINUOUS
 10
141.752395146
 20
85.6598333115
 11
141.34239677
 21
85.8966079731
  0
LINE
  5
4EC
100
AcDbEntity
  8
7_ALL_ROUNDS
100
AcDbLine
 62
7
  6
CONTINUOUS
 10
152.8567182071
 20
88.2085449071
 11
152.8567182071
 21
66.8535067701
  0
LINE
  5
4ED
100
AcDbEntity
  8
7_ALL_ROUNDS
100
AcDbLine
 62
7
  6
CONTINUOUS
 10
152.9019389045
 20
88.3173217892
 11
152.9019389045
 21
66.9622836522
  0
LINE
  5
4EE
100
AcDbEntity
  8
3_ALL_AXES
100
AcDbLine
 62
7
  6
CONTINUOUS
 10
143.0813495923
 20
62.8461314099
 11
143.1365947403
 21
62.9087468371
  0
LINE
  5
4EF
100
AcDbEntity
  8
3_ALL_AXES
100
AcDbLine
 62
7
  6
CONTINUOUS
 10
143.1076521872
 20
62.8298152887
 11
143.1629094373
 21
62.8924444327
  0
LINE
  5
4F0
100
AcDbEntity
  8
3_ALL_AXES
100
AcDbLine
 62
7
  6
CONTINUOUS
 10
145.6935226375
 20
65.7333266962
 11
145.6935667213
 21
65.733352117
  0
LINE
  5
4F1
100
AcDbEntity
  8
3_ALL_AXES
100
AcDbLine
 62
7
  6
CONTINUOUS
 10
145.8209087406
 20
65.5126363021
 11
145.8209534341
 21
65.5126620745
  0
LINE
  5
4F2
100
AcDbEntity
  8
3_ALL_AXES
100
AcDbLine
 62
7
  6
CONTINUOUS
 10
139.8377351755
 20
64.7181971441
 11
139.9461836352
 21
64.7501082869
  0
LINE
  5
4F3
100
AcDbEntity
  8
3_ALL_AXES
100
AcDbLine
 62
7
  6
CONTINUOUS
 10
139.8659881277
 20
64.7030073572
 11
139.9744128354
 21
64.7349115109
  0
LINE
  5
4F4
100
AcDbEntity
  8
7_ALL_ROUNDS
100
AcDbLine
 62
7
  6
CONTINUOUS
 10
152.8567182071
 20
66.8535067701
 11
148.0446305705
 21
61.3994364208
  0
LINE
  5
4F5
100
AcDbEntity
  8
7_ALL_ROUNDS
100
AcDbLine
 62
7
  6
CONTINUOUS
 10
152.8290517274
 20
66.7752161187
 11
148.0194209171
 21
61.323930362
  0
LINE
  5
4F6
100
AcDbEntity
  8
3_AXES_OTHER
100
AcDbLine
 62
7
  6
CONTINUOUS
 10
145.3919315146
 20
61.8361125616
 11
145.9694395659
 21
62.1696243056
  0
LINE
  5
4F7
100
AcDbEntity
  8
7_ALL_ROUNDS
100
AcDbLine
 62
7
  6
CONTINUOUS
 10
147.9976252281
 20
61.306025577
 11
148.0191722681
 21
61.3236519934
  0
LINE
  5
4F8
100
AcDbEntity
  8
3_AXES_OTHER
100
AcDbLine
 62
7
  6
CONTINUOUS
 10
145.3919315146
 20
61.4360556463
 11
145.9694395659
 21
61.7695673904
  0
LINE
  5
4F9
100
AcDbEntity
  8
3_AXES_OTHER
100
AcDbLine
 62
7
  6
CONTINUOUS
 10
147.9221988636
 20
61.7101750597
 11
147.5941742905
 21
61.5207403891
  0
LINE
  5
4FA
100
AcDbEntity
  8
3_AXES_OTHER
100
AcDbLine
 62
7
  6
CONTINUOUS
 10
148.0446305705
 20
61.6394705699
 11
147.6011043871
 21
61.3833335505
  0
LINE
  5
4FB
100
AcDbEntity
  8
7_ALL_ROUNDS
100
AcDbLine
 62
7
  6
CONTINUOUS
 10
147.6011043871
 20
61.1432994013
 11
148.0446305705
 21
61.3994364208
  0
LINE
  5
4FC
100
AcDbEntity
  8
7_ALL_ROUNDS
100
AcDbLine
 62
7
  6
CONTINUOUS
 10
147.5669044389
 20
61.0572836914
 11
147.9976153766
 21
61.3060198877
  0
LINE
  5
4FD
100
AcDbEntity
  8
7_ALL_ROUNDS
100
AcDbLine
 62
7
  6
CONTINUOUS
 10
147.5569131489
 20
61.0529964877
 11
147.5668920183
 21
61.0572765185
  0
LINE
  5
4FE
100
AcDbEntity
  8
7_ALL_ROUNDS
100
AcDbLine
 62
7
  6
CONTINUOUS
 10
152.6418174452
 20
88.5667257027
 11
147.5639210855
 21
91.4992182753
  0
LINE
  5
4FF
100
AcDbEntity
  8
7_ALL_ROUNDS
100
AcDbLine
 62
7
  6
CONTINUOUS
 10
152.7398430586
 20
88.5764438286
 11
147.6619466988
 21
91.5089364012
  0
ARC
  5
500
100
AcDbEntity
  8
7_ALL_ROUNDS
100
AcDbCircle
 62
7
  6
CONTINUOUS
 10
49.7685859817
 20
38.178850903
 40
0.6896155964
100
AcDbArc
 50
179.943100555
 51
185.8832364461
  0
ARC
  5
501
100
AcDbEntity
  8
7_ALL_ROUNDS
100
AcDbCircle
 62
7
  6
CONTINUOUS
 10
43.3516651251
 20
38.1795357482
 40
0.2362204724
100
AcDbArc
 50
180.0
 51
270.0
  0
ARC
  5
502
100
AcDbEntity
  8
7_ALL_ROUNDS
100
AcDbCircle
 62
7
  6
CONTINUOUS
 10
49.7685617074
 20
69.7038434527
 40
0.6895913229
100
AcDbArc
 50
174.1136238172
 51
180.0569689194
  0
ARC
  5
503
100
AcDbEntity
  8
7_ALL_ROUNDS
100
AcDbCircle
 62
7
  6
CONTINUOUS
 10
43.3516651251
 20
69.7031577955
 40
0.2362204724
100
AcDbArc
 50
90.0
 51
180.0
  0
ARC
  5
504
100
AcDbEntity
  8
7_ALL_ROUNDS
100
AcDbCircle
 62
7
  6
CONTINUOUS
 10
53.9623033236
 20
38.178850903
 40
0.6896155964
100
AcDbArc
 50
354.1167635539
 51
0.056899445
  0
CIRCLE
  5
505
100
AcDbEntity
  8
3_ALL_AXES
100
AcDbCircle
 62
7
  6
CONTINUOUS
 10
51.8654446527
 20
46.8606381104
 40
7.6181102362
  0
CIRCLE
  5
506
100
AcDbEntity
  8
3_ALL_AXES
100
AcDbCircle
 62
7
  6
CONTINUOUS
 10
51.8654446527
 20
46.8606381104
 40
6.9488188976
  0
CIRCLE
  5
507
100
AcDbEntity
  8
3_ALL_AXES
100
AcDbCircle
 62
7
  6
CONTINUOUS
 10
51.8654446527
 20
46.8606381104
 40
6.6929133858
  0
CIRCLE
  5
508
100
AcDbEntity
  8
3_ALL_AXES
100
AcDbCircle
 62
7
  6
CONTINUOUS
 10
51.8654446527
 20
46.8606381104
 40
6.6417322835
  0
CIRCLE
  5
509
100
AcDbEntity
  8
3_ALL_AXES
100
AcDbCircle
 62
7
  6
CONTINUOUS
 10
51.8654446527
 20
46.8606381104
 40
6.3858267717
  0
CIRCLE
  5
50A
100
AcDbEntity
  8
3_ALL_AXES
100
AcDbCircle
 62
7
  6
CONTINUOUS
 10
51.8654446527
 20
46.8606381104
 40
6.3346456693
  0
CIRCLE
  5
50B
100
AcDbEntity
  8
3_ALL_AXES
100
AcDbCircle
 62
7
  6
CONTINUOUS
 10
51.8654446527
 20
46.8606381104
 40
6.0787401575
  0
CIRCLE
  5
50C
100
AcDbEntity
  8
3_ALL_AXES
100
AcDbCircle
 62
7
  6
CONTINUOUS
 10
51.8654446527
 20
46.8606381104
 40
2.0078740157
  0
ARC
  5
50D
100
AcDbEntity
  8
7_ALL_ROUNDS
100
AcDbCircle
 62
7
  6
CONTINUOUS
 10
60.3792241802
 20
38.1795357482
 40
0.2362204724
100
AcDbArc
 50
270.0
 51
360.0
  0
CIRCLE
  5
50E
100
AcDbEntity
  8
3_AXES_OTHER
100
AcDbCircle
 62
7
  6
CONTINUOUS
 10
51.8654446527
 20
61.9078822049
 40
0.7
  0
ARC
  5
50F
100
AcDbEntity
  8
7_ALL_ROUNDS
100
AcDbCircle
 62
7
  6
CONTINUOUS
 10
53.9623275979
 20
69.7038434527
 40
0.6895913229
100
AcDbArc
 50
359.9430310806
 51
5.8863761829
  0
ARC
  5
510
100
AcDbEntity
  8
7_ALL_ROUNDS
100
AcDbCircle
 62
7
  6
CONTINUOUS
 10
60.3792241802
 20
69.7031577955
 40
0.2362204724
100
AcDbArc
 50
0.0
 51
90.0
  0
ARC
  5
511
100
AcDbEntity
  8
7_ALL_ROUNDS
100
AcDbCircle
 62
7
  6
CONTINUOUS
 10
30.7858889379
 20
78.0946534453
 40
28.0564327869
100
AcDbArc
 50
6.3358384777
 51
6.8283203324
  0
ARC
  5
512
100
AcDbEntity
  8
7_ALL_ROUNDS
100
AcDbCircle
 62
7
  6
CONTINUOUS
 10
37.4999286632
 20
119.1765080188
 40
36.4760192582
100
AcDbArc
 50
278.8559569651
 51
279.2316786973
  0
ARC
  5
513
100
AcDbEntity
  8
7_ALL_ROUNDS
100
AcDbCircle
 62
7
  6
CONTINUOUS
 10
45.9730909379
 20
84.0484957526
 40
3.0
100
AcDbArc
 50
197.7212299476
 51
252.2787700524
  0
ARC
  5
514
100
AcDbEntity
  8
0
100
AcDbCircle
 62
7
  6
CONTINUOUS
 10
45.9730909379
 20
84.0484957526
 40
3.0
100
AcDbArc
 50
210.195424137
 51
214.0822839345
  0
ARC
  5
515
100
AcDbEntity
  8
0
100
AcDbCircle
 62
7
  6
CONTINUOUS
 10
45.9730909379
 20
84.0484957526
 40
3.0
100
AcDbArc
 50
235.9177160655
 51
239.804575863
  0
ARC
  5
516
100
AcDbEntity
  8
7_ALL_ROUNDS
100
AcDbCircle
 62
9
  6
CONTINUOUS
 10
45.9730909379
 20
84.0484957526
 40
2.7637795276
100
AcDbArc
 50
198.4693787936
 51
251.3128778455
  0
CIRCLE
  5
517
100
AcDbEntity
  8
0
100
AcDbCircle
 62
7
  6
CONTINUOUS
 10
45.2368487819
 20
85.2731219888
 40
0.4330708661
  0
CIRCLE
  5
518
100
AcDbEntity
  8
0
100
AcDbCircle
 62
7
  6
CONTINUOUS
 10
45.2368487819
 20
85.2731219888
 40
0.2165354331
  0
ARC
  5
519
100
AcDbEntity
  8
7_ALL_ROUNDS
100
AcDbCircle
 62
7
  6
CONTINUOUS
 10
47.5382933025
 20
95.8853376563
 40
0.5
100
AcDbArc
 50
90.0
 51
162.0
  0
ARC
  5
51A
100
AcDbEntity
  8
7_ALL_ROUNDS
100
AcDbCircle
 62
9
  6
CONTINUOUS
 10
47.5382933025
 20
95.8853376563
 40
0.2637795276
100
AcDbArc
 50
90.0
 51
162.0
  0
ARC
  5
51B
100
AcDbEntity
  8
3_ALL_AXES
100
AcDbCircle
 62
7
  6
CONTINUOUS
 10
49.7968465221
 20
82.761009509
 40
0.2747220657
100
AcDbArc
 50
91.5000432079
 51
162.0
  0
ARC
  5
51C
100
AcDbEntity
  8
3_ALL_AXES
100
AcDbCircle
 62
7
  6
CONTINUOUS
 10
49.7968465221
 20
82.761009509
 40
0.2310212783
100
AcDbArc
 50
91.5000432079
 51
162.0
  0
ARC
  5
51D
100
AcDbEntity
  8
3_ALL_AXES
100
AcDbCircle
 62
7
  6
CONTINUOUS
 10
51.4368698495
 20
82.1033555153
 40
0.0370472441
100
AcDbArc
 50
90.0
 51
180.0
  0
ARC
  5
51E
100
AcDbEntity
  8
3_ALL_AXES
100
AcDbCircle
 62
7
  6
CONTINUOUS
 10
51.4368698495
 20
82.0663318932
 40
0.0370472441
100
AcDbArc
 50
180.0
 51
270.0
  0
ARC
  5
51F
100
AcDbEntity
  8
3_ALL_AXES
100
AcDbCircle
 62
7
  6
CONTINUOUS
 10
51.6810470149
 20
82.3950838617
 40
0.0370472441
100
AcDbArc
 50
180.0
 51
270.0
  0
ARC
  5
520
100
AcDbEntity
  8
3_ALL_AXES
100
AcDbCircle
 62
7
  6
CONTINUOUS
 10
51.6810470149
 20
82.4321074838
 40
0.0370472441
100
AcDbArc
 50
90.0
 51
180.0
  0
ARC
  5
521
100
AcDbEntity
  8
3_ALL_AXES
100
AcDbCircle
 62
7
  6
CONTINUOUS
 10
51.1584328416
 20
82.1774500035
 40
0.0370472441
100
AcDbArc
 50
270.0
 51
360.0
  0
ARC
  5
522
100
AcDbEntity
  8
3_ALL_AXES
100
AcDbCircle
 62
7
  6
CONTINUOUS
 10
50.6161769361
 20
82.1774500035
 40
0.0370472441
100
AcDbArc
 50
180.0
 51
270.0
  0
ARC
  5
523
100
AcDbEntity
  8
3_ALL_AXES
100
AcDbCircle
 62
7
  6
CONTINUOUS
 10
50.6161769361
 20
82.4321074838
 40
0.0370472441
100
AcDbArc
 50
90.0
 51
180.0
  0
ARC
  5
524
100
AcDbEntity
  8
3_ALL_AXES
100
AcDbCircle
 62
7
  6
CONTINUOUS
 10
51.1584328416
 20
82.4321074838
 40
0.0370472441
100
AcDbArc
 50
0.0
 51
90.0
  0
ARC
  5
525
100
AcDbEntity
  8
3_ALL_AXES
100
AcDbCircle
 62
7
  6
CONTINUOUS
 10
50.9445627629
 20
81.9922610271
 40
0.0169251969
100
AcDbArc
 50
180.0
 51
270.0
  0
ARC
  5
526
100
AcDbEntity
  8
3_ALL_AXES
100
AcDbCircle
 62
7
  6
CONTINUOUS
 10
51.1044840227
 20
81.9922610271
 40
0.0169251969
100
AcDbArc
 50
270.0
 51
360.0
  0
ARC
  5
527
100
AcDbEntity
  8
3_ALL_AXES
100
AcDbCircle
 62
7
  6
CONTINUOUS
 10
51.1044840227
 20
82.1774500035
 40
0.0169251969
100
AcDbArc
 50
0.0
 51
90.0
  0
ARC
  5
528
100
AcDbEntity
  8
3_ALL_AXES
100
AcDbCircle
 62
7
  6
CONTINUOUS
 10
50.9445627629
 20
82.1774500035
 40
0.0169251969
100
AcDbArc
 50
90.0
 51
180.0
  0
ARC
  5
529
100
AcDbEntity
  8
3_ALL_AXES
100
AcDbCircle
 62
7
  6
CONTINUOUS
 10
51.8654446527
 20
3.7667104893
 40
79.2961012984
100
AcDbArc
 50
88.4999567921
 51
91.5000432079
  0
ARC
  5
52A
100
AcDbEntity
  8
3_ALL_AXES
100
AcDbCircle
 62
7
  6
CONTINUOUS
 10
51.8654446527
 20
3.7667104893
 40
79.252400511
100
AcDbArc
 50
88.4999567921
 51
91.5000432079
  0
ARC
  5
52B
100
AcDbEntity
  8
7_ALL_ROUNDS
100
AcDbCircle
 62
9
  6
CONTINUOUS
 10
51.8654446527
 20
4.1482078322
 40
77.5788582677
100
AcDbArc
 50
92.0009708579
 51
95.0121777842
  0
ARC
  5
52C
100
AcDbEntity
  8
7_ALL_ROUNDS
100
AcDbCircle
 62
9
  6
CONTINUOUS
 10
51.8654446527
 20
4.1482078322
 40
77.5788582677
100
AcDbArc
 50
84.9878222158
 51
87.9990291421
  0
ARC
  5
52D
100
AcDbEntity
  8
7_ALL_ROUNDS
100
AcDbCircle
 62
9
  6
CONTINUOUS
 10
51.8654446527
 20
4.1482078322
 40
77.5788582677
100
AcDbArc
 50
88.033372126
 51
91.966627874
  0
ARC
  5
52E
100
AcDbEntity
  8
3_ALL_AXES
100
AcDbCircle
 62
7
  6
CONTINUOUS
 10
51.8654446527
 20
4.1482078322
 40
77.4804330709
100
AcDbArc
 50
91.9930733615
 51
92.0274657537
  0
ARC
  5
52F
100
AcDbEntity
  8
3_ALL_AXES
100
AcDbCircle
 62
7
  6
CONTINUOUS
 10
51.8654446527
 20
4.1482078322
 40
77.4804330709
100
AcDbArc
 50
87.9725342463
 51
88.0069266385
  0
ARC
  5
530
100
AcDbEntity
  8
7_ALL_ROUNDS
100
AcDbCircle
 62
7
  6
CONTINUOUS
 10
51.8654446527
 20
4.1482078322
 40
77.3426377953
100
AcDbArc
 50
92.0646794394
 51
95.0480827626
  0
ARC
  5
531
100
AcDbEntity
  8
7_ALL_ROUNDS
100
AcDbCircle
 62
7
  6
CONTINUOUS
 10
51.8654446527
 20
4.1482078322
 40
77.3426377953
100
AcDbArc
 50
84.9519172374
 51
87.9353205606
  0
ARC
  5
532
100
AcDbEntity
  8
7_ALL_ROUNDS
100
AcDbCircle
 62
7
  6
CONTINUOUS
 10
51.8654446527
 20
4.1482078322
 40
77.3426377953
100
AcDbArc
 50
87.969782378
 51
92.030217622
  0
CIRCLE
  5
533
100
AcDbEntity
  8
0
100
AcDbCircle
 62
7
  6
CONTINUOUS
 10
51.8654446527
 20
88.0565974989
 40
0.4330708661
  0
ARC
  5
534
100
AcDbEntity
  8
3_ALL_AXES
100
AcDbCircle
 62
7
  6
CONTINUOUS
 10
53.9340427832
 20
82.761009509
 40
0.2747220657
100
AcDbArc
 50
18.0
 51
88.4999567921
  0
ARC
  5
535
100
AcDbEntity
  8
3_ALL_AXES
100
AcDbCircle
 62
7
  6
CONTINUOUS
 10
53.9340427832
 20
82.761009509
 40
0.2310212783
100
AcDbArc
 50
18.0
 51
88.4999567921
  0
CIRCLE
  5
536
100
AcDbEntity
  8
0
100
AcDbCircle
 62
7
  6
CONTINUOUS
 10
51.8654446527
 20
88.0565974989
 40
0.2165354331
  0
ARC
  5
537
100
AcDbEntity
  8
3_ALL_AXES
100
AcDbCircle
 62
7
  6
CONTINUOUS
 10
53.2897674873
 20
82.506201972
 40
0.0370472441
100
AcDbArc
 50
270.0
 51
360.0
  0
ARC
  5
538
100
AcDbEntity
  8
3_ALL_AXES
100
AcDbCircle
 62
7
  6
CONTINUOUS
 10
53.2897674873
 20
82.543225594
 40
0.0370472441
100
AcDbArc
 50
0.0
 51
90.0
  0
ARC
  5
539
100
AcDbEntity
  8
3_ALL_AXES
100
AcDbCircle
 62
7
  6
CONTINUOUS
 10
53.2897674873
 20
82.0663318932
 40
0.0370472441
100
AcDbArc
 50
270.0
 51
360.0
  0
ARC
  5
53A
100
AcDbEntity
  8
3_ALL_AXES
100
AcDbCircle
 62
7
  6
CONTINUOUS
 10
53.2897674873
 20
82.1033555153
 40
0.0370472441
100
AcDbArc
 50
0.0
 51
90.0
  0
ARC
  5
53B
100
AcDbEntity
  8
3_ALL_AXES
100
AcDbCircle
 62
7
  6
CONTINUOUS
 10
52.6578147314
 20
82.1774500035
 40
0.0370472441
100
AcDbArc
 50
180.0
 51
270.0
  0
ARC
  5
53C
100
AcDbEntity
  8
3_ALL_AXES
100
AcDbCircle
 62
7
  6
CONTINUOUS
 10
52.6578147314
 20
82.4321074838
 40
0.0370472441
100
AcDbArc
 50
90.0
 51
180.0
  0
ARC
  5
53D
100
AcDbEntity
  8
3_ALL_AXES
100
AcDbCircle
 62
7
  6
CONTINUOUS
 10
52.0480509519
 20
82.2144736255
 40
0.0370472441
100
AcDbArc
 50
0.0
 51
90.0
  0
ARC
  5
53E
100
AcDbEntity
  8
3_ALL_AXES
100
AcDbCircle
 62
7
  6
CONTINUOUS
 10
52.0480509519
 20
82.1774500035
 40
0.0370472441
100
AcDbArc
 50
270.0
 51
360.0
  0
ARC
  5
53F
100
AcDbEntity
  8
3_ALL_AXES
100
AcDbCircle
 62
7
  6
CONTINUOUS
 10
52.2922281172
 20
82.506201972
 40
0.0370472441
100
AcDbArc
 50
270.0
 51
360.0
  0
ARC
  5
540
100
AcDbEntity
  8
3_ALL_AXES
100
AcDbCircle
 62
7
  6
CONTINUOUS
 10
52.2922281172
 20
82.543225594
 40
0.0370472441
100
AcDbArc
 50
0.0
 51
90.0
  0
CIRCLE
  5
541
100
AcDbEntity
  8
0
100
AcDbCircle
 62
7
  6
CONTINUOUS
 10
51.8654446527
 20
94.7947864752
 40
0.4330708661
  0
CIRCLE
  5
542
100
AcDbEntity
  8
0
100
AcDbCircle
 62
7
  6
CONTINUOUS
 10
51.8654446527
 20
94.7947864752
 40
0.2165354331
  0
ARC
  5
543
100
AcDbEntity
  8
7_ALL_ROUNDS
100
AcDbCircle
 62
7
  6
CONTINUOUS
 10
57.7577983675
 20
84.0484957526
 40
3.0
100
AcDbArc
 50
287.7212299476
 51
342.2787700524
  0
ARC
  5
544
100
AcDbEntity
  8
7_ALL_ROUNDS
100
AcDbCircle
 62
9
  6
CONTINUOUS
 10
57.7577983675
 20
84.0484957526
 40
2.7637795276
100
AcDbArc
 50
288.6871221545
 51
341.5306212064
  0
CIRCLE
  5
545
100
AcDbEntity
  8
0
100
AcDbCircle
 62
7
  6
CONTINUOUS
 10
58.4940405234
 20
85.2731219888
 40
0.4330708661
  0
CIRCLE
  5
546
100
AcDbEntity
  8
0
100
AcDbCircle
 62
7
  6
CONTINUOUS
 10
58.4940405234
 20
85.2731219888
 40
0.2165354331
  0
ARC
  5
547
100
AcDbEntity
  8
7_ALL_ROUNDS
100
AcDbCircle
 62
7
  6
CONTINUOUS
 10
56.1925960029
 20
95.8853376563
 40
0.5
100
AcDbArc
 50
18.0
 51
90.0
  0
ARC
  5
548
100
AcDbEntity
  8
7_ALL_ROUNDS
100
AcDbCircle
 62
9
  6
CONTINUOUS
 10
56.1925960029
 20
95.8853376563
 40
0.2637795276
100
AcDbArc
 50
18.0
 51
90.0
  0
ARC
  5
549
100
AcDbEntity
  8
7_ALL_ROUNDS
100
AcDbCircle
 62
7
  6
CONTINUOUS
 10
72.9450003518
 20
78.0946534471
 40
28.0564327711
100
AcDbArc
 50
173.1716796675
 51
173.6641615224
  0
ARC
  5
54A
100
AcDbEntity
  8
7_ALL_ROUNDS
100
AcDbCircle
 62
7
  6
CONTINUOUS
 10
66.358678252
 20
119.9789131523
 40
37.2885208543
100
AcDbArc
 50
260.7724147282
 51
261.1399496094
  0
ARC
  5
54B
100
AcDbEntity
  8
7_ALL_ROUNDS
100
AcDbCircle
 62
7
  6
CONTINUOUS
 10
110.038749023
 20
38.1795357482
 40
0.2362204724
100
AcDbArc
 50
270.0
 51
360.0
  0
ARC
  5
54C
100
AcDbEntity
  8
7_ALL_ROUNDS
100
AcDbCircle
 62
7
  6
CONTINUOUS
 10
110.038749023
 20
69.7031577955
 40
0.2362204724
100
AcDbArc
 50
0.0
 51
90.0
  0
ARC
  5
54D
100
AcDbEntity
  8
3_ALL_AXES
100
AcDbCircle
 62
7
  6
CONTINUOUS
 10
99.4713504505
 20
39.552014166
 40
0.1984103775
100
AcDbArc
 50
66.4643297182
 51
72.6750183489
  0
ARC
  5
54E
100
AcDbEntity
  8
3_ALL_AXES
100
AcDbCircle
 62
7
  6
CONTINUOUS
 10
99.4713504505
 20
68.3669747959
 40
0.1984103775
100
AcDbArc
 50
66.4643297181
 51
72.6750183489
  0
ARC
  5
54F
100
AcDbEntity
  8
3_ALL_AXES
100
AcDbCircle
 62
7
  6
CONTINUOUS
 10
99.4713504835
 20
68.3306792898
 40
0.1984102838
100
AcDbArc
 50
287.3258164065
 51
293.5356716867
  0
ARC
  5
550
100
AcDbEntity
  8
3_ALL_AXES
100
AcDbCircle
 62
7
  6
CONTINUOUS
 10
99.4713504835
 20
39.5157186599
 40
0.1984102838
100
AcDbArc
 50
287.3258164066
 51
293.5356716867
  0
ARC
  5
551
100
AcDbEntity
  8
7_ALL_ROUNDS
100
AcDbCircle
 62
7
  6
CONTINUOUS
 10
108.4087689505
 20
27.2839004903
 40
66.7286293916
100
AcDbArc
 50
61.719886526
 51
64.1631313023
  0
ARC
  5
552
100
AcDbEntity
  8
3_ALL_AXES
100
AcDbCircle
 62
7
  6
CONTINUOUS
 10
108.3786458521
 20
6.0200593153
 40
66.6762933424
100
AcDbArc
 50
61.7418670976
 51
64.1751220617
  0
ARC
  5
553
100
AcDbEntity
  8
3_ALL_AXES
100
AcDbCircle
 62
7
  6
CONTINUOUS
 10
108.3367071179
 20
26.9111112364
 40
66.6025407572
100
AcDbArc
 50
61.7727171993
 51
64.1915844405
  0
ARC
  5
554
100
AcDbEntity
  8
3_ALL_AXES
100
AcDbCircle
 62
7
  6
CONTINUOUS
 10
108.3367071179
 20
6.0361413977
 40
66.6025407573
100
AcDbArc
 50
61.7727171993
 51
64.1915844405
  0
ARC
  5
555
100
AcDbEntity
  8
7_ALL_ROUNDS
100
AcDbCircle
 62
7
  6
CONTINUOUS
 10
108.3367250854
 20
27.1511806216
 40
66.6025012134
100
AcDbArc
 50
61.7727164812
 51
64.1915851587
  0
ARC
  5
556
100
AcDbEntity
  8
7_ALL_ROUNDS
100
AcDbCircle
 62
7
  6
CONTINUOUS
 10
108.7087970235
 20
6.3555235721
 40
65.8738329828
100
AcDbArc
 50
61.8270923937
 51
64.1959642013
  0
ARC
  5
557
100
AcDbEntity
  8
7_ALL_ROUNDS
100
AcDbCircle
 62
7
  6
CONTINUOUS
 10
108.7310015151
 20
6.5676052353
 40
65.7363033571
100
AcDbArc
 50
61.7574716608
 51
64.1319326701
  0
ARC
  5
558
100
AcDbEntity
  8
3_AXES_OTHER
100
AcDbCircle
 62
7
  6
CONTINUOUS
 10
109.2651245425
 20
8.1552970908
 40
64.7282495669
100
AcDbArc
 50
60.7180233091
 51
64.2123550475
  0
ARC
  5
559
100
AcDbEntity
  8
3_ALL_AXES
100
AcDbCircle
 62
7
  6
CONTINUOUS
 10
110.22203958
 20
9.4937187084
 40
62.7438689958
100
AcDbArc
 50
60.5838257747
 51
61.6935231607
  0
ARC
  5
55A
100
AcDbEntity
  8
3_ALL_AXES
100
AcDbCircle
 62
7
  6
CONTINUOUS
 10
110.1967079918
 20
9.5436193341
 40
62.6324538148
100
AcDbArc
 50
60.5526480684
 51
61.7249612702
  0
ARC
  5
55B
100
AcDbEntity
  8
3_ALL_AXES
100
AcDbCircle
 62
7
  6
CONTINUOUS
 10
111.6001356101
 20
32.2417124768
 40
61.6208015539
100
AcDbArc
 50
58.6856293533
 51
61.3013774167
  0
ARC
  5
55C
100
AcDbEntity
  8
3_ALL_AXES
100
AcDbCircle
 62
7
  6
CONTINUOUS
 10
111.5967108033
 20
32.2650839322
 40
61.5766283511
100
AcDbArc
 50
58.6855429916
 51
61.2882685052
  0
ARC
  5
55D
100
AcDbEntity
  8
3_ALL_AXES
100
AcDbCircle
 62
7
  6
CONTINUOUS
 10
110.9480270139
 20
10.7866336717
 40
61.2610740638
100
AcDbArc
 50
60.1475351841
 51
60.5459578396
  0
ARC
  5
55E
100
AcDbEntity
  8
7_ALL_ROUNDS
100
AcDbCircle
 62
7
  6
CONTINUOUS
 10
111.0209476332
 20
32.155852141
 40
61.2005723275
100
AcDbArc
 50
58.3044737572
 51
61.6825330127
  0
ARC
  5
55F
100
AcDbEntity
  8
3_ALL_AXES
100
AcDbCircle
 62
7
  6
CONTINUOUS
 10
110.9624604921
 20
10.9058942181
 40
61.0697117829
100
AcDbArc
 50
60.1029622146
 51
60.5023824524
  0
ARC
  5
560
100
AcDbEntity
  8
7_ALL_ROUNDS
100
AcDbCircle
 62
7
  6
CONTINUOUS
 10
110.9665785916
 20
32.0635767876
 40
61.0304440924
100
AcDbArc
 50
58.2503294915
 51
61.7366772785
  0
ARC
  5
561
100
AcDbEntity
  8
3_ALL_AXES
100
AcDbCircle
 62
7
  6
CONTINUOUS
 10
110.9666125016
 20
31.823601357
 40
61.0303763171
100
AcDbArc
 50
58.250327555
 51
61.7366792149
  0
ARC
  5
562
100
AcDbEntity
  8
3_ALL_AXES
100
AcDbCircle
 62
7
  6
CONTINUOUS
 10
111.2467254602
 20
11.3075385513
 40
60.6606053241
100
AcDbArc
 50
59.9374448493
 51
60.1117209161
  0
ARC
  5
563
100
AcDbEntity
  8
3_ALL_AXES
100
AcDbCircle
 62
7
  6
CONTINUOUS
 10
111.2603942211
 20
11.4245415638
 40
60.4715816771
100
AcDbArc
 50
59.893854994
 51
60.067048787
  0
ARC
  5
564
100
AcDbEntity
  8
3_ALL_AXES
100
AcDbCircle
 62
7
  6
CONTINUOUS
 10
111.422981329
 20
11.7048956506
 40
60.147493731
100
AcDbArc
 50
59.7237501243
 51
59.8768998055
  0
ARC
  5
565
100
AcDbEntity
  8
7_ALL_ROUNDS
100
AcDbCircle
 62
7
  6
CONTINUOUS
 10
111.5459095081
 20
11.5485113214
 40
59.9564199827
100
AcDbArc
 50
58.2978428716
 51
61.6708506723
  0
ARC
  5
566
100
AcDbEntity
  8
3_ALL_AXES
100
AcDbCircle
 62
7
  6
CONTINUOUS
 10
111.6310625748
 20
11.9684114508
 40
59.8960991106
100
AcDbArc
 50
59.4464718972
 51
59.7544490938
  0
ARC
  5
567
100
AcDbEntity
  8
7_ALL_ROUNDS
100
AcDbCircle
 62
7
  6
CONTINUOUS
 10
111.5379540222
 20
11.6953469631
 40
59.8906528597
100
AcDbArc
 50
58.2183810546
 51
61.6771964484
  0
ARC
  5
568
100
AcDbEntity
  8
3_ALL_AXES
100
AcDbCircle
 62
7
  6
CONTINUOUS
 10
111.684806493
 20
12.152507635
 40
59.6289295382
100
AcDbArc
 50
59.3109962933
 51
59.7105162902
  0
ARC
  5
569
100
AcDbEntity
  8
3_AXES_OTHER
100
AcDbCircle
 62
7
  6
CONTINUOUS
 10
111.842548682
 20
12.7420395866
 40
59.4669476257
100
AcDbArc
 50
58.3996534439
 51
60.7225287145
  0
ARC
  5
56A
100
AcDbEntity
  8
3_ALL_AXES
100
AcDbCircle
 62
7
  6
CONTINUOUS
 10
112.2589934183
 20
13.024007628
 40
58.6678499442
100
AcDbArc
 50
58.8158828279
 51
59.0090923339
  0
ARC
  5
56B
100
AcDbEntity
  8
3_ALL_AXES
100
AcDbCircle
 62
7
  6
CONTINUOUS
 10
112.2698757245
 20
13.1332852356
 40
58.4868958276
100
AcDbArc
 50
58.7691085016
 51
58.9691786643
  0
ARC
  5
56C
100
AcDbEntity
  8
3_ALL_AXES
100
AcDbCircle
 62
7
  6
CONTINUOUS
 10
112.6309512125
 20
13.6366610924
 40
57.9511235497
100
AcDbArc
 50
58.2372614201
 51
58.7800840734
  0
ARC
  5
56D
100
AcDbEntity
  8
3_ALL_AXES
100
AcDbCircle
 62
7
  6
CONTINUOUS
 10
112.6214061321
 20
13.7116411276
 40
57.8100881413
100
AcDbArc
 50
58.2039852641
 51
58.7698197845
  0
ARC
  5
56E
100
AcDbEntity
  8
3_AXES_OTHER
100
AcDbCircle
 62
7
  6
CONTINUOUS
 10
113.057659189
 20
14.7278342333
 40
57.1388923677
100
AcDbArc
 50
57.6802021976
 51
58.3940379258
  0
ARC
  5
56F
100
AcDbEntity
  8
7_ALL_ROUNDS
100
AcDbCircle
 62
7
  6
CONTINUOUS
 10
113.9364303833
 20
36.9394769211
 40
55.59860933
100
AcDbArc
 50
55.480276784
 51
58.2388765029
  0
ARC
  5
570
100
AcDbEntity
  8
3_ALL_AXES
100
AcDbCircle
 62
7
  6
CONTINUOUS
 10
113.9319890189
 20
15.7201704812
 40
55.4947757745
100
AcDbArc
 50
55.4657225195
 51
58.2150299147
  0
ARC
  5
571
100
AcDbEntity
  8
7_ALL_ROUNDS
100
AcDbCircle
 62
7
  6
CONTINUOUS
 10
113.9255775209
 20
36.9128440509
 40
55.3497983325
100
AcDbArc
 50
55.4457125941
 51
58.18151197
  0
ARC
  5
572
100
AcDbEntity
  8
3_ALL_AXES
100
AcDbCircle
 62
7
  6
CONTINUOUS
 10
113.9255967977
 20
36.6728393751
 40
55.3497631251
100
AcDbArc
 50
55.4457117238
 51
58.1815128403
  0
ARC
  5
573
100
AcDbEntity
  8
3_ALL_AXES
100
AcDbCircle
 62
7
  6
CONTINUOUS
 10
113.9255967977
 20
15.7978695364
 40
55.3497631251
100
AcDbArc
 50
55.4457117238
 51
58.1815128403
  0
ARC
  5
574
100
AcDbEntity
  8
7_ALL_ROUNDS
100
AcDbCircle
 62
7
  6
CONTINUOUS
 10
114.3439332875
 20
16.0474779197
 40
54.6583203214
100
AcDbArc
 50
55.5149880557
 51
58.2151628511
  0
ARC
  5
575
100
AcDbEntity
  8
7_ALL_ROUNDS
100
AcDbCircle
 62
7
  6
CONTINUOUS
 10
114.365765959
 20
16.2295888099
 40
54.5468592733
100
AcDbArc
 50
55.4262886856
 51
58.1327312624
  0
ARC
  5
576
100
AcDbEntity
  8
3_AXES_OTHER
100
AcDbCircle
 62
7
  6
CONTINUOUS
 10
114.5533905992
 20
17.06071849
 40
54.3677433783
100
AcDbArc
 50
55.4433165217
 51
57.6978489729
  0
ARC
  5
577
100
AcDbEntity
  8
3_ALL_AXES
100
AcDbCircle
 62
7
  6
CONTINUOUS
 10
139.0700258774
 20
69.2232127706
 40
6.9479086079
100
AcDbArc
 50
54.6944966225
 51
55.2008714163
  0
ARC
  5
578
100
AcDbEntity
  8
3_ALL_AXES
100
AcDbCircle
 62
7
  6
CONTINUOUS
 10
139.1254428736
 20
69.3029319165
 40
6.8508200629
100
AcDbArc
 50
55.2009575673
 51
55.6668687425
  0
ARC
  5
579
100
AcDbEntity
  8
3_ALL_AXES
100
AcDbCircle
 62
7
  6
CONTINUOUS
 10
139.4285050547
 20
69.760651493
 40
6.301924687
100
AcDbArc
 50
55.595087617
 51
59.967533717
  0
ARC
  5
57A
100
AcDbEntity
  8
3_ALL_AXES
100
AcDbCircle
 62
7
  6
CONTINUOUS
 10
140.3589098834
 20
70.2929572864
 40
5.2639040803
100
AcDbArc
 50
59.3599205201
 51
59.9923739922
  0
ARC
  5
57B
100
AcDbEntity
  8
3_ALL_AXES
100
AcDbCircle
 62
7
  6
CONTINUOUS
 10
145.5581505638
 20
70.2622595935
 40
5.1321857863
100
AcDbArc
 50
239.992406656
 51
240.6931713348
  0
ARC
  5
57C
100
AcDbEntity
  8
3_ALL_AXES
100
AcDbCircle
 62
7
  6
CONTINUOUS
 10
140.4785223446
 20
70.2920584187
 40
5.0247173764
100
AcDbArc
 50
59.3296027157
 51
59.992262592
  0
ARC
  5
57D
100
AcDbEntity
  8
3_ALL_AXES
100
AcDbCircle
 62
7
  6
CONTINUOUS
 10
145.4385369076
 20
70.2631571152
 40
4.8929973192
100
AcDbArc
 50
239.9922980877
 51
240.727169358
  0
ARC
  5
57E
100
AcDbEntity
  8
3_ALL_AXES
100
AcDbCircle
 62
7
  6
CONTINUOUS
 10
143.7612386476
 20
72.6090868581
 40
4.6433595183
100
AcDbArc
 50
174.1312925575
 51
177.8485277659
  0
ARC
  5
57F
100
AcDbEntity
  8
3_ALL_AXES
100
AcDbCircle
 62
7
  6
CONTINUOUS
 10
143.7303254815
 20
72.5040806434
 40
4.4322822122
100
AcDbArc
 50
174.1765765187
 51
177.8324689148
  0
ARC
  5
580
100
AcDbEntity
  8
3_ALL_AXES
100
AcDbCircle
 62
7
  6
CONTINUOUS
 10
142.9980010565
 20
67.9757862753
 40
3.9385346974
100
AcDbArc
 50
349.7784752933
 51
351.6592553257
  0
ARC
  5
581
100
AcDbEntity
  8
3_ALL_AXES
100
AcDbCircle
 62
7
  6
CONTINUOUS
 10
143.0014127601
 20
68.0840472578
 40
3.7551512695
100
AcDbArc
 50
349.8344541417
 51
351.5823127836
  0
ARC
  5
582
100
AcDbEntity
  8
3_ALL_AXES
100
AcDbCircle
 62
7
  6
CONTINUOUS
 10
142.6237178647
 20
72.7835703266
 40
3.4912109805
100
AcDbArc
 50
165.6043676047
 51
166.3173401269
  0
ARC
  5
583
100
AcDbEntity
  8
7_ALL_ROUNDS
100
AcDbCircle
 62
7
  6
CONTINUOUS
 10
146.3093895947
 20
64.4687078189
 40
3.4696842077
100
AcDbArc
 50
253.4191844457
 51
254.4907164697
  0
ARC
  5
584
100
AcDbEntity
  8
7_ALL_ROUNDS
100
AcDbCircle
 62
7
  6
CONTINUOUS
 10
146.611649947
 20
64.4663705501
 40
3.4672499115
100
AcDbArc
 50
285.5595993178
 51
286.5810584749
  0
ARC
  5
585
100
AcDbEntity
  8
3_ALL_AXES
100
AcDbCircle
 62
7
  6
CONTINUOUS
 10
142.6435369777
 20
72.6705458523
 40
3.3315465645
100
AcDbArc
 50
165.7367335823
 51
166.1967799943
  0
ARC
  5
586
100
AcDbEntity
  8
3_ALL_AXES
100
AcDbCircle
 62
7
  6
CONTINUOUS
 10
140.986488432
 20
73.9070473986
 40
2.1888273354
100
AcDbArc
 50
127.7411242981
 51
133.9497106645
  0
ARC
  5
587
100
AcDbEntity
  8
3_ALL_AXES
100
AcDbCircle
 62
7
  6
CONTINUOUS
 10
145.1217420144
 20
66.7450033017
 40
2.1852025969
100
AcDbArc
 50
286.2776705076
 51
291.9064846243
  0
ARC
  5
588
100
AcDbEntity
  8
3_ALL_AXES
100
AcDbCircle
 62
7
  6
CONTINUOUS
 10
145.1676340864
 20
71.5567628262
 40
2.0145348448
100
AcDbArc
 50
240.0413760056
 51
257.1102997261
  0
ARC
  5
589
100
AcDbEntity
  8
3_ALL_AXES
100
AcDbCircle
 62
7
  6
CONTINUOUS
 10
145.163514205
 20
71.5462629526
 40
2.0033812344
100
AcDbArc
 50
162.8548227591
 51
239.9935015091
  0
ARC
  5
58A
100
AcDbEntity
  8
7_ALL_ROUNDS
100
AcDbCircle
 62
7
  6
CONTINUOUS
 10
138.4015288975
 20
87.7351209393
 40
1.2006845862
100
AcDbArc
 50
139.1228219646
 51
143.5335669628
  0
ARC
  5
58B
100
AcDbEntity
  8
7_ALL_ROUNDS
100
AcDbCircle
 62
7
  6
CONTINUOUS
 10
147.4256531543
 20
91.0809390148
 40
0.489458563
100
AcDbArc
 50
71.2057528611
 51
73.1810635529
  0
ARC
  5
58C
100
AcDbEntity
  8
7_ALL_ROUNDS
100
AcDbCircle
 62
7
  6
CONTINUOUS
 10
143.3977915344
 20
83.9446173439
 40
0.2901394174
100
AcDbArc
 50
177.3525696673
 51
179.9601230142
  0
ARC
  5
58D
100
AcDbEntity
  8
7_ALL_ROUNDS
100
AcDbCircle
 62
7
  6
CONTINUOUS
 10
140.1315891606
 20
85.769369214
 40
0.2752407325
100
AcDbArc
 50
110.8867124904
 51
120.154759583
  0
ARC
  5
58E
100
AcDbEntity
  8
7_ALL_ROUNDS
100
AcDbCircle
 62
7
  6
CONTINUOUS
 10
152.6309062223
 20
66.9624416944
 40
0.2710327282
100
AcDbArc
 50
346.0979509928
 51
359.966590188
  0
ARC
  5
58F
100
AcDbEntity
  8
7_ALL_ROUNDS
100
AcDbCircle
 62
7
  6
CONTINUOUS
 10
140.1230136122
 20
85.7913146708
 40
0.2516800779
100
AcDbArc
 50
106.426217756
 51
110.8439133746
  0
ARC
  5
590
100
AcDbEntity
  8
7_ALL_ROUNDS
100
AcDbCircle
 62
7
  6
CONTINUOUS
 10
140.0066571213
 20
85.8179430441
 40
0.1406690102
100
AcDbArc
 50
175.998338064
 51
179.9721804382
  0
ARC
  5
591
100
AcDbEntity
  8
7_ALL_ROUNDS
100
AcDbCircle
 62
7
  6
CONTINUOUS
 10
139.9767213127
 20
64.4651798709
 40
0.1141718209
100
AcDbArc
 50
235.1288991573
 51
241.7354152627
  0
ARC
  5
592
100
AcDbEntity
  8
7_ALL_ROUNDS
100
AcDbCircle
 62
7
  6
CONTINUOUS
 10
139.9722503794
 20
64.4588283429
 40
0.1064046012
100
AcDbArc
 50
225.9512089945
 51
235.1486941466
  0
ARC
  5
593
100
AcDbEntity
  8
3_ALL_AXES
100
AcDbCircle
 62
7
  6
CONTINUOUS
 10
143.5877347128
 20
84.7954407727
 40
0.0651293421
100
AcDbArc
 50
0.058973795
 51
14.1702263542
  0
ARC
  5
594
100
AcDbEntity
  8
7_ALL_ROUNDS
100
AcDbCircle
 62
7
  6
CONTINUOUS
 10
145.3808154059
 20
61.1013549101
 40
0.0512869674
100
AcDbArc
 50
235.3441784543
 51
253.7323524246
  0
SPLINE
  5
595
100
AcDbEntity
  8
7_ALL_ROUNDS
100
AcDbSpline
 62
7
  6
CONTINUOUS
 70
0
 71
3
 72
9
 73
5
 74
0
 42
0.0000001
 43
0.0000001
 44
0.0000000001
 40
0.0
 40
0.0
 40
0.0
 40
0.0
 40
0.2871385748
 40
1.0
 40
1.0
 40
1.0
 40
1.0
 10
54.6054288345
 20
38.1795357482
 30
0.0
 10
54.6054288345
 20
38.1610684694
 30
0.0
 10
54.6027206064
 20
38.0970071208
 30
0.0
 10
54.5925891075
 20
38.0316943215
 30
0.0
 10
54.5740094042
 20
37.9897801732
 30
0.0
  0
SPLINE
  5
596
100
AcDbEntity
  8
7_ALL_ROUNDS
100
AcDbSpline
 62
7
  6
CONTINUOUS
 70
0
 71
3
 72
8
 73
4
 74
0
 42
0.0000001
 43
0.0000001
 44
0.0000000001
 40
0.0
 40
0.0
 40
0.0
 40
0.0
 40
1.0
 40
1.0
 40
1.0
 40
1.0
 10
54.5740094042
 20
37.9897801732
 30
0.0
 10
54.5685037837
 20
37.977359986
 30
0.0
 10
54.5617805638
 20
37.9649865398
 30
0.0
 10
54.5522139196
 20
37.9553401817
 30
0.0
  0
SPLINE
  5
597
100
AcDbEntity
  8
7_ALL_ROUNDS
100
AcDbSpline
 62
7
  6
CONTINUOUS
 70
0
 71
3
 72
8
 73
4
 74
0
 42
0.0000001
 43
0.0000001
 44
0.0000000001
 40
0.0
 40
0.0
 40
0.0
 40
0.0
 40
1.0
 40
1.0
 40
1.0
 40
1.0
 10
54.5522139196
 20
37.9553401817
 30
0.0
 10
54.5458152382
 20
37.9488881834
 30
0.0
 10
54.5368356357
 20
37.9433152758
 30
0.0
 10
54.5277487547
 20
37.9433152758
 30
0.0
  0
SPLINE
  5
598
100
AcDbEntity
  8
7_ALL_ROUNDS
100
AcDbSpline
 62
7
  6
CONTINUOUS
 70
0
 71
3
 72
8
 73
4
 74
0
 42
0.0000001
 43
0.0000001
 44
0.0000000001
 40
0.0
 40
0.0
 40
0.0
 40
0.0
 40
1.0
 40
1.0
 40
1.0
 40
1.0
 10
49.2031405506
 20
37.9433152758
 30
0.0
 10
49.1936458487
 20
37.9433152758
 30
0.0
 10
49.184320102
 20
37.9493934147
 30
0.0
 10
49.1777725517
 20
37.9562693836
 30
0.0
  0
SPLINE
  5
599
100
AcDbEntity
  8
7_ALL_ROUNDS
100
AcDbSpline
 62
7
  6
CONTINUOUS
 70
0
 71
3
 72
8
 73
4
 74
0
 42
0.0000001
 43
0.0000001
 44
0.0000000001
 40
0.0
 40
0.0
 40
0.0
 40
0.0
 40
1.0
 40
1.0
 40
1.0
 40
1.0
 10
49.1777725517
 20
37.9562693836
 30
0.0
 10
49.1686950657
 20
37.9658021872
 30
0.0
 10
49.16221436
 20
37.9777461113
 30
0.0
 10
49.1568799012
 20
37.9897801732
 30
0.0
  0
SPLINE
  5
59A
100
AcDbEntity
  8
7_ALL_ROUNDS
100
AcDbSpline
 62
7
  6
CONTINUOUS
 70
0
 71
3
 72
9
 73
5
 74
0
 42
0.0000001
 43
0.0000001
 44
0.0000000001
 40
0.0
 40
0.0
 40
0.0
 40
0.0
 40
0.202471215
 40
1.0
 40
1.0
 40
1.0
 40
1.0
 10
49.1568799012
 20
37.9897801732
 30
0.0
 10
49.1515992043
 20
38.0016929528
 30
0.0
 10
49.131158087
 20
38.062953818
 30
0.0
 10
49.1254604708
 20
38.1282080226
 30
0.0
 10
49.1254604708
 20
38.1795357482
 30
0.0
  0
SPLINE
  5
59B
100
AcDbEntity
  8
7_ALL_ROUNDS
100
AcDbSpline
 62
7
  6
CONTINUOUS
 70
0
 71
3
 72
9
 73
5
 74
0
 42
0.0000001
 43
0.0000001
 44
0.0000000001
 40
0.0
 40
0.0
 40
0.0
 40
0.0
 40
0.2871165563
 40
1.0
 40
1.0
 40
1.0
 40
1.0
 10
49.1254604708
 20
69.7031577955
 30
0.0
 10
49.1254604708
 20
69.7216196064
 30
0.0
 10
49.1281671078
 20
69.7856673048
 30
0.0
 10
49.1382952576
 20
69.8509637455
 30
0.0
 10
49.1568624382
 20
69.8928739885
 30
0.0
  0
SPLINE
  5
59C
100
AcDbEntity
  8
7_ALL_ROUNDS
100
AcDbSpline
 62
7
  6
CONTINUOUS
 70
0
 71
3
 72
8
 73
4
 74
0
 42
0.0000001
 43
0.0000001
 44
0.0000000001
 40
0.0
 40
0.0
 40
0.0
 40
0.0
 40
1.0
 40
1.0
 40
1.0
 40
1.0
 10
49.1568624382
 20
69.8928739885
 30
0.0
 10
49.16237245
 20
69.9053113069
 30
0.0
 10
49.1691019635
 20
69.917703161
 30
0.0
 10
49.1786823821
 20
69.9273604224
 30
0.0
  0
SPLINE
  5
59D
100
AcDbEntity
  8
7_ALL_ROUNDS
100
AcDbSpline
 62
7
  6
CONTINUOUS
 70
0
 71
3
 72
8
 73
4
 74
0
 42
0.0000001
 43
0.0000001
 44
0.0000000001
 40
0.0
 40
0.0
 40
0.0
 40
0.0
 40
1.0
 40
1.0
 40
1.0
 40
1.0
 10
49.1786823821
 20
69.9273604224
 30
0.0
 10
49.1850798555
 20
69.9338092089
 30
0.0
 10
49.1940568007
 20
69.9393782679
 30
0.0
 10
49.2031405506
 20
69.9393782679
 30
0.0
  0
SPLINE
  5
59E
100
AcDbEntity
  8
7_ALL_ROUNDS
100
AcDbSpline
 62
7
  6
CONTINUOUS
 70
0
 71
3
 72
8
 73
4
 74
0
 42
0.0000001
 43
0.0000001
 44
0.0000000001
 40
0.0
 40
0.0
 40
0.0
 40
0.0
 40
1.0
 40
1.0
 40
1.0
 40
1.0
 10
54.5277487547
 20
69.9393782679
 30
0.0
 10
54.5372420499
 20
69.9393782679
 30
0.0
 10
54.5465666528
 20
69.9333019331
 30
0.0
 10
54.5531136683
 20
69.9264273972
 30
0.0
  0
SPLINE
  5
59F
100
AcDbEntity
  8
7_ALL_ROUNDS
100
AcDbSpline
 62
7
  6
CONTINUOUS
 70
0
 71
3
 72
8
 73
4
 74
0
 42
0.0000001
 43
0.0000001
 44
0.0000000001
 40
0.0
 40
0.0
 40
0.0
 40
0.0
 40
1.0
 40
1.0
 40
1.0
 40
1.0
 10
54.5531136683
 20
69.9264273972
 30
0.0
 10
54.5622025707
 20
69.9168838142
 30
0.0
 10
54.5686886476
 20
69.9049235336
 30
0.0
 10
54.5740268672
 20
69.8928739885
 30
0.0
  0
SPLINE
  5
5A0
100
AcDbEntity
  8
7_ALL_ROUNDS
100
AcDbSpline
 62
7
  6
CONTINUOUS
 70
0
 71
3
 72
9
 73
5
 74
0
 42
0.0000001
 43
0.0000001
 44
0.0000000001
 40
0.0
 40
0.0
 40
0.0
 40
0.0
 40
0.202499314
 40
1.0
 40
1.0
 40
1.0
 40
1.0
 10
54.5740268672
 20
69.8928739885
 30
0.0
 10
54.5793045686
 20
69.8809610463
 30
0.0
 10
54.5997328531
 20
69.8197112734
 30
0.0
 10
54.6054288345
 20
69.7544723964
 30
0.0
 10
54.6054288345
 20
69.7031577955
 30
0.0
  0
SPLINE
  5
5A1
100
AcDbEntity
  8
7_ALL_ROUNDS
100
AcDbSpline
 62
7
  6
CONTINUOUS
 70
0
 71
3
 72
11
 73
7
 74
0
 42
0.0000001
 43
0.0000001
 44
0.0000000001
 40
0.0
 40
0.0
 40
0.0
 40
0.0
 40
0.3798664831
 40
0.7000762624
 40
0.914111052
 40
1.0
 40
1.0
 40
1.0
 40
1.0
 10
45.0599328416
 20
38.1795357482
 30
0.0
 10
45.0599328416
 20
38.1491132406
 30
0.0
 10
45.0611276799
 20
38.0941762785
 30
0.0
 10
45.0661182783
 20
38.0171076063
 30
0.0
 10
45.0734390733
 20
37.9759037104
 30
0.0
 10
45.0806971175
 20
37.9433152758
 30
0.0
 10
45.0875757375
 20
37.9433152758
 30
0.0
  0
SPLINE
  5
5A2
100
AcDbEntity
  8
7_ALL_ROUNDS
100
AcDbSpline
 62
7
  6
CONTINUOUS
 70
0
 71
3
 72
11
 73
7
 74
0
 42
0.0000001
 43
0.0000001
 44
0.0000000001
 40
0.0
 40
0.0
 40
0.0
 40
0.0
 40
0.3798664831
 40
0.7000762624
 40
0.914111052
 40
1.0
 40
1.0
 40
1.0
 40
1.0
 10
58.6709564637
 20
69.7031577955
 30
0.0
 10
58.6709564637
 20
69.7335803031
 30
0.0
 10
58.6697616254
 20
69.7885172652
 30
0.0
 10
58.6647710271
 20
69.8655859374
 30
0.0
 10
58.6574502321
 20
69.9067898333
 30
0.0
 10
58.6501921878
 20
69.9393782679
 30
0.0
 10
58.6433135678
 20
69.9393782679
 30
0.0
  0
SPLINE
  5
5A3
100
AcDbEntity
  8
7_ALL_ROUNDS
100
AcDbSpline
 62
7
  6
CONTINUOUS
 70
0
 71
3
 72
9
 73
5
 74
0
 42
0.0000001
 43
0.0000001
 44
0.0000000001
 40
0.0
 40
0.0
 40
0.0
 40
0.0
 40
0.3376815279
 40
1.0
 40
1.0
 40
1.0
 40
1.0
 10
49.1566677977
 20
69.9393782679
 30
0.0
 10
49.1355894743
 20
69.9393782679
 30
0.0
 10
49.0939869702
 20
69.8721391852
 30
0.0
 10
49.0868901137
 20
69.8156850595
 30
0.0
 10
49.0826064402
 20
69.7745651894
 30
0.0
  0
SPLINE
  5
5A4
100
AcDbEntity
  8
7_ALL_ROUNDS
100
AcDbSpline
 62
7
  6
CONTINUOUS
 70
0
 71
3
 72
11
 73
7
 74
0
 42
0.0000001
 43
0.0000001
 44
0.0000000001
 40
0.0
 40
0.0
 40
0.0
 40
0.0
 40
0.3798664831
 40
0.7000762624
 40
0.914111052
 40
1.0
 40
1.0
 40
1.0
 40
1.0
 10
45.0599328416
 20
69.7031577955
 30
0.0
 10
45.0599328416
 20
69.7335803031
 30
0.0
 10
45.0611276799
 20
69.7885172652
 30
0.0
 10
45.0661182783
 20
69.8655859374
 30
0.0
 10
45.0734390733
 20
69.9067898333
 30
0.0
 10
45.0806971175
 20
69.9393782679
 30
0.0
 10
45.0875757375
 20
69.9393782679
 30
0.0
  0
SPLINE
  5
5A5
100
AcDbEntity
  8
7_ALL_ROUNDS
100
AcDbSpline
 62
7
  6
CONTINUOUS
 70
0
 71
3
 72
11
 73
7
 74
0
 42
0.0000001
 43
0.0000001
 44
0.0000000001
 40
0.0
 40
0.0
 40
0.0
 40
0.0
 40
0.3798664831
 40
0.7000762624
 40
0.914111052
 40
1.0
 40
1.0
 40
1.0
 40
1.0
 10
58.6709564637
 20
38.1795357482
 30
0.0
 10
58.6709564637
 20
38.1491132406
 30
0.0
 10
58.6697616254
 20
38.0941762785
 30
0.0
 10
58.6647710271
 20
38.0171076063
 30
0.0
 10
58.6574502321
 20
37.9759037104
 30
0.0
 10
58.6501921878
 20
37.9433152758
 30
0.0
 10
58.6433135678
 20
37.9433152758
 30
0.0
  0
SPLINE
  5
5A6
100
AcDbEntity
  8
7_ALL_ROUNDS
100
AcDbSpline
 62
7
  6
CONTINUOUS
 70
0
 71
3
 72
9
 73
5
 74
0
 42
0.0000001
 43
0.0000001
 44
0.0000000001
 40
0.0
 40
0.0
 40
0.0
 40
0.0
 40
0.6623262664
 40
1.0
 40
1.0
 40
1.0
 40
1.0
 10
49.0826026944
 20
38.1081642679
 30
0.0
 10
49.0868849168
 20
38.0670359291
 30
0.0
 10
49.0939802331
 20
38.0105723302
 30
0.0
 10
49.1355859911
 20
37.9433152758
 30
0.0
 10
49.1566677977
 20
37.9433152758
 30
0.0
  0
SPLINE
  5
5A7
100
AcDbEntity
  8
7_ALL_ROUNDS
100
AcDbSpline
 62
7
  6
CONTINUOUS
 70
0
 71
3
 72
9
 73
5
 74
0
 42
0.0000001
 43
0.0000001
 44
0.0000000001
 40
0.0
 40
0.0
 40
0.0
 40
0.0
 40
0.3376737336
 40
1.0
 40
1.0
 40
1.0
 40
1.0
 10
54.5742215076
 20
37.9433152758
 30
0.0
 10
54.5953033142
 20
37.9433152758
 30
0.0
 10
54.6369090723
 20
38.0105723302
 30
0.0
 10
54.6440043885
 20
38.0670359291
 30
0.0
 10
54.6482866109
 20
38.1081642679
 30
0.0
  0
SPLINE
  5
5A8
100
AcDbEntity
  8
7_ALL_ROUNDS
100
AcDbSpline
 62
7
  6
CONTINUOUS
 70
0
 71
3
 72
9
 73
5
 74
0
 42
0.0000001
 43
0.0000001
 44
0.0000000001
 40
0.0
 40
0.0
 40
0.0
 40
0.0
 40
0.6623184721
 40
1.0
 40
1.0
 40
1.0
 40
1.0
 10
54.6482828651
 20
69.7745651894
 30
0.0
 10
54.6439991916
 20
69.8156850595
 30
0.0
 10
54.6369023351
 20
69.8721391852
 30
0.0
 10
54.595299831
 20
69.9393782679
 30
0.0
 10
54.5742215076
 20
69.9393782679
 30
0.0
  0
SPLINE
  5
5A9
100
AcDbEntity
  8
3_ALL_AXES
100
AcDbSpline
 62
7
  6
CONTINUOUS
 70
0
 71
3
 72
13
 73
9
 74
0
 42
0.0000001
 43
0.0000001
 44
0.0000000001
 40
0.0
 40
0.0
 40
0.0
 40
0.0
 40
0.1317357684
 40
0.2713541552
 40
0.4178991716
 40
0.5930152361
 40
0.7698067128
 40
1.0
 40
1.0
 40
1.0
 40
1.0
 10
52.5487911094
 20
82.5802728381
 30
0.0
 10
52.5331118296
 20
82.5802728381
 30
0.0
 10
52.5009788559
 20
82.5760121655
 30
0.0
 10
52.4573601231
 20
82.5496280146
 30
0.0
 10
52.4261477881
 20
82.5039250068
 30
0.0
 10
52.4058449841
 20
82.4484310366
 30
0.0
 10
52.3947339549
 20
82.3805100986
 30
0.0
 10
52.393125755
 20
82.3325612569
 30
0.0
 10
52.393125755
 20
82.3054263814
 30
0.0
  0
SPLINE
  5
5AA
100
AcDbEntity
  8
3_ALL_AXES
100
AcDbSpline
 62
7
  6
CONTINUOUS
 70
0
 71
3
 72
13
 73
9
 74
0
 42
0.0000001
 43
0.0000001
 44
0.0000000001
 40
0.0
 40
0.0
 40
0.0
 40
0.0
 40
0.2249509062
 40
0.4029463322
 40
0.5792549365
 40
0.726797924
 40
0.8673671115
 40
1.0
 40
1.0
 40
1.0
 40
1.0
 10
52.393125755
 20
82.2955838617
 30
0.0
 10
52.393125755
 20
82.2696994501
 30
0.0
 10
52.3956261982
 20
82.2233871464
 30
0.0
 10
52.406966141
 20
82.157523398
 30
0.0
 10
52.4275037385
 20
82.1031864734
 30
0.0
 10
52.4586275988
 20
82.0585946243
 30
0.0
 10
52.5017629195
 20
82.0330663906
 30
0.0
 10
52.5333762646
 20
82.0292846491
 30
0.0
 10
52.5487911094
 20
82.0292846491
 30
0.0
  0
SPLINE
  5
5AB
100
AcDbEntity
  8
3_ALL_AXES
100
AcDbSpline
 62
7
  6
CONTINUOUS
 70
0
 71
3
 72
13
 73
9
 74
0
 42
0.0000001
 43
0.0000001
 44
0.0000000001
 40
0.0
 40
0.0
 40
0.0
 40
0.0
 40
0.1604571392
 40
0.3334692485
 40
0.4767982758
 40
0.6242014838
 40
0.7505998515
 40
1.0
 40
1.0
 40
1.0
 40
1.0
 10
52.2037399283
 20
82.0292846491
 30
0.0
 10
52.2166141911
 20
82.0292846491
 30
0.0
 10
52.2432762582
 20
82.0322365428
 30
0.0
 10
52.2789739035
 20
82.0478992674
 30
0.0
 10
52.3056397202
 20
82.0746701728
 30
0.0
 10
52.3203849334
 20
82.1049480074
 30
0.0
 10
52.3315943417
 20
82.1454711071
 30
0.0
 10
52.3309142697
 20
82.1756664099
 30
0.0
 10
52.3314604007
 20
82.195694098
 30
0.0
  0
SPLINE
  5
5AC
100
AcDbEntity
  8
3_ALL_AXES
100
AcDbSpline
 62
7
  6
CONTINUOUS
 70
0
 71
3
 72
13
 73
9
 74
0
 42
0.0000001
 43
0.0000001
 44
0.0000000001
 40
0.0
 40
0.0
 40
0.0
 40
0.0
 40
0.2494001485
 40
0.3757985162
 40
0.5232017242
 40
0.6665307515
 40
0.8395428608
 40
1.0
 40
1.0
 40
1.0
 40
1.0
 10
52.3314604007
 20
82.195694098
 30
0.0
 10
52.331998171
 20
82.2154151847
 30
0.0
 10
52.3307019668
 20
82.2451450209
 30
0.0
 10
52.3195514527
 20
82.284913231
 30
0.0
 10
52.3045897379
 20
82.3145562138
 30
0.0
 10
52.2780427416
 20
82.3405791686
 30
0.0
 10
52.2427008567
 20
82.355673605
 30
0.0
 10
52.2164171004
 20
82.3580366176
 30
0.0
 10
52.2037399283
 20
82.3580366176
 30
0.0
  0
SPLINE
  5
5AD
100
AcDbEntity
  8
3_ALL_AXES
100
AcDbSpline
 62
7
  6
CONTINUOUS
 70
0
 71
3
 72
13
 73
9
 74
0
 42
0.0000001
 43
0.0000001
 44
0.0000000001
 40
0.0
 40
0.0
 40
0.0
 40
0.0
 40
0.1133740464
 40
0.2392044088
 40
0.3655787964
 40
0.4912154373
 40
0.7445390876
 40
1.0
 40
1.0
 40
1.0
 40
1.0
 10
51.5253580385
 20
82.5802728381
 30
0.0
 10
51.5163932711
 20
82.5802728381
 30
0.0
 10
51.497504222
 20
82.5789906659
 30
0.0
 10
51.4693567074
 20
82.5711154821
 30
0.0
 10
51.4440926523
 20
82.5543669727
 30
0.0
 10
51.4181313981
 20
82.5234554912
 30
0.0
 10
51.4016216245
 20
82.4746428827
 30
0.0
 10
51.3991894676
 20
82.4345378653
 30
0.0
 10
51.3983107944
 20
82.4143830743
 30
0.0
  0
SPLINE
  5
5AE
100
AcDbEntity
  8
3_ALL_AXES
100
AcDbSpline
 62
7
  6
CONTINUOUS
 70
0
 71
3
 72
13
 73
9
 74
0
 42
0.0000001
 43
0.0000001
 44
0.0000000001
 40
0.0
 40
0.0
 40
0.0
 40
0.0
 40
0.2554609124
 40
0.5087845627
 40
0.6344212036
 40
0.7607955912
 40
0.8866259536
 40
1.0
 40
1.0
 40
1.0
 40
1.0
 10
51.3983107944
 20
82.4143830743
 30
0.0
 10
51.3974421944
 20
82.3944593398
 30
0.0
 10
51.4030182955
 20
82.3548490108
 30
0.0
 10
51.418753581
 20
82.3067412208
 30
0.0
 10
51.444820169
 20
82.2764098972
 30
0.0
 10
51.469914549
 20
82.2600909563
 30
0.0
 10
51.4978149577
 20
82.2525020648
 30
0.0
 10
51.5164960441
 20
82.2515208696
 30
0.0
 10
51.5253580385
 20
82.2515208696
 30
0.0
  0
SPLINE
  5
5AF
100
AcDbEntity
  8
3_ALL_AXES
100
AcDbSpline
 62
7
  6
CONTINUOUS
 70
0
 71
3
 72
12
 73
8
 74
0
 42
0.0000001
 43
0.0000001
 44
0.0000000001
 40
0.0
 40
0.0
 40
0.0
 40
0.0
 40
0.2415790084
 40
0.4893269843
 40
0.7378634303
 40
0.8656387112
 40
1.0
 40
1.0
 40
1.0
 40
1.0
 10
51.2025037078
 20
82.0292846491
 30
0.0
 10
51.2176860913
 20
82.0292846491
 30
0.0
 10
51.2484027207
 20
82.031271125
 30
0.0
 10
51.2932829077
 20
82.0472492075
 30
0.0
 10
51.3204267521
 20
82.0777871613
 30
0.0
 10
51.3322336057
 20
82.1081080388
 30
0.0
 10
51.3324289046
 20
82.1246858523
 30
0.0
 10
51.3324289046
 20
82.1331822869
 30
0.0
  0
SPLINE
  5
5B0
100
AcDbEntity
  8
3_ALL_AXES
100
AcDbSpline
 62
7
  6
CONTINUOUS
 70
0
 71
3
 72
12
 73
8
 74
0
 42
0.0000001
 43
0.0000001
 44
0.0000000001
 40
0.0
 40
0.0
 40
0.0
 40
0.0
 40
0.1343612888
 40
0.2621365697
 40
0.5106730157
 40
0.7584209916
 40
1.0
 40
1.0
 40
1.0
 40
1.0
 10
51.3324289046
 20
82.476221657
 30
0.0
 10
51.3324289046
 20
82.4847229919
 30
0.0
 10
51.3322541963
 20
82.501310539
 30
0.0
 10
51.3204583209
 20
82.5316571797
 30
0.0
 10
51.2933227743
 20
82.5622339384
 30
0.0
 10
51.2484276089
 20
82.5782469091
 30
0.0
 10
51.2176948468
 20
82.5802728381
 30
0.0
 10
51.2025037078
 20
82.5802728381
 30
0.0
  0
SPLINE
  5
5B1
100
AcDbEntity
  8
3_ALL_AXES
100
AcDbSpline
 62
7
  6
CONTINUOUS
 70
0
 71
3
 72
12
 73
8
 74
0
 42
0.0000001
 43
0.0000001
 44
0.0000000001
 40
0.0
 40
0.0
 40
0.0
 40
0.0
 40
0.1341799809
 40
0.290831959
 40
0.5815217441
 40
0.760783857
 40
1.0
 40
1.0
 40
1.0
 40
1.0
 10
50.5037399283
 20
82.5802728381
 30
0.0
 10
50.4882127332
 20
82.5802728381
 30
0.0
 10
50.4554018018
 20
82.5704607926
 30
0.0
 10
50.3994608709
 20
82.530837607
 30
0.0
 10
50.3732629228
 20
82.4596238329
 30
0.0
 10
50.3579202996
 20
82.3802292654
 30
0.0
 10
50.356955179
 20
82.3320506812
 30
0.0
 10
50.3562911094
 20
82.3045405547
 30
0.0
  0
SPLINE
  5
5B2
100
AcDbEntity
  8
3_ALL_AXES
100
AcDbSpline
 62
7
  6
CONTINUOUS
 70
0
 71
3
 72
12
 73
8
 74
0
 42
0.0000001
 43
0.0000001
 44
0.0000000001
 40
0.0
 40
0.0
 40
0.0
 40
0.0
 40
0.2392679579
 40
0.4185688994
 40
0.7093216488
 40
0.8660075581
 40
1.0
 40
1.0
 40
1.0
 40
1.0
 10
50.3562911094
 20
82.3045405547
 30
0.0
 10
50.3556273696
 20
82.2770440982
 30
0.0
 10
50.358388556
 20
82.2288922049
 30
0.0
 10
50.3731049033
 20
82.1495145181
 30
0.0
 10
50.3995463261
 20
82.0784501987
 30
0.0
 10
50.4553597751
 20
82.0386185326
 30
0.0
 10
50.4882357122
 20
82.0292846491
 30
0.0
 10
50.5037399283
 20
82.0292846491
 30
0.0
  0
LINE
  5
5B3
100
AcDbEntity
  8
7_ALL_ROUNDS
100
AcDbLine
 62
7
  6
CONTINUOUS
 10
43.3516651251
 20
83.8538295208
 11
43.1154446527
 21
83.8912431682
  0
LINE
  5
5B4
100
AcDbEntity
  8
7_ALL_ROUNDS
100
AcDbLine
 62
7
  6
CONTINUOUS
 10
60.3792241802
 20
83.8538295208
 11
60.6154446527
 21
83.8912431682
  0
SPLINE
  5
5B5
100
AcDbEntity
  8
0
100
AcDbSpline
 62
7
  6
CONTINUOUS
 70
0
 71
3
 72
9
 73
5
 74
0
 42
0.0000001
 43
0.0000001
 44
0.0000000001
 40
0.0
 40
0.0
 40
0.0
 40
0.0
 40
0.4911328553
 40
1.0
 40
1.0
 40
1.0
 40
1.0
 10
99.5873480446
 20
39.3173310238
 30
0.0
 10
99.534404312
 20
39.3173310289
 30
0.0
 10
99.4228252444
 20
39.3661913556
 30
0.0
 10
99.3814105922
 20
39.479010982
 30
0.0
 10
99.3814106099
 20
39.5338664569
 30
0.0
  0
SPLINE
  5
5B6
100
AcDbEntity
  8
0
100
AcDbSpline
 62
7
  6
CONTINUOUS
 70
0
 71
3
 72
9
 73
5
 74
0
 42
0.0000001
 43
0.0000001
 44
0.0000000001
 40
0.0
 40
0.0
 40
0.0
 40
0.0
 40
0.4911328553
 40
1.0
 40
1.0
 40
1.0
 40
1.0
 10
99.5873480446
 20
68.1322916537
 30
0.0
 10
99.534404312
 20
68.1322916589
 30
0.0
 10
99.4228252444
 20
68.1811519855
 30
0.0
 10
99.3814105922
 20
68.2939716119
 30
0.0
 10
99.3814106099
 20
68.3488270868
 30
0.0
  0
SPLINE
  5
5B7
100
AcDbEntity
  8
7_ALL_ROUNDS
100
AcDbSpline
 62
7
  6
CONTINUOUS
 70
0
 71
3
 72
9
 73
5
 74
0
 42
0.0000001
 43
0.0000001
 44
0.0000000001
 40
0.0
 40
0.0
 40
0.0
 40
0.0
 40
0.5008091686
 40
1.0
 40
1.0
 40
1.0
 40
1.0
 10
95.0804813064
 20
38.1795357482
 30
0.0
 10
95.0804813064
 20
38.118743918
 30
0.0
 10
95.1328798293
 20
37.9924241678
 30
0.0
 10
95.2594527377
 20
37.9433152758
 30
0.0
 10
95.3200481225
 20
37.9433152758
 30
0.0
  0
SPLINE
  5
5B8
100
AcDbEntity
  8
7_ALL_ROUNDS
100
AcDbSpline
 62
7
  6
CONTINUOUS
 70
0
 71
3
 72
9
 73
5
 74
0
 42
0.0000001
 43
0.0000001
 44
0.0000000001
 40
0.0
 40
0.0
 40
0.0
 40
0.0
 40
0.5008091686
 40
1.0
 40
1.0
 40
1.0
 40
1.0
 10
95.0804813064
 20
69.7031577955
 30
0.0
 10
95.0804813064
 20
69.7639496257
 30
0.0
 10
95.1328798293
 20
69.8902693759
 30
0.0
 10
95.2594527377
 20
69.9393782679
 30
0.0
 10
95.3200481225
 20
69.9393782679
 30
0.0
  0
SPLINE
  5
5B9
100
AcDbEntity
  8
0
100
AcDbSpline
 62
7
  6
CONTINUOUS
 70
0
 71
3
 72
9
 73
5
 74
0
 42
0.0000001
 43
0.0000001
 44
0.0000000001
 40
0.0
 40
0.0
 40
0.0
 40
0.0
 40
0.5088674583
 40
1.0
 40
1.0
 40
1.0
 40
1.0
 10
99.3814106099
 20
39.5338664569
 30
0.0
 10
99.3814106099
 20
39.5887219661
 30
0.0
 10
99.4228252691
 20
39.7015415987
 30
0.0
 10
99.5344043453
 20
39.7504018951
 30
0.0
 10
99.5873480445
 20
39.75040189
 30
0.0
  0
SPLINE
  5
5BA
100
AcDbEntity
  8
0
100
AcDbSpline
 62
7
  6
CONTINUOUS
 70
0
 71
3
 72
9
 73
5
 74
0
 42
0.0000001
 43
0.0000001
 44
0.0000000001
 40
0.0
 40
0.0
 40
0.0
 40
0.0
 40
0.5088674583
 40
1.0
 40
1.0
 40
1.0
 40
1.0
 10
99.3814106099
 20
68.3488270868
 30
0.0
 10
99.3814106099
 20
68.403682596
 30
0.0
 10
99.4228252691
 20
68.5165022286
 30
0.0
 10
99.5344043453
 20
68.565362525
 30
0.0
 10
99.5873480445
 20
68.5653625199
 30
0.0
  0
SPLINE
  5
5BB
100
AcDbEntity
  8
0
100
AcDbSpline
 62
7
  6
CONTINUOUS
 70
0
 71
3
 72
9
 73
5
 74
0
 42
0.0000001
 43
0.0000001
 44
0.0000000001
 40
0.0
 40
0.0
 40
0.0
 40
0.0
 40
0.5088674583
 40
1.0
 40
1.0
 40
1.0
 40
1.0
 10
99.7932854792
 20
39.5338664569
 30
0.0
 10
99.7932854792
 20
39.4790109477
 30
0.0
 10
99.75187082
 20
39.3661913151
 30
0.0
 10
99.6402917438
 20
39.3173310187
 30
0.0
 10
99.5873480446
 20
39.3173310238
 30
0.0
  0
SPLINE
  5
5BC
100
AcDbEntity
  8
0
100
AcDbSpline
 62
7
  6
CONTINUOUS
 70
0
 71
3
 72
9
 73
5
 74
0
 42
0.0000001
 43
0.0000001
 44
0.0000000001
 40
0.0
 40
0.0
 40
0.0
 40
0.0
 40
0.5088674583
 40
1.0
 40
1.0
 40
1.0
 40
1.0
 10
99.7932854792
 20
68.3488270868
 30
0.0
 10
99.7932854792
 20
68.2939715776
 30
0.0
 10
99.75187082
 20
68.181151945
 30
0.0
 10
99.6402917438
 20
68.1322916486
 30
0.0
 10
99.5873480446
 20
68.1322916537
 30
0.0
  0
SPLINE
  5
5BD
100
AcDbEntity
  8
3_ALL_AXES
100
AcDbSpline
 62
7
  6
CONTINUOUS
 70
0
 71
3
 72
8
 73
4
 74
0
 42
0.0000001
 43
0.0000001
 44
0.0000000001
 40
0.0
 40
0.0
 40
0.0
 40
0.0
 40
1.0
 40
1.0
 40
1.0
 40
1.0
 10
99.6777082569
 20
39.5338664569
 30
0.0
 10
99.6777082569
 20
39.5887218417
 30
0.0
 10
99.6552068569
 20
39.6472429641
 30
0.0
 10
99.6173905788
 20
39.68698013
 30
0.0
  0
SPLINE
  5
5BE
100
AcDbEntity
  8
3_ALL_AXES
100
AcDbSpline
 62
7
  6
CONTINUOUS
 70
0
 71
3
 72
8
 73
4
 74
0
 42
0.0000001
 43
0.0000001
 44
0.0000000001
 40
0.0
 40
0.0
 40
0.0
 40
0.0
 40
1.0
 40
1.0
 40
1.0
 40
1.0
 10
99.6173905788
 20
39.68698013
 30
0.0
 10
99.5986275743
 20
39.7066962062
 30
0.0
 10
99.5755317229
 20
39.7230485603
 30
0.0
 10
99.5505796666
 20
39.7339191116
 30
0.0
  0
SPLINE
  5
5BF
100
AcDbEntity
  8
3_ALL_AXES
100
AcDbSpline
 62
7
  6
CONTINUOUS
 70
0
 71
3
 72
8
 73
4
 74
0
 42
0.0000001
 43
0.0000001
 44
0.0000000001
 40
0.0
 40
0.0
 40
0.0
 40
0.0
 40
1.0
 40
1.0
 40
1.0
 40
1.0
 10
99.6777082569
 20
68.3488270868
 30
0.0
 10
99.6777082569
 20
68.4036824716
 30
0.0
 10
99.6552068569
 20
68.462203594
 30
0.0
 10
99.6173905788
 20
68.5019407599
 30
0.0
  0
SPLINE
  5
5C0
100
AcDbEntity
  8
3_ALL_AXES
100
AcDbSpline
 62
7
  6
CONTINUOUS
 70
0
 71
3
 72
8
 73
4
 74
0
 42
0.0000001
 43
0.0000001
 44
0.0000000001
 40
0.0
 40
0.0
 40
0.0
 40
0.0
 40
1.0
 40
1.0
 40
1.0
 40
1.0
 10
99.6173905788
 20
68.5019407599
 30
0.0
 10
99.5986275743
 20
68.5216568361
 30
0.0
 10
99.5755317229
 20
68.5380091902
 30
0.0
 10
99.5505796666
 20
68.5488797415
 30
0.0
  0
SPLINE
  5
5C1
100
AcDbEntity
  8
3_ALL_AXES
100
AcDbSpline
 62
7
  6
CONTINUOUS
 70
0
 71
3
 72
8
 73
4
 74
0
 42
0.0000001
 43
0.0000001
 44
0.0000000001
 40
0.0
 40
0.0
 40
0.0
 40
0.0
 40
1.0
 40
1.0
 40
1.0
 40
1.0
 10
99.5505796666
 20
68.1487744321
 30
0.0
 10
99.5755317229
 20
68.1596449834
 30
0.0
 10
99.5986275743
 20
68.1759973375
 30
0.0
 10
99.6173905788
 20
68.1957134137
 30
0.0
  0
SPLINE
  5
5C2
100
AcDbEntity
  8
3_ALL_AXES
100
AcDbSpline
 62
7
  6
CONTINUOUS
 70
0
 71
3
 72
8
 73
4
 74
0
 42
0.0000001
 43
0.0000001
 44
0.0000000001
 40
0.0
 40
0.0
 40
0.0
 40
0.0
 40
1.0
 40
1.0
 40
1.0
 40
1.0
 10
99.6173905788
 20
68.1957134137
 30
0.0
 10
99.6552068569
 20
68.2354505796
 30
0.0
 10
99.6777082569
 20
68.293971702
 30
0.0
 10
99.6777082569
 20
68.3488270868
 30
0.0
  0
SPLINE
  5
5C3
100
AcDbEntity
  8
0
100
AcDbSpline
 62
7
  6
CONTINUOUS
 70
0
 71
3
 72
9
 73
5
 74
0
 42
0.0000001
 43
0.0000001
 44
0.0000000001
 40
0.0
 40
0.0
 40
0.0
 40
0.0
 40
0.4911328553
 40
1.0
 40
1.0
 40
1.0
 40
1.0
 10
99.5873480445
 20
68.5653625199
 30
0.0
 10
99.6402917771
 20
68.5653625147
 30
0.0
 10
99.7518708618
 20
68.5165021881
 30
0.0
 10
99.7932854615
 20
68.4036825617
 30
0.0
 10
99.7932854792
 20
68.3488270868
 30
0.0
  0
SPLINE
  5
5C4
100
AcDbEntity
  8
7_ALL_ROUNDS
100
AcDbSpline
 62
7
  6
CONTINUOUS
 70
0
 71
3
 72
11
 73
7
 74
0
 42
0.0000001
 43
0.0000001
 44
0.0000000001
 40
0.0
 40
0.0
 40
0.0
 40
0.0
 40
0.0942363058
 40
0.309213914
 40
0.6261535328
 40
1.0
 40
1.0
 40
1.0
 40
1.0
 10
97.0625683503
 20
37.9433152758
 30
0.0
 10
97.0549261664
 20
37.9433152758
 30
0.0
 10
97.042396537
 20
37.9737750454
 30
0.0
 10
97.0341807428
 20
38.0179962407
 30
0.0
 10
97.0263527213
 20
38.0939665515
 30
0.0
 10
97.0249694954
 20
38.1492183096
 30
0.0
 10
97.0249694954
 20
38.1795357482
 30
0.0
  0
SPLINE
  5
5C5
100
AcDbEntity
  8
0
100
AcDbSpline
 62
7
  6
CONTINUOUS
 70
0
 71
3
 72
11
 73
7
 74
0
 42
0.0000001
 43
0.0000001
 44
0.0000000001
 40
0.0
 40
0.0
 40
0.0
 40
0.0
 40
0.2544296022
 40
0.5000000397
 40
0.7455706226
 40
1.0
 40
1.0
 40
1.0
 40
1.0
 10
100.0661360425
 20
39.5338664569
 30
0.0
 10
100.0661360425
 20
39.4241592134
 30
0.0
 10
99.9821880636
 20
39.1985388643
 30
0.0
 10
99.6542610448
 20
39.0527898158
 30
0.0
 10
99.3263342803
 20
39.1985390429
 30
0.0
 10
99.2423861949
 20
39.4241593103
 30
0.0
 10
99.242386304
 20
39.5338664569
 30
0.0
  0
SPLINE
  5
5C6
100
AcDbEntity
  8
0
100
AcDbSpline
 62
7
  6
CONTINUOUS
 70
0
 71
3
 72
11
 73
7
 74
0
 42
0.0000001
 43
0.0000001
 44
0.0000000001
 40
0.0
 40
0.0
 40
0.0
 40
0.0
 40
0.2544296022
 40
0.5000000397
 40
0.7455706226
 40
1.0
 40
1.0
 40
1.0
 40
1.0
 10
99.242386304
 20
39.5338664569
 30
0.0
 10
99.242386304
 20
39.6435737004
 30
0.0
 10
99.3263342829
 20
39.8691940495
 30
0.0
 10
99.6542613017
 20
40.014943098
 30
0.0
 10
99.9821880662
 20
39.8691938708
 30
0.0
 10
100.0661361517
 20
39.6435736034
 30
0.0
 10
100.0661360425
 20
39.5338664569
 30
0.0
  0
SPLINE
  5
5C7
100
AcDbEntity
  8
0
100
AcDbSpline
 62
7
  6
CONTINUOUS
 70
0
 71
3
 72
11
 73
7
 74
0
 42
0.0000001
 43
0.0000001
 44
0.0000000001
 40
0.0
 40
0.0
 40
0.0
 40
0.0
 40
0.2544296022
 40
0.5000000397
 40
0.7455706226
 40
1.0
 40
1.0
 40
1.0
 40
1.0
 10
100.0661360425
 20
68.3488270868
 30
0.0
 10
100.0661360425
 20
68.2391198433
 30
0.0
 10
99.9821880636
 20
68.0134994942
 30
0.0
 10
99.6542610448
 20
67.8677504457
 30
0.0
 10
99.3263342803
 20
68.0134996729
 30
0.0
 10
99.2423861949
 20
68.2391199403
 30
0.0
 10
99.242386304
 20
68.3488270868
 30
0.0
  0
SPLINE
  5
5C8
100
AcDbEntity
  8
0
100
AcDbSpline
 62
7
  6
CONTINUOUS
 70
0
 71
3
 72
11
 73
7
 74
0
 42
0.0000001
 43
0.0000001
 44
0.0000000001
 40
0.0
 40
0.0
 40
0.0
 40
0.0
 40
0.2544296022
 40
0.5000000397
 40
0.7455706226
 40
1.0
 40
1.0
 40
1.0
 40
1.0
 10
99.242386304
 20
68.3488270868
 30
0.0
 10
99.242386304
 20
68.4585343303
 30
0.0
 10
99.3263342829
 20
68.6841546794
 30
0.0
 10
99.6542613017
 20
68.8299037279
 30
0.0
 10
99.9821880662
 20
68.6841545007
 30
0.0
 10
100.0661361517
 20
68.4585342334
 30
0.0
 10
100.0661360425
 20
68.3488270868
 30
0.0
  0
SPLINE
  5
5C9
100
AcDbEntity
  8
7_ALL_ROUNDS
100
AcDbSpline
 62
7
  6
CONTINUOUS
 70
0
 71
3
 72
11
 73
7
 74
0
 42
0.0000001
 43
0.0000001
 44
0.0000000001
 40
0.0
 40
0.0
 40
0.0
 40
0.0
 40
0.3738464672
 40
0.690786086
 40
0.9057636942
 40
1.0
 40
1.0
 40
1.0
 40
1.0
 10
97.0249694954
 20
69.7031577955
 30
0.0
 10
97.0249694954
 20
69.7334752341
 30
0.0
 10
97.0263527213
 20
69.7887269922
 30
0.0
 10
97.0341807428
 20
69.864697303
 30
0.0
 10
97.042396537
 20
69.9089184982
 30
0.0
 10
97.0549261664
 20
69.9393782679
 30
0.0
 10
97.0625683503
 20
69.9393782679
 30
0.0
  0
SPLINE
  5
5CA
100
AcDbEntity
  8
3_ALL_AXES
100
AcDbSpline
 62
7
  6
CONTINUOUS
 70
0
 71
3
 72
8
 73
4
 74
0
 42
0.0000001
 43
0.0000001
 44
0.0000000001
 40
0.0
 40
0.0
 40
0.0
 40
0.0
 40
1.0
 40
1.0
 40
1.0
 40
1.0
 10
99.5505796666
 20
39.3338138022
 30
0.0
 10
99.5755317229
 20
39.3446843534
 30
0.0
 10
99.5986275743
 20
39.3610367076
 30
0.0
 10
99.6173905788
 20
39.3807527838
 30
0.0
  0
SPLINE
  5
5CB
100
AcDbEntity
  8
3_ALL_AXES
100
AcDbSpline
 62
7
  6
CONTINUOUS
 70
0
 71
3
 72
8
 73
4
 74
0
 42
0.0000001
 43
0.0000001
 44
0.0000000001
 40
0.0
 40
0.0
 40
0.0
 40
0.0
 40
1.0
 40
1.0
 40
1.0
 40
1.0
 10
99.6173905788
 20
39.3807527838
 30
0.0
 10
99.6552068569
 20
39.4204899497
 30
0.0
 10
99.6777082569
 20
39.4790110721
 30
0.0
 10
99.6777082569
 20
39.5338664569
 30
0.0
  0
SPLINE
  5
5CC
100
AcDbEntity
  8
7_ALL_ROUNDS
100
AcDbSpline
 62
7
  6
CONTINUOUS
 70
0
 71
3
 72
11
 73
7
 74
0
 42
0.0000001
 43
0.0000001
 44
0.0000000001
 40
0.0
 40
0.0
 40
0.0
 40
0.0
 40
0.093682479
 40
0.308795613
 40
0.6259401945
 40
1.0
 40
1.0
 40
1.0
 40
1.0
 10
97.7434613599
 20
37.9433152758
 30
0.0
 10
97.7510535573
 20
37.9433152758
 30
0.0
 10
97.7632278467
 20
37.9739733238
 30
0.0
 10
97.7716112949
 20
38.0179445189
 30
0.0
 10
97.7794410833
 20
38.0939998119
 30
0.0
 10
97.7808750072
 20
38.1492212655
 30
0.0
 10
97.7808750072
 20
38.1795357482
 30
0.0
  0
SPLINE
  5
5CD
100
AcDbEntity
  8
7_ALL_ROUNDS
100
AcDbSpline
 62
7
  6
CONTINUOUS
 70
0
 71
3
 72
11
 73
7
 74
0
 42
0.0000001
 43
0.0000001
 44
0.0000000001
 40
0.0
 40
0.0
 40
0.0
 40
0.0
 40
0.093682479
 40
0.308795613
 40
0.6259401945
 40
1.0
 40
1.0
 40
1.0
 40
1.0
 10
97.7434613599
 20
69.9393782679
 30
0.0
 10
97.7510535573
 20
69.9393782679
 30
0.0
 10
97.7632278467
 20
69.9087202199
 30
0.0
 10
97.7716112949
 20
69.8647490248
 30
0.0
 10
97.7794410833
 20
69.7886937318
 30
0.0
 10
97.7808750072
 20
69.7334722781
 30
0.0
 10
97.7808750072
 20
69.7031577955
 30
0.0
  0
SPLINE
  5
5CE
100
AcDbEntity
  8
7_ALL_ROUNDS
100
AcDbSpline
 62
9
  6
CONTINUOUS
 70
0
 71
3
 72
9
 73
5
 74
0
 42
0.0000001
 43
0.0000001
 44
0.0000000001
 40
0.0
 40
0.0
 40
0.0
 40
0.0
 40
0.3389092137
 40
1.0
 40
1.0
 40
1.0
 40
1.0
 10
109.8564818522
 20
37.9433152758
 30
0.0
 10
109.8852567204
 20
37.9433152758
 30
0.0
 10
109.9248898103
 20
38.0515724379
 30
0.0
 10
109.9294779926
 20
38.1234062614
 30
0.0
 10
109.9294779926
 20
38.1795357482
 30
0.0
  0
SPLINE
  5
5CF
100
AcDbEntity
  8
0
100
AcDbSpline
 62
7
  6
CONTINUOUS
 70
0
 71
3
 72
9
 73
5
 74
0
 42
0.0000001
 43
0.0000001
 44
0.0000000001
 40
0.0
 40
0.0
 40
0.0
 40
0.0
 40
0.4911328553
 40
1.0
 40
1.0
 40
1.0
 40
1.0
 10
99.5873480445
 20
39.75040189
 30
0.0
 10
99.6402917771
 20
39.7504018848
 30
0.0
 10
99.7518708618
 20
39.7015415582
 30
0.0
 10
99.7932854615
 20
39.5887219318
 30
0.0
 10
99.7932854792
 20
39.5338664569
 30
0.0
  0
SPLINE
  5
5D0
100
AcDbEntity
  8
7_ALL_ROUNDS
100
AcDbSpline
 62
9
  6
CONTINUOUS
 70
0
 71
3
 72
9
 73
5
 74
0
 42
0.0000001
 43
0.0000001
 44
0.0000000001
 40
0.0
 40
0.0
 40
0.0
 40
0.0
 40
0.3389092134
 40
1.0
 40
1.0
 40
1.0
 40
1.0
 10
109.8564818522
 20
69.9393782679
 30
0.0
 10
109.8852567204
 20
69.9393782679
 30
0.0
 10
109.92488981
 20
69.8311211057
 30
0.0
 10
109.9294779946
 20
69.7592872824
 30
0.0
 10
109.9294779946
 20
69.7031577955
 30
0.0
  0
SPLINE
  5
5D1
100
AcDbEntity
  8
7_ALL_ROUNDS
100
AcDbSpline
 62
7
  6
CONTINUOUS
 70
0
 71
3
 72
8
 73
4
 74
0
 42
0.0000001
 43
0.0000001
 44
0.0000000001
 40
0.0
 40
0.0
 40
0.0
 40
0.0
 40
1.0
 40
1.0
 40
1.0
 40
1.0
 10
139.8982703798
 20
64.3823502493
 30
0.0
 10
139.8882002749
 20
64.392107799
 30
0.0
 10
139.8800219604
 20
64.4042137558
 30
0.0
 10
139.87467731
 20
64.4171772237
 30
0.0
  0
SPLINE
  5
5D2
100
AcDbEntity
  8
7_ALL_ROUNDS
100
AcDbSpline
 62
7
  6
CONTINUOUS
 70
0
 71
3
 72
8
 73
4
 74
0
 42
0.0000001
 43
0.0000001
 44
0.0000000001
 40
0.0
 40
0.0
 40
0.0
 40
0.0
 40
1.0
 40
1.0
 40
1.0
 40
1.0
 10
139.87467731
 20
64.4171772237
 30
0.0
 10
139.8687549469
 20
64.4315419359
 30
0.0
 10
139.8659881277
 20
64.4474355331
 30
0.0
 10
139.8659881277
 20
64.462973208
 30
0.0
  0
SPLINE
  5
5D3
100
AcDbEntity
  8
7_ALL_ROUNDS
100
AcDbSpline
 62
7
  6
CONTINUOUS
 70
0
 71
3
 72
9
 73
5
 74
0
 42
0.0000001
 43
0.0000001
 44
0.0000000001
 40
0.0
 40
0.0
 40
0.0
 40
0.0
 40
0.4999986322
 40
1.0
 40
1.0
 40
1.0
 40
1.0
 10
143.1078727625
 20
62.5251099285
 30
0.0
 10
143.1100907729
 20
62.5237365261
 30
0.0
 10
143.1149117451
 20
62.5215539291
 30
0.0
 10
143.1201472507
 20
62.5207981446
 30
0.0
 10
143.1227556637
 20
62.5207527598
 30
0.0
  0
LINE
  5
5D4
100
AcDbEntity
  8
7_ALL_ROUNDS
100
AcDbLine
 62
7
  6
CONTINUOUS
 10
143.107870127
 20
62.5251020959
 11
143.0794061244
 21
62.54272583
  0
LINE
  5
5D5
100
AcDbEntity
  8
7_ALL_ROUNDS
100
AcDbLine
 62
7
  6
CONTINUOUS
 10
143.0794061244
 20
62.54272583
 11
143.0532290213
 21
62.5589133413
  0
LINE
  5
5D6
100
AcDbEntity
  8
7_ALL_ROUNDS
100
AcDbLine
 62
7
  6
CONTINUOUS
 10
139.9973947407
 20
64.3243134015
 11
139.9226509297
 21
64.3646142302
  0
SPLINE
  5
5D7
100
AcDbEntity
  8
7_ALL_ROUNDS
100
AcDbSpline
 62
7
  6
CONTINUOUS
 70
0
 71
3
 72
9
 73
5
 74
0
 42
0.0000001
 43
0.0000001
 44
0.0000000001
 40
0.0
 40
0.0
 40
0.0
 40
0.0
 40
0.4754153665
 40
1.0
 40
1.0
 40
1.0
 40
1.0
 10
143.1341599914
 20
62.5088135152
 30
0.0
 10
143.1319147261
 20
62.5102054563
 30
0.0
 10
143.1275646557
 20
62.5137589237
 30
0.0
 10
143.1241084091
 20
62.518159601
 30
0.0
 10
143.1225041096
 20
62.5205933467
 30
0.0
  0
SPLINE
  5
5D8
100
AcDbEntity
  8
7_ALL_ROUNDS
100
AcDbSpline
 62
7
  6
CONTINUOUS
 70
0
 71
3
 72
8
 73
4
 74
0
 42
0.0000001
 43
0.0000001
 44
0.0000000001
 40
0.0
 40
0.0
 40
0.0
 40
0.0
 40
1.0
 40
1.0
 40
1.0
 40
1.0
 10
143.1225041096
 20
62.5205933467
 30
0.0
 10
143.1173894813
 20
62.5283523119
 30
0.0
 10
143.1142305145
 20
62.5374095515
 30
0.0
 10
143.1120798373
 20
62.5464503231
 30
0.0
  0
SPLINE
  5
5D9
100
AcDbEntity
  8
7_ALL_ROUNDS
100
AcDbSpline
 62
7
  6
CONTINUOUS
 70
0
 71
3
 72
8
 73
4
 74
0
 42
0.0000001
 43
0.0000001
 44
0.0000000001
 40
0.0
 40
0.0
 40
0.0
 40
0.0
 40
1.0
 40
1.0
 40
1.0
 40
1.0
 10
143.1120798373
 20
62.5464503231
 30
0.0
 10
143.1087197725
 20
62.5605749801
 30
0.0
 10
143.1076521872
 20
62.5752623252
 30
0.0
 10
143.1076521872
 20
62.5897811395
 30
0.0
  0
LINE
  5
5DA
100
AcDbEntity
  8
7_ALL_ROUNDS
100
AcDbLine
 62
7
  6
CONTINUOUS
 10
145.3516502252
 20
61.0591651618
 11
145.2909623029
 21
61.1009281259
  0
SPLINE
  5
5DB
100
AcDbEntity
  8
7_ALL_ROUNDS
100
AcDbSpline
 62
7
  6
CONTINUOUS
 70
0
 71
3
 72
9
 73
5
 74
0
 42
0.0000001
 43
0.0000001
 44
0.0000000001
 40
0.0
 40
0.0
 40
0.0
 40
0.0
 40
0.5000504548
 40
1.0
 40
1.0
 40
1.0
 40
1.0
 10
145.3664472589
 20
61.0521175017
 30
0.0
 10
145.7201597975
 20
60.9483716923
 30
0.0
 10
146.4617996973
 20
60.8525651268
 30
0.0
 10
147.2033794767
 20
60.9489475815
 30
0.0
 10
147.5569236781
 20
61.0530024564
 30
0.0
  0
SPLINE
  5
5DC
100
AcDbEntity
  8
7_ALL_ROUNDS
100
AcDbSpline
 62
7
  6
CONTINUOUS
 70
0
 71
3
 72
8
 73
4
 74
0
 42
0.0000001
 43
0.0000001
 44
0.0000000001
 40
0.0
 40
0.0
 40
0.0
 40
0.0
 40
1.0
 40
1.0
 40
1.0
 40
1.0
 10
152.8939998301
 20
66.8973226239
 30
0.0
 10
152.8885851446
 20
66.8754752739
 30
0.0
 10
152.8803964226
 20
66.8541591477
 30
0.0
 10
152.8699235644
 20
66.834235675
 30
0.0
  0
SPLINE
  5
5DD
100
AcDbEntity
  8
7_ALL_ROUNDS
100
AcDbSpline
 62
7
  6
CONTINUOUS
 70
0
 71
3
 72
8
 73
4
 74
0
 42
0.0000001
 43
0.0000001
 44
0.0000000001
 40
0.0
 40
0.0
 40
0.0
 40
0.0
 40
1.0
 40
1.0
 40
1.0
 40
1.0
 10
152.8699235644
 20
66.834235675
 30
0.0
 10
152.8587892148
 20
66.813053787
 30
0.0
 10
152.8448837445
 20
66.7931602921
 30
0.0
 10
152.8290517274
 20
66.7752161187
 30
0.0
  0
SPLINE
  5
5DE
100
AcDbEntity
  8
7_ALL_ROUNDS
100
AcDbSpline
 62
7
  6
CONTINUOUS
 70
0
 71
3
 72
9
 73
5
 74
0
 42
0.0000001
 43
0.0000001
 44
0.0000000001
 40
0.0
 40
0.0
 40
0.0
 40
0.0
 40
0.4861785802
 40
1.0
 40
1.0
 40
1.0
 40
1.0
 10
137.056162141
 20
66.4142524091
 30
0.0
 10
137.056162141
 20
66.2834289617
 30
0.0
 10
137.1138490104
 20
66.0120711189
 30
0.0
 10
137.2661633772
 20
65.7835794603
 30
0.0
 10
137.3579299107
 20
65.6801618209
 30
0.0
  0
SPLINE
  5
5DF
100
AcDbEntity
  8
7_ALL_ROUNDS
100
AcDbSpline
 62
7
  6
CONTINUOUS
 70
0
 71
3
 72
8
 73
4
 74
0
 42
0.0000001
 43
0.0000001
 44
0.0000000001
 40
0.0
 40
0.0
 40
0.0
 40
0.0
 40
1.0
 40
1.0
 40
1.0
 40
1.0
 10
139.8944527568
 20
64.3797940795
 30
0.0
 10
139.9000696471
 20
64.3767731216
 30
0.0
 10
139.9059471029
 20
64.3742010752
 30
0.0
 10
139.9119610192
 20
64.3720777632
 30
0.0
  0
LINE
  5
5E0
100
AcDbEntity
  8
7_ALL_ROUNDS
100
AcDbLine
 62
7
  6
CONTINUOUS
 10
139.8944477479
 20
64.3797875841
 11
139.8382477516
 21
64.4099688554
  0
LINE
  5
5E1
100
AcDbEntity
  8
7_ALL_ROUNDS
100
AcDbLine
 62
7
  6
CONTINUOUS
 10
139.8382477516
 20
64.4099688554
 11
139.8100723905
 21
64.4250727557
  0
SPLINE
  5
5E2
100
AcDbEntity
  8
7_ALL_ROUNDS
100
AcDbSpline
 62
7
  6
CONTINUOUS
 70
0
 71
3
 72
9
 73
5
 74
0
 42
0.0000001
 43
0.0000001
 44
0.0000000001
 40
0.0
 40
0.0
 40
0.0
 40
0.0
 40
0.5007743691
 40
1.0
 40
1.0
 40
1.0
 40
1.0
 10
152.7398430586
 20
88.5764438286
 30
0.0
 10
152.7856225732
 20
88.550006092
 30
0.0
 10
152.8684089433
 20
88.477586954
 30
0.0
 10
152.9019389045
 20
88.3700233853
 30
0.0
 10
152.9019389045
 20
88.3173217892
 30
0.0
  0
SPLINE
  5
5E3
100
AcDbEntity
  8
7_ALL_ROUNDS
100
AcDbSpline
 62
7
  6
CONTINUOUS
 70
0
 71
3
 72
8
 73
4
 74
0
 42
0.0000001
 43
0.0000001
 44
0.0000000001
 40
0.0
 40
0.0
 40
0.0
 40
0.0
 40
1.0
 40
1.0
 40
1.0
 40
1.0
 10
147.2544476947
 20
91.5504822067
 30
0.0
 10
147.2883600605
 20
91.5604609777
 30
0.0
 10
147.3234730301
 20
91.5668853053
 30
0.0
 10
147.3586849673
 20
91.5700068281
 30
0.0
  0
SPLINE
  5
5E4
100
AcDbEntity
  8
7_ALL_ROUNDS
100
AcDbSpline
 62
7
  6
CONTINUOUS
 70
0
 71
3
 72
8
 73
4
 74
0
 42
0.0000001
 43
0.0000001
 44
0.0000000001
 40
0.0
 40
0.0
 40
0.0
 40
0.0
 40
1.0
 40
1.0
 40
1.0
 40
1.0
 10
147.3586849673
 20
91.5700068281
 30
0.0
 10
147.4282792403
 20
91.5761763299
 30
0.0
 10
147.5004000462
 20
91.5696813771
 30
0.0
 10
147.5672770979
 20
91.5494604587
 30
0.0
  0
SPLINE
  5
5E5
100
AcDbEntity
  8
7_ALL_ROUNDS
100
AcDbSpline
 62
7
  6
CONTINUOUS
 70
0
 71
3
 72
8
 73
4
 74
0
 42
0.0000001
 43
0.0000001
 44
0.0000000001
 40
0.0
 40
0.0
 40
0.0
 40
0.0
 40
1.0
 40
1.0
 40
1.0
 40
1.0
 10
147.5833423347
 20
91.5443004366
 30
0.0
 10
147.6105407779
 20
91.5350420274
 30
0.0
 10
147.6370665054
 20
91.5233047493
 30
0.0
 10
147.6619466988
 20
91.5089364012
 30
0.0
  0
SPLINE
  5
5E6
100
AcDbEntity
  8
7_ALL_ROUNDS
100
AcDbSpline
 62
7
  6
CONTINUOUS
 70
0
 71
3
 72
9
 73
5
 74
0
 42
0.0000001
 43
0.0000001
 44
0.0000000001
 40
0.0
 40
0.0
 40
0.0
 40
0.0
 40
0.5138525351
 40
1.0
 40
1.0
 40
1.0
 40
1.0
 10
137.3586213268
 20
88.5041597859
 30
0.0
 10
137.2666599492
 20
88.4006687427
 30
0.0
 10
137.1139982531
 20
88.1719786132
 30
0.0
 10
137.056162141
 20
87.9002720251
 30
0.0
 10
137.056162141
 20
87.7692905461
 30
0.0
  0
SPLINE
  5
5E7
100
AcDbEntity
  8
3_ALL_AXES
100
AcDbSpline
 62
7
  6
CONTINUOUS
 70
0
 71
3
 72
8
 73
4
 74
0
 42
0.0000001
 43
0.0000001
 44
0.0000000001
 40
0.0
 40
0.0
 40
0.0
 40
0.0
 40
1.0
 40
1.0
 40
1.0
 40
1.0
 10
142.9118950211
 20
84.9149161545
 30
0.0
 10
142.9215583847
 20
84.9093355479
 30
0.0
 10
142.9430936422
 20
84.9046843797
 30
0.0
 10
142.9453648988
 20
84.915609816
 30
0.0
  0
SPLINE
  5
5E8
100
AcDbEntity
  8
3_ALL_AXES
100
AcDbSpline
 62
7
  6
CONTINUOUS
 70
0
 71
3
 72
9
 73
5
 74
0
 42
0.0000001
 43
0.0000001
 44
0.0000000001
 40
0.0
 40
0.0
 40
0.0
 40
0.0
 40
0.5074422654
 40
1.0
 40
1.0
 40
1.0
 40
1.0
 10
142.9770933701
 20
84.9274615323
 30
0.0
 10
142.9788263963
 20
84.9284623574
 30
0.0
 10
142.9820486356
 20
84.9307675955
 30
0.0
 10
142.9848370011
 20
84.9336195596
 30
0.0
 10
142.9859579538
 20
84.935206061
 30
0.0
  0
SPLINE
  5
5E9
100
AcDbEntity
  8
3_ALL_AXES
100
AcDbSpline
 62
7
  6
CONTINUOUS
 70
0
 71
3
 72
9
 73
5
 74
0
 42
0.0000001
 43
0.0000001
 44
0.0000000001
 40
0.0
 40
0.0
 40
0.0
 40
0.0
 40
0.5350037677
 40
1.0
 40
1.0
 40
1.0
 40
1.0
 10
142.9859579538
 20
84.935206061
 30
0.0
 10
142.9864941168
 20
84.9359649006
 30
0.0
 10
142.9873894305
 20
84.937465049
 30
0.0
 10
142.9878657477
 20
84.9391787479
 30
0.0
 10
142.9879041367
 20
84.9399853962
 30
0.0
  0
SPLINE
  5
5EA
100
AcDbEntity
  8
3_ALL_AXES
100
AcDbSpline
 62
7
  6
CONTINUOUS
 70
0
 71
3
 72
8
 73
4
 74
0
 42
0.0000001
 43
0.0000001
 44
0.0000000001
 40
0.0
 40
0.0
 40
0.0
 40
0.0
 40
1.0
 40
1.0
 40
1.0
 40
1.0
 10
142.6538020529
 20
84.765867088
 30
0.0
 10
142.6634654165
 20
84.7602864814
 30
0.0
 10
142.685000674
 20
84.7556353132
 30
0.0
 10
142.6872719307
 20
84.7665607495
 30
0.0
  0
SPLINE
  5
5EB
100
AcDbEntity
  8
3_ALL_AXES
100
AcDbSpline
 62
7
  6
CONTINUOUS
 70
0
 71
3
 72
9
 73
5
 74
0
 42
0.0000001
 43
0.0000001
 44
0.0000000001
 40
0.0
 40
0.0
 40
0.0
 40
0.0
 40
0.5074422654
 40
1.0
 40
1.0
 40
1.0
 40
1.0
 10
142.7190004019
 20
84.7784124658
 30
0.0
 10
142.7207334281
 20
84.7794132909
 30
0.0
 10
142.7239556674
 20
84.781718529
 30
0.0
 10
142.7267440329
 20
84.7845704931
 30
0.0
 10
142.7278649856
 20
84.7861569945
 30
0.0
  0
SPLINE
  5
5EC
100
AcDbEntity
  8
3_ALL_AXES
100
AcDbSpline
 62
7
  6
CONTINUOUS
 70
0
 71
3
 72
9
 73
5
 74
0
 42
0.0000001
 43
0.0000001
 44
0.0000000001
 40
0.0
 40
0.0
 40
0.0
 40
0.0
 40
0.5350037677
 40
1.0
 40
1.0
 40
1.0
 40
1.0
 10
142.7278649856
 20
84.7861569945
 30
0.0
 10
142.7284011486
 20
84.786915834
 30
0.0
 10
142.7292964623
 20
84.7884159825
 30
0.0
 10
142.7297727795
 20
84.7901296814
 30
0.0
 10
142.7298111685
 20
84.7909363297
 30
0.0
  0
SPLINE
  5
5ED
100
AcDbEntity
  8
3_ALL_AXES
100
AcDbSpline
 62
7
  6
CONTINUOUS
 70
0
 71
3
 72
9
 73
5
 74
0
 42
0.0000001
 43
0.0000001
 44
0.0000000001
 40
0.0
 40
0.0
 40
0.0
 40
0.0
 40
0.5476883972
 40
1.0
 40
1.0
 40
1.0
 40
1.0
 10
142.3482032724
 20
85.0427618784
 30
0.0
 10
142.3455308043
 20
85.0412185241
 30
0.0
 10
142.3411445603
 20
85.0378198704
 30
0.0
 10
142.3375136621
 20
85.0327838084
 30
0.0
 10
142.3373925058
 20
85.0302380144
 30
0.0
  0
SPLINE
  5
5EE
100
AcDbEntity
  8
3_ALL_AXES
100
AcDbSpline
 62
7
  6
CONTINUOUS
 70
0
 71
3
 72
8
 73
4
 74
0
 42
0.0000001
 43
0.0000001
 44
0.0000000001
 40
0.0
 40
0.0
 40
0.0
 40
0.0
 40
1.0
 40
1.0
 40
1.0
 40
1.0
 10
142.5410978917
 20
85.1290520389
 30
0.0
 10
142.5314345281
 20
85.1346326455
 30
0.0
 10
142.5098992706
 20
85.1392838137
 30
0.0
 10
142.507628014
 20
85.1283583775
 30
0.0
  0
SPLINE
  5
5EF
100
AcDbEntity
  8
3_ALL_AXES
100
AcDbSpline
 62
7
  6
CONTINUOUS
 70
0
 71
3
 72
9
 73
5
 74
0
 42
0.0000001
 43
0.0000001
 44
0.0000000001
 40
0.0
 40
0.0
 40
0.0
 40
0.0
 40
0.5119397022
 40
1.0
 40
1.0
 40
1.0
 40
1.0
 10
142.0165773591
 20
85.1338652804
 30
0.0
 10
142.0431640658
 20
85.1185114185
 30
0.0
 10
142.1077168405
 20
85.1061329733
 30
0.0
 10
142.1634768822
 20
85.1329316904
 30
0.0
 10
142.1891575551
 20
85.1469749601
 30
0.0
  0
SPLINE
  5
5F0
100
AcDbEntity
  8
3_ALL_AXES
100
AcDbSpline
 62
7
  6
CONTINUOUS
 70
0
 71
3
 72
8
 73
4
 74
0
 42
0.0000001
 43
0.0000001
 44
0.0000000001
 40
0.0
 40
0.0
 40
0.0
 40
0.0
 40
1.0
 40
1.0
 40
1.0
 40
1.0
 10
142.1891575551
 20
85.1469749601
 30
0.0
 10
142.2072414586
 20
85.1568639974
 30
0.0
 10
142.2261741546
 20
85.1686248856
 30
0.0
 10
142.236972603
 20
85.1861809141
 30
0.0
  0
SPLINE
  5
5F1
100
AcDbEntity
  8
3_ALL_AXES
100
AcDbSpline
 62
7
  6
CONTINUOUS
 70
0
 71
3
 72
8
 73
4
 74
0
 42
0.0000001
 43
0.0000001
 44
0.0000000001
 40
0.0
 40
0.0
 40
0.0
 40
0.0
 40
1.0
 40
1.0
 40
1.0
 40
1.0
 10
142.236972603
 20
85.1861809141
 30
0.0
 10
142.2402657378
 20
85.1915348655
 30
0.0
 10
142.2426091263
 20
85.1978901244
 30
0.0
 10
142.2426091269
 20
85.2041757853
 30
0.0
  0
SPLINE
  5
5F2
100
AcDbEntity
  8
3_ALL_AXES
100
AcDbSpline
 62
7
  6
CONTINUOUS
 70
0
 71
3
 72
9
 73
5
 74
0
 42
0.0000001
 43
0.0000001
 44
0.0000000001
 40
0.0
 40
0.0
 40
0.0
 40
0.0
 40
0.5476883972
 40
1.0
 40
1.0
 40
1.0
 40
1.0
 10
141.9027828626
 20
85.4474823819
 30
0.0
 10
141.9001103945
 20
85.4459390277
 30
0.0
 10
141.8957241505
 20
85.4425403739
 30
0.0
 10
141.8920932523
 20
85.437504312
 30
0.0
 10
141.891972096
 20
85.434958518
 30
0.0
  0
SPLINE
  5
5F3
100
AcDbEntity
  8
3_ALL_AXES
100
AcDbSpline
 62
7
  6
CONTINUOUS
 70
0
 71
3
 72
8
 73
4
 74
0
 42
0.0000001
 43
0.0000001
 44
0.0000000001
 40
0.0
 40
0.0
 40
0.0
 40
0.0
 40
1.0
 40
1.0
 40
1.0
 40
1.0
 10
141.9679812116
 20
85.4600277597
 30
0.0
 10
141.9583178481
 20
85.4656083663
 30
0.0
 10
141.9367825905
 20
85.4702595345
 30
0.0
 10
141.9345113339
 20
85.4593340982
 30
0.0
  0
SPLINE
  5
5F4
100
AcDbEntity
  8
3_ALL_AXES
100
AcDbSpline
 62
7
  6
CONTINUOUS
 70
0
 71
3
 72
8
 73
4
 74
0
 42
0.0000001
 43
0.0000001
 44
0.0000000001
 40
0.0
 40
0.0
 40
0.0
 40
0.0
 40
1.0
 40
1.0
 40
1.0
 40
1.0
 10
142.3265906111
 20
85.2529303071
 30
0.0
 10
142.3362539747
 20
85.2473497005
 30
0.0
 10
142.3577892322
 20
85.2426985323
 30
0.0
 10
142.3600604888
 20
85.2536239686
 30
0.0
  0
SPLINE
  5
5F5
100
AcDbEntity
  8
3_ALL_AXES
100
AcDbSpline
 62
7
  6
CONTINUOUS
 70
0
 71
3
 72
9
 73
5
 74
0
 42
0.0000001
 43
0.0000001
 44
0.0000000001
 40
0.0
 40
0.0
 40
0.0
 40
0.0
 40
0.5074422654
 40
1.0
 40
1.0
 40
1.0
 40
1.0
 10
142.3917889601
 20
85.2654756849
 30
0.0
 10
142.3935219862
 20
85.26647651
 30
0.0
 10
142.3967442256
 20
85.2687817481
 30
0.0
 10
142.3995325911
 20
85.2716337122
 30
0.0
 10
142.4006535438
 20
85.2732202136
 30
0.0
  0
SPLINE
  5
5F6
100
AcDbEntity
  8
3_ALL_AXES
100
AcDbSpline
 62
7
  6
CONTINUOUS
 70
0
 71
3
 72
9
 73
5
 74
0
 42
0.0000001
 43
0.0000001
 44
0.0000000001
 40
0.0
 40
0.0
 40
0.0
 40
0.0
 40
0.5350037677
 40
1.0
 40
1.0
 40
1.0
 40
1.0
 10
142.4006535438
 20
85.2732202136
 30
0.0
 10
142.4011897068
 20
85.2739790532
 30
0.0
 10
142.4020850205
 20
85.2754792016
 30
0.0
 10
142.4025613377
 20
85.2771929005
 30
0.0
 10
142.4025997267
 20
85.2779995488
 30
0.0
  0
SPLINE
  5
5F7
100
AcDbEntity
  8
3_ALL_AXES
100
AcDbSpline
 62
7
  6
CONTINUOUS
 70
0
 71
3
 72
8
 73
4
 74
0
 42
0.0000001
 43
0.0000001
 44
0.0000000001
 40
0.0
 40
0.0
 40
0.0
 40
0.0
 40
1.0
 40
1.0
 40
1.0
 40
1.0
 10
141.3399365857
 20
85.488065425
 30
0.0
 10
141.3456697768
 20
85.4847544988
 30
0.0
 10
141.3540650515
 20
85.4847544988
 30
0.0
 10
141.3597982426
 20
85.488065425
 30
0.0
  0
SPLINE
  5
5F8
100
AcDbEntity
  8
3_ALL_AXES
100
AcDbSpline
 62
7
  6
CONTINUOUS
 70
0
 71
3
 72
9
 73
5
 74
0
 42
0.0000001
 43
0.0000001
 44
0.0000000001
 40
0.0
 40
0.0
 40
0.0
 40
0.0
 40
0.2370009969
 40
1.0
 40
1.0
 40
1.0
 40
1.0
 10
141.4291038288
 20
85.4731321031
 30
0.0
 10
141.4387228011
 20
85.4675771326
 30
0.0
 10
141.4802349818
 20
85.4464487204
 30
0.0
 10
141.5353317137
 20
85.4464290934
 30
0.0
 10
141.5662989515
 20
85.4643127186
 30
0.0
  0
SPLINE
  5
5F9
100
AcDbEntity
  8
3_ALL_AXES
100
AcDbSpline
 62
7
  6
CONTINUOUS
 70
0
 71
3
 72
8
 73
4
 74
0
 42
0.0000001
 43
0.0000001
 44
0.0000000001
 40
0.0
 40
0.0
 40
0.0
 40
0.0
 40
1.0
 40
1.0
 40
1.0
 40
1.0
 10
141.7675766777
 20
85.5805508997
 30
0.0
 10
141.7749334071
 20
85.5847994217
 30
0.0
 10
141.7826511621
 20
85.5894758356
 30
0.0
 10
141.7874872873
 20
85.5964603398
 30
0.0
  0
SPLINE
  5
5FA
100
AcDbEntity
  8
3_ALL_AXES
100
AcDbSpline
 62
7
  6
CONTINUOUS
 70
0
 71
3
 72
8
 73
4
 74
0
 42
0.0000001
 43
0.0000001
 44
0.0000000001
 40
0.0
 40
0.0
 40
0.0
 40
0.0
 40
1.0
 40
1.0
 40
1.0
 40
1.0
 10
141.7874872873
 20
85.5964603398
 30
0.0
 10
141.79098112
 20
85.6015062573
 30
0.0
 10
141.7932448821
 20
85.6078119393
 30
0.0
 10
141.793244622
 20
85.6139493777
 30
0.0
  0
SPLINE
  5
5FB
100
AcDbEntity
  8
3_ALL_AXES
100
AcDbSpline
 62
7
  6
CONTINUOUS
 70
0
 71
3
 72
9
 73
5
 74
0
 42
0.0000001
 43
0.0000001
 44
0.0000000001
 40
0.0
 40
0.0
 40
0.0
 40
0.0
 40
0.5262672628
 40
1.0
 40
1.0
 40
1.0
 40
1.0
 10
141.4684575375
 20
85.5508163267
 30
0.0
 10
141.4695161612
 20
85.5514276834
 30
0.0
 10
141.4713120373
 20
85.5530861561
 30
0.0
 10
141.4719686156
 20
85.5554509544
 30
0.0
 10
141.4719686156
 20
85.5565513946
 30
0.0
  0
SPLINE
  5
5FC
100
AcDbEntity
  8
3_ALL_AXES
100
AcDbSpline
 62
7
  6
CONTINUOUS
 70
0
 71
3
 72
9
 73
5
 74
0
 42
0.0000001
 43
0.0000001
 44
0.0000000001
 40
0.0
 40
0.0
 40
0.0
 40
0.0
 40
0.5476883972
 40
1.0
 40
1.0
 40
1.0
 40
1.0
 10
141.1502760116
 20
85.7345666231
 30
0.0
 10
141.1476035435
 20
85.7330232689
 30
0.0
 10
141.1432172995
 20
85.7296246151
 30
0.0
 10
141.1395864012
 20
85.7245885532
 30
0.0
 10
141.1394652449
 20
85.7220427592
 30
0.0
  0
SPLINE
  5
5FD
100
AcDbEntity
  8
3_ALL_AXES
100
AcDbSpline
 62
7
  6
CONTINUOUS
 70
0
 71
3
 72
8
 73
4
 74
0
 42
0.0000001
 43
0.0000001
 44
0.0000000001
 40
0.0
 40
0.0
 40
0.0
 40
0.0
 40
1.0
 40
1.0
 40
1.0
 40
1.0
 10
141.3431706308
 20
85.8208567837
 30
0.0
 10
141.3335072673
 20
85.8264373903
 30
0.0
 10
141.3119720097
 20
85.8310885585
 30
0.0
 10
141.3097007531
 20
85.8201631222
 30
0.0
  0
SPLINE
  5
5FE
100
AcDbEntity
  8
3_ALL_AXES
100
AcDbSpline
 62
7
  6
CONTINUOUS
 70
0
 71
3
 72
8
 73
4
 74
0
 42
0.0000001
 43
0.0000001
 44
0.0000000001
 40
0.0
 40
0.0
 40
0.0
 40
0.0
 40
1.0
 40
1.0
 40
1.0
 40
1.0
 10
143.6642822564
 20
84.7357323724
 30
0.0
 10
143.6740053885
 20
84.7467526718
 30
0.0
 10
143.6820379615
 20
84.7599257135
 30
0.0
 10
143.6860836987
 20
84.7740543478
 30
0.0
  0
SPLINE
  5
5FF
100
AcDbEntity
  8
3_ALL_AXES
100
AcDbSpline
 62
7
  6
CONTINUOUS
 70
0
 71
3
 72
8
 73
4
 74
0
 42
0.0000001
 43
0.0000001
 44
0.0000000001
 40
0.0
 40
0.0
 40
0.0
 40
0.0
 40
1.0
 40
1.0
 40
1.0
 40
1.0
 10
143.6860836987
 20
84.7740543478
 30
0.0
 10
143.6880721568
 20
84.7809984957
 30
0.0
 10
143.6891274408
 20
84.7882862025
 30
0.0
 10
143.6891259735
 20
84.7955094396
 30
0.0
  0
SPLINE
  5
600
100
AcDbEntity
  8
3_ALL_AXES
100
AcDbSpline
 62
7
  6
CONTINUOUS
 70
0
 71
3
 72
9
 73
5
 74
0
 42
0.0000001
 43
0.0000001
 44
0.0000000001
 40
0.0
 40
0.0
 40
0.0
 40
0.0
 40
0.233550677
 40
1.0
 40
1.0
 40
1.0
 40
1.0
 10
141.1656317031
 20
86.2776830638
 30
0.0
 10
141.1504276485
 20
86.2860153053
 30
0.0
 10
141.0807219468
 20
86.312691238
 30
0.0
 10
141.001228983
 20
86.3120806537
 30
0.0
 10
140.9466459619
 20
86.2960195074
 30
0.0
  0
LINE
  5
601
100
AcDbEntity
  8
3_ALL_AXES
100
AcDbLine
 62
7
  6
CONTINUOUS
 10
141.1783130806
 20
86.2707314683
 11
141.1656317031
 21
86.2776830638
  0
SPLINE
  5
602
100
AcDbEntity
  8
3_ALL_AXES
100
AcDbSpline
 62
7
  6
CONTINUOUS
 70
0
 71
3
 72
15
 73
11
 74
0
 42
0.0000001
 43
0.0000001
 44
0.0000000001
 40
0.0
 40
0.0
 40
0.0
 40
0.0
 40
0.1341370632
 40
0.2784339387
 40
0.4257731578
 40
0.5685370025
 40
0.6998611515
 40
0.8150266593
 40
0.9132754565
 40
1.0
 40
1.0
 40
1.0
 40
1.0
 10
143.0854724799
 20
74.8932764922
 30
0.0
 10
143.5228967646
 20
74.5835067596
 30
0.0
 10
144.3592343641
 20
73.8369117378
 30
0.0
 10
145.4163235957
 20
72.4949205909
 30
0.0
 10
146.2638719991
 20
70.9714503049
 30
0.0
 10
146.8381442759
 20
69.3800126956
 30
0.0
 10
147.0972814472
 20
67.8359859641
 30
0.0
 10
147.018427952
 20
66.4460633107
 30
0.0
 10
146.5916303573
 20
65.2982469289
 30
0.0
 10
146.0439800125
 20
64.7549181204
 30
0.0
 10
145.7438829116
 20
64.5816125748
 30
0.0
  0
SPLINE
  5
603
100
AcDbEntity
  8
0
100
AcDbSpline
 62
7
  6
CONTINUOUS
 70
0
 71
3
 72
9
 73
5
 74
0
 42
0.0000001
 43
0.0000001
 44
0.0000000001
 40
0.0
 40
0.0
 40
0.0
 40
0.0
 40
0.4999947185
 40
1.0
 40
1.0
 40
1.0
 40
1.0
 10
140.0860828332
 20
88.446944873
 30
0.0
 10
140.0106828329
 20
88.4034371316
 30
0.0
 10
139.8320807618
 20
88.3690187245
 30
0.0
 10
139.6534777197
 20
88.4034375327
 30
0.0
 10
139.5780769706
 20
88.446947656
 30
0.0
  0
SPLINE
  5
604
100
AcDbEntity
  8
0
100
AcDbSpline
 62
7
  6
CONTINUOUS
 70
0
 71
3
 72
10
 73
6
 74
0
 42
0.0000001
 43
0.0000001
 44
0.0000000001
 40
0.0
 40
0.0
 40
0.0
 40
0.0
 40
0.5484865945
 40
0.8085951269
 40
1.0
 40
1.0
 40
1.0
 40
1.0
 10
148.6235383223
 20
62.9730403675
 30
0.0
 10
148.6235383223
 20
63.0768948035
 30
0.0
 10
148.6603153886
 20
63.2309074542
 30
0.0
 10
148.743117756
 20
63.400334989
 30
0.0
 10
148.7984467587
 20
63.4692759409
 30
0.0
 10
148.8287840844
 20
63.4891034077
 30
0.0
  0
SPLINE
  5
605
100
AcDbEntity
  8
0
100
AcDbSpline
 62
7
  6
CONTINUOUS
 70
0
 71
3
 72
10
 73
6
 74
0
 42
0.0000001
 43
0.0000001
 44
0.0000000001
 40
0.0
 40
0.0
 40
0.0
 40
0.0
 40
0.5484865945
 40
0.8085951269
 40
1.0
 40
1.0
 40
1.0
 40
1.0
 10
148.6235383223
 20
82.4931507865
 30
0.0
 10
148.6235383223
 20
82.5970052225
 30
0.0
 10
148.6603153886
 20
82.7510178732
 30
0.0
 10
148.743117756
 20
82.9204454079
 30
0.0
 10
148.7984467587
 20
82.9893863599
 30
0.0
 10
148.8287840844
 20
83.0092138266
 30
0.0
  0
SPLINE
  5
606
100
AcDbEntity
  8
0
100
AcDbSpline
 62
7
  6
CONTINUOUS
 70
0
 71
3
 72
8
 73
4
 74
0
 42
0.0000001
 43
0.0000001
 44
0.0000000001
 40
0.0
 40
0.0
 40
0.0
 40
0.0
 40
1.0
 40
1.0
 40
1.0
 40
1.0
 10
139.6640680921
 20
88.4102874781
 30
0.0
 10
139.6570186163
 20
88.4210431443
 30
0.0
 10
139.652410937
 20
88.4342019796
 30
0.0
 10
139.6524039698
 20
88.4470619725
 30
0.0
  0
SPLINE
  5
607
100
AcDbEntity
  8
0
100
AcDbSpline
 62
7
  6
CONTINUOUS
 70
0
 71
3
 72
9
 73
5
 74
0
 42
0.0000001
 43
0.0000001
 44
0.0000000001
 40
0.0
 40
0.0
 40
0.0
 40
0.0
 40
0.4999947185
 40
1.0
 40
1.0
 40
1.0
 40
1.0
 10
149.5622187065
 20
89.4272551905
 30
0.0
 10
149.4868187062
 20
89.3837474491
 30
0.0
 10
149.308216635
 20
89.349329042
 30
0.0
 10
149.129613593
 20
89.3837478501
 30
0.0
 10
149.0542128438
 20
89.4272579734
 30
0.0
  0
SPLINE
  5
608
100
AcDbEntity
  8
0
100
AcDbSpline
 62
7
  6
CONTINUOUS
 70
0
 71
3
 72
8
 73
4
 74
0
 42
0.0000001
 43
0.0000001
 44
0.0000000001
 40
0.0
 40
0.0
 40
0.0
 40
0.0
 40
1.0
 40
1.0
 40
1.0
 40
1.0
 10
149.1402039654
 20
89.3905977956
 30
0.0
 10
149.1331544895
 20
89.4013534618
 30
0.0
 10
149.1285468103
 20
89.4145122971
 30
0.0
 10
149.128539843
 20
89.4273722899
 30
0.0
  0
SPLINE
  5
609
100
AcDbEntity
  8
0
100
AcDbSpline
 62
7
  6
CONTINUOUS
 70
0
 71
3
 72
9
 73
5
 74
0
 42
0.0000001
 43
0.0000001
 44
0.0000000001
 40
0.0
 40
0.0
 40
0.0
 40
0.0
 40
0.4999947185
 40
1.0
 40
1.0
 40
1.0
 40
1.0
 10
145.6085985872
 20
87.1440337907
 30
0.0
 10
145.5331985869
 20
87.1005260493
 30
0.0
 10
145.3545965157
 20
87.0661076422
 30
0.0
 10
145.1759934737
 20
87.1005264503
 30
0.0
 10
145.1005927245
 20
87.1440365736
 30
0.0
  0
SPLINE
  5
60A
100
AcDbEntity
  8
0
100
AcDbSpline
 62
7
  6
CONTINUOUS
 70
0
 71
3
 72
8
 73
4
 74
0
 42
0.0000001
 43
0.0000001
 44
0.0000000001
 40
0.0
 40
0.0
 40
0.0
 40
0.0
 40
1.0
 40
1.0
 40
1.0
 40
1.0
 10
145.1865838461
 20
87.1073763958
 30
0.0
 10
145.1795343702
 20
87.118132062
 30
0.0
 10
145.174926691
 20
87.1312908973
 30
0.0
 10
145.1749197238
 20
87.1441508901
 30
0.0
  0
SPLINE
  5
60B
100
AcDbEntity
  8
0
100
AcDbSpline
 62
7
  6
CONTINUOUS
 70
0
 71
3
 72
9
 73
5
 74
0
 42
0.0000001
 43
0.0000001
 44
0.0000000001
 40
0.0
 40
0.0
 40
0.0
 40
0.0
 40
0.4999947185
 40
1.0
 40
1.0
 40
1.0
 40
1.0
 10
147.8647159612
 20
83.9547728678
 30
0.0
 10
147.7893159609
 20
83.9112651264
 30
0.0
 10
147.6107138897
 20
83.8768467193
 30
0.0
 10
147.4321108477
 20
83.9112655275
 30
0.0
 10
147.3567100985
 20
83.9547756508
 30
0.0
  0
SPLINE
  5
60C
100
AcDbEntity
  8
0
100
AcDbSpline
 62
7
  6
CONTINUOUS
 70
0
 71
3
 72
8
 73
4
 74
0
 42
0.0000001
 43
0.0000001
 44
0.0000000001
 40
0.0
 40
0.0
 40
0.0
 40
0.0
 40
1.0
 40
1.0
 40
1.0
 40
1.0
 10
147.4427012201
 20
83.9181154729
 30
0.0
 10
147.4356517443
 20
83.9288711391
 30
0.0
 10
147.431044065
 20
83.9420299744
 30
0.0
 10
147.4310370978
 20
83.9548899673
 30
0.0
  0
SPLINE
  5
60D
100
AcDbEntity
  8
0
100
AcDbSpline
 62
7
  6
CONTINUOUS
 70
0
 71
3
 72
9
 73
5
 74
0
 42
0.0000001
 43
0.0000001
 44
0.0000000001
 40
0.0
 40
0.0
 40
0.0
 40
0.0
 40
0.2086099781
 40
1.0
 40
1.0
 40
1.0
 40
1.0
 10
148.6426916942
 20
62.8568265564
 30
0.0
 10
148.639342014
 20
62.864338313
 30
0.0
 10
148.6264753283
 20
62.9017631545
 30
0.0
 10
148.6235383041
 20
62.941838595
 30
0.0
 10
148.6235383223
 20
62.9730403675
 30
0.0
  0
SPLINE
  5
60E
100
AcDbEntity
  8
0
100
AcDbSpline
 62
7
  6
CONTINUOUS
 70
0
 71
3
 72
9
 73
5
 74
0
 42
0.0000001
 43
0.0000001
 44
0.0000000001
 40
0.0
 40
0.0
 40
0.0
 40
0.0
 40
0.2086099781
 40
1.0
 40
1.0
 40
1.0
 40
1.0
 10
148.6426916942
 20
82.3769369753
 30
0.0
 10
148.639342014
 20
82.3844487319
 30
0.0
 10
148.6264753283
 20
82.4218735734
 30
0.0
 10
148.6235383041
 20
82.461949014
 30
0.0
 10
148.6235383223
 20
82.4931507865
 30
0.0
  0
SPLINE
  5
60F
100
AcDbEntity
  8
0
100
AcDbSpline
 62
7
  6
CONTINUOUS
 70
0
 71
3
 72
8
 73
4
 74
0
 42
0.0000001
 43
0.0000001
 44
0.0000000001
 40
0.0
 40
0.0
 40
0.0
 40
0.0
 40
1.0
 40
1.0
 40
1.0
 40
1.0
 10
140.0117606572
 20
88.4470619798
 30
0.0
 10
140.0117676256
 20
88.434199867
 30
0.0
 10
140.0071579539
 20
88.4210311179
 30
0.0
 10
140.0000963555
 20
88.4102808703
 30
0.0
  0
SPLINE
  5
610
100
AcDbEntity
  8
0
100
AcDbSpline
 62
7
  6
CONTINUOUS
 70
0
 71
3
 72
8
 73
4
 74
0
 42
0.0000001
 43
0.0000001
 44
0.0000000001
 40
0.0
 40
0.0
 40
0.0
 40
0.0
 40
1.0
 40
1.0
 40
1.0
 40
1.0
 10
149.4878965305
 20
89.4273722972
 30
0.0
 10
149.4879034988
 20
89.4145101844
 30
0.0
 10
149.4832938272
 20
89.4013414353
 30
0.0
 10
149.4762322288
 20
89.3905911878
 30
0.0
  0
SPLINE
  5
611
100
AcDbEntity
  8
0
100
AcDbSpline
 62
7
  6
CONTINUOUS
 70
0
 71
3
 72
8
 73
4
 74
0
 42
0.0000001
 43
0.0000001
 44
0.0000000001
 40
0.0
 40
0.0
 40
0.0
 40
0.0
 40
1.0
 40
1.0
 40
1.0
 40
1.0
 10
145.5342764112
 20
87.1441508974
 30
0.0
 10
145.5342833796
 20
87.1312887846
 30
0.0
 10
145.5296737079
 20
87.1181200355
 30
0.0
 10
145.5226121095
 20
87.107369788
 30
0.0
  0
SPLINE
  5
612
100
AcDbEntity
  8
0
100
AcDbSpline
 62
7
  6
CONTINUOUS
 70
0
 71
3
 72
8
 73
4
 74
0
 42
0.0000001
 43
0.0000001
 44
0.0000000001
 40
0.0
 40
0.0
 40
0.0
 40
0.0
 40
1.0
 40
1.0
 40
1.0
 40
1.0
 10
147.7903937852
 20
83.9548899746
 30
0.0
 10
147.7904007536
 20
83.9420278618
 30
0.0
 10
147.7857910819
 20
83.9288591127
 30
0.0
 10
147.7787294835
 20
83.9181088651
 30
0.0
  0
SPLINE
  5
613
100
AcDbEntity
  8
3_ALL_AXES
100
AcDbSpline
 62
7
  6
CONTINUOUS
 70
0
 71
3
 72
9
 73
5
 74
0
 42
0.0000001
 43
0.0000001
 44
0.0000000001
 40
0.0
 40
0.0
 40
0.0
 40
0.0
 40
0.5
 40
1.0
 40
1.0
 40
1.0
 40
1.0
 10
145.3192545747
 20
82.2583033892
 30
0.0
 10
145.6873052053
 20
82.1486979868
 30
0.0
 10
146.4601794809
 20
82.0481472787
 30
0.0
 10
147.2330537565
 20
82.1486979868
 30
0.0
 10
147.6011043871
 20
82.2583033892
 30
0.0
  0
SPLINE
  5
614
100
AcDbEntity
  8
3_ALL_AXES
100
AcDbSpline
 62
7
  6
CONTINUOUS
 70
0
 71
3
 72
11
 73
7
 74
0
 42
0.0000001
 43
0.0000001
 44
0.0000000001
 40
0.0
 40
0.0
 40
0.0
 40
0.0
 40
0.217751611
 40
0.4509247102
 40
0.7101684765
 40
1.0
 40
1.0
 40
1.0
 40
1.0
 10
139.4212359308
 20
75.5299030437
 30
0.0
 10
139.6297589045
 20
75.6503246925
 30
0.0
 10
140.1089617759
 20
75.8243810985
 30
0.0
 10
140.9048066802
 20
75.8442357013
 30
0.0
 10
141.7531897913
 20
75.6395765106
 30
0.0
 10
142.3050117771
 20
75.3767761865
 30
0.0
 10
142.5825594212
 20
75.2164920162
 30
0.0
  0
SPLINE
  5
615
100
AcDbEntity
  8
3_ALL_AXES
100
AcDbSpline
 62
7
  6
CONTINUOUS
 70
0
 71
3
 72
15
 73
11
 74
0
 42
0.0000001
 43
0.0000001
 44
0.0000000001
 40
0.0
 40
0.0
 40
0.0
 40
0.0
 40
0.1285219016
 40
0.269536305
 40
0.4159436952
 40
0.5595687379
 40
0.6927795947
 40
0.8102019273
 40
0.9107989243
 40
1.0
 40
1.0
 40
1.0
 40
1.0
 10
142.991468655
 20
65.60996685
 30
0.0
 10
142.5653660305
 20
65.8560417387
 30
0.0
 10
141.7392994192
 20
66.4915344658
 30
0.0
 10
140.6832329398
 20
67.6935128607
 30
0.0
 10
139.8155766172
 20
69.1066662975
 30
0.0
 10
139.2069561858
 20
70.6170717174
 30
0.0
 10
138.905775627
 20
72.1065854216
 30
0.0
 10
138.9413084113
 20
73.465347697
 30
0.0
 10
139.3308888981
 20
74.602671017
 30
0.0
 10
139.8650140355
 20
75.1447876581
 30
0.0
 10
140.1607216362
 20
75.315629456
 30
0.0
  0
LINE
  5
616
100
AcDbEntity
  8
3_ALL_AXES
100
AcDbLine
 62
7
  6
CONTINUOUS
 10
140.2681845925
 20
75.1324792269
 11
140.2720257891
 21
75.1346878743
  0
SPLINE
  5
617
100
AcDbEntity
  8
3_ALL_AXES
100
AcDbSpline
 62
7
  6
CONTINUOUS
 70
0
 71
3
 72
11
 73
7
 74
0
 42
0.0000001
 43
0.0000001
 44
0.0000000001
 40
0.0
 40
0.0
 40
0.0
 40
0.0
 40
0.2143718371
 40
0.4461634129
 40
0.7066401639
 40
1.0
 40
1.0
 40
1.0
 40
1.0
 10
140.2720257891
 20
75.1346878743
 30
0.0
 10
140.4489446642
 20
75.2361215283
 30
0.0
 10
140.8573708752
 20
75.3827324605
 30
0.0
 10
141.5385949433
 20
75.397433052
 30
0.0
 10
142.2711552585
 20
75.2191881955
 30
0.0
 10
142.7497975377
 20
74.9908470163
 30
0.0
 10
142.991468655
 20
74.8512815927
 30
0.0
  0
SPLINE
  5
618
100
AcDbEntity
  8
3_ALL_AXES
100
AcDbSpline
 62
7
  6
CONTINUOUS
 70
0
 71
3
 72
15
 73
11
 74
0
 42
0.0000001
 43
0.0000001
 44
0.0000000001
 40
0.0
 40
0.0
 40
0.0
 40
0.0
 40
0.1285176747
 40
0.2695080636
 40
0.415882528
 40
0.5594714384
 40
0.6926510265
 40
0.8100636923
 40
0.9107003708
 40
1.0
 40
1.0
 40
1.0
 40
1.0
 10
142.991468655
 20
65.8179964459
 30
0.0
 10
142.5841420493
 20
66.0532281563
 30
0.0
 10
141.7945378656
 20
66.6606886366
 30
0.0
 10
140.7851968365
 20
67.8096423604
 30
0.0
 10
139.956065828
 20
69.1603685965
 30
0.0
 10
139.374609126
 20
70.6040232966
 30
0.0
 10
139.0871008182
 20
72.0277484119
 30
0.0
 10
139.1215639038
 20
73.326692851
 30
0.0
 10
139.4948646931
 20
74.4141597639
 30
0.0
 10
140.0062528459
 20
74.9324261122
 30
0.0
 10
140.2893983165
 20
75.0956718747
 30
0.0
  0
LINE
  5
619
100
AcDbEntity
  8
3_ALL_AXES
100
AcDbLine
 62
7
  6
CONTINUOUS
 10
140.3955704281
 20
74.9117891909
 11
140.3994095942
 21
74.9139963738
  0
SPLINE
  5
61A
100
AcDbEntity
  8
3_ALL_AXES
100
AcDbSpline
 62
7
  6
CONTINUOUS
 70
0
 71
3
 72
11
 73
7
 74
0
 42
0.0000001
 43
0.0000001
 44
0.0000000001
 40
0.0
 40
0.0
 40
0.0
 40
0.0
 40
0.2142038475
 40
0.4459266057
 40
0.7064646653
 40
1.0
 40
1.0
 40
1.0
 40
1.0
 10
140.3994095942
 20
74.9139963738
 30
0.0
 10
140.5679213766
 20
75.0105831292
 30
0.0
 10
140.9570331651
 20
75.1501904646
 30
0.0
 10
141.6061881581
 20
75.1641044333
 30
0.0
 10
142.3045683374
 20
74.9941121705
 30
0.0
 10
142.7609791156
 20
74.7763600427
 30
0.0
 10
142.991468655
 20
74.6432519967
 30
0.0
  0
SPLINE
  5
61B
100
AcDbEntity
  8
0
100
AcDbSpline
 62
7
  6
CONTINUOUS
 70
0
 71
3
 72
9
 73
5
 74
0
 42
0.0000001
 43
0.0000001
 44
0.0000000001
 40
0.0
 40
0.0
 40
0.0
 40
0.0
 40
0.5238161288
 40
1.0
 40
1.0
 40
1.0
 40
1.0
 10
137.3330112347
 20
67.3131723598
 30
0.0
 10
137.2484620898
 20
67.2184852193
 30
0.0
 10
137.1094789745
 20
67.0139164704
 30
0.0
 10
137.056162141
 20
66.7696851099
 30
0.0
 10
137.056162141
 20
66.6542865583
 30
0.0
  0
SPLINE
  5
61C
100
AcDbEntity
  8
3_ALL_AXES
100
AcDbSpline
 62
7
  6
CONTINUOUS
 70
0
 71
3
 72
15
 73
11
 74
0
 42
0.0000001
 43
0.0000001
 44
0.0000000001
 40
0.0
 40
0.0
 40
0.0
 40
0.0
 40
0.1285024268
 40
0.2694559304
 40
0.4157847885
 40
0.5593296993
 40
0.6924791007
 40
0.8098936043
 40
0.9105870539
 40
1.0
 40
1.0
 40
1.0
 40
1.0
 10
142.991468655
 20
66.0260260419
 30
0.0
 10
142.6030039156
 20
66.2503649969
 30
0.0
 10
141.8500132383
 20
66.8296455389
 30
0.0
 10
140.8875362653
 20
67.925281958
 30
0.0
 10
140.0969807646
 20
69.2132637475
 30
0.0
 10
139.5426204499
 20
70.5898766417
 30
0.0
 10
139.2685698117
 20
71.9476135813
 30
0.0
 10
139.3016181058
 20
73.1866603987
 30
0.0
 10
139.6581063049
 20
74.2243949066
 30
0.0
 10
140.1463753933
 20
74.7190793341
 30
0.0
 10
140.4167841523
 20
74.8749817795
 30
0.0
  0
SPLINE
  5
61D
100
AcDbEntity
  8
3_ALL_AXES
100
AcDbSpline
 62
7
  6
CONTINUOUS
 70
0
 71
3
 72
11
 73
7
 74
0
 42
0.0000001
 43
0.0000001
 44
0.0000000001
 40
0.0
 40
0.0
 40
0.0
 40
0.0
 40
0.214020338
 40
0.4456178101
 40
0.706209967
 40
1.0
 40
1.0
 40
1.0
 40
1.0
 10
140.5229561875
 20
74.6910991298
 30
0.0
 10
140.6830797831
 20
74.7834355158
 30
0.0
 10
141.0531836917
 20
74.9171586089
 30
0.0
 10
141.6712946681
 20
74.9311811888
 30
0.0
 10
142.3367512385
 20
74.7695883095
 30
0.0
 10
142.7717441116
 20
74.5621136459
 30
0.0
 10
142.991468655
 20
74.4352224008
 30
0.0
  0
SPLINE
  5
61E
100
AcDbEntity
  8
3_AXES_OTHER
100
AcDbSpline
 62
7
  6
CONTINUOUS
 70
0
 71
3
 72
9
 73
5
 74
0
 42
0.0000001
 43
0.0000001
 44
0.0000000001
 40
0.0
 40
0.0
 40
0.0
 40
0.0
 40
0.2418155927
 40
1.0
 40
1.0
 40
1.0
 40
1.0
 10
145.3919315146
 20
81.9109685697
 30
0.0
 10
144.7808563073
 20
82.3319418967
 30
0.0
 10
142.2172605842
 20
84.019514543
 30
0.0
 10
139.518413644
 20
85.4985004754
 30
0.0
 10
137.424304676
 20
86.5122847192
 30
0.0
  0
LINE
  5
61F
100
AcDbEntity
  8
3_ALL_AXES
100
AcDbLine
 62
7
  6
CONTINUOUS
 10
139.9461836352
 20
64.7501082869
 11
139.9744128354
 21
64.7349115109
  0
LINE
  5
620
100
AcDbEntity
  8
3_ALL_AXES
100
AcDbLine
 62
7
  6
CONTINUOUS
 10
143.1365947403
 20
62.9087468371
 11
143.1629094373
 21
62.8924444327
  0
SPLINE
  5
621
100
AcDbEntity
  8
3_ALL_AXES
100
AcDbSpline
 62
7
  6
CONTINUOUS
 70
0
 71
3
 72
11
 73
7
 74
0
 42
0.0000001
 43
0.0000001
 44
0.0000000001
 40
0.0
 40
0.0
 40
0.0
 40
0.0
 40
0.2207973582
 40
0.4552721201
 40
0.7134213892
 40
1.0
 40
1.0
 40
1.0
 40
1.0
 10
145.9284100883
 20
65.329504953
 30
0.0
 10
145.7320337736
 20
65.2160507078
 30
0.0
 10
145.2828439398
 20
65.0523588292
 30
0.0
 10
144.5402731964
 20
65.0324780415
 30
0.0
 10
143.7550275941
 20
65.2208353491
 30
0.0
 10
143.2463767787
 20
65.4627570358
 30
0.0
 10
142.991468655
 20
65.60996685
 30
0.0
  0
SPLINE
  5
622
100
AcDbEntity
  8
3_ALL_AXES
100
AcDbSpline
 62
7
  6
CONTINUOUS
 70
0
 71
3
 72
9
 73
5
 74
0
 42
0.0000001
 43
0.0000001
 44
0.0000000001
 40
0.0
 40
0.0
 40
0.0
 40
0.0
 40
0.2384399668
 40
1.0
 40
1.0
 40
1.0
 40
1.0
 10
143.0416238375
 20
74.8219452536
 30
0.0
 10
143.136237698
 20
74.7659039119
 30
0.0
 10
143.5257363324
 20
74.5185985337
 30
0.0
 10
143.885976975
 20
74.2264632625
 30
0.0
 10
144.1430759062
 20
73.9871789702
 30
0.0
  0
SPLINE
  5
623
100
AcDbEntity
  8
3_ALL_AXES
100
AcDbSpline
 62
7
  6
CONTINUOUS
 70
0
 71
3
 72
11
 73
7
 74
0
 42
0.0000001
 43
0.0000001
 44
0.0000000001
 40
0.0
 40
0.0
 40
0.0
 40
0.0
 40
0.3071076111
 40
0.5749419199
 40
0.8016608148
 40
1.0
 40
1.0
 40
1.0
 40
1.0
 10
146.7589535427
 20
69.4798617059
 30
0.0
 10
146.8605656285
 20
69.0482361457
 30
0.0
 10
146.9827662732
 20
68.2207719284
 30
0.0
 10
146.8954867728
 20
67.0547678693
 30
0.0
 10
146.5257328697
 20
66.1031000642
 30
0.0
 10
146.0690323424
 20
65.655712761
 30
0.0
 10
145.8209471319
 20
65.5126551821
 30
0.0
  0
SPLINE
  5
624
100
AcDbEntity
  8
3_ALL_AXES
100
AcDbSpline
 62
7
  6
CONTINUOUS
 70
0
 71
3
 72
11
 73
7
 74
0
 42
0.0000001
 43
0.0000001
 44
0.0000000001
 40
0.0
 40
0.0
 40
0.0
 40
0.0
 40
0.2216542303
 40
0.4565166816
 40
0.7143422354
 40
1.0
 40
1.0
 40
1.0
 40
1.0
 10
145.7997334079
 20
65.5494625343
 30
0.0
 10
145.615137476
 20
65.4430348963
 30
0.0
 10
145.1943585293
 20
65.2883746302
 30
0.0
 10
144.4989125905
 20
65.2641661958
 30
0.0
 10
143.7630593873
 20
65.4323106799
 30
0.0
 10
143.2854774558
 20
65.6525261929
 30
0.0
 10
143.0460155021
 20
65.78693744
 30
0.0
  0
SPLINE
  5
625
100
AcDbEntity
  8
3_ALL_AXES
100
AcDbSpline
 62
7
  6
CONTINUOUS
 70
0
 71
3
 72
15
 73
11
 74
0
 42
0.0000001
 43
0.0000001
 44
0.0000000001
 40
0.0
 40
0.0
 40
0.0
 40
0.0
 40
0.1298701179
 40
0.2727936093
 40
0.4211528518
 40
0.5664265915
 40
0.7005942582
 40
0.8176472722
 40
0.9156699752
 40
1.0
 40
1.0
 40
1.0
 40
1.0
 10
143.0416236152
 20
74.61389791
 30
0.0
 10
143.4318220933
 20
74.3824989714
 30
0.0
 10
144.1888359957
 20
73.7887769312
 30
0.0
 10
145.1575550683
 20
72.6726157309
 30
0.0
 10
145.9540505141
 20
71.363756191
 30
0.0
 10
146.5120373948
 20
69.9696809105
 30
0.0
 10
146.7874201334
 20
68.6028689888
 30
0.0
 10
146.7567153598
 20
67.3704815845
 30
0.0
 10
146.4151753694
 20
66.3576990615
 30
0.0
 10
145.9487479676
 20
65.8804990352
 30
0.0
 10
145.6935612964
 20
65.7333452181
 30
0.0
  0
SPLINE
  5
626
100
AcDbEntity
  8
3_ALL_AXES
100
AcDbSpline
 62
7
  6
CONTINUOUS
 70
0
 71
3
 72
11
 73
7
 74
0
 42
0.0000001
 43
0.0000001
 44
0.0000000001
 40
0.0
 40
0.0
 40
0.0
 40
0.0
 40
0.2218355527
 40
0.4567771192
 40
0.7145373691
 40
1.0
 40
1.0
 40
1.0
 40
1.0
 10
145.6723475721
 20
65.7701526295
 30
0.0
 10
145.4961631017
 20
65.6685745967
 30
0.0
 10
145.0947041173
 20
65.5209211958
 30
0.0
 10
144.4313315591
 20
65.4975023514
 30
0.0
 10
143.7296537178
 20
65.6573991554
 30
0.0
 10
143.2742973648
 20
65.8670312566
 30
0.0
 10
143.0460135568
 20
65.9949895012
 30
0.0
  0
SPLINE
  5
627
100
AcDbEntity
  8
3_ALL_AXES
100
AcDbSpline
 62
7
  6
CONTINUOUS
 70
0
 71
3
 72
15
 73
11
 74
0
 42
0.0000001
 43
0.0000001
 44
0.0000000001
 40
0.0
 40
0.0
 40
0.0
 40
0.0
 40
0.129207416
 40
0.271839313
 40
0.420235319
 40
0.5657708171
 40
0.7002882946
 40
0.8176322899
 40
0.9157621666
 40
1.0
 40
1.0
 40
1.0
 40
1.0
 10
142.991468655
 20
74.4352224008
 30
0.0
 10
143.3655449697
 20
74.2191927821
 30
0.0
 10
144.0927742361
 20
73.659175606
 30
0.0
 10
145.0248887502
 20
72.5991806359
 30
0.0
 10
145.7937661738
 20
71.3503494226
 30
0.0
 10
146.3346276801
 20
70.016438759
 30
0.0
 10
146.6042502044
 20
68.7063663293
 30
0.0
 10
146.5795095749
 20
67.5242220353
 30
0.0
 10
146.2559349369
 20
66.5525588591
 30
0.0
 10
145.810146833
 20
66.0947230253
 30
0.0
 10
145.5661755369
 20
65.9540352792
 30
0.0
  0
SPLINE
  5
628
100
AcDbEntity
  8
3_ALL_AXES
100
AcDbSpline
 62
7
  6
CONTINUOUS
 70
0
 71
3
 72
9
 73
5
 74
0
 42
0.0000001
 43
0.0000001
 44
0.0000000001
 40
0.0
 40
0.0
 40
0.0
 40
0.0
 40
0.4566751644
 40
1.0
 40
1.0
 40
1.0
 40
1.0
 10
141.6721490632
 20
85.6245315914
 30
0.0
 10
141.672190126
 20
85.625394424
 30
0.0
 10
141.6717408377
 20
85.627370976
 30
0.0
 10
141.6701847017
 20
85.628642011
 30
0.0
 10
141.6692947383
 20
85.6291559662
 30
0.0
  0
SPLINE
  5
629
100
AcDbEntity
  8
3_ALL_AXES
100
AcDbSpline
 62
7
  6
CONTINUOUS
 70
0
 71
3
 72
9
 73
5
 74
0
 42
0.0000001
 43
0.0000001
 44
0.0000000001
 40
0.0
 40
0.0
 40
0.0
 40
0.0
 40
0.4157209901
 40
1.0
 40
1.0
 40
1.0
 40
1.0
 10
141.6692947383
 20
85.6291559662
 30
0.0
 10
141.6681585427
 20
85.6298121208
 30
0.0
 10
141.665117041
 20
85.6308282503
 30
0.0
 10
141.6619767732
 20
85.6312090863
 30
0.0
 10
141.6601371541
 20
85.6313366307
 30
0.0
  0
SPLINE
  5
62A
100
AcDbEntity
  8
3_ALL_AXES
100
AcDbSpline
 62
7
  6
CONTINUOUS
 70
0
 71
3
 72
8
 73
4
 74
0
 42
0.0000001
 43
0.0000001
 44
0.0000000001
 40
0.0
 40
0.0
 40
0.0
 40
0.0
 40
1.0
 40
1.0
 40
1.0
 40
1.0
 10
140.992056834
 20
85.7515756579
 30
0.0
 10
140.9920570529
 20
85.7429386929
 30
0.0
 10
140.9954598909
 20
85.7341475695
 30
0.0
 10
141.0003485345
 20
85.7270272936
 30
0.0
  0
SPLINE
  5
62B
100
AcDbEntity
  8
3_ALL_AXES
100
AcDbSpline
 62
7
  6
CONTINUOUS
 70
0
 71
3
 72
8
 73
4
 74
0
 42
0.0000001
 43
0.0000001
 44
0.0000000001
 40
0.0
 40
0.0
 40
0.0
 40
0.0
 40
1.0
 40
1.0
 40
1.0
 40
1.0
 10
141.0003485345
 20
85.7270272936
 30
0.0
 10
141.0051399493
 20
85.7200486309
 30
0.0
 10
141.011774866
 20
85.7141401894
 30
0.0
 10
141.0191054529
 20
85.7099067648
 30
0.0
  0
SPLINE
  5
62C
100
AcDbEntity
  8
3_ALL_AXES
100
AcDbSpline
 62
7
  6
CONTINUOUS
 70
0
 71
3
 72
9
 73
5
 74
0
 42
0.0000001
 43
0.0000001
 44
0.0000000001
 40
0.0
 40
0.0
 40
0.0
 40
0.0
 40
0.4737327372
 40
1.0
 40
1.0
 40
1.0
 40
1.0
 10
141.2425919995
 20
85.5479894811
 30
0.0
 10
141.2425919995
 20
85.5468890409
 30
0.0
 10
141.2432485777
 20
85.5445242426
 30
0.0
 10
141.2450444538
 20
85.5428657699
 30
0.0
 10
141.2461030775
 20
85.5422544132
 30
0.0
  0
SPLINE
  5
62D
100
AcDbEntity
  8
3_ALL_AXES
100
AcDbSpline
 62
7
  6
CONTINUOUS
 70
0
 71
3
 72
8
 73
4
 74
0
 42
0.0000001
 43
0.0000001
 44
0.0000000001
 40
0.0
 40
0.0
 40
0.0
 40
0.0
 40
1.0
 40
1.0
 40
1.0
 40
1.0
 10
141.7172596048
 20
85.4781647753
 30
0.0
 10
141.717259634
 20
85.4696228989
 30
0.0
 10
141.7217655042
 20
85.4609195726
 30
0.0
 10
141.7276739739
 20
85.4547508095
 30
0.0
  0
SPLINE
  5
62E
100
AcDbEntity
  8
3_ALL_AXES
100
AcDbSpline
 62
7
  6
CONTINUOUS
 70
0
 71
3
 72
8
 73
4
 74
0
 42
0.0000001
 43
0.0000001
 44
0.0000000001
 40
0.0
 40
0.0
 40
0.0
 40
0.0
 40
1.0
 40
1.0
 40
1.0
 40
1.0
 10
141.7276739739
 20
85.4547508095
 30
0.0
 10
141.7337695242
 20
85.448386724
 30
0.0
 10
141.741303508
 20
85.4434448994
 30
0.0
 10
141.7489347178
 20
85.4390378646
 30
0.0
  0
SPLINE
  5
62F
100
AcDbEntity
  8
3_ALL_AXES
100
AcDbSpline
 62
7
  6
CONTINUOUS
 70
0
 71
3
 72
9
 73
5
 74
0
 42
0.0000001
 43
0.0000001
 44
0.0000000001
 40
0.0
 40
0.0
 40
0.0
 40
0.0
 40
0.4566751644
 40
1.0
 40
1.0
 40
1.0
 40
1.0
 10
141.5558069694
 20
85.4063005208
 30
0.0
 10
141.5557659065
 20
85.4054376882
 30
0.0
 10
141.5562151948
 20
85.4034611362
 30
0.0
 10
141.5577713308
 20
85.4021901012
 30
0.0
 10
141.5586612943
 20
85.401676146
 30
0.0
  0
SPLINE
  5
630
100
AcDbEntity
  8
3_ALL_AXES
100
AcDbSpline
 62
7
  6
CONTINUOUS
 70
0
 71
3
 72
9
 73
5
 74
0
 42
0.0000001
 43
0.0000001
 44
0.0000000001
 40
0.0
 40
0.0
 40
0.0
 40
0.0
 40
0.4157209901
 40
1.0
 40
1.0
 40
1.0
 40
1.0
 10
141.5586612943
 20
85.401676146
 30
0.0
 10
141.5597974898
 20
85.4010199914
 30
0.0
 10
141.5628389915
 20
85.4000038619
 30
0.0
 10
141.5659792593
 20
85.3996230259
 30
0.0
 10
141.5678188784
 20
85.3994954815
 30
0.0
  0
SPLINE
  5
631
100
AcDbEntity
  8
3_ALL_AXES
100
AcDbSpline
 62
7
  6
CONTINUOUS
 70
0
 71
3
 72
9
 73
5
 74
0
 42
0.0000001
 43
0.0000001
 44
0.0000000001
 40
0.0
 40
0.0
 40
0.0
 40
0.0
 40
0.4566751644
 40
1.0
 40
1.0
 40
1.0
 40
1.0
 10
142.0664346001
 20
85.2493415517
 30
0.0
 10
142.066475663
 20
85.2502043843
 30
0.0
 10
142.0660263746
 20
85.2521809363
 30
0.0
 10
142.0644702386
 20
85.2534519713
 30
0.0
 10
142.0635802752
 20
85.2539659265
 30
0.0
  0
SPLINE
  5
632
100
AcDbEntity
  8
3_ALL_AXES
100
AcDbSpline
 62
7
  6
CONTINUOUS
 70
0
 71
3
 72
9
 73
5
 74
0
 42
0.0000001
 43
0.0000001
 44
0.0000000001
 40
0.0
 40
0.0
 40
0.0
 40
0.0
 40
0.4157209901
 40
1.0
 40
1.0
 40
1.0
 40
1.0
 10
142.0635802752
 20
85.2539659265
 30
0.0
 10
142.0624440796
 20
85.2546220811
 30
0.0
 10
142.0594025779
 20
85.2556382106
 30
0.0
 10
142.0562623101
 20
85.2560190466
 30
0.0
 10
142.0544226911
 20
85.256146591
 30
0.0
  0
SPLINE
  5
633
100
AcDbEntity
  8
3_ALL_AXES
100
AcDbSpline
 62
7
  6
CONTINUOUS
 70
0
 71
3
 72
8
 73
4
 74
0
 42
0.0000001
 43
0.0000001
 44
0.0000000001
 40
0.0
 40
0.0
 40
0.0
 40
0.0
 40
1.0
 40
1.0
 40
1.0
 40
1.0
 10
142.186255413
 20
85.0595612542
 30
0.0
 10
142.1862554071
 20
85.0514973396
 30
0.0
 10
142.1896450131
 20
85.0432390603
 30
0.0
 10
142.1945437171
 20
85.0368336393
 30
0.0
  0
SPLINE
  5
634
100
AcDbEntity
  8
3_ALL_AXES
100
AcDbSpline
 62
7
  6
CONTINUOUS
 70
0
 71
3
 72
8
 73
4
 74
0
 42
0.0000001
 43
0.0000001
 44
0.0000000001
 40
0.0
 40
0.0
 40
0.0
 40
0.0
 40
1.0
 40
1.0
 40
1.0
 40
1.0
 10
142.1945437171
 20
85.0368336393
 30
0.0
 10
142.20093239
 20
85.0284799726
 30
0.0
 10
142.2099284646
 20
85.0222047343
 30
0.0
 10
142.2190355117
 20
85.0169454013
 30
0.0
  0
SPLINE
  5
635
100
AcDbEntity
  8
3_ALL_AXES
100
AcDbSpline
 62
7
  6
CONTINUOUS
 70
0
 71
3
 72
9
 73
5
 74
0
 42
0.0000001
 43
0.0000001
 44
0.0000000001
 40
0.0
 40
0.0
 40
0.0
 40
0.0
 40
0.2225668324
 40
1.0
 40
1.0
 40
1.0
 40
1.0
 10
143.6508823444
 20
84.8113846689
 30
0.0
 10
143.6494373711
 20
84.8171399526
 30
0.0
 10
143.639477542
 20
84.8421837942
 30
0.0
 10
143.6179272382
 20
84.8609288658
 30
0.0
 10
143.600220924
 20
84.8717042289
 30
0.0
  0
SPLINE
  5
636
100
AcDbEntity
  8
3_ALL_AXES
100
AcDbSpline
 62
7
  6
CONTINUOUS
 70
0
 71
3
 72
9
 73
5
 74
0
 42
0.0000001
 43
0.0000001
 44
0.0000000001
 40
0.0
 40
0.0
 40
0.0
 40
0.0
 40
0.4761838712
 40
1.0
 40
1.0
 40
1.0
 40
1.0
 10
137.056162141
 20
87.5292563969
 30
0.0
 10
137.056162141
 20
87.4138578453
 30
0.0
 10
137.1094789745
 20
87.1696264848
 30
0.0
 10
137.2484620898
 20
86.9650577359
 30
0.0
 10
137.3330112347
 20
86.8703705954
 30
0.0
  0
SPLINE
  5
637
100
AcDbEntity
  8
7_ALL_ROUNDS
100
AcDbSpline
 62
7
  6
CONTINUOUS
 70
0
 71
3
 72
8
 73
4
 74
0
 42
0.0000001
 43
0.0000001
 44
0.0000000001
 40
0.0
 40
0.0
 40
0.0
 40
0.0
 40
1.0
 40
1.0
 40
1.0
 40
1.0
 10
139.8663310585
 20
85.8277596886
 30
0.0
 10
139.8673021402
 20
85.8417350238
 30
0.0
 10
139.8702728077
 20
85.8556522311
 30
0.0
 10
139.874686263
 20
85.8689478847
 30
0.0
  0
SPLINE
  5
638
100
AcDbEntity
  8
7_ALL_ROUNDS
100
AcDbSpline
 62
7
  6
CONTINUOUS
 70
0
 71
3
 72
8
 73
4
 74
0
 42
0.0000001
 43
0.0000001
 44
0.0000000001
 40
0.0
 40
0.0
 40
0.0
 40
0.0
 40
1.0
 40
1.0
 40
1.0
 40
1.0
 10
139.874686263
 20
85.8689478847
 30
0.0
 10
139.8938305419
 20
85.9266205431
 30
0.0
 10
139.9407523025
 20
85.976887471
 30
0.0
 10
139.9933254567
 20
86.00736209
 30
0.0
  0
SPLINE
  5
639
100
AcDbEntity
  8
7_ALL_ROUNDS
100
AcDbSpline
 62
7
  6
CONTINUOUS
 70
0
 71
3
 72
8
 73
4
 74
0
 42
0.0000001
 43
0.0000001
 44
0.0000000001
 40
0.0
 40
0.0
 40
0.0
 40
0.0
 40
1.0
 40
1.0
 40
1.0
 40
1.0
 10
143.1079617899
 20
83.958018865
 30
0.0
 10
143.1085753448
 20
83.9714743085
 30
0.0
 10
143.1100262596
 20
83.9849050342
 30
0.0
 10
143.1120844037
 20
83.998216287
 30
0.0
  0
SPLINE
  5
63A
100
AcDbEntity
  8
7_ALL_ROUNDS
100
AcDbSpline
 62
7
  6
CONTINUOUS
 70
0
 71
3
 72
9
 73
5
 74
0
 42
0.0000001
 43
0.0000001
 44
0.0000000001
 40
0.0
 40
0.0
 40
0.0
 40
0.0
 40
0.7655911755
 40
1.0
 40
1.0
 40
1.0
 40
1.0
 10
143.1120844037
 20
83.998216287
 30
0.0
 10
143.1192170247
 20
84.0443472286
 30
0.0
 10
143.137403573
 20
84.1036680605
 30
0.0
 10
143.1652787392
 20
84.1579440326
 30
0.0
 10
143.1725458735
 20
84.1702507833
 30
0.0
  0
SPLINE
  5
63B
100
AcDbEntity
  8
7_ALL_ROUNDS
100
AcDbSpline
 62
7
  6
CONTINUOUS
 70
0
 71
3
 72
8
 73
4
 74
0
 42
0.0000001
 43
0.0000001
 44
0.0000000001
 40
0.0
 40
0.0
 40
0.0
 40
0.0
 40
1.0
 40
1.0
 40
1.0
 40
1.0
 10
143.1725458735
 20
84.1702507833
 30
0.0
 10
143.181269286
 20
84.1850237128
 30
0.0
 10
143.1910203828
 20
84.1993324256
 30
0.0
 10
143.2023709037
 20
84.2121972244
 30
0.0
  0
SPLINE
  5
63C
100
AcDbEntity
  8
3_ALL_AXES
100
AcDbSpline
 62
7
  6
CONTINUOUS
 70
0
 71
3
 72
9
 73
5
 74
0
 42
0.0000001
 43
0.0000001
 44
0.0000000001
 40
0.0
 40
0.0
 40
0.0
 40
0.0
 40
0.4676905776
 40
1.0
 40
1.0
 40
1.0
 40
1.0
 10
145.9283983621
 20
65.329505538
 30
0.0
 10
146.2087190618
 20
65.4914230799
 30
0.0
 10
146.7188978522
 20
66.0038062812
 30
0.0
 10
146.9561431546
 20
66.672711564
 30
0.0
 10
147.0311658653
 20
67.0334439436
 30
0.0
  0
SPLINE
  5
63D
100
AcDbEntity
  8
0
100
AcDbSpline
 62
7
  6
CONTINUOUS
 70
0
 71
3
 72
14
 73
10
 74
0
 42
0.0000001
 43
0.0000001
 44
0.0000000001
 40
0.0
 40
0.0
 40
0.0
 40
0.0
 40
0.3212034649
 40
0.4906053727
 40
0.6446558052
 40
0.7702647867
 40
0.8608361739
 40
0.9257830456
 40
1.0
 40
1.0
 40
1.0
 40
1.0
 10
148.9498273563
 20
63.342859764
 30
0.0
 10
148.9498273563
 20
63.268707283
 30
0.0
 10
148.9290275102
 20
63.155308409
 30
0.0
 10
148.879220179
 20
63.0151418106
 30
0.0
 10
148.8320679525
 20
62.9220240049
 30
0.0
 10
148.7806472788
 20
62.8539246816
 30
0.0
 10
148.7290991996
 20
62.8105736857
 30
0.0
 10
148.6695734505
 20
62.8105960149
 30
0.0
 10
148.6496696494
 20
62.8411782865
 30
0.0
 10
148.6426916942
 20
62.8568265564
 30
0.0
  0
SPLINE
  5
63E
100
AcDbEntity
  8
3_ALL_AXES
100
AcDbSpline
 62
7
  6
CONTINUOUS
 70
0
 71
3
 72
9
 73
5
 74
0
 42
0.0000001
 43
0.0000001
 44
0.0000000001
 40
0.0
 40
0.0
 40
0.0
 40
0.0
 40
0.4654980711
 40
1.0
 40
1.0
 40
1.0
 40
1.0
 10
145.7997648001
 20
65.5494845506
 30
0.0
 10
146.0799214311
 20
65.711052626
 30
0.0
 10
146.5875720013
 20
66.2332129281
 30
0.0
 10
146.8080752099
 20
66.9114316712
 30
0.0
 10
146.8740273165
 20
67.276875698
 30
0.0
  0
SPLINE
  5
63F
100
AcDbEntity
  8
3_ALL_AXES
100
AcDbSpline
 62
7
  6
CONTINUOUS
 70
0
 71
3
 72
9
 73
5
 74
0
 42
0.0000001
 43
0.0000001
 44
0.0000000001
 40
0.0
 40
0.0
 40
0.0
 40
0.0
 40
0.2441070781
 40
1.0
 40
1.0
 40
1.0
 40
1.0
 10
146.8948774118
 20
67.404463044
 30
0.0
 10
146.9007750238
 20
67.4446480402
 30
0.0
 10
146.9224566093
 20
67.609627131
 30
0.0
 10
146.9344776121
 20
67.775838773
 30
0.0
 10
146.9387323535
 20
67.9015351162
 30
0.0
  0
SPLINE
  5
640
100
AcDbEntity
  8
0
100
AcDbSpline
 62
7
  6
CONTINUOUS
 70
0
 71
3
 72
14
 73
10
 74
0
 42
0.0000001
 43
0.0000001
 44
0.0000000001
 40
0.0
 40
0.0
 40
0.0
 40
0.0
 40
0.3212034649
 40
0.4906053727
 40
0.6446558052
 40
0.7702647867
 40
0.8608361739
 40
0.9257830456
 40
1.0
 40
1.0
 40
1.0
 40
1.0
 10
148.9498273563
 20
82.862970183
 30
0.0
 10
148.9498273563
 20
82.788817702
 30
0.0
 10
148.9290275102
 20
82.6754188279
 30
0.0
 10
148.879220179
 20
82.5352522296
 30
0.0
 10
148.8320679525
 20
82.4421344239
 30
0.0
 10
148.7806472788
 20
82.3740351006
 30
0.0
 10
148.7290991996
 20
82.3306841046
 30
0.0
 10
148.6695734505
 20
82.3307064339
 30
0.0
 10
148.6496696494
 20
82.3612887055
 30
0.0
 10
148.6426916942
 20
82.3769369753
 30
0.0
  0
SPLINE
  5
641
100
AcDbEntity
  8
3_ALL_AXES
100
AcDbSpline
 62
7
  6
CONTINUOUS
 70
0
 71
3
 72
9
 73
5
 74
0
 42
0.0000001
 43
0.0000001
 44
0.0000000001
 40
0.0
 40
0.0
 40
0.0
 40
0.0
 40
0.4654148746
 40
1.0
 40
1.0
 40
1.0
 40
1.0
 10
145.6723789555
 20
65.7701743401
 30
0.0
 10
145.9400156738
 20
65.9245228827
 30
0.0
 10
146.4248891933
 20
66.4237360567
 30
0.0
 10
146.634937813
 20
67.0719972209
 30
0.0
 10
146.6976153564
 20
67.4212898183
 30
0.0
  0
SPLINE
  5
642
100
AcDbEntity
  8
3_ALL_AXES
100
AcDbSpline
 62
7
  6
CONTINUOUS
 70
0
 71
3
 72
9
 73
5
 74
0
 42
0.0000001
 43
0.0000001
 44
0.0000000001
 40
0.0
 40
0.0
 40
0.0
 40
0.0
 40
0.2440405026
 40
1.0
 40
1.0
 40
1.0
 40
1.0
 10
146.7161104983
 20
67.5343366337
 30
0.0
 10
146.7218446008
 20
67.5730509662
 30
0.0
 10
146.7429227099
 20
67.7320432279
 30
0.0
 10
146.7545769345
 20
67.8922478648
 30
0.0
 10
146.7586798627
 20
68.0134113356
 30
0.0
  0
SPLINE
  5
643
100
AcDbEntity
  8
3_ALL_AXES
100
AcDbSpline
 62
7
  6
CONTINUOUS
 70
0
 71
3
 72
9
 73
5
 74
0
 42
0.0000001
 43
0.0000001
 44
0.0000000001
 40
0.0
 40
0.0
 40
0.0
 40
0.0
 40
0.2545093957
 40
1.0
 40
1.0
 40
1.0
 40
1.0
 10
142.5423268288
 20
85.2036466097
 30
0.0
 10
142.5229134134
 20
85.2148578855
 30
0.0
 10
142.4338362153
 20
85.2374797955
 30
0.0
 10
142.3465891864
 20
85.1961016018
 30
0.0
 10
142.2897248072
 20
85.1632623396
 30
0.0
  0
SPLINE
  5
644
100
AcDbEntity
  8
0
100
AcDbSpline
 62
7
  6
CONTINUOUS
 70
0
 71
3
 72
11
 73
7
 74
0
 42
0.0000001
 43
0.0000001
 44
0.0000000001
 40
0.0
 40
0.0
 40
0.0
 40
0.0
 40
0.2753969281
 40
0.5000473944
 40
0.7246244601
 40
1.0
 40
1.0
 40
1.0
 40
1.0
 10
139.5780769706
 20
88.446947656
 30
0.0
 10
139.5483385381
 20
88.4641082662
 30
0.0
 10
139.4972397192
 20
88.5032411677
 30
0.0
 10
139.4617490831
 20
88.5936975078
 30
0.0
 10
139.4971644368
 20
88.6841838319
 30
0.0
 10
139.5482484239
 20
88.7233253962
 30
0.0
 10
139.5779787709
 20
88.7404946791
 30
0.0
  0
SPLINE
  5
645
100
AcDbEntity
  8
0
100
AcDbSpline
 62
7
  6
CONTINUOUS
 70
0
 71
3
 72
11
 73
7
 74
0
 42
0.0000001
 43
0.0000001
 44
0.0000000001
 40
0.0
 40
0.0
 40
0.0
 40
0.0
 40
0.2753969281
 40
0.5000473944
 40
0.7246244601
 40
1.0
 40
1.0
 40
1.0
 40
1.0
 10
149.0542128438
 20
89.4272579734
 30
0.0
 10
149.0244744113
 20
89.4444185836
 30
0.0
 10
148.9733755924
 20
89.4835514852
 30
0.0
 10
148.9378849563
 20
89.5740078253
 30
0.0
 10
148.97330031
 20
89.6644941494
 30
0.0
 10
149.0243842972
 20
89.7036357136
 30
0.0
 10
149.0541146442
 20
89.7208049966
 30
0.0
  0
SPLINE
  5
646
100
AcDbEntity
  8
3_ALL_AXES
100
AcDbSpline
 62
7
  6
CONTINUOUS
 70
0
 71
3
 72
9
 73
5
 74
0
 42
0.0000001
 43
0.0000001
 44
0.0000000001
 40
0.0
 40
0.0
 40
0.0
 40
0.0
 40
0.5083504959
 40
1.0
 40
1.0
 40
1.0
 40
1.0
 10
141.941829337
 20
85.5504347892
 30
0.0
 10
141.915612417
 20
85.5655750989
 30
0.0
 10
141.8513892922
 20
85.5762599152
 30
0.0
 10
141.7958281538
 20
85.5509696124
 30
0.0
 10
141.7699490807
 20
85.5372730818
 30
0.0
  0
SPLINE
  5
647
100
AcDbEntity
  8
3_ALL_AXES
100
AcDbSpline
 62
7
  6
CONTINUOUS
 70
0
 71
3
 72
9
 73
5
 74
0
 42
0.0000001
 43
0.0000001
 44
0.0000000001
 40
0.0
 40
0.0
 40
0.0
 40
0.0
 40
0.2897918132
 40
1.0
 40
1.0
 40
1.0
 40
1.0
 10
141.7699490807
 20
85.5372730818
 30
0.0
 10
141.763087192
 20
85.5336414189
 30
0.0
 10
141.7415348222
 20
85.519265433
 30
0.0
 10
141.71725954
 20
85.497191601
 30
0.0
 10
141.7172596048
 20
85.4781647753
 30
0.0
  0
SPLINE
  5
648
100
AcDbEntity
  8
3_ALL_AXES
100
AcDbSpline
 62
7
  6
CONTINUOUS
 70
0
 71
3
 72
9
 73
5
 74
0
 42
0.0000001
 43
0.0000001
 44
0.0000000001
 40
0.0
 40
0.0
 40
0.0
 40
0.0
 40
0.5514563654
 40
1.0
 40
1.0
 40
1.0
 40
1.0
 10
142.2839497267
 20
85.1599272222
 30
0.0
 10
142.2611663272
 20
85.1467697757
 30
0.0
 10
142.2226956087
 20
85.1221363488
 30
0.0
 10
142.1862554286
 20
85.0809610619
 30
0.0
 10
142.186255413
 20
85.0595612542
 30
0.0
  0
SPLINE
  5
649
100
AcDbEntity
  8
3_ALL_AXES
100
AcDbSpline
 62
7
  6
CONTINUOUS
 70
0
 71
3
 72
9
 73
5
 74
0
 42
0.0000001
 43
0.0000001
 44
0.0000000001
 40
0.0
 40
0.0
 40
0.0
 40
0.0
 40
0.5262672628
 40
1.0
 40
1.0
 40
1.0
 40
1.0
 10
141.2461030775
 20
85.5537245491
 30
0.0
 10
141.2450444538
 20
85.5531131923
 30
0.0
 10
141.2432485777
 20
85.5514547196
 30
0.0
 10
141.2425919995
 20
85.5490899214
 30
0.0
 10
141.2425919995
 20
85.5479894811
 30
0.0
  0
SPLINE
  5
64A
100
AcDbEntity
  8
3_ALL_AXES
100
AcDbSpline
 62
7
  6
CONTINUOUS
 70
0
 71
3
 72
9
 73
5
 74
0
 42
0.0000001
 43
0.0000001
 44
0.0000000001
 40
0.0
 40
0.0
 40
0.0
 40
0.0
 40
0.4566751644
 40
1.0
 40
1.0
 40
1.0
 40
1.0
 10
141.6721490632
 20
85.5979201665
 30
0.0
 10
141.672190126
 20
85.5970573339
 30
0.0
 10
141.6717408377
 20
85.5950807819
 30
0.0
 10
141.6701847017
 20
85.5938097469
 30
0.0
 10
141.6692947383
 20
85.5932957917
 30
0.0
  0
SPLINE
  5
64B
100
AcDbEntity
  8
3_ALL_AXES
100
AcDbSpline
 62
7
  6
CONTINUOUS
 70
0
 71
3
 72
9
 73
5
 74
0
 42
0.0000001
 43
0.0000001
 44
0.0000000001
 40
0.0
 40
0.0
 40
0.0
 40
0.0
 40
0.4157209901
 40
1.0
 40
1.0
 40
1.0
 40
1.0
 10
141.6692947383
 20
85.5932957917
 30
0.0
 10
141.6681585427
 20
85.5926396371
 30
0.0
 10
141.665117041
 20
85.5916235076
 30
0.0
 10
141.6619767732
 20
85.5912426716
 30
0.0
 10
141.6601371541
 20
85.5911151272
 30
0.0
  0
SPLINE
  5
64C
100
AcDbEntity
  8
3_ALL_AXES
100
AcDbSpline
 62
7
  6
CONTINUOUS
 70
0
 71
3
 72
9
 73
5
 74
0
 42
0.0000001
 43
0.0000001
 44
0.0000000001
 40
0.0
 40
0.0
 40
0.0
 40
0.0
 40
0.3436275064
 40
1.0
 40
1.0
 40
1.0
 40
1.0
 10
141.1394652449
 20
85.7220427592
 30
0.0
 10
141.1393842557
 20
85.7203409744
 30
0.0
 10
141.1428813509
 20
85.7155595342
 30
0.0
 10
141.1482306418
 20
85.7154628069
 30
0.0
 10
141.151477154
 20
85.7152377198
 30
0.0
  0
SPLINE
  5
64D
100
AcDbEntity
  8
0
100
AcDbSpline
 62
7
  6
CONTINUOUS
 70
0
 71
3
 72
11
 73
7
 74
0
 42
0.0000001
 43
0.0000001
 44
0.0000000001
 40
0.0
 40
0.0
 40
0.0
 40
0.0
 40
0.2753969281
 40
0.5000473944
 40
0.7246244601
 40
1.0
 40
1.0
 40
1.0
 40
1.0
 10
145.1005927245
 20
87.1440365736
 30
0.0
 10
145.070854292
 20
87.1611971838
 30
0.0
 10
145.0197554731
 20
87.2003300853
 30
0.0
 10
144.984264837
 20
87.2907864254
 30
0.0
 10
145.0196801907
 20
87.3812727496
 30
0.0
 10
145.0707641779
 20
87.4204143138
 30
0.0
 10
145.1004945249
 20
87.4375835968
 30
0.0
  0
SPLINE
  5
64E
100
AcDbEntity
  8
3_ALL_AXES
100
AcDbSpline
 62
7
  6
CONTINUOUS
 70
0
 71
3
 72
9
 73
5
 74
0
 42
0.0000001
 43
0.0000001
 44
0.0000000001
 40
0.0
 40
0.0
 40
0.0
 40
0.0
 40
0.4737327372
 40
1.0
 40
1.0
 40
1.0
 40
1.0
 10
141.4719686156
 20
85.5565513946
 30
0.0
 10
141.4719686156
 20
85.5576518348
 30
0.0
 10
141.4713120373
 20
85.5600166331
 30
0.0
 10
141.4695161612
 20
85.5616751058
 30
0.0
 10
141.4684575375
 20
85.5622864626
 30
0.0
  0
SPLINE
  5
64F
100
AcDbEntity
  8
7_ALL_ROUNDS
100
AcDbSpline
 62
7
  6
CONTINUOUS
 70
0
 71
3
 72
8
 73
4
 74
0
 42
0.0000001
 43
0.0000001
 44
0.0000000001
 40
0.0
 40
0.0
 40
0.0
 40
0.0
 40
1.0
 40
1.0
 40
1.0
 40
1.0
 10
148.019174846
 20
61.3236587416
 30
0.0
 10
148.0368181785
 20
61.3436272333
 30
0.0
 10
148.0446305705
 20
61.3727900732
 30
0.0
 10
148.0446305705
 20
61.3994364208
 30
0.0
  0
SPLINE
  5
650
100
AcDbEntity
  8
3_ALL_AXES
100
AcDbSpline
 62
7
  6
CONTINUOUS
 70
0
 71
3
 72
9
 73
5
 74
0
 42
0.0000001
 43
0.0000001
 44
0.0000000001
 40
0.0
 40
0.0
 40
0.0
 40
0.0
 40
0.7083889557
 40
1.0
 40
1.0
 40
1.0
 40
1.0
 10
141.793244622
 20
85.6139493777
 30
0.0
 10
141.7932439975
 20
85.6286847435
 30
0.0
 10
141.7747619415
 20
85.6462733897
 30
0.0
 10
141.7576479997
 20
85.6567997808
 30
0.0
 10
141.752395146
 20
85.6598333115
 30
0.0
  0
SPLINE
  5
651
100
AcDbEntity
  8
3_ALL_AXES
100
AcDbSpline
 62
7
  6
CONTINUOUS
 70
0
 71
3
 72
9
 73
5
 74
0
 42
0.0000001
 43
0.0000001
 44
0.0000000001
 40
0.0
 40
0.0
 40
0.0
 40
0.0
 40
0.4817718648
 40
1.0
 40
1.0
 40
1.0
 40
1.0
 10
141.7905126106
 20
85.5991857923
 30
0.0
 10
141.7893927543
 20
85.6015701818
 30
0.0
 10
141.7864786476
 20
85.6062468957
 30
0.0
 10
141.7828553056
 20
85.6103639755
 30
0.0
 10
141.7808659967
 20
85.6123818957
 30
0.0
  0
SPLINE
  5
652
100
AcDbEntity
  8
3_ALL_AXES
100
AcDbSpline
 62
7
  6
CONTINUOUS
 70
0
 71
3
 72
8
 73
4
 74
0
 42
0.0000001
 43
0.0000001
 44
0.0000000001
 40
0.0
 40
0.0
 40
0.0
 40
0.0
 40
1.0
 40
1.0
 40
1.0
 40
1.0
 10
141.7808659967
 20
85.6123818957
 30
0.0
 10
141.7726174397
 20
85.6207490882
 30
0.0
 10
141.7625697661
 20
85.6272869925
 30
0.0
 10
141.752395146
 20
85.6331628505
 30
0.0
  0
SPLINE
  5
653
100
AcDbEntity
  8
0
100
AcDbSpline
 62
7
  6
CONTINUOUS
 70
0
 71
3
 72
11
 73
7
 74
0
 42
0.0000001
 43
0.0000001
 44
0.0000000001
 40
0.0
 40
0.0
 40
0.0
 40
0.0
 40
0.2753969281
 40
0.5000473944
 40
0.7246244601
 40
1.0
 40
1.0
 40
1.0
 40
1.0
 10
147.3567100985
 20
83.9547756508
 30
0.0
 10
147.3269716661
 20
83.971936261
 30
0.0
 10
147.2758728471
 20
84.0110691625
 30
0.0
 10
147.240382211
 20
84.1015255026
 30
0.0
 10
147.2757975647
 20
84.1920118267
 30
0.0
 10
147.3268815519
 20
84.231153391
 30
0.0
 10
147.3566118989
 20
84.2483226739
 30
0.0
  0
SPLINE
  5
654
100
AcDbEntity
  8
3_ALL_AXES
100
AcDbSpline
 62
7
  6
CONTINUOUS
 70
0
 71
3
 72
9
 73
5
 74
0
 42
0.0000001
 43
0.0000001
 44
0.0000000001
 40
0.0
 40
0.0
 40
0.0
 40
0.0
 40
0.2589105107
 40
1.0
 40
1.0
 40
1.0
 40
1.0
 10
141.34239677
 20
85.8966079731
 30
0.0
 10
141.3230168091
 20
85.9077999289
 30
0.0
 10
141.2333950761
 20
85.9228362012
 30
0.0
 10
141.1502178603
 20
85.8840219894
 30
0.0
 10
141.0940960283
 20
85.8531393865
 30
0.0
  0
SPLINE
  5
655
100
AcDbEntity
  8
3_ALL_AXES
100
AcDbSpline
 62
7
  6
CONTINUOUS
 70
0
 71
3
 72
9
 73
5
 74
0
 42
0.0000001
 43
0.0000001
 44
0.0000000001
 40
0.0
 40
0.0
 40
0.0
 40
0.0
 40
0.547360768
 40
1.0
 40
1.0
 40
1.0
 40
1.0
 10
141.0940960283
 20
85.8531393865
 30
0.0
 10
141.0706490726
 20
85.8402370453
 30
0.0
 10
141.0325099624
 20
85.8139257564
 30
0.0
 10
140.992056273
 20
85.7737068508
 30
0.0
 10
140.992056834
 20
85.7515756579
 30
0.0
  0
SPLINE
  5
656
100
AcDbEntity
  8
3_ALL_AXES
100
AcDbSpline
 62
7
  6
CONTINUOUS
 70
0
 71
3
 72
9
 73
5
 74
0
 42
0.0000001
 43
0.0000001
 44
0.0000000001
 40
0.0
 40
0.0
 40
0.0
 40
0.0
 40
0.3436275064
 40
1.0
 40
1.0
 40
1.0
 40
1.0
 10
142.4025997267
 20
85.2779995488
 30
0.0
 10
142.402680716
 20
85.2797013336
 30
0.0
 10
142.3991836208
 20
85.2844827738
 30
0.0
 10
142.3938343298
 20
85.2845795011
 30
0.0
 10
142.3905878177
 20
85.2848045882
 30
0.0
  0
SPLINE
  5
657
100
AcDbEntity
  8
3_ALL_AXES
100
AcDbSpline
 62
7
  6
CONTINUOUS
 70
0
 71
3
 72
8
 73
4
 74
0
 42
0.0000001
 43
0.0000001
 44
0.0000000001
 40
0.0
 40
0.0
 40
0.0
 40
0.0
 40
1.0
 40
1.0
 40
1.0
 40
1.0
 10
141.4684436773
 20
85.5257175669
 30
0.0
 10
141.4781070408
 20
85.5201369603
 30
0.0
 10
141.4996422984
 20
85.5154857921
 30
0.0
 10
141.501913555
 20
85.5264112283
 30
0.0
  0
SPLINE
  5
658
100
AcDbEntity
  8
3_ALL_AXES
100
AcDbSpline
 62
7
  6
CONTINUOUS
 70
0
 71
3
 72
9
 73
5
 74
0
 42
0.0000001
 43
0.0000001
 44
0.0000000001
 40
0.0
 40
0.0
 40
0.0
 40
0.0
 40
0.3436275064
 40
1.0
 40
1.0
 40
1.0
 40
1.0
 10
141.891972096
 20
85.434958518
 30
0.0
 10
141.8918911068
 20
85.4332567332
 30
0.0
 10
141.8953882019
 20
85.428475293
 30
0.0
 10
141.9007374929
 20
85.4283785657
 30
0.0
 10
141.903984005
 20
85.4281534786
 30
0.0
  0
SPLINE
  5
659
100
AcDbEntity
  8
3_ALL_AXES
100
AcDbSpline
 62
7
  6
CONTINUOUS
 70
0
 71
3
 72
9
 73
5
 74
0
 42
0.0000001
 43
0.0000001
 44
0.0000000001
 40
0.0
 40
0.0
 40
0.0
 40
0.0
 40
0.7050992978
 40
1.0
 40
1.0
 40
1.0
 40
1.0
 10
142.2426091269
 20
85.2041757853
 30
0.0
 10
142.2426091281
 20
85.2168317934
 30
0.0
 10
142.2289474751
 20
85.2333625394
 30
0.0
 10
142.2140557657
 20
85.2426150612
 30
0.0
 10
142.2094719783
 20
85.2452622051
 30
0.0
  0
SPLINE
  5
65A
100
AcDbEntity
  8
3_ALL_AXES
100
AcDbSpline
 62
7
  6
CONTINUOUS
 70
0
 71
3
 72
9
 73
5
 74
0
 42
0.0000001
 43
0.0000001
 44
0.0000000001
 40
0.0
 40
0.0
 40
0.0
 40
0.0
 40
0.4843772826
 40
1.0
 40
1.0
 40
1.0
 40
1.0
 10
142.2397975833
 20
85.1900136311
 30
0.0
 10
142.2388380424
 20
85.1921085283
 30
0.0
 10
142.2364277399
 20
85.1962424869
 30
0.0
 10
142.2334097881
 20
85.199940954
 30
0.0
 10
142.2317439104
 20
85.2017412946
 30
0.0
  0
SPLINE
  5
65B
100
AcDbEntity
  8
3_ALL_AXES
100
AcDbSpline
 62
7
  6
CONTINUOUS
 70
0
 71
3
 72
8
 73
4
 74
0
 42
0.0000001
 43
0.0000001
 44
0.0000000001
 40
0.0
 40
0.0
 40
0.0
 40
0.0
 40
1.0
 40
1.0
 40
1.0
 40
1.0
 10
142.2317439104
 20
85.2017412946
 30
0.0
 10
142.2254213176
 20
85.2085742213
 30
0.0
 10
142.2175335873
 20
85.2139361531
 30
0.0
 10
142.2094719783
 20
85.2185917441
 30
0.0
  0
SPLINE
  5
65C
100
AcDbEntity
  8
3_ALL_AXES
100
AcDbSpline
 62
7
  6
CONTINUOUS
 70
0
 71
3
 72
8
 73
4
 74
0
 42
0.0000001
 43
0.0000001
 44
0.0000000001
 40
0.0
 40
0.0
 40
0.0
 40
0.0
 40
1.0
 40
1.0
 40
1.0
 40
1.0
 10
141.3746240293
 20
85.6164754507
 30
0.0
 10
141.3688908382
 20
85.619786377
 30
0.0
 10
141.3604955635
 20
85.619786377
 30
0.0
 10
141.3547623724
 20
85.6164754507
 30
0.0
  0
SPLINE
  5
65D
100
AcDbEntity
  8
3_ALL_AXES
100
AcDbSpline
 62
7
  6
CONTINUOUS
 70
0
 71
3
 72
9
 73
5
 74
0
 42
0.0000001
 43
0.0000001
 44
0.0000000001
 40
0.0
 40
0.0
 40
0.0
 40
0.0
 40
0.4566751644
 40
1.0
 40
1.0
 40
1.0
 40
1.0
 10
142.0664346001
 20
85.2227301268
 30
0.0
 10
142.066475663
 20
85.2218672942
 30
0.0
 10
142.0660263746
 20
85.2198907422
 30
0.0
 10
142.0644702386
 20
85.2186197072
 30
0.0
 10
142.0635802752
 20
85.218105752
 30
0.0
  0
SPLINE
  5
65E
100
AcDbEntity
  8
3_ALL_AXES
100
AcDbSpline
 62
7
  6
CONTINUOUS
 70
0
 71
3
 72
9
 73
5
 74
0
 42
0.0000001
 43
0.0000001
 44
0.0000000001
 40
0.0
 40
0.0
 40
0.0
 40
0.0
 40
0.4157209901
 40
1.0
 40
1.0
 40
1.0
 40
1.0
 10
142.0635802752
 20
85.218105752
 30
0.0
 10
142.0624440796
 20
85.2174495974
 30
0.0
 10
142.0594025779
 20
85.2164334679
 30
0.0
 10
142.0562623101
 20
85.2160526319
 30
0.0
 10
142.0544226911
 20
85.2159250875
 30
0.0
  0
SPLINE
  5
65F
100
AcDbEntity
  8
0
100
AcDbSpline
 62
7
  6
CONTINUOUS
 70
0
 71
3
 72
11
 73
7
 74
0
 42
0.0000001
 43
0.0000001
 44
0.0000000001
 40
0.0
 40
0.0
 40
0.0
 40
0.0
 40
0.2107453431
 40
0.3942607063
 40
0.6480157202
 40
1.0
 40
1.0
 40
1.0
 40
1.0
 10
148.8287840844
 20
63.4891034077
 30
0.0
 10
148.8429808548
 20
63.4983819445
 30
0.0
 10
148.8756876313
 20
63.5131595882
 30
0.0
 10
148.925386935
 20
63.4824374297
 30
0.0
 10
148.9456976486
 20
63.4196133908
 30
0.0
 10
148.9498273728
 20
63.3711860458
 30
0.0
 10
148.9498273563
 20
63.342859764
 30
0.0
  0
SPLINE
  5
660
100
AcDbEntity
  8
3_ALL_AXES
100
AcDbSpline
 62
7
  6
CONTINUOUS
 70
0
 71
3
 72
9
 73
5
 74
0
 42
0.0000001
 43
0.0000001
 44
0.0000000001
 40
0.0
 40
0.0
 40
0.0
 40
0.0
 40
0.3436275064
 40
1.0
 40
1.0
 40
1.0
 40
1.0
 10
142.3373925058
 20
85.0302380144
 30
0.0
 10
142.3373115166
 20
85.0285362296
 30
0.0
 10
142.3408086117
 20
85.0237547895
 30
0.0
 10
142.3461579027
 20
85.0236580622
 30
0.0
 10
142.3494044148
 20
85.0234329751
 30
0.0
  0
SPLINE
  5
661
100
AcDbEntity
  8
3_ALL_AXES
100
AcDbSpline
 62
7
  6
CONTINUOUS
 70
0
 71
3
 72
9
 73
5
 74
0
 42
0.0000001
 43
0.0000001
 44
0.0000000001
 40
0.0
 40
0.0
 40
0.0
 40
0.0
 40
0.3436275064
 40
1.0
 40
1.0
 40
1.0
 40
1.0
 10
142.7298111685
 20
84.7909363297
 30
0.0
 10
142.7298921578
 20
84.7926381145
 30
0.0
 10
142.7263950626
 20
84.7974195547
 30
0.0
 10
142.7210457716
 20
84.797516282
 30
0.0
 10
142.7177992595
 20
84.7977413691
 30
0.0
  0
SPLINE
  5
662
100
AcDbEntity
  8
3_ALL_AXES
100
AcDbSpline
 62
7
  6
CONTINUOUS
 70
0
 71
3
 72
9
 73
5
 74
0
 42
0.0000001
 43
0.0000001
 44
0.0000000001
 40
0.0
 40
0.0
 40
0.0
 40
0.0
 40
0.3436275064
 40
1.0
 40
1.0
 40
1.0
 40
1.0
 10
142.9879041367
 20
84.9399853962
 30
0.0
 10
142.987985126
 20
84.941687181
 30
0.0
 10
142.9844880308
 20
84.9464686212
 30
0.0
 10
142.9791387398
 20
84.9465653485
 30
0.0
 10
142.9758922277
 20
84.9467904356
 30
0.0
  0
SPLINE
  5
663
100
AcDbEntity
  8
7_ALL_ROUNDS
100
AcDbSpline
 62
7
  6
CONTINUOUS
 70
0
 71
3
 72
8
 73
4
 74
0
 42
0.0000001
 43
0.0000001
 44
0.0000000001
 40
0.0
 40
0.0
 40
0.0
 40
0.0
 40
1.0
 40
1.0
 40
1.0
 40
1.0
 10
152.8290523807
 20
66.7752155424
 30
0.0
 10
152.8473636945
 20
66.7959712012
 30
0.0
 10
152.8567182071
 20
66.8258282299
 30
0.0
 10
152.8567182071
 20
66.8535067701
 30
0.0
  0
SPLINE
  5
664
100
AcDbEntity
  8
0
100
AcDbSpline
 62
7
  6
CONTINUOUS
 70
0
 71
3
 72
11
 73
7
 74
0
 42
0.0000001
 43
0.0000001
 44
0.0000000001
 40
0.0
 40
0.0
 40
0.0
 40
0.0
 40
0.2107453431
 40
0.3942607063
 40
0.6480157202
 40
1.0
 40
1.0
 40
1.0
 40
1.0
 10
148.8287840844
 20
83.0092138266
 30
0.0
 10
148.8429808548
 20
83.0184923634
 30
0.0
 10
148.8756876313
 20
83.0332700072
 30
0.0
 10
148.925386935
 20
83.0025478486
 30
0.0
 10
148.9456976486
 20
82.9397238097
 30
0.0
 10
148.9498273728
 20
82.8912964647
 30
0.0
 10
148.9498273563
 20
82.862970183
 30
0.0
  0
SPLINE
  5
665
100
AcDbEntity
  8
3_ALL_AXES
100
AcDbSpline
 62
7
  6
CONTINUOUS
 70
0
 71
3
 72
8
 73
4
 74
0
 42
0.0000001
 43
0.0000001
 44
0.0000000001
 40
0.0
 40
0.0
 40
0.0
 40
0.0
 40
1.0
 40
1.0
 40
1.0
 40
1.0
 10
143.6891259735
 20
84.7955094396
 30
0.0
 10
143.6891246851
 20
84.8018516658
 30
0.0
 10
143.6883138407
 20
84.808238308
 30
0.0
 10
143.6867694367
 20
84.814389621
 30
0.0
  0
SPLINE
  5
666
100
AcDbEntity
  8
3_ALL_AXES
100
AcDbSpline
 62
7
  6
CONTINUOUS
 70
0
 71
3
 72
9
 73
5
 74
0
 42
0.0000001
 43
0.0000001
 44
0.0000000001
 40
0.0
 40
0.0
 40
0.0
 40
0.0
 40
0.2225668324
 40
1.0
 40
1.0
 40
1.0
 40
1.0
 10
143.6867694367
 20
84.814389621
 30
0.0
 10
143.6850511273
 20
84.821233594
 30
0.0
 10
143.6732072624
 20
84.8510148157
 30
0.0
 10
143.6475804283
 20
84.8733057701
 30
0.0
 10
143.6265247261
 20
84.8861194384
 30
0.0
  0
SPLINE
  5
667
100
AcDbEntity
  8
3_ALL_AXES
100
AcDbSpline
 62
7
  6
CONTINUOUS
 70
0
 71
3
 72
9
 73
5
 74
0
 42
0.0000001
 43
0.0000001
 44
0.0000000001
 40
0.0
 40
0.0
 40
0.0
 40
0.0
 40
0.5476883972
 40
1.0
 40
1.0
 40
1.0
 40
1.0
 10
142.0556238335
 20
85.2368176877
 30
0.0
 10
142.0582963016
 20
85.238361042
 30
0.0
 10
142.0626825456
 20
85.2417596957
 30
0.0
 10
142.0663134438
 20
85.2467957577
 30
0.0
 10
142.0664346001
 20
85.2493415517
 30
0.0
  0
SPLINE
  5
668
100
AcDbEntity
  8
3_ALL_AXES
100
AcDbSpline
 62
7
  6
CONTINUOUS
 70
0
 71
3
 72
8
 73
4
 74
0
 42
0.0000001
 43
0.0000001
 44
0.0000000001
 40
0.0
 40
0.0
 40
0.0
 40
0.0
 40
1.0
 40
1.0
 40
1.0
 40
1.0
 10
141.9904254845
 20
85.22427231
 30
0.0
 10
142.000088848
 20
85.2186917034
 30
0.0
 10
142.0216241056
 20
85.2140405352
 30
0.0
 10
142.0238953622
 20
85.2249659715
 30
0.0
  0
SPLINE
  5
669
100
AcDbEntity
  8
3_ALL_AXES
100
AcDbSpline
 62
7
  6
CONTINUOUS
 70
0
 71
3
 72
9
 73
5
 74
0
 42
0.0000001
 43
0.0000001
 44
0.0000000001
 40
0.0
 40
0.0
 40
0.0
 40
0.0
 40
0.5476883972
 40
1.0
 40
1.0
 40
1.0
 40
1.0
 10
141.6613382965
 20
85.6120077274
 30
0.0
 10
141.6640107646
 20
85.6135510816
 30
0.0
 10
141.6683970086
 20
85.6169497354
 30
0.0
 10
141.6720279069
 20
85.6219857974
 30
0.0
 10
141.6721490632
 20
85.6245315914
 30
0.0
  0
SPLINE
  5
66A
100
AcDbEntity
  8
0
100
AcDbSpline
 62
7
  6
CONTINUOUS
 70
0
 71
3
 72
14
 73
10
 74
0
 42
0.0000001
 43
0.0000001
 44
0.0000000001
 40
0.0
 40
0.0
 40
0.0
 40
0.0
 40
0.2907606974
 40
0.4448140855
 40
0.5838825285
 40
0.6984639774
 40
0.7919419265
 40
0.8854021563
 40
1.0
 40
1.0
 40
1.0
 40
1.0
 10
139.5779787709
 20
88.7404946791
 30
0.0
 10
139.6533951219
 20
88.7840477321
 30
0.0
 10
139.7919843649
 20
88.810586707
 30
0.0
 10
139.9662247321
 20
88.7917472635
 30
0.0
 10
140.0823764709
 20
88.7494607089
 30
0.0
 10
140.1668534642
 20
88.6842001979
 30
0.0
 10
140.2024383351
 20
88.5937519282
 30
0.0
 10
140.1669719669
 20
88.5033024192
 30
0.0
 10
140.1159098036
 20
88.4641699316
 30
0.0
 10
140.0861858561
 20
88.4470043443
 30
0.0
  0
SPLINE
  5
66B
100
AcDbEntity
  8
0
100
AcDbSpline
 62
7
  6
CONTINUOUS
 70
0
 71
3
 72
14
 73
10
 74
0
 42
0.0000001
 43
0.0000001
 44
0.0000000001
 40
0.0
 40
0.0
 40
0.0
 40
0.0
 40
0.2907606974
 40
0.4448140855
 40
0.5838825285
 40
0.6984639774
 40
0.7919419265
 40
0.8854021563
 40
1.0
 40
1.0
 40
1.0
 40
1.0
 10
149.0541146442
 20
89.7208049966
 30
0.0
 10
149.1295309952
 20
89.7643580495
 30
0.0
 10
149.2681202382
 20
89.7908970244
 30
0.0
 10
149.4423606054
 20
89.7720575809
 30
0.0
 10
149.5585123441
 20
89.7297710264
 30
0.0
 10
149.6429893375
 20
89.6645105153
 30
0.0
 10
149.6785742084
 20
89.5740622457
 30
0.0
 10
149.6431078401
 20
89.4836127367
 30
0.0
 10
149.5920456769
 20
89.4444802491
 30
0.0
 10
149.5623217293
 20
89.4273146618
 30
0.0
  0
SPLINE
  5
66C
100
AcDbEntity
  8
0
100
AcDbSpline
 62
7
  6
CONTINUOUS
 70
0
 71
3
 72
9
 73
5
 74
0
 42
0.0000001
 43
0.0000001
 44
0.0000000001
 40
0.0
 40
0.0
 40
0.0
 40
0.0
 40
0.2208880775
 40
1.0
 40
1.0
 40
1.0
 40
1.0
 10
139.6524039698
 20
88.4470619725
 30
0.0
 10
139.6524002628
 20
88.4539041855
 30
0.0
 10
139.6579381824
 20
88.4850932953
 30
0.0
 10
139.6841315087
 20
88.5083653122
 30
0.0
 10
139.7050305422
 20
88.5204345598
 30
0.0
  0
SPLINE
  5
66D
100
AcDbEntity
  8
0
100
AcDbSpline
 62
7
  6
CONTINUOUS
 70
0
 71
3
 72
9
 73
5
 74
0
 42
0.0000001
 43
0.0000001
 44
0.0000000001
 40
0.0
 40
0.0
 40
0.0
 40
0.0
 40
0.2208880775
 40
1.0
 40
1.0
 40
1.0
 40
1.0
 10
149.128539843
 20
89.4273722899
 30
0.0
 10
149.1285361361
 20
89.434214503
 30
0.0
 10
149.1340740556
 20
89.4654036127
 30
0.0
 10
149.160267382
 20
89.4886756296
 30
0.0
 10
149.1811664155
 20
89.5007448773
 30
0.0
  0
SPLINE
  5
66E
100
AcDbEntity
  8
0
100
AcDbSpline
 62
7
  6
CONTINUOUS
 70
0
 71
3
 72
14
 73
10
 74
0
 42
0.0000001
 43
0.0000001
 44
0.0000000001
 40
0.0
 40
0.0
 40
0.0
 40
0.0
 40
0.2907606974
 40
0.4448140855
 40
0.5838825285
 40
0.6984639774
 40
0.7919419265
 40
0.8854021563
 40
1.0
 40
1.0
 40
1.0
 40
1.0
 10
145.1004945249
 20
87.4375835968
 30
0.0
 10
145.1759108759
 20
87.4811366497
 30
0.0
 10
145.3145001189
 20
87.5076756246
 30
0.0
 10
145.4887404861
 20
87.4888361811
 30
0.0
 10
145.6048922248
 20
87.4465496266
 30
0.0
 10
145.6893692182
 20
87.3812891155
 30
0.0
 10
145.7249540891
 20
87.2908408459
 30
0.0
 10
145.6894877209
 20
87.2003913369
 30
0.0
 10
145.6384255576
 20
87.1612588493
 30
0.0
 10
145.60870161
 20
87.144093262
 30
0.0
  0
SPLINE
  5
66F
100
AcDbEntity
  8
0
100
AcDbSpline
 62
7
  6
CONTINUOUS
 70
0
 71
3
 72
9
 73
5
 74
0
 42
0.0000001
 43
0.0000001
 44
0.0000000001
 40
0.0
 40
0.0
 40
0.0
 40
0.0
 40
0.2208880775
 40
1.0
 40
1.0
 40
1.0
 40
1.0
 10
145.1749197238
 20
87.1441508901
 30
0.0
 10
145.1749160168
 20
87.1509931032
 30
0.0
 10
145.1804539363
 20
87.1821822129
 30
0.0
 10
145.2066472627
 20
87.2054542298
 30
0.0
 10
145.2275462962
 20
87.2175234775
 30
0.0
  0
SPLINE
  5
670
100
AcDbEntity
  8
0
100
AcDbSpline
 62
7
  6
CONTINUOUS
 70
0
 71
3
 72
14
 73
10
 74
0
 42
0.0000001
 43
0.0000001
 44
0.0000000001
 40
0.0
 40
0.0
 40
0.0
 40
0.0
 40
0.2907606974
 40
0.4448140855
 40
0.5838825285
 40
0.6984639774
 40
0.7919419265
 40
0.8854021563
 40
1.0
 40
1.0
 40
1.0
 40
1.0
 10
147.3566118989
 20
84.2483226739
 30
0.0
 10
147.4320282499
 20
84.2918757269
 30
0.0
 10
147.5706174929
 20
84.3184147018
 30
0.0
 10
147.7448578601
 20
84.2995752583
 30
0.0
 10
147.8610095988
 20
84.2572887037
 30
0.0
 10
147.9454865922
 20
84.1920281927
 30
0.0
 10
147.9810714631
 20
84.101579923
 30
0.0
 10
147.9456050949
 20
84.011130414
 30
0.0
 10
147.8945429316
 20
83.9719979264
 30
0.0
 10
147.864818984
 20
83.9548323391
 30
0.0
  0
SPLINE
  5
671
100
AcDbEntity
  8
0
100
AcDbSpline
 62
7
  6
CONTINUOUS
 70
0
 71
3
 72
9
 73
5
 74
0
 42
0.0000001
 43
0.0000001
 44
0.0000000001
 40
0.0
 40
0.0
 40
0.0
 40
0.0
 40
0.2208880775
 40
1.0
 40
1.0
 40
1.0
 40
1.0
 10
147.4310370978
 20
83.9548899673
 30
0.0
 10
147.4310333908
 20
83.9617321803
 30
0.0
 10
147.4365713103
 20
83.9929212901
 30
0.0
 10
147.4627646367
 20
84.016193307
 30
0.0
 10
147.4836636702
 20
84.0282625546
 30
0.0
  0
SPLINE
  5
672
100
AcDbEntity
  8
7_ALL_ROUNDS
100
AcDbSpline
 62
7
  6
CONTINUOUS
 70
0
 71
3
 72
9
 73
5
 74
0
 42
0.0000001
 43
0.0000001
 44
0.0000000001
 40
0.0
 40
0.0
 40
0.0
 40
0.0
 40
0.2321255004
 40
1.0
 40
1.0
 40
1.0
 40
1.0
 10
147.5639210855
 20
91.4992182753
 30
0.0
 10
147.5465789176
 20
91.5092334026
 30
0.0
 10
147.4660069237
 20
91.5415189806
 30
0.0
 10
147.3733322112
 20
91.5411645589
 30
0.0
 10
147.3097790855
 20
91.5224639441
 30
0.0
  0
SPLINE
  5
673
100
AcDbEntity
  8
0
100
AcDbSpline
 62
7
  6
CONTINUOUS
 70
0
 71
3
 72
8
 73
4
 74
0
 42
0.0000001
 43
0.0000001
 44
0.0000000001
 40
0.0
 40
0.0
 40
0.0
 40
0.0
 40
1.0
 40
1.0
 40
1.0
 40
1.0
 10
148.7071546602
 20
63.3192209491
 30
0.0
 10
148.7078599014
 20
63.3120116191
 30
0.0
 10
148.708160518
 20
63.3047567559
 30
0.0
 10
148.7081605263
 20
63.2975130135
 30
0.0
  0
SPLINE
  5
674
100
AcDbEntity
  8
7_ALL_ROUNDS
100
AcDbSpline
 62
7
  6
CONTINUOUS
 70
0
 71
3
 72
9
 73
5
 74
0
 42
0.0000001
 43
0.0000001
 44
0.0000000001
 40
0.0
 40
0.0
 40
0.0
 40
0.0
 40
0.4629203976
 40
1.0
 40
1.0
 40
1.0
 40
1.0
 10
152.6820695837
 20
88.4199583261
 30
0.0
 10
152.6997142434
 20
88.4399569676
 30
0.0
 10
152.7201910434
 20
88.5069487026
 30
0.0
 10
152.6686125056
 20
88.5512515162
 30
0.0
 10
152.6418174452
 20
88.5667257027
 30
0.0
  0
SPLINE
  5
675
100
AcDbEntity
  8
0
100
AcDbSpline
 62
7
  6
CONTINUOUS
 70
0
 71
3
 72
8
 73
4
 74
0
 42
0.0000001
 43
0.0000001
 44
0.0000000001
 40
0.0
 40
0.0
 40
0.0
 40
0.0
 40
1.0
 40
1.0
 40
1.0
 40
1.0
 10
148.7071546602
 20
82.8393313681
 30
0.0
 10
148.7078599014
 20
82.8321220381
 30
0.0
 10
148.708160518
 20
82.8248671748
 30
0.0
 10
148.7081605263
 20
82.8176234324
 30
0.0
  0
SPLINE
  5
676
100
AcDbEntity
  8
0
100
AcDbSpline
 62
7
  6
CONTINUOUS
 70
0
 71
3
 72
8
 73
4
 74
0
 42
0.0000001
 43
0.0000001
 44
0.0000000001
 40
0.0
 40
0.0
 40
0.0
 40
0.0
 40
1.0
 40
1.0
 40
1.0
 40
1.0
 10
137.056162141
 20
66.6542865583
 30
0.0
 10
137.056162141
 20
66.5763323659
 30
0.0
 10
137.0674854518
 20
66.4977135722
 30
0.0
 10
137.0886788932
 20
66.4226956134
 30
0.0
  0
SPLINE
  5
677
100
AcDbEntity
  8
0
100
AcDbSpline
 62
7
  6
CONTINUOUS
 70
0
 71
3
 72
9
 73
5
 74
0
 42
0.0000001
 43
0.0000001
 44
0.0000000001
 40
0.0
 40
0.0
 40
0.0
 40
0.0
 40
0.2372733899
 40
1.0
 40
1.0
 40
1.0
 40
1.0
 10
137.0886788932
 20
66.4226956134
 30
0.0
 10
137.0993162843
 20
66.385042674
 30
0.0
 10
137.1545490668
 20
66.2292757846
 30
0.0
 10
137.2492394712
 20
66.0892173027
 30
0.0
 10
137.3330112347
 20
65.9954007567
 30
0.0
  0
SPLINE
  5
678
100
AcDbEntity
  8
3_ALL_AXES
100
AcDbSpline
 62
7
  6
CONTINUOUS
 70
0
 71
3
 72
8
 73
4
 74
0
 42
0.0000001
 43
0.0000001
 44
0.0000000001
 40
0.0
 40
0.0
 40
0.0
 40
0.0
 40
1.0
 40
1.0
 40
1.0
 40
1.0
 10
141.631816085
 20
85.4313697626
 30
0.0
 10
141.6221527214
 20
85.4369503691
 30
0.0
 10
141.6006174639
 20
85.4416015373
 30
0.0
 10
141.5983462072
 20
85.4306761011
 30
0.0
  0
SPLINE
  5
679
100
AcDbEntity
  8
3_ALL_AXES
100
AcDbSpline
 62
7
  6
CONTINUOUS
 70
0
 71
3
 72
9
 73
5
 74
0
 42
0.0000001
 43
0.0000001
 44
0.0000000001
 40
0.0
 40
0.0
 40
0.0
 40
0.0
 40
0.233550677
 40
1.0
 40
1.0
 40
1.0
 40
1.0
 10
141.1905930416
 20
86.292873548
 30
0.0
 10
141.1725129352
 20
86.3027819452
 30
0.0
 10
141.0896214609
 20
86.33450399
 30
0.0
 10
140.995091332
 20
86.3337779055
 30
0.0
 10
140.930183197
 20
86.3146785769
 30
0.0
  0
SPLINE
  5
67A
100
AcDbEntity
  8
7_ALL_ROUNDS
100
AcDbSpline
 62
7
  6
CONTINUOUS
 70
0
 71
3
 72
9
 73
5
 74
0
 42
0.0000001
 43
0.0000001
 44
0.0000000001
 40
0.0
 40
0.0
 40
0.0
 40
0.0
 40
0.5000500031
 40
1.0
 40
1.0
 40
1.0
 40
1.0
 10
145.3816150935
 20
61.125364735
 30
0.0
 10
145.7315517781
 20
61.0282400004
 30
0.0
 10
146.461765943
 20
60.9383476063
 30
0.0
 10
147.1919254601
 20
61.0287775351
 30
0.0
 10
147.5417071571
 20
61.1261885888
 30
0.0
  0
SPLINE
  5
67B
100
AcDbEntity
  8
7_ALL_ROUNDS
100
AcDbSpline
 62
7
  6
CONTINUOUS
 70
0
 71
3
 72
9
 73
5
 74
0
 42
0.0000001
 43
0.0000001
 44
0.0000000001
 40
0.0
 40
0.0
 40
0.0
 40
0.0
 40
0.3036507416
 40
1.0
 40
1.0
 40
1.0
 40
1.0
 10
145.3192545747
 20
61.1432994013
 30
0.0
 10
145.3192545747
 20
61.1340049754
 30
0.0
 10
145.3210719497
 20
61.1039203264
 30
0.0
 10
145.3341082157
 20
61.0712728488
 30
0.0
 10
145.3516513062
 20
61.0591671357
 30
0.0
  0
SPLINE
  5
67C
100
AcDbEntity
  8
7_ALL_ROUNDS
100
AcDbSpline
 62
7
  6
CONTINUOUS
 70
0
 71
3
 72
9
 73
5
 74
0
 42
0.0000001
 43
0.0000001
 44
0.0000000001
 40
0.0
 40
0.0
 40
0.0
 40
0.0
 40
0.2758677611
 40
1.0
 40
1.0
 40
1.0
 40
1.0
 10
137.3330112347
 20
65.7553666076
 30
0.0
 10
137.3330112347
 20
65.7479966609
 30
0.0
 10
137.3347471225
 20
65.7214161118
 30
0.0
 10
137.3450876545
 20
65.694630916
 30
0.0
 10
137.3579329745
 20
65.6801654954
 30
0.0
  0
SPLINE
  5
67D
100
AcDbEntity
  8
7_ALL_ROUNDS
100
AcDbSpline
 62
7
  6
CONTINUOUS
 70
0
 71
3
 72
9
 73
5
 74
0
 42
0.0000001
 43
0.0000001
 44
0.0000000001
 40
0.0
 40
0.0
 40
0.0
 40
0.0
 40
0.5086044265
 40
1.0
 40
1.0
 40
1.0
 40
1.0
 10
145.3192545747
 20
82.4983375383
 30
0.0
 10
145.3192545747
 20
82.5467916042
 30
0.0
 10
145.3485010752
 20
82.6408244042
 30
0.0
 10
145.4058765379
 20
82.7211818243
 30
0.0
 10
145.4436005492
 20
82.7489037627
 30
0.0
  0
SPLINE
  5
67E
100
AcDbEntity
  8
7_ALL_ROUNDS
100
AcDbSpline
 62
7
  6
CONTINUOUS
 70
0
 71
3
 72
9
 73
5
 74
0
 42
0.0000001
 43
0.0000001
 44
0.0000000001
 40
0.0
 40
0.0
 40
0.0
 40
0.0
 40
0.4999999995
 40
1.0
 40
1.0
 40
1.0
 40
1.0
 10
147.6011043871
 20
82.4983375383
 30
0.0
 10
147.2330541672
 20
82.3887322582
 30
0.0
 10
146.4601794813
 20
82.2881998175
 30
0.0
 10
145.6873047952
 20
82.388732258
 30
0.0
 10
145.3192545747
 20
82.4983375383
 30
0.0
  0
SPLINE
  5
67F
100
AcDbEntity
  8
7_ALL_ROUNDS
100
AcDbSpline
 62
7
  6
CONTINUOUS
 70
0
 71
3
 72
9
 73
5
 74
0
 42
0.0000001
 43
0.0000001
 44
0.0000000001
 40
0.0
 40
0.0
 40
0.0
 40
0.0
 40
0.5110183951
 40
1.0
 40
1.0
 40
1.0
 40
1.0
 10
147.6011043871
 20
82.4983375383
 30
0.0
 10
147.6011043871
 20
82.5466820779
 30
0.0
 10
147.5740981993
 20
82.6401040311
 30
0.0
 10
147.5206555223
 20
82.7222067144
 30
0.0
 10
147.4845635144
 20
82.7511434172
 30
0.0
  0
SPLINE
  5
680
100
AcDbEntity
  8
7_ALL_ROUNDS
100
AcDbSpline
 62
7
  6
CONTINUOUS
 70
0
 71
3
 72
9
 73
5
 74
0
 42
0.0000001
 43
0.0000001
 44
0.0000000001
 40
0.0
 40
0.0
 40
0.0
 40
0.0
 40
0.5001459697
 40
1.0
 40
1.0
 40
1.0
 40
1.0
 10
145.4436005492
 20
82.7489037627
 30
0.0
 10
145.7737727921
 20
82.6546130009
 30
0.0
 10
146.4643732236
 20
82.5680304082
 30
0.0
 10
147.1548233126
 20
82.6560736871
 30
0.0
 10
147.4845635144
 20
82.7511434172
 30
0.0
  0
SPLINE
  5
681
100
AcDbEntity
  8
7_ALL_ROUNDS
100
AcDbSpline
 62
7
  6
CONTINUOUS
 70
0
 71
3
 72
9
 73
5
 74
0
 42
0.0000001
 43
0.0000001
 44
0.0000000001
 40
0.0
 40
0.0
 40
0.0
 40
0.0
 40
0.7629568117
 40
1.0
 40
1.0
 40
1.0
 40
1.0
 10
147.8840762487
 20
82.9818626054
 30
0.0
 10
147.9512504151
 20
82.9536777108
 30
0.0
 10
148.0249578219
 20
82.8716857939
 30
0.0
 10
148.0446305705
 20
82.7771075577
 30
0.0
 10
148.0446305705
 20
82.7544745578
 30
0.0
  0
SPLINE
  5
682
100
AcDbEntity
  8
7_ALL_ROUNDS
100
AcDbSpline
 62
7
  6
CONTINUOUS
 70
0
 71
3
 72
9
 73
5
 74
0
 42
0.0000001
 43
0.0000001
 44
0.0000000001
 40
0.0
 40
0.0
 40
0.0
 40
0.0
 40
0.2611932963
 40
1.0
 40
1.0
 40
1.0
 40
1.0
 10
152.6820695837
 20
88.4199583261
 30
0.0
 10
152.7057470644
 20
88.4129911874
 30
0.0
 10
152.7909044007
 20
88.3723135563
 30
0.0
 10
152.8567182079
 20
88.2783578529
 30
0.0
 10
152.8567182079
 20
88.208544908
 30
0.0
  0
SPLINE
  5
683
100
AcDbEntity
  8
7_ALL_ROUNDS
100
AcDbSpline
 62
7
  6
CONTINUOUS
 70
0
 71
3
 72
9
 73
5
 74
0
 42
0.0000001
 43
0.0000001
 44
0.0000000001
 40
0.0
 40
0.0
 40
0.0
 40
0.0
 40
0.2953793213
 40
1.0
 40
1.0
 40
1.0
 40
1.0
 10
152.6418174452
 20
88.5667257027
 30
0.0
 10
152.6504152743
 20
88.5716909615
 30
0.0
 10
152.6802362921
 20
88.5863776317
 30
0.0
 10
152.7193285538
 20
88.5882804129
 30
0.0
 10
152.7398385046
 20
88.5764359428
 30
0.0
  0
SPLINE
  5
684
100
AcDbEntity
  8
7_ALL_ROUNDS
100
AcDbSpline
 62
7
  6
CONTINUOUS
 70
0
 71
3
 72
9
 73
5
 74
0
 42
0.0000001
 43
0.0000001
 44
0.0000000001
 40
0.0
 40
0.0
 40
0.0
 40
0.0
 40
0.2953793153
 40
1.0
 40
1.0
 40
1.0
 40
1.0
 10
147.5639210855
 20
91.4992182753
 30
0.0
 10
147.5725189141
 20
91.5041835339
 30
0.0
 10
147.6023399308
 20
91.5188702042
 30
0.0
 10
147.6414321908
 20
91.5207729858
 30
0.0
 10
147.6619421418
 20
91.508928517
 30
0.0
  0
SPLINE
  5
685
100
AcDbEntity
  8
3_ALL_AXES
100
AcDbSpline
 62
7
  6
CONTINUOUS
 70
0
 71
3
 72
9
 73
5
 74
0
 42
0.0000001
 43
0.0000001
 44
0.0000000001
 40
0.0
 40
0.0
 40
0.0
 40
0.0
 40
0.4674899216
 40
1.0
 40
1.0
 40
1.0
 40
1.0
 10
140.1607333623
 20
75.315628871
 30
0.0
 10
140.4422948098
 20
75.4782630881
 30
0.0
 10
141.1448578355
 20
75.6644370951
 30
0.0
 10
141.8459557046
 20
75.5331782911
 30
0.0
 10
142.1974430263
 20
75.41639515
 30
0.0
  0
SPLINE
  5
686
100
AcDbEntity
  8
3_ALL_AXES
100
AcDbSpline
 62
7
  6
CONTINUOUS
 70
0
 71
3
 72
11
 73
7
 74
0
 42
0.0000001
 43
0.0000001
 44
0.0000000001
 40
0.0
 40
0.0
 40
0.0
 40
0.0
 40
0.2185242323
 40
0.4520324427
 40
0.710972946
 40
1.0
 40
1.0
 40
1.0
 40
1.0
 10
140.2894354491
 20
75.0956893751
 30
0.0
 10
140.467919168
 20
75.198611818
 30
0.0
 10
140.8767566516
 20
75.3484030041
 30
0.0
 10
141.5556578604
 20
75.3708638638
 30
0.0
 10
142.2800284681
 20
75.2043923886
 30
0.0
 10
142.7521721211
 20
74.9864150093
 30
0.0
 10
142.9898116549
 20
74.8530485539
 30
0.0
  0
SPLINE
  5
687
100
AcDbEntity
  8
3_ALL_AXES
100
AcDbSpline
 62
7
  6
CONTINUOUS
 70
0
 71
3
 72
9
 73
5
 74
0
 42
0.0000001
 43
0.0000001
 44
0.0000000001
 40
0.0
 40
0.0
 40
0.0
 40
0.0
 40
0.5476883972
 40
1.0
 40
1.0
 40
1.0
 40
1.0
 10
141.566617736
 20
85.4188243848
 30
0.0
 10
141.5639452679
 20
85.4172810306
 30
0.0
 10
141.5595590239
 20
85.4138823768
 30
0.0
 10
141.5559281256
 20
85.4088463148
 30
0.0
 10
141.5558069694
 20
85.4063005208
 30
0.0
  0
SPLINE
  5
688
100
AcDbEntity
  8
7_ALL_ROUNDS
100
AcDbSpline
 62
7
  6
CONTINUOUS
 70
0
 71
3
 72
9
 73
5
 74
0
 42
0.0000001
 43
0.0000001
 44
0.0000000001
 40
0.0
 40
0.0
 40
0.0
 40
0.0
 40
0.327721832
 40
1.0
 40
1.0
 40
1.0
 40
1.0
 10
147.3097790855
 20
91.5224639441
 30
0.0
 10
147.3051925323
 20
91.5276623914
 30
0.0
 10
147.2909651908
 20
91.5423872428
 30
0.0
 10
147.2680868733
 20
91.5545091105
 30
0.0
 10
147.2544485142
 20
91.5504794232
 30
0.0
  0
SPLINE
  5
689
100
AcDbEntity
  8
7_ALL_ROUNDS
100
AcDbSpline
 62
7
  6
CONTINUOUS
 70
0
 71
3
 72
9
 73
5
 74
0
 42
0.0000001
 43
0.0000001
 44
0.0000000001
 40
0.0
 40
0.0
 40
0.0
 40
0.0
 40
0.4761583704
 40
1.0
 40
1.0
 40
1.0
 40
1.0
 10
137.0561781686
 20
66.4142524091
 30
0.0
 10
137.0561781685
 20
66.2988603897
 30
0.0
 10
137.109463297
 20
66.0546235899
 30
0.0
 10
137.2484582319
 20
65.8500580686
 30
0.0
 10
137.3330112347
 20
65.7553666076
 30
0.0
  0
SPLINE
  5
68A
100
AcDbEntity
  8
3_ALL_AXES
100
AcDbSpline
 62
7
  6
CONTINUOUS
 70
0
 71
3
 72
8
 73
4
 74
0
 42
0.0000001
 43
0.0000001
 44
0.0000000001
 40
0.0
 40
0.0
 40
0.0
 40
0.0
 40
1.0
 40
1.0
 40
1.0
 40
1.0
 10
143.6319722611
 20
84.7452396432
 30
0.0
 10
143.643977301
 20
84.7588462808
 30
0.0
 10
143.6528677066
 20
84.7773622436
 30
0.0
 10
143.6528640204
 20
84.7955078095
 30
0.0
  0
SPLINE
  5
68B
100
AcDbEntity
  8
7_ALL_ROUNDS
100
AcDbSpline
 62
7
  6
CONTINUOUS
 70
0
 71
3
 72
9
 73
5
 74
0
 42
0.0000001
 43
0.0000001
 44
0.0000000001
 40
0.0
 40
0.0
 40
0.0
 40
0.0
 40
0.3026126613
 40
1.0
 40
1.0
 40
1.0
 40
1.0
 10
137.893186961
 20
88.7516157776
 30
0.0
 10
137.8870705951
 20
88.7564774479
 30
0.0
 10
137.8662770435
 20
88.7711317045
 30
0.0
 10
137.8379504115
 20
88.7796423709
 30
0.0
 10
137.8206727405
 20
88.774573407
 30
0.0
  0
SPLINE
  5
68C
100
AcDbEntity
  8
7_ALL_ROUNDS
100
AcDbSpline
 62
7
  6
CONTINUOUS
 70
0
 71
3
 72
9
 73
5
 74
0
 42
0.0000001
 43
0.0000001
 44
0.0000000001
 40
0.0
 40
0.0
 40
0.0
 40
0.0
 40
0.2835661085
 40
1.0
 40
1.0
 40
1.0
 40
1.0
 10
137.4936742267
 20
88.5208965894
 30
0.0
 10
137.4835685192
 20
88.5251003202
 30
0.0
 10
137.4472048617
 20
88.5372439722
 30
0.0
 10
137.4038977041
 20
88.5353809727
 30
0.0
 10
137.3799520194
 20
88.5215498704
 30
0.0
  0
SPLINE
  5
68D
100
AcDbEntity
  8
7_ALL_ROUNDS
100
AcDbSpline
 62
7
  6
CONTINUOUS
 70
0
 71
3
 72
9
 73
5
 74
0
 42
0.0000001
 43
0.0000001
 44
0.0000000001
 40
0.0
 40
0.0
 40
0.0
 40
0.0
 40
0.2660555858
 40
1.0
 40
1.0
 40
1.0
 40
1.0
 10
137.3330112347
 20
87.1104047445
 30
0.0
 10
137.3035353956
 20
87.1434149297
 30
0.0
 10
137.1986890945
 20
87.2724382914
 30
0.0
 10
137.1200524536
 20
87.4244426809
 30
0.0
 10
137.087445554
 20
87.5420898217
 30
0.0
  0
SPLINE
  5
68E
100
AcDbEntity
  8
7_ALL_ROUNDS
100
AcDbSpline
 62
7
  6
CONTINUOUS
 70
0
 71
3
 72
8
 73
4
 74
0
 42
0.0000001
 43
0.0000001
 44
0.0000000001
 40
0.0
 40
0.0
 40
0.0
 40
0.0
 40
1.0
 40
1.0
 40
1.0
 40
1.0
 10
137.087445554
 20
87.5420898217
 30
0.0
 10
137.0670272436
 20
87.615759992
 30
0.0
 10
137.0561781698
 20
87.6928431562
 30
0.0
 10
137.0561781686
 20
87.7692905328
 30
0.0
  0
LINE
  5
68F
100
AcDbEntity
  8
3_ALL_AXES
100
AcDbLine
 62
7
  6
CONTINUOUS
 10
141.0386702596
 20
64.1483467844
 11
141.0716455581
 21
64.129738205
  0
LINE
  5
690
100
AcDbEntity
  8
3_ALL_AXES
100
AcDbLine
 62
7
  6
CONTINUOUS
 10
141.4418508504
 20
63.9189769597
 11
141.474535326
 21
63.9002048557
  0
LINE
  5
691
100
AcDbEntity
  8
3_ALL_AXES
100
AcDbLine
 62
7
  6
CONTINUOUS
 10
141.6343658962
 20
63.8080180445
 11
141.6498162236
 21
63.7990722163
  0
LINE
  5
692
100
AcDbEntity
  8
3_ALL_AXES
100
AcDbLine
 62
7
  6
CONTINUOUS
 10
141.6498162236
 20
63.7990722163
 11
141.7718118037
 21
63.7282216032
  0
LINE
  5
693
100
AcDbEntity
  8
3_ALL_AXES
100
AcDbLine
 62
7
  6
CONTINUOUS
 10
141.7718118037
 20
63.7282216032
 11
141.7769158311
 21
63.7252490453
  0
LINE
  5
694
100
AcDbEntity
  8
3_ALL_AXES
100
AcDbLine
 62
7
  6
CONTINUOUS
 10
141.7769158311
 20
63.7252490453
 11
141.7888594626
 21
63.7182905184
  0
LINE
  5
695
100
AcDbEntity
  8
3_ALL_AXES
100
AcDbLine
 62
7
  6
CONTINUOUS
 10
141.7888594626
 20
63.7182905184
 11
141.8011408329
 21
63.7111313887
  0
LINE
  5
696
100
AcDbEntity
  8
3_ALL_AXES
100
AcDbLine
 62
7
  6
CONTINUOUS
 10
142.0788319447
 20
63.5482139811
 11
142.1596981932
 21
63.5003918178
  0
LINE
  5
697
100
AcDbEntity
  8
3_ALL_AXES
100
AcDbLine
 62
7
  6
CONTINUOUS
 10
142.1596981932
 20
63.5003918178
 11
142.1718788654
 21
63.4931735475
  0
LINE
  5
698
100
AcDbEntity
  8
3_ALL_AXES
100
AcDbLine
 62
7
  6
CONTINUOUS
 10
142.1718788654
 20
63.4931735475
 11
142.2143591404
 21
63.4679690138
  0
LINE
  5
699
100
AcDbEntity
  8
3_ALL_AXES
100
AcDbLine
 62
7
  6
CONTINUOUS
 10
142.2143591404
 20
63.4679690138
 11
142.2186323502
 21
63.4654309734
  0
LINE
  5
69A
100
AcDbEntity
  8
3_ALL_AXES
100
AcDbLine
 62
7
  6
CONTINUOUS
 10
142.2186323502
 20
63.4654309734
 11
142.2981490134
 21
63.4181141694
  0
LINE
  5
69B
100
AcDbEntity
  8
3_ALL_AXES
100
AcDbLine
 62
7
  6
CONTINUOUS
 10
142.2981490134
 20
63.4181141694
 11
142.3099542548
 21
63.4110750495
  0
LINE
  5
69C
100
AcDbEntity
  8
3_ALL_AXES
100
AcDbLine
 62
7
  6
CONTINUOUS
 10
142.3099542548
 20
63.4110750495
 11
142.3220931692
 21
63.4038330921
  0
LINE
  5
69D
100
AcDbEntity
  8
3_ALL_AXES
100
AcDbLine
 62
7
  6
CONTINUOUS
 10
142.3220931692
 20
63.4038330921
 11
142.3436412343
 21
63.3909680325
  0
LINE
  5
69E
100
AcDbEntity
  8
3_ALL_AXES
100
AcDbLine
 62
7
  6
CONTINUOUS
 10
142.3436412343
 20
63.3909680325
 11
142.3541301868
 21
63.3847012142
  0
LINE
  5
69F
100
AcDbEntity
  8
3_ALL_AXES
100
AcDbLine
 62
7
  6
CONTINUOUS
 10
142.3541301868
 20
63.3847012142
 11
142.3687648178
 21
63.3759525626
  0
LINE
  5
6A0
100
AcDbEntity
  8
3_ALL_AXES
100
AcDbLine
 62
7
  6
CONTINUOUS
 10
142.3687648178
 20
63.3759525626
 11
142.4445163133
 21
63.3305761053
  0
LINE
  5
6A1
100
AcDbEntity
  8
3_ALL_AXES
100
AcDbLine
 62
7
  6
CONTINUOUS
 10
142.4445163133
 20
63.3305761053
 11
142.4562426134
 21
63.3235380541
  0
LINE
  5
6A2
100
AcDbEntity
  8
3_ALL_AXES
100
AcDbLine
 62
7
  6
CONTINUOUS
 10
142.4562426134
 20
63.3235380541
 11
142.461662623
 21
63.3202837462
  0
LINE
  5
6A3
100
AcDbEntity
  8
3_ALL_AXES
100
AcDbLine
 62
7
  6
CONTINUOUS
 10
142.461662623
 20
63.3202837462
 11
142.4671892453
 21
63.3169646097
  0
LINE
  5
6A4
100
AcDbEntity
  8
3_ALL_AXES
100
AcDbLine
 62
7
  6
CONTINUOUS
 10
142.636612164
 20
63.2148125271
 11
142.6684268417
 21
63.195543026
  0
SPLINE
  5
6A5
100
AcDbEntity
  8
7_ALL_ROUNDS
100
AcDbSpline
 62
7
  6
CONTINUOUS
 70
0
 71
3
 72
9
 73
5
 74
0
 42
0.0000001
 43
0.0000001
 44
0.0000000001
 40
0.0
 40
0.0
 40
0.0
 40
0.0
 40
0.2382295764
 40
1.0
 40
1.0
 40
1.0
 40
1.0
 10
137.3330112347
 20
87.1104047445
 30
0.0
 10
137.3330112347
 20
87.1332346004
 30
0.0
 10
137.3522859245
 20
87.2280932591
 30
0.0
 10
137.4233202414
 20
87.3120682744
 30
0.0
 10
137.4897960469
 20
87.3422374927
 30
0.0
  0
SPLINE
  5
6A6
100
AcDbEntity
  8
7_ALL_ROUNDS
100
AcDbSpline
 62
7
  6
CONTINUOUS
 70
0
 71
3
 72
11
 73
7
 74
0
 42
0.0000001
 43
0.0000001
 44
0.0000000001
 40
0.0
 40
0.0
 40
0.0
 40
0.0
 40
0.2564075958
 40
0.4949628093
 40
0.7363318235
 40
1.0
 40
1.0
 40
1.0
 40
1.0
 10
137.4359321073
 20
88.4487499146
 30
0.0
 10
137.374928727
 20
88.3661005438
 30
0.0
 10
137.2774934261
 20
88.1888086423
 30
0.0
 10
137.2342850927
 20
87.8899350076
 30
0.0
 10
137.3075595171
 20
87.5942685316
 30
0.0
 10
137.4210900938
 20
87.4224739897
 30
0.0
 10
137.4897960469
 20
87.3422374927
 30
0.0
  0
SPLINE
  5
6A7
100
AcDbEntity
  8
7_ALL_ROUNDS
100
AcDbSpline
 62
7
  6
CONTINUOUS
 70
0
 71
3
 72
9
 73
5
 74
0
 42
0.0000001
 43
0.0000001
 44
0.0000000001
 40
0.0
 40
0.0
 40
0.0
 40
0.0
 40
0.271384859
 40
1.0
 40
1.0
 40
1.0
 40
1.0
 10
152.8567182071
 20
88.2085449071
 30
0.0
 10
152.8638533346
 20
88.2166319351
 30
0.0
 10
152.8880909041
 20
88.248057945
 30
0.0
 10
152.9019376688
 20
88.2883669438
 30
0.0
 10
152.9019341222
 20
88.3173217875
 30
0.0
  0
LINE
  5
6A8
100
AcDbEntity
  8
3_ALL_AXES
100
AcDbLine
 62
7
  6
CONTINUOUS
 10
140.9883002894
 20
64.0844491283
 11
140.9994689885
 21
64.0781413002
  0
LINE
  5
6A9
100
AcDbEntity
  8
3_ALL_AXES
100
AcDbLine
 62
7
  6
CONTINUOUS
 10
140.9994689885
 20
64.0781413002
 11
141.0324151941
 21
64.0595161217
  0
LINE
  5
6AA
100
AcDbEntity
  8
3_ALL_AXES
100
AcDbLine
 62
7
  6
CONTINUOUS
 10
141.4022259678
 20
63.8486026399
 11
141.4348799266
 21
63.8298142274
  0
LINE
  5
6AB
100
AcDbEntity
  8
3_ALL_AXES
100
AcDbLine
 62
7
  6
CONTINUOUS
 10
141.5931525877
 20
63.7383634506
 11
141.60857266
 21
63.729419465
  0
LINE
  5
6AC
100
AcDbEntity
  8
3_ALL_AXES
100
AcDbLine
 62
7
  6
CONTINUOUS
 10
141.7475244532
 20
63.6485486452
 11
141.7597986621
 21
63.6413810341
  0
LINE
  5
6AD
100
AcDbEntity
  8
3_ALL_AXES
100
AcDbLine
 62
7
  6
CONTINUOUS
 10
142.1180933969
 20
63.4304198985
 11
142.1302664746
 21
63.4231931326
  0
LINE
  5
6AE
100
AcDbEntity
  8
3_ALL_AXES
100
AcDbLine
 62
7
  6
CONTINUOUS
 10
142.1302664746
 20
63.4231931326
 11
142.1727243815
 21
63.397956419
  0
LINE
  5
6AF
100
AcDbEntity
  8
3_ALL_AXES
100
AcDbLine
 62
7
  6
CONTINUOUS
 10
142.1727243815
 20
63.397956419
 11
142.1769840798
 21
63.3954218337
  0
LINE
  5
6B0
100
AcDbEntity
  8
3_ALL_AXES
100
AcDbLine
 62
7
  6
CONTINUOUS
 10
142.1769840798
 20
63.3954218337
 11
142.2599820365
 21
63.3459401523
  0
LINE
  5
6B1
100
AcDbEntity
  8
3_ALL_AXES
100
AcDbLine
 62
7
  6
CONTINUOUS
 10
142.2599820365
 20
63.3459401523
 11
142.2704610567
 21
63.3396796754
  0
LINE
  5
6B2
100
AcDbEntity
  8
3_ALL_AXES
100
AcDbLine
 62
7
  6
CONTINUOUS
 10
142.2704610567
 20
63.3396796754
 11
142.2803647669
 21
63.3337601997
  0
LINE
  5
6B3
100
AcDbEntity
  8
3_ALL_AXES
100
AcDbLine
 62
7
  6
CONTINUOUS
 10
142.2803647669
 20
63.3337601997
 11
142.3018962082
 21
63.3208817139
  0
LINE
  5
6B4
100
AcDbEntity
  8
3_ALL_AXES
100
AcDbLine
 62
7
  6
CONTINUOUS
 10
142.3018962082
 20
63.3208817139
 11
142.3269925787
 21
63.3058552335
  0
LINE
  5
6B5
100
AcDbEntity
  8
3_ALL_AXES
100
AcDbLine
 62
7
  6
CONTINUOUS
 10
142.3269925787
 20
63.3058552335
 11
142.4144098604
 21
63.2533814715
  0
LINE
  5
6B6
100
AcDbEntity
  8
3_ALL_AXES
100
AcDbLine
 62
7
  6
CONTINUOUS
 10
142.4144098604
 20
63.2533814715
 11
142.4198178632
 21
63.250128438
  0
SPLINE
  5
6B7
100
AcDbEntity
  8
0
100
AcDbSpline
 62
7
  6
CONTINUOUS
 70
0
 71
3
 72
9
 73
5
 74
0
 42
0.0000001
 43
0.0000001
 44
0.0000000001
 40
0.0
 40
0.0
 40
0.0
 40
0.0
 40
0.5
 40
1.0
 40
1.0
 40
1.0
 40
1.0
 10
145.3192545747
 20
61.3833335505
 30
0.0
 10
145.6873052053
 20
61.2737281481
 30
0.0
 10
146.4601794809
 20
61.1731774401
 30
0.0
 10
147.2330537565
 20
61.2737281481
 30
0.0
 10
147.6011043871
 20
61.3833335505
 30
0.0
  0
SPLINE
  5
6B8
100
AcDbEntity
  8
3_ALL_AXES
100
AcDbSpline
 62
7
  6
CONTINUOUS
 70
0
 71
3
 72
11
 73
7
 74
0
 42
0.0000001
 43
0.0000001
 44
0.0000000001
 40
0.0
 40
0.0
 40
0.0
 40
0.0
 40
0.2185619487
 40
0.4520861133
 40
0.7110118593
 40
1.0
 40
1.0
 40
1.0
 40
1.0
 10
140.4168218346
 20
74.8749998975
 30
0.0
 10
140.5869002445
 20
74.9730753698
 30
0.0
 10
140.9764262675
 20
75.1158622409
 30
0.0
 10
141.6232600229
 20
75.137528253
 30
0.0
 10
142.3134461416
 20
74.9793015411
 30
0.0
 10
142.7633538184
 20
74.7719096351
 30
0.0
 10
142.9898089235
 20
74.6449988786
 30
0.0
  0
SPLINE
  5
6B9
100
AcDbEntity
  8
7_ALL_ROUNDS
100
AcDbSpline
 62
7
  6
CONTINUOUS
 70
0
 71
3
 72
9
 73
5
 74
0
 42
0.0000001
 43
0.0000001
 44
0.0000000001
 40
0.0
 40
0.0
 40
0.0
 40
0.0
 40
0.2021497647
 40
1.0
 40
1.0
 40
1.0
 40
1.0
 10
147.5668905083
 20
61.0572756853
 30
0.0
 10
147.5724449723
 20
61.0604841726
 30
0.0
 10
147.5964626557
 20
61.0825709645
 30
0.0
 10
147.6011043871
 20
61.1179822766
 30
0.0
 10
147.6011043871
 20
61.1432994013
 30
0.0
  0
SPLINE
  5
6BA
100
AcDbEntity
  8
3_ALL_AXES
100
AcDbSpline
 62
7
  6
CONTINUOUS
 70
0
 71
3
 72
16
 73
12
 74
0
 42
0.0000001
 43
0.0000001
 44
0.0000000001
 40
0.0
 40
0.0
 40
0.0
 40
0.0
 40
0.1287473048
 40
0.2704094502
 40
0.4176336425
 40
0.5620437106
 40
0.695770186
 40
0.8130812398
 40
0.9124811765
 40
0.9571258241
 40
1.0
 40
1.0
 40
1.0
 40
1.0
 10
142.5825594212
 20
64.8950236023
 30
0.0
 10
142.1146942391
 20
65.1652164291
 30
0.0
 10
141.2064856236
 20
65.864212263
 30
0.0
 10
140.0439466998
 20
67.1867238836
 30
0.0
 10
139.0870697953
 20
68.7431520726
 30
0.0
 10
138.4145775814
 20
70.4060615303
 30
0.0
 10
138.0814911351
 20
72.0433957918
 30
0.0
 10
138.1137853242
 20
73.5280315768
 30
0.0
 10
138.4793647164
 20
74.593138223
 30
0.0
 10
138.9700936643
 20
75.2138145262
 30
0.0
 10
139.2654317981
 20
75.4399264324
 30
0.0
 10
139.4212359308
 20
75.5299030437
 30
0.0
  0
LINE
  5
6BB
100
AcDbEntity
  8
7_ALL_ROUNDS
100
AcDbLine
 62
7
  6
CONTINUOUS
 10
137.4117749797
 20
65.7172021277
 11
137.3330112347
 21
65.7553666076
  0
LINE
  5
6BC
100
AcDbEntity
  8
7_ALL_ROUNDS
100
AcDbLine
 62
7
  6
CONTINUOUS
 10
143.1639580211
 20
62.5547870343
 11
143.1076521872
 21
62.5897811395
  0
LINE
  5
6BD
100
AcDbEntity
  8
7_ALL_ROUNDS
100
AcDbLine
 62
7
  6
CONTINUOUS
 10
139.9523914513
 20
64.4164058063
 11
139.8659881277
 21
64.462973208
  0
SPLINE
  5
6BE
100
AcDbEntity
  8
3_ALL_AXES
100
AcDbSpline
 62
7
  6
CONTINUOUS
 70
0
 71
3
 72
11
 73
7
 74
0
 42
0.0000001
 43
0.0000001
 44
0.0000000001
 40
0.0
 40
0.0
 40
0.0
 40
0.0
 40
0.217751611
 40
0.4509247102
 40
0.7101684765
 40
1.0
 40
1.0
 40
1.0
 40
1.0
 10
145.7438829116
 20
64.5816125748
 30
0.0
 10
145.5353599379
 20
64.461190926
 30
0.0
 10
145.0561570664
 20
64.28713452
 30
0.0
 10
144.2603121622
 20
64.2672799172
 30
0.0
 10
143.4119290511
 20
64.4719391079
 30
0.0
 10
142.8601070653
 20
64.734739432
 30
0.0
 10
142.5825594212
 20
64.8950236023
 30
0.0
  0
SPLINE
  5
6BF
100
AcDbEntity
  8
0
100
AcDbSpline
 62
7
  6
CONTINUOUS
 70
0
 71
3
 72
9
 73
5
 74
0
 42
0.0000001
 43
0.0000001
 44
0.0000000001
 40
0.0
 40
0.0
 40
0.0
 40
0.0
 40
0.2883907569
 40
1.0
 40
1.0
 40
1.0
 40
1.0
 10
139.7050305422
 20
88.5204345598
 30
0.0
 10
139.732827234
 20
88.53648719
 30
0.0
 10
139.8327733263
 20
88.5686392724
 30
0.0
 10
140.011717746
 20
88.5262667054
 30
0.0
 10
140.0117606572
 20
88.4470619798
 30
0.0
  0
SPLINE
  5
6C0
100
AcDbEntity
  8
7_ALL_ROUNDS
100
AcDbSpline
 62
7
  6
CONTINUOUS
 70
0
 71
3
 72
8
 73
4
 74
0
 42
0.0000001
 43
0.0000001
 44
0.0000000001
 40
0.0
 40
0.0
 40
0.0
 40
0.0
 40
1.0
 40
1.0
 40
1.0
 40
1.0
 10
143.1760475937
 20
84.2284898669
 30
0.0
 10
143.1647001514
 20
84.2156285573
 30
0.0
 10
143.1549519523
 20
84.2013235097
 30
0.0
 10
143.1462312021
 20
84.1865544119
 30
0.0
  0
SPLINE
  5
6C1
100
AcDbEntity
  8
7_ALL_ROUNDS
100
AcDbSpline
 62
7
  6
CONTINUOUS
 70
0
 71
3
 72
9
 73
5
 74
0
 42
0.0000001
 43
0.0000001
 44
0.0000000001
 40
0.0
 40
0.0
 40
0.0
 40
0.0
 40
0.2344131823
 40
1.0
 40
1.0
 40
1.0
 40
1.0
 10
143.1462312021
 20
84.1865544119
 30
0.0
 10
143.1389649269
 20
84.174248552
 30
0.0
 10
143.1110943709
 20
84.1199771894
 30
0.0
 10
143.092912579
 20
84.0606617391
 30
0.0
 10
143.0857815137
 20
84.0145356823
 30
0.0
  0
SPLINE
  5
6C2
100
AcDbEntity
  8
7_ALL_ROUNDS
100
AcDbSpline
 62
7
  6
CONTINUOUS
 70
0
 71
3
 72
8
 73
4
 74
0
 42
0.0000001
 43
0.0000001
 44
0.0000000001
 40
0.0
 40
0.0
 40
0.0
 40
0.0
 40
1.0
 40
1.0
 40
1.0
 40
1.0
 10
143.0857815137
 20
84.0145356823
 30
0.0
 10
143.0830525861
 20
83.9968840884
 30
0.0
 10
143.0813495923
 20
83.9789966914
 30
0.0
 10
143.0813495923
 20
83.9611353977
 30
0.0
  0
SPLINE
  5
6C3
100
AcDbEntity
  8
0
100
AcDbSpline
 62
7
  6
CONTINUOUS
 70
0
 71
3
 72
9
 73
5
 74
0
 42
0.0000001
 43
0.0000001
 44
0.0000000001
 40
0.0
 40
0.0
 40
0.0
 40
0.0
 40
0.2883907569
 40
1.0
 40
1.0
 40
1.0
 40
1.0
 10
149.1811664155
 20
89.5007448773
 30
0.0
 10
149.2089631072
 20
89.5167975074
 30
0.0
 10
149.3089091996
 20
89.5489495898
 30
0.0
 10
149.4878536192
 20
89.5065770229
 30
0.0
 10
149.4878965305
 20
89.4273722972
 30
0.0
  0
SPLINE
  5
6C4
100
AcDbEntity
  8
7_ALL_ROUNDS
100
AcDbSpline
 62
7
  6
CONTINUOUS
 70
0
 71
3
 72
8
 73
4
 74
0
 42
0.0000001
 43
0.0000001
 44
0.0000000001
 40
0.0
 40
0.0
 40
0.0
 40
0.0
 40
1.0
 40
1.0
 40
1.0
 40
1.0
 10
140.0236311236
 20
86.0479240953
 30
0.0
 10
139.9464687678
 20
86.0252189416
 30
0.0
 10
139.8717767587
 20
85.9604709362
 30
0.0
 10
139.8464338901
 20
85.8841342336
 30
0.0
  0
SPLINE
  5
6C5
100
AcDbEntity
  8
7_ALL_ROUNDS
100
AcDbSpline
 62
7
  6
CONTINUOUS
 70
0
 71
3
 72
8
 73
4
 74
0
 42
0.0000001
 43
0.0000001
 44
0.0000000001
 40
0.0
 40
0.0
 40
0.0
 40
0.0
 40
1.0
 40
1.0
 40
1.0
 40
1.0
 10
139.8464338901
 20
85.8841342336
 30
0.0
 10
139.8410071293
 20
85.8677879772
 30
0.0
 10
139.8377351755
 20
85.8504246575
 30
0.0
 10
139.8377351755
 20
85.833201132
 30
0.0
  0
SPLINE
  5
6C6
100
AcDbEntity
  8
0
100
AcDbSpline
 62
7
  6
CONTINUOUS
 70
0
 71
3
 72
9
 73
5
 74
0
 42
0.0000001
 43
0.0000001
 44
0.0000000001
 40
0.0
 40
0.0
 40
0.0
 40
0.0
 40
0.2883907569
 40
1.0
 40
1.0
 40
1.0
 40
1.0
 10
145.2275462962
 20
87.2175234775
 30
0.0
 10
145.2553429879
 20
87.2335761076
 30
0.0
 10
145.3552890803
 20
87.26572819
 30
0.0
 10
145.5342335
 20
87.2233556231
 30
0.0
 10
145.5342764112
 20
87.1441508974
 30
0.0
  0
SPLINE
  5
6C7
100
AcDbEntity
  8
0
100
AcDbSpline
 62
7
  6
CONTINUOUS
 70
0
 71
3
 72
9
 73
5
 74
0
 42
0.0000001
 43
0.0000001
 44
0.0000000001
 40
0.0
 40
0.0
 40
0.0
 40
0.0
 40
0.2883907569
 40
1.0
 40
1.0
 40
1.0
 40
1.0
 10
147.4836636702
 20
84.0282625546
 30
0.0
 10
147.5114603619
 20
84.0443151848
 30
0.0
 10
147.6114064543
 20
84.0764672672
 30
0.0
 10
147.790350874
 20
84.0340947002
 30
0.0
 10
147.7903937852
 20
83.9548899746
 30
0.0
  0
SPLINE
  5
6C8
100
AcDbEntity
  8
0
100
AcDbSpline
 62
7
  6
CONTINUOUS
 70
0
 71
3
 72
9
 73
5
 74
0
 42
0.0000001
 43
0.0000001
 44
0.0000000001
 40
0.0
 40
0.0
 40
0.0
 40
0.0
 40
0.5148071429
 40
1.0
 40
1.0
 40
1.0
 40
1.0
 10
148.7081605263
 20
63.2975130135
 30
0.0
 10
148.7081605263
 20
63.254757729
 30
0.0
 10
148.6908510908
 20
63.1724086471
 30
0.0
 10
148.6563436491
 20
63.0947562799
 30
0.0
 10
148.6309219001
 20
63.0634915223
 30
0.0
  0
SPLINE
  5
6C9
100
AcDbEntity
  8
7_ALL_ROUNDS
100
AcDbSpline
 62
7
  6
CONTINUOUS
 70
0
 71
3
 72
8
 73
4
 74
0
 42
0.0000001
 43
0.0000001
 44
0.0000000001
 40
0.0
 40
0.0
 40
0.0
 40
0.0
 40
1.0
 40
1.0
 40
1.0
 40
1.0
 10
143.0813495923
 20
62.6060972607
 30
0.0
 10
143.0813495923
 20
62.5915771434
 30
0.0
 10
143.082417133
 20
62.5768885402
 30
0.0
 10
143.0857769519
 20
62.5627624853
 30
0.0
  0
SPLINE
  5
6CA
100
AcDbEntity
  8
7_ALL_ROUNDS
100
AcDbSpline
 62
7
  6
CONTINUOUS
 70
0
 71
3
 72
8
 73
4
 74
0
 42
0.0000001
 43
0.0000001
 44
0.0000000001
 40
0.0
 40
0.0
 40
0.0
 40
0.0
 40
1.0
 40
1.0
 40
1.0
 40
1.0
 10
143.0857769519
 20
62.5627624853
 30
0.0
 10
143.0882772464
 20
62.5522502229
 30
0.0
 10
143.092146719
 20
62.5415403505
 30
0.0
 10
143.0989438188
 20
62.5331404357
 30
0.0
  0
SPLINE
  5
6CB
100
AcDbEntity
  8
7_ALL_ROUNDS
100
AcDbSpline
 62
7
  6
CONTINUOUS
 70
0
 71
3
 72
9
 73
5
 74
0
 42
0.0000001
 43
0.0000001
 44
0.0000000001
 40
0.0
 40
0.0
 40
0.0
 40
0.0
 40
0.5167286582
 40
1.0
 40
1.0
 40
1.0
 40
1.0
 10
143.0989438188
 20
62.5331404357
 30
0.0
 10
143.1002495883
 20
62.5315267544
 30
0.0
 10
143.103004017
 20
62.5285773521
 30
0.0
 10
143.106222167
 20
62.5261319849
 30
0.0
 10
143.1078727625
 20
62.5251099285
 30
0.0
  0
SPLINE
  5
6CC
100
AcDbEntity
  8
0
100
AcDbSpline
 62
7
  6
CONTINUOUS
 70
0
 71
3
 72
9
 73
5
 74
0
 42
0.0000001
 43
0.0000001
 44
0.0000000001
 40
0.0
 40
0.0
 40
0.0
 40
0.0
 40
0.5148071429
 40
1.0
 40
1.0
 40
1.0
 40
1.0
 10
148.7081605263
 20
82.8176234324
 30
0.0
 10
148.7081605263
 20
82.774868148
 30
0.0
 10
148.6908510908
 20
82.6925190661
 30
0.0
 10
148.6563436491
 20
82.6148666989
 30
0.0
 10
148.6309219001
 20
82.5836019412
 30
0.0
  0
SPLINE
  5
6CD
100
AcDbEntity
  8
7_ALL_ROUNDS
100
AcDbSpline
 62
7
  6
CONTINUOUS
 70
0
 71
3
 72
8
 73
4
 74
0
 42
0.0000001
 43
0.0000001
 44
0.0000000001
 40
0.0
 40
0.0
 40
0.0
 40
0.0
 40
1.0
 40
1.0
 40
1.0
 40
1.0
 10
139.8377351755
 20
64.478162995
 30
0.0
 10
139.8377351755
 20
64.4626265283
 30
0.0
 10
139.840502256
 20
64.4467340861
 30
0.0
 10
139.8464249281
 20
64.4323708082
 30
0.0
  0
SPLINE
  5
6CE
100
AcDbEntity
  8
7_ALL_ROUNDS
100
AcDbSpline
 62
7
  6
CONTINUOUS
 70
0
 71
3
 72
8
 73
4
 74
0
 42
0.0000001
 43
0.0000001
 44
0.0000000001
 40
0.0
 40
0.0
 40
0.0
 40
0.0
 40
1.0
 40
1.0
 40
1.0
 40
1.0
 10
139.8464249281
 20
64.4323708082
 30
0.0
 10
139.8521536902
 20
64.4184777883
 30
0.0
 10
139.8611703155
 20
64.4055618892
 30
0.0
 10
139.8722697631
 20
64.3954308981
 30
0.0
  0
SPLINE
  5
6CF
100
AcDbEntity
  8
7_ALL_ROUNDS
100
AcDbSpline
 62
7
  6
CONTINUOUS
 70
0
 71
3
 72
8
 73
4
 74
0
 42
0.0000001
 43
0.0000001
 44
0.0000000001
 40
0.0
 40
0.0
 40
0.0
 40
0.0
 40
1.0
 40
1.0
 40
1.0
 40
1.0
 10
139.8722697631
 20
64.3954308981
 30
0.0
 10
139.8789516517
 20
64.3893320221
 30
0.0
 10
139.8864852591
 20
64.3840792752
 30
0.0
 10
139.8944527568
 20
64.3797940795
 30
0.0
  0
SPLINE
  5
6D0
100
AcDbEntity
  8
3_ALL_AXES
100
AcDbSpline
 62
7
  6
CONTINUOUS
 70
0
 71
3
 72
9
 73
5
 74
0
 42
0.0000001
 43
0.0000001
 44
0.0000000001
 40
0.0
 40
0.0
 40
0.0
 40
0.0
 40
0.5476883972
 40
1.0
 40
1.0
 40
1.0
 40
1.0
 10
142.3482032724
 20
84.9909846533
 30
0.0
 10
142.3455308043
 20
84.9925280075
 30
0.0
 10
142.3411445603
 20
84.9959266613
 30
0.0
 10
142.3375136621
 20
85.0009627232
 30
0.0
 10
142.3373925058
 20
85.0035085172
 30
0.0
  0
SPLINE
  5
6D1
100
AcDbEntity
  8
3_ALL_AXES
100
AcDbSpline
 62
7
  6
CONTINUOUS
 70
0
 71
3
 72
8
 73
4
 74
0
 42
0.0000001
 43
0.0000001
 44
0.0000000001
 40
0.0
 40
0.0
 40
0.0
 40
0.0
 40
1.0
 40
1.0
 40
1.0
 40
1.0
 10
142.2839497267
 20
85.1332567611
 30
0.0
 10
142.2703876219
 20
85.1254246258
 30
0.0
 10
142.2571262802
 20
85.1170200629
 30
0.0
 10
142.2444090372
 20
85.1078797805
 30
0.0
  0
SPLINE
  5
6D2
100
AcDbEntity
  8
3_ALL_AXES
100
AcDbSpline
 62
7
  6
CONTINUOUS
 70
0
 71
3
 72
8
 73
4
 74
0
 42
0.0000001
 43
0.0000001
 44
0.0000000001
 40
0.0
 40
0.0
 40
0.0
 40
0.0
 40
1.0
 40
1.0
 40
1.0
 40
1.0
 10
142.2444090372
 20
85.1078797805
 30
0.0
 10
142.2335560975
 20
85.1000794314
 30
0.0
 10
142.2229825101
 20
85.0917593477
 30
0.0
 10
142.2134937484
 20
85.0823468481
 30
0.0
  0
SPLINE
  5
6D3
100
AcDbEntity
  8
3_ALL_AXES
100
AcDbSpline
 62
7
  6
CONTINUOUS
 70
0
 71
3
 72
8
 73
4
 74
0
 42
0.0000001
 43
0.0000001
 44
0.0000000001
 40
0.0
 40
0.0
 40
0.0
 40
0.0
 40
1.0
 40
1.0
 40
1.0
 40
1.0
 10
142.2134937484
 20
85.0823468481
 30
0.0
 10
142.2057416165
 20
85.0746570209
 30
0.0
 10
142.1985927693
 20
85.0660978079
 30
0.0
 10
142.1933297154
 20
85.0565307155
 30
0.0
  0
SPLINE
  5
6D4
100
AcDbEntity
  8
3_ALL_AXES
100
AcDbSpline
 62
7
  6
CONTINUOUS
 70
0
 71
3
 72
9
 73
5
 74
0
 42
0.0000001
 43
0.0000001
 44
0.0000000001
 40
0.0
 40
0.0
 40
0.0
 40
0.0
 40
0.5048410593
 40
1.0
 40
1.0
 40
1.0
 40
1.0
 10
142.1933297154
 20
85.0565307155
 30
0.0
 10
142.192540655
 20
85.0550963747
 30
0.0
 10
142.1910606049
 20
85.0522085545
 30
0.0
 10
142.1897832551
 20
85.0492239772
 30
0.0
 10
142.1892146673
 20
85.0477223619
 30
0.0
  0
SPLINE
  5
6D5
100
AcDbEntity
  8
3_ALL_AXES
100
AcDbSpline
 62
7
  6
CONTINUOUS
 70
0
 71
3
 72
9
 73
5
 74
0
 42
0.0000001
 43
0.0000001
 44
0.0000000001
 40
0.0
 40
0.0
 40
0.0
 40
0.0
 40
0.2545093957
 40
1.0
 40
1.0
 40
1.0
 40
1.0
 10
142.5423268288
 20
85.1769761486
 30
0.0
 10
142.5229134134
 20
85.1881874244
 30
0.0
 10
142.4338362153
 20
85.2108093345
 30
0.0
 10
142.3465891864
 20
85.1694311408
 30
0.0
 10
142.2897248072
 20
85.1365918786
 30
0.0
  0
SPLINE
  5
6D6
100
AcDbEntity
  8
3_ALL_AXES
100
AcDbSpline
 62
7
  6
CONTINUOUS
 70
0
 71
3
 72
8
 73
4
 74
0
 42
0.0000001
 43
0.0000001
 44
0.0000000001
 40
0.0
 40
0.0
 40
0.0
 40
0.0
 40
1.0
 40
1.0
 40
1.0
 40
1.0
 10
141.7699490807
 20
85.5106026207
 30
0.0
 10
141.7515807405
 20
85.5008811546
 30
0.0
 10
141.7336933302
 20
85.4874733445
 30
0.0
 10
141.722863881
 20
85.4697356485
 30
0.0
  0
SPLINE
  5
6D7
100
AcDbEntity
  8
3_ALL_AXES
100
AcDbSpline
 62
7
  6
CONTINUOUS
 70
0
 71
3
 72
9
 73
5
 74
0
 42
0.0000001
 43
0.0000001
 44
0.0000000001
 40
0.0
 40
0.0
 40
0.0
 40
0.0
 40
0.5083504959
 40
1.0
 40
1.0
 40
1.0
 40
1.0
 10
141.941829337
 20
85.5237643282
 30
0.0
 10
141.915612417
 20
85.5389046378
 30
0.0
 10
141.8513892922
 20
85.5495894542
 30
0.0
 10
141.7958281538
 20
85.5242991513
 30
0.0
 10
141.7699490807
 20
85.5106026207
 30
0.0
  0
SPLINE
  5
6D8
100
AcDbEntity
  8
3_ALL_AXES
100
AcDbSpline
 62
7
  6
CONTINUOUS
 70
0
 71
3
 72
15
 73
11
 74
0
 42
0.0000001
 43
0.0000001
 44
0.0000000001
 40
0.0
 40
0.0
 40
0.0
 40
0.0
 40
0.1257885345
 40
0.2638324983
 40
0.407905384
 40
0.5507876949
 40
0.6854487241
 40
0.8062514018
 40
0.9104198045
 40
1.0
 40
1.0
 40
1.0
 40
1.0
 10
143.0445658622
 20
65.1618329975
 30
0.0
 10
142.6063809328
 20
65.414885435
 30
0.0
 10
141.7526145102
 20
66.0611409997
 30
0.0
 10
140.6437708495
 20
67.280231961
 30
0.0
 10
139.7079315387
 20
68.7197464043
 30
0.0
 10
139.0138980484
 20
70.2751323889
 30
0.0
 10
138.6108801431
 20
71.8348876049
 30
0.0
 10
138.5300234662
 20
73.2911621515
 30
0.0
 10
138.7807554788
 20
74.5490431271
 30
0.0
 10
139.2078643667
 20
75.2328863612
 30
0.0
 10
139.4673837583
 20
75.482891964
 30
0.0
  0
SPLINE
  5
6D9
100
AcDbEntity
  8
3_ALL_AXES
100
AcDbSpline
 62
7
  6
CONTINUOUS
 70
0
 71
3
 72
9
 73
5
 74
0
 42
0.0000001
 43
0.0000001
 44
0.0000000001
 40
0.0
 40
0.0
 40
0.0
 40
0.0
 40
0.5476883972
 40
1.0
 40
1.0
 40
1.0
 40
1.0
 10
141.9027828626
 20
85.3957051568
 30
0.0
 10
141.9001103945
 20
85.3972485111
 30
0.0
 10
141.8957241505
 20
85.4006471648
 30
0.0
 10
141.8920932523
 20
85.4056832268
 30
0.0
 10
141.891972096
 20
85.4082290208
 30
0.0
  0
SPLINE
  5
6DA
100
AcDbEntity
  8
3_ALL_AXES
100
AcDbSpline
 62
7
  6
CONTINUOUS
 70
0
 71
3
 72
9
 73
5
 74
0
 42
0.0000001
 43
0.0000001
 44
0.0000000001
 40
0.0
 40
0.0
 40
0.0
 40
0.0
 40
0.2569673495
 40
1.0
 40
1.0
 40
1.0
 40
1.0
 10
139.14221586
 20
73.0838669161
 30
0.0
 10
139.1469141223
 20
73.1293048466
 30
0.0
 10
139.1679520148
 20
73.3058242978
 30
0.0
 10
139.200338091
 20
73.4810585087
 30
0.0
 10
139.2315848238
 20
73.6093956976
 30
0.0
  0
SPLINE
  5
6DB
100
AcDbEntity
  8
3_ALL_AXES
100
AcDbSpline
 62
7
  6
CONTINUOUS
 70
0
 71
3
 72
9
 73
5
 74
0
 42
0.0000001
 43
0.0000001
 44
0.0000000001
 40
0.0
 40
0.0
 40
0.0
 40
0.0
 40
0.5286790411
 40
1.0
 40
1.0
 40
1.0
 40
1.0
 10
139.2421235225
 20
73.6515414181
 30
0.0
 10
139.3225569208
 20
73.9648825275
 30
0.0
 10
139.5582974518
 20
74.5450207073
 30
0.0
 10
140.0157948683
 20
74.9863300622
 30
0.0
 10
140.2653805383
 20
75.1308392738
 30
0.0
  0
LINE
  5
6DC
100
AcDbEntity
  8
3_ALL_AXES
100
AcDbLine
 62
7
  6
CONTINUOUS
 10
140.2653805383
 20
75.1308392738
 11
140.2681854045
 21
75.1324600096
  0
SPLINE
  5
6DD
100
AcDbEntity
  8
3_ALL_AXES
100
AcDbSpline
 62
7
  6
CONTINUOUS
 70
0
 71
3
 72
8
 73
4
 74
0
 42
0.0000001
 43
0.0000001
 44
0.0000000001
 40
0.0
 40
0.0
 40
0.0
 40
0.0
 40
1.0
 40
1.0
 40
1.0
 40
1.0
 10
141.631816085
 20
85.4046993015
 30
0.0
 10
141.6221527214
 20
85.4102799081
 30
0.0
 10
141.6006174639
 20
85.4149310763
 30
0.0
 10
141.5983462072
 20
85.40400564
 30
0.0
  0
SPLINE
  5
6DE
100
AcDbEntity
  8
3_ALL_AXES
100
AcDbSpline
 62
7
  6
CONTINUOUS
 70
0
 71
3
 72
8
 73
4
 74
0
 42
0.0000001
 43
0.0000001
 44
0.0000000001
 40
0.0
 40
0.0
 40
0.0
 40
0.0
 40
1.0
 40
1.0
 40
1.0
 40
1.0
 10
142.0339002906
 20
85.1976018489
 30
0.0
 10
142.0242369271
 20
85.1920212424
 30
0.0
 10
142.0027016695
 20
85.1873700742
 30
0.0
 10
142.0004304129
 20
85.1982955104
 30
0.0
  0
SPLINE
  5
6DF
100
AcDbEntity
  8
3_ALL_AXES
100
AcDbSpline
 62
7
  6
CONTINUOUS
 70
0
 71
3
 72
8
 73
4
 74
0
 42
0.0000001
 43
0.0000001
 44
0.0000000001
 40
0.0
 40
0.0
 40
0.0
 40
0.0
 40
1.0
 40
1.0
 40
1.0
 40
1.0
 10
141.0940960283
 20
85.8264689254
 30
0.0
 10
141.0678321445
 20
85.812016491
 30
0.0
 10
141.0426605917
 20
85.7947773662
 30
0.0
 10
141.0210661809
 20
85.7739844377
 30
0.0
  0
SPLINE
  5
6E0
100
AcDbEntity
  8
3_ALL_AXES
100
AcDbSpline
 62
7
  6
CONTINUOUS
 70
0
 71
3
 72
8
 73
4
 74
0
 42
0.0000001
 43
0.0000001
 44
0.0000000001
 40
0.0
 40
0.0
 40
0.0
 40
0.0
 40
1.0
 40
1.0
 40
1.0
 40
1.0
 10
141.0210661809
 20
85.7739844377
 30
0.0
 10
141.0127987773
 20
85.766023881
 30
0.0
 10
141.0048006657
 20
85.7574572319
 30
0.0
 10
140.9989997782
 20
85.7475541956
 30
0.0
  0
SPLINE
  5
6E1
100
AcDbEntity
  8
3_ALL_AXES
100
AcDbSpline
 62
7
  6
CONTINUOUS
 70
0
 71
3
 72
9
 73
5
 74
0
 42
0.0000001
 43
0.0000001
 44
0.0000000001
 40
0.0
 40
0.0
 40
0.0
 40
0.0
 40
0.5072958805
 40
1.0
 40
1.0
 40
1.0
 40
1.0
 10
140.9989997782
 20
85.7475541956
 30
0.0
 10
140.9981927768
 20
85.746176516
 30
0.0
 10
140.9966933077
 20
85.7434058145
 30
0.0
 10
140.9954203781
 20
85.7405223263
 30
0.0
 10
140.9948615956
 20
85.7390757886
 30
0.0
  0
SPLINE
  5
6E2
100
AcDbEntity
  8
3_ALL_AXES
100
AcDbSpline
 62
7
  6
CONTINUOUS
 70
0
 71
3
 72
9
 73
5
 74
0
 42
0.0000001
 43
0.0000001
 44
0.0000000001
 40
0.0
 40
0.0
 40
0.0
 40
0.0
 40
0.2589105107
 40
1.0
 40
1.0
 40
1.0
 40
1.0
 10
141.34239677
 20
85.8699375121
 30
0.0
 10
141.3230168091
 20
85.8811294679
 30
0.0
 10
141.2333950761
 20
85.8961657402
 30
0.0
 10
141.1502178603
 20
85.8573515284
 30
0.0
 10
141.0940960283
 20
85.8264689254
 30
0.0
  0
SPLINE
  5
6E3
100
AcDbEntity
  8
3_ALL_AXES
100
AcDbSpline
 62
7
  6
CONTINUOUS
 70
0
 71
3
 72
9
 73
5
 74
0
 42
0.0000001
 43
0.0000001
 44
0.0000000001
 40
0.0
 40
0.0
 40
0.0
 40
0.0
 40
0.2571150211
 40
1.0
 40
1.0
 40
1.0
 40
1.0
 10
139.3209168942
 20
72.95379335
 30
0.0
 10
139.325458065
 20
72.9980626346
 30
0.0
 10
139.3458545898
 20
73.1699391467
 30
0.0
 10
139.3775241722
 20
73.3405476003
 30
0.0
 10
139.40820257
 20
73.4654129995
 30
0.0
  0
SPLINE
  5
6E4
100
AcDbEntity
  8
3_ALL_AXES
100
AcDbSpline
 62
7
  6
CONTINUOUS
 70
0
 71
3
 72
9
 73
5
 74
0
 42
0.0000001
 43
0.0000001
 44
0.0000000001
 40
0.0
 40
0.0
 40
0.0
 40
0.0
 40
0.5288555607
 40
1.0
 40
1.0
 40
1.0
 40
1.0
 10
139.4146890383
 20
73.4913646481
 30
0.0
 10
139.4910848619
 20
73.7918720099
 30
0.0
 10
139.7157168202
 20
74.3482963774
 30
0.0
 10
140.1537263019
 20
74.7717189245
 30
0.0
 10
140.3927664436
 20
74.9101493596
 30
0.0
  0
LINE
  5
6E5
100
AcDbEntity
  8
3_ALL_AXES
100
AcDbLine
 62
7
  6
CONTINUOUS
 10
140.3927664436
 20
74.9101493596
 11
140.395571791
 21
74.9117705326
  0
SPLINE
  5
6E6
100
AcDbEntity
  8
3_ALL_AXES
100
AcDbSpline
 62
7
  6
CONTINUOUS
 70
0
 71
3
 72
15
 73
11
 74
0
 42
0.0000001
 43
0.0000001
 44
0.0000000001
 40
0.0
 40
0.0
 40
0.0
 40
0.0
 40
0.1288410582
 40
0.2706030246
 40
0.4179309824
 40
0.5624386849
 40
0.6962486094
 40
0.8136263249
 40
0.9130786359
 40
1.0
 40
1.0
 40
1.0
 40
1.0
 10
143.0445658622
 20
66.2046480233
 30
0.0
 10
142.6711717477
 20
66.4202836704
 30
0.0
 10
141.9463640087
 20
66.9781487056
 30
0.0
 10
141.0186477452
 20
68.0336570257
 30
0.0
 10
140.2550209393
 20
69.2757904353
 30
0.0
 10
139.7186869193
 20
70.603000109
 30
0.0
 10
139.4523849592
 20
71.9093210318
 30
0.0
 10
139.4805258862
 20
73.0949722088
 30
0.0
 10
139.8134382007
 20
74.0792142112
 30
0.0
 10
140.2709993893
 20
74.5457950849
 30
0.0
 10
140.5230015852
 20
74.6911060865
 30
0.0
  0
SPLINE
  5
6E7
100
AcDbEntity
  8
3_ALL_AXES
100
AcDbSpline
 62
7
  6
CONTINUOUS
 70
0
 71
3
 72
8
 73
4
 74
0
 42
0.0000001
 43
0.0000001
 44
0.0000000001
 40
0.0
 40
0.0
 40
0.0
 40
0.0
 40
1.0
 40
1.0
 40
1.0
 40
1.0
 10
141.5119184834
 20
85.4990471058
 30
0.0
 10
141.5022551199
 20
85.4934664993
 30
0.0
 10
141.4807198623
 20
85.488815331
 30
0.0
 10
141.4784486057
 20
85.4997407673
 30
0.0
  0
SPLINE
  5
6E8
100
AcDbEntity
  8
3_ALL_AXES
100
AcDbSpline
 62
7
  6
CONTINUOUS
 70
0
 71
3
 72
11
 73
7
 74
0
 42
0.0000001
 43
0.0000001
 44
0.0000000001
 40
0.0
 40
0.0
 40
0.0
 40
0.0
 40
0.289438477
 40
0.5317312838
 40
0.7546139842
 40
1.0
 40
1.0
 40
1.0
 40
1.0
 10
144.3768695174
 20
72.4521680254
 30
0.0
 10
144.2622202446
 20
72.518378148
 30
0.0
 10
144.0347222229
 20
72.61593983
 30
0.0
 10
143.6758455857
 20
72.6222034193
 30
0.0
 10
143.383020197
 20
72.4439428297
 30
0.0
 10
143.282265624
 20
72.2440952372
 30
0.0
 10
143.2491669032
 20
72.1368424415
 30
0.0
  0
SPLINE
  5
6E9
100
AcDbEntity
  8
3_ALL_AXES
100
AcDbSpline
 62
7
  6
CONTINUOUS
 70
0
 71
3
 72
9
 73
5
 74
0
 42
0.0000001
 43
0.0000001
 44
0.0000000001
 40
0.0
 40
0.0
 40
0.0
 40
0.0
 40
0.5476883972
 40
1.0
 40
1.0
 40
1.0
 40
1.0
 10
141.1502760116
 20
85.682789398
 30
0.0
 10
141.1476035435
 20
85.6843327522
 30
0.0
 10
141.1432172995
 20
85.687731406
 30
0.0
 10
141.1395864012
 20
85.692767468
 30
0.0
 10
141.1394652449
 20
85.695313262
 30
0.0
  0
SPLINE
  5
6EA
100
AcDbEntity
  8
3_ALL_AXES
100
AcDbSpline
 62
7
  6
CONTINUOUS
 70
0
 71
3
 72
8
 73
4
 74
0
 42
0.0000001
 43
0.0000001
 44
0.0000000001
 40
0.0
 40
0.0
 40
0.0
 40
0.0
 40
1.0
 40
1.0
 40
1.0
 40
1.0
 10
141.3746240293
 20
85.5898049897
 30
0.0
 10
141.3688908382
 20
85.593115916
 30
0.0
 10
141.3604955635
 20
85.593115916
 30
0.0
 10
141.3547623724
 20
85.5898049897
 30
0.0
  0
SPLINE
  5
6EB
100
AcDbEntity
  8
3_ALL_AXES
100
AcDbSpline
 62
7
  6
CONTINUOUS
 70
0
 71
3
 72
9
 73
5
 74
0
 42
0.0000001
 43
0.0000001
 44
0.0000000001
 40
0.0
 40
0.0
 40
0.0
 40
0.0
 40
0.5446903335
 40
1.0
 40
1.0
 40
1.0
 40
1.0
 10
143.0445658622
 20
65.1618329975
 30
0.0
 10
143.4838635557
 20
64.9081379372
 30
0.0
 10
144.3546160605
 20
64.5331321619
 30
0.0
 10
145.32722002
 20
64.5284332102
 30
0.0
 10
145.7342381958
 20
64.6473954219
 30
0.0
  0
SPLINE
  5
6EC
100
AcDbEntity
  8
3_ALL_AXES
100
AcDbSpline
 62
7
  6
CONTINUOUS
 70
0
 71
3
 72
11
 73
7
 74
0
 42
0.0000001
 43
0.0000001
 44
0.0000000001
 40
0.0
 40
0.0
 40
0.0
 40
0.0
 40
0.2897867998
 40
0.5490429425
 40
0.7822530511
 40
1.0
 40
1.0
 40
1.0
 40
1.0
 10
143.0445658622
 20
65.7885888315
 30
0.0
 10
143.2880120975
 20
65.6479982746
 30
0.0
 10
143.7720388003
 20
65.4174094971
 30
0.0
 10
144.516174885
 20
65.2374665187
 30
0.0
 10
145.2143588849
 20
65.2540474682
 30
0.0
 10
145.6350449851
 20
65.4058891387
 30
0.0
 10
145.8182167907
 20
65.5111034653
 30
0.0
  0
LINE
  5
6ED
100
AcDbEntity
  8
3_ALL_AXES
100
AcDbLine
 62
7
  6
CONTINUOUS
 10
145.8182167907
 20
65.5111034653
 11
145.8209016265
 21
65.5126486271
  0
SPLINE
  5
6EE
100
AcDbEntity
  8
3_ALL_AXES
100
AcDbSpline
 62
7
  6
CONTINUOUS
 70
0
 71
3
 72
11
 73
7
 74
0
 42
0.0000001
 43
0.0000001
 44
0.0000000001
 40
0.0
 40
0.0
 40
0.0
 40
0.0
 40
0.2897852473
 40
0.5490418061
 40
0.7822531793
 40
1.0
 40
1.0
 40
1.0
 40
1.0
 10
143.0445658622
 20
65.9966184274
 30
0.0
 10
143.2768291147
 20
65.8624860595
 30
0.0
 10
143.7386216804
 20
65.6424871231
 30
0.0
 10
144.448574669
 20
65.4707957125
 30
0.0
 10
145.1146907562
 20
65.486587155
 30
0.0
 10
145.5160642982
 20
65.6314258579
 30
0.0
 10
145.6908308665
 20
65.731793355
 30
0.0
  0
LINE
  5
6EF
100
AcDbEntity
  8
3_ALL_AXES
100
AcDbLine
 62
7
  6
CONTINUOUS
 10
145.6908308665
 20
65.731793355
 11
145.6935158498
 21
65.7333384558
  0
SPLINE
  5
6F0
100
AcDbEntity
  8
3_ALL_AXES
100
AcDbSpline
 62
7
  6
CONTINUOUS
 70
0
 71
3
 72
11
 73
7
 74
0
 42
0.0000001
 43
0.0000001
 44
0.0000000001
 40
0.0
 40
0.0
 40
0.0
 40
0.0
 40
0.2898187315
 40
0.5490662523
 40
0.7822503032
 40
1.0
 40
1.0
 40
1.0
 40
1.0
 10
143.0445658622
 20
66.2046480233
 30
0.0
 10
143.2659291797
 20
66.0768103838
 30
0.0
 10
143.7060463438
 20
65.8671876968
 30
0.0
 10
144.3826889925
 20
65.7038484946
 30
0.0
 10
145.0174629504
 20
65.7194722817
 30
0.0
 10
145.3997500437
 20
65.8580892446
 30
0.0
 10
145.5661301392
 20
65.9540283225
 30
0.0
  0
SPLINE
  5
6F1
100
AcDbEntity
  8
3_ALL_AXES
100
AcDbSpline
 62
7
  6
CONTINUOUS
 70
0
 71
3
 72
14
 73
10
 74
0
 42
0.0000001
 43
0.0000001
 44
0.0000000001
 40
0.0
 40
0.0
 40
0.0
 40
0.0
 40
0.2870353345
 40
0.4415182772
 40
0.5859915767
 40
0.7105957935
 40
0.8126821515
 40
0.9023476672
 40
1.0
 40
1.0
 40
1.0
 40
1.0
 10
144.3768695174
 20
72.4521680254
 30
0.0
 10
144.6921158384
 20
72.270112814
 30
0.0
 10
145.0885634917
 20
71.8357670449
 30
0.0
 10
145.4229401111
 20
71.1712464776
 30
0.0
 10
145.5608852879
 20
70.6462073518
 30
0.0
 10
145.5617658868
 20
70.1697169567
 30
0.0
 10
145.4125617319
 20
69.7793889422
 30
0.0
 10
145.0909061274
 20
69.5558520298
 30
0.0
 10
144.8389954371
 20
69.5654682242
 30
0.0
 10
144.7182423352
 20
69.5929899578
 30
0.0
  0
SPLINE
  5
6F2
100
AcDbEntity
  8
3_AXES_OTHER
100
AcDbSpline
 62
7
  6
CONTINUOUS
 70
0
 71
3
 72
11
 73
7
 74
0
 42
0.0000001
 43
0.0000001
 44
0.0000000001
 40
0.0
 40
0.0
 40
0.0
 40
0.0
 40
0.3101232198
 40
0.59039017
 40
0.8167317261
 40
1.0
 40
1.0
 40
1.0
 40
1.0
 10
144.1168982005
 20
81.1914934526
 30
0.0
 10
144.1548642016
 20
81.117706742
 30
0.0
 10
144.2446825705
 20
80.9851804351
 30
0.0
 10
144.4112832678
 20
80.8404299346
 30
0.0
 10
144.5889461796
 20
80.7687611363
 30
0.0
 10
144.7057646587
 20
80.7988212231
 30
0.0
 10
144.7442721702
 20
80.8291840678
 30
0.0
  0
SPLINE
  5
6F3
100
AcDbEntity
  8
3_AXES_OTHER
100
AcDbSpline
 62
7
  6
CONTINUOUS
 70
0
 71
3
 72
10
 73
6
 74
0
 42
0.0000001
 43
0.0000001
 44
0.0000000001
 40
0.0
 40
0.0
 40
0.0
 40
0.0
 40
0.1913800131
 40
0.5537245577
 40
1.0
 40
1.0
 40
1.0
 40
1.0
 10
144.7442721702
 20
80.8291840678
 30
0.0
 10
144.7768555605
 20
80.8548757934
 30
0.0
 10
144.8456491674
 20
80.9613194134
 30
0.0
 10
144.8471074001
 20
81.1877947574
 30
0.0
 10
144.7885417181
 20
81.3553601113
 30
0.0
 10
144.7442721702
 20
81.4413977299
 30
0.0
  0
SPLINE
  5
6F4
100
AcDbEntity
  8
3_AXES_OTHER
100
AcDbSpline
 62
7
  6
CONTINUOUS
 70
0
 71
3
 72
11
 73
7
 74
0
 42
0.0000001
 43
0.0000001
 44
0.0000000001
 40
0.0
 40
0.0
 40
0.0
 40
0.0
 40
0.3101232198
 40
0.59039017
 40
0.8167317261
 40
1.0
 40
1.0
 40
1.0
 40
1.0
 10
144.7442721702
 20
81.4413977299
 30
0.0
 10
144.7063061691
 20
81.5151844405
 30
0.0
 10
144.6164878003
 20
81.6477107474
 30
0.0
 10
144.449887103
 20
81.7924612479
 30
0.0
 10
144.2722241911
 20
81.8641300462
 30
0.0
 10
144.1554057121
 20
81.8340699594
 30
0.0
 10
144.1168982005
 20
81.8037071147
 30
0.0
  0
SPLINE
  5
6F5
100
AcDbEntity
  8
3_AXES_OTHER
100
AcDbSpline
 62
7
  6
CONTINUOUS
 70
0
 71
3
 72
10
 73
6
 74
0
 42
0.0000001
 43
0.0000001
 44
0.0000000001
 40
0.0
 40
0.0
 40
0.0
 40
0.0
 40
0.1913800131
 40
0.5537245577
 40
1.0
 40
1.0
 40
1.0
 40
1.0
 10
144.1168982005
 20
81.8037071147
 30
0.0
 10
144.0843148102
 20
81.7780153891
 30
0.0
 10
144.0155212033
 20
81.6715717691
 30
0.0
 10
144.0140629707
 20
81.4450964251
 30
0.0
 10
144.0726286526
 20
81.2775310712
 30
0.0
 10
144.1168982005
 20
81.1914934526
 30
0.0
  0
SPLINE
  5
6F6
100
AcDbEntity
  8
7_ALL_ROUNDS
100
AcDbSpline
 62
7
  6
CONTINUOUS
 70
0
 71
3
 72
9
 73
5
 74
0
 42
0.0000001
 43
0.0000001
 44
0.0000000001
 40
0.0
 40
0.0
 40
0.0
 40
0.0
 40
0.7286151411
 40
1.0
 40
1.0
 40
1.0
 40
1.0
 10
152.9019341222
 20
66.9622836506
 30
0.0
 10
152.9019376688
 20
66.9333288069
 30
0.0
 10
152.8880909041
 20
66.8930198081
 30
0.0
 10
152.8638533346
 20
66.8615937981
 30
0.0
 10
152.8567182071
 20
66.8535067701
 30
0.0
  0
ENDSEC
  0
SECTION
  2
OBJECTS
  0
DICTIONARY
  5
C
100
AcDbDictionary
280
0
281
1
  3
ACAD_GROUP
350
D
  3
ACAD_MLINESTYLE
350
17
  3
ACAD_LAYOUT
350
1A
  3
ACAD_PLOTSETTINGS
350
19
  3
ACAD_PLOTSTYLENAME
350
E
  0
DICTIONARY
  5
D
102
{ACAD_REACTORS
330
C
102
}
100
AcDbDictionary
280
0
281
1
  0
ACDBDICTIONARYWDFLT
  5
E
102
{ACAD_REACTORS
330
C
102
}
100
AcDbDictionary
281
1
  3
Normal
350
F
100
AcDbDictionaryWithDefault
340
F
  0
DICTIONARY
  5
17
102
{ACAD_REACTORS
330
C
102
}
100
AcDbDictionary
280
0
281
1
  3
Standard
350
18
  0
DICTIONARY
  5
19
102
{ACAD_REACTORS
330
C
102
}
100
AcDbDictionary
281
1
  0
DICTIONARY
  5
1A
102
{ACAD_REACTORS
330
C
102
}
100
AcDbDictionary
281
1
  3
Model
350
6F7
  3
Layout1
350
6F8
  0
ACDBPLACEHOLDER
  5
F
102
{ACAD_REACTORS
330
E
102
}
  0
MLINESTYLE
  5
18
102
{ACAD_REACTORS
330
17
102
}
100
AcDbMlineStyle
  2
STANDARD
 70
0
  3

 62
256
 51
90.0
 52
90.0
 71
2
 49
0.5
 62
256
  6
BYLAYER
 49
-0.5
 62
256
  6
BYLAYER
  0
LAYOUT
  5
6F7
102
{ACAD_REACTORS
330
1A
102
}
100
AcDbPlotSettings
  1

  2
none_device
  4
ANSI_B_(17.00_x_11.00_Inches)
  6

 40
0.0
 41
0.0
 42
0.0
 43
0.0
 44
431.8
 45
279.4
 46
0.0
 47
0.0
 48
0.0
 49
0.0
140
0.0
141
0.0
142
1.0
143
1.0
 70
1024
 72
0
 73
0
 74
0
  7

 75
0
147
1.0
148
0.0
149
0.0
100
AcDbLayout
  1
Model
 70
0
 71
0
 10
0.0
 20
0.0
 11
17.0
 21
11.0
 12
0.0
 22
0.0
 32
0.0
 14
0.0
 24
0.0
 34
0.0
 15
0.0
 25
0.0
 35
0.0
146
0.0
 13
0.0
 23
0.0
 33
0.0
 16
1.0
 26
0.0
 36
0.0
 17
0.0
 27
1.0
 37
0.0
 76
0
330
211
345
0
346
0
  0
LAYOUT
  5
6F8
102
{ACAD_REACTORS
330
1A
102
}
100
AcDbPlotSettings
  1

  2
none_device
  4
ANSI_B_(17.00_x_11.00_Inches)
  6

 40
0.0
 41
0.0
 42
0.0
 43
0.0
 44
431.8
 45
279.4
 46
0.0
 47
0.0
 48
0.0
 49
0.0
140
0.0
141
0.0
142
1.0
143
1.0
 70
0
 72
0
 73
0
 74
0
  7

 75
0
147
1.0
148
0.0
149
0.0
100
AcDbLayout
  1
Layout1
 70
0
 71
1
 10
0.0
 20
0.0
 11
17.0
 21
11.0
 12
0.0
 22
0.0
 32
0.0
 14
0.0
 24
0.0
 34
0.0
 15
0.0
 25
0.0
 35
0.0
146
0.0
 13
0.0
 23
0.0
 33
0.0
 16
1.0
 26
0.0
 36
0.0
 17
0.0
 27
1.0
 37
0.0
 76
0
330
212
345
0
346
0
  0
ENDSEC
  0
EOF
