999
DXF file: rd-000586-2d-A.dxf
999
Pro/ENGINEER 2016130 by Parametric Technology Corporation
  0
SECTION
  2
HEADER
  9
$ACADVER
  1
AC1015
  9
$DWGCODEPAGE
  3
ANSI_1252
  9
$EXTMAX
 10
38.8127853881
 20
25.1141552511
 30
0.0
  9
$EXTMIN
 10
0.0
 20
0.0
 30
0.0
  9
$LIMMIN
 10
0.0
 20
0.0
  9
$LIMMAX
 10
38.8127853881
 20
25.1141552511
  9
$VIEWCTR
 10
19.4063926941
 20
12.5570776256
  9
$VIEWSIZE
 40
25.1141552511
  9
$CLAYER
  8
0
  9
$LTSCALE
 40
2.1347031963
  9
$CELTYPE
  6
BYLAYER
  9
$DIMSCALE
 40
1.0
  9
$DIMASZ
 40
0.4280821918
  9
$DIMEXO
 40
0.0625
  9
$DIMDLI
 40
1.4748858447
  9
$DIMEXE
 40
0.125
  9
$DIMCEN
 40
0.3493150685
  9
$DIMLFAC
 40
1.0
  9
$DIMBLK
  1
_FILLED
  9
$DIMALT
 70
0
  9
$DIMALTF
 40
25.4
  9
$DIMTXT
 40
0.3567351598
  9
$DIMTOL
 70
1
  9
$DIMLIM
 70
0
  9
$DIMTFAC
 40
1.0
  9
$DIMTP
 40
0.01
  9
$DIMTM
 40
0.01
  9
$DIMGAP
 40
0.09
  9
$DIMDSEP
 70
46
  9
$AUNITS
 70
0
  9
$PDMODE
 70
3
  9
$PDSIZE
 40
0.3125
  9
$HANDSEED
  5
559
  9
$TILEMODE
 70
1
  9
$MEASUREMENT
 70
0
  9
$INSUNITS
 70
1
  0
ENDSEC
  0
SECTION
  2
CLASSES
  0
CLASS
  1
ACDBDICTIONARYWDFLT
  2
AcDbDictionaryWithDefault
  3
AutoCAD 2000
 90
0
280
0
281
0
  0
CLASS
  1
ACDBPLACEHOLDER
  2
AcDbPlaceHolder
  3
AutoCAD 2000
 90
0
280
0
281
0
  0
CLASS
  1
LAYOUT
  2
AcDbLayout
  3
AutoCAD 2000
 90
0
280
0
281
0
  0
ENDSEC
  0
SECTION
  2
TABLES
  0
TABLE
  2
VPORT
  5
8
100
AcDbSymbolTable
 70
2
  0
VPORT
  5
1F4
100
AcDbSymbolTableRecord
100
AcDbViewportTableRecord
  2
*ACTIVE
 70
0
 10
0.0
 20
0.0
 11
1.0
 21
1.0
 12
19.4063926941
 22
12.5570776256
 13
0.0
 23
0.0
 14
1.0
 24
1.0
 15
0.0
 25
0.0
 16
0.0
 26
0.0
 36
1.0
 17
0.0
 27
0.0
 37
0.0
 40
25.1141552511
 41
1.5454545455
 42
50.0
 43
0.0
 44
0.0
 50
0.0
 51
0.0
 71
0
 72
100
 73
1
 74
1
 75
0
 76
0
 77
0
 78
0
  0
ENDTAB
  0
TABLE
  2
LTYPE
  5
5
100
AcDbSymbolTable
 70
6
  0
LTYPE
  5
14
100
AcDbSymbolTableRecord
100
AcDbLinetypeTableRecord
  2
BYBLOCK
 70
0
  3

 72
65
 73
0
 40
0.0
  0
LTYPE
  5
15
100
AcDbSymbolTableRecord
100
AcDbLinetypeTableRecord
  2
BYLAYER
 70
0
  3

 72
65
 73
0
 40
0.0
  0
LTYPE
  5
16
100
AcDbSymbolTableRecord
100
AcDbLinetypeTableRecord
  2
CONTINUOUS
 70
64
  3
Solid line
 72
65
 73
0
 40
0.0
  0
LTYPE
  5
1F5
100
AcDbSymbolTableRecord
100
AcDbLinetypeTableRecord
  2
CENTER
 70
64
  3
____ _ ____ _ ____ _ ____ _ ____ _ ____ _ ____
 72
65
 73
4
 40
0.6
 49
0.375
 74
0
 49
-0.075
 74
0
 49
0.075
 74
0
 49
-0.075
 74
0
  0
LTYPE
  5
1F6
100
AcDbSymbolTableRecord
100
AcDbLinetypeTableRecord
  2
HIDDEN
 70
64
  3
- - - - - - - - - - - - - - - - - - - -
 72
65
 73
2
 40
0.2
 49
0.1
 74
0
 49
-0.1
 74
0
  0
LTYPE
  5
1F7
100
AcDbSymbolTableRecord
100
AcDbLinetypeTableRecord
  2
PHANTOM
 70
64
  3
_____ _ _ _____ _ _ _____ _ _ _____
 72
65
 73
6
 40
0.8
 49
0.45
 74
0
 49
-0.05
 74
0
 49
0.1
 74
0
 49
-0.05
 74
0
 49
0.1
 74
0
 49
-0.05
 74
0
  0
LTYPE
  5
1F8
100
AcDbSymbolTableRecord
100
AcDbLinetypeTableRecord
  2
DOT
 70
64
  3
. . . . . . . . . . . . . . . . . . . .
 72
65
 73
2
 40
0.2
 49
0.1
 74
0
 49
-0.1
 74
0
  0
LTYPE
  5
1F9
100
AcDbSymbolTableRecord
100
AcDbLinetypeTableRecord
  2
DASHED
 70
64
  3
- - - - - - - - - - - - - - - - - - - -
 72
65
 73
2
 40
0.2
 49
0.1
 74
0
 49
-0.1
 74
0
  0
ENDTAB
  0
TABLE
  2
LAYER
  5
2
100
AcDbSymbolTable
 70
36
  0
LAYER
  5
10
100
AcDbSymbolTableRecord
100
AcDbLayerTableRecord
  2
0
 70
0
 62
7
  6
CONTINUOUS
370
-3
390
F
  0
LAYER
  5
1FA
100
AcDbSymbolTableRecord
100
AcDbLayerTableRecord
  2
DEFAULT_1
 70
0
 62
7
  6
CENTER
370
-3
390
F
  0
LAYER
  5
1FB
100
AcDbSymbolTableRecord
100
AcDbLayerTableRecord
  2
DEFAULT_2
 70
0
 62
8
  6
HIDDEN
370
-3
390
F
  0
LAYER
  5
1FC
100
AcDbSymbolTableRecord
100
AcDbLayerTableRecord
  2
DEFAULT_3
 70
0
 62
7
  6
PHANTOM
370
-3
390
F
  0
LAYER
  5
1FD
100
AcDbSymbolTableRecord
100
AcDbLayerTableRecord
  2
0_SNAPLINES
 70
0
 62
7
  6
CONTINUOUS
370
-3
390
F
  0
LAYER
  5
1FE
100
AcDbSymbolTableRecord
100
AcDbLayerTableRecord
  2
1_ALL_PLANES
 70
0
 62
7
  6
CONTINUOUS
370
-3
390
F
  0
LAYER
  5
1FF
100
AcDbSymbolTableRecord
100
AcDbLayerTableRecord
  2
1__DEF_PLANES
 70
0
 62
7
  6
CONTINUOUS
370
-3
390
F
  0
LAYER
  5
200
100
AcDbSymbolTableRecord
100
AcDbLayerTableRecord
  2
2_ALL_CSYS
 70
0
 62
7
  6
CONTINUOUS
370
-3
390
F
  0
LAYER
  5
201
100
AcDbSymbolTableRecord
100
AcDbLayerTableRecord
  2
2__DEF_CSYS
 70
0
 62
7
  6
CONTINUOUS
370
-3
390
F
  0
LAYER
  5
202
100
AcDbSymbolTableRecord
100
AcDbLayerTableRecord
  2
3_ALL_AXES
 70
0
 62
7
  6
CONTINUOUS
370
-3
390
F
  0
LAYER
  5
203
100
AcDbSymbolTableRecord
100
AcDbLayerTableRecord
  2
3_AXES_OTHER
 70
0
 62
7
  6
CONTINUOUS
370
-3
390
F
  0
LAYER
  5
204
100
AcDbSymbolTableRecord
100
AcDbLayerTableRecord
  2
3_HOLES
 70
0
 62
7
  6
CONTINUOUS
370
-3
390
F
  0
LAYER
  5
205
100
AcDbSymbolTableRecord
100
AcDbLayerTableRecord
  2
4_ALL_POINTS
 70
0
 62
7
  6
CONTINUOUS
370
-3
390
F
  0
LAYER
  5
206
100
AcDbSymbolTableRecord
100
AcDbLayerTableRecord
  2
5_ALL_CURVES
 70
0
 62
7
  6
CONTINUOUS
370
-3
390
F
  0
LAYER
  5
207
100
AcDbSymbolTableRecord
100
AcDbLayerTableRecord
  2
6_ALL_SURFS
 70
0
 62
7
  6
CONTINUOUS
370
-3
390
F
  0
LAYER
  5
208
100
AcDbSymbolTableRecord
100
AcDbLayerTableRecord
  2
6_COPYGEOM
 70
0
 62
7
  6
CONTINUOUS
370
-3
390
F
  0
LAYER
  5
209
100
AcDbSymbolTableRecord
100
AcDbLayerTableRecord
  2
7_ALL_ROUNDS
 70
0
 62
7
  6
CONTINUOUS
370
-3
390
F
  0
LAYER
  5
20A
100
AcDbSymbolTableRecord
100
AcDbLayerTableRecord
  2
7_MERGES
 70
0
 62
7
  6
CONTINUOUS
370
-3
390
F
  0
LAYER
  5
20B
100
AcDbSymbolTableRecord
100
AcDbLayerTableRecord
  2
8_GDT
 70
0
 62
7
  6
CONTINUOUS
370
-3
390
F
  0
LAYER
  5
20C
100
AcDbSymbolTableRecord
100
AcDbLayerTableRecord
  2
8_SET_DATUMS
 70
0
 62
7
  6
CONTINUOUS
370
-3
390
F
  0
LAYER
  5
20D
100
AcDbSymbolTableRecord
100
AcDbLayerTableRecord
  2
9_COSMETICS
 70
0
 62
7
  6
CONTINUOUS
370
-3
390
F
  0
LAYER
  5
20E
100
AcDbSymbolTableRecord
100
AcDbLayerTableRecord
  2
9_THREADS
 70
0
 62
7
  6
CONTINUOUS
370
-3
390
F
  0
ENDTAB
  0
TABLE
  2
STYLE
  5
3
100
AcDbSymbolTable
 70
1
  0
STYLE
  5
11
100
AcDbSymbolTableRecord
100
AcDbTextStyleTableRecord
  2
STANDARD
 70
0
 40
0.0
 41
0.8
 50
0.0
 71
0
 42
0.2
  3
txt
  4

  0
STYLE
  5
20F
100
AcDbSymbolTableRecord
100
AcDbTextStyleTableRecord
  2
TEXTSTYLE_1
 70
0
 40
0.0
 41
0.8
 50
0.0
 71
0
 42
0.2
  3
gdt
  4

  0
ENDTAB
  0
TABLE
  2
VIEW
  5
6
100
AcDbSymbolTable
 70
0
  0
ENDTAB
  0
TABLE
  2
UCS
  5
7
100
AcDbSymbolTable
 70
0
  0
ENDTAB
  0
TABLE
  2
APPID
  5
9
100
AcDbSymbolTable
 70
1
  0
APPID
  5
210
100
AcDbSymbolTableRecord
100
AcDbRegAppTableRecord
  2
ACAD
 70
0
  0
ENDTAB
  0
TABLE
  2
BLOCK_RECORD
  5
1
100
AcDbSymbolTable
 70
0
  0
BLOCK_RECORD
  5
211
100
AcDbSymbolTableRecord
100
AcDbBlockTableRecord
  2
*Model_Space
  0
BLOCK_RECORD
  5
212
100
AcDbSymbolTableRecord
100
AcDbBlockTableRecord
  2
*Paper_Space
  0
BLOCK_RECORD
  5
213
100
AcDbSymbolTableRecord
100
AcDbBlockTableRecord
  2
_FILLED
  0
BLOCK_RECORD
  5
214
100
AcDbSymbolTableRecord
100
AcDbBlockTableRecord
  2
*D0
  0
BLOCK_RECORD
  5
215
100
AcDbSymbolTableRecord
100
AcDbBlockTableRecord
  2
*D1
  0
BLOCK_RECORD
  5
216
100
AcDbSymbolTableRecord
100
AcDbBlockTableRecord
  2
*D2
  0
BLOCK_RECORD
  5
217
100
AcDbSymbolTableRecord
100
AcDbBlockTableRecord
  2
*D3
  0
BLOCK_RECORD
  5
218
100
AcDbSymbolTableRecord
100
AcDbBlockTableRecord
  2
*D4
  0
BLOCK_RECORD
  5
219
100
AcDbSymbolTableRecord
100
AcDbBlockTableRecord
  2
*D5
  0
BLOCK_RECORD
  5
21A
100
AcDbSymbolTableRecord
100
AcDbBlockTableRecord
  2
*D6
  0
BLOCK_RECORD
  5
21B
100
AcDbSymbolTableRecord
100
AcDbBlockTableRecord
  2
*D7
  0
BLOCK_RECORD
  5
21C
100
AcDbSymbolTableRecord
100
AcDbBlockTableRecord
  2
*D8
  0
BLOCK_RECORD
  5
21D
100
AcDbSymbolTableRecord
100
AcDbBlockTableRecord
  2
*D9
  0
BLOCK_RECORD
  5
21E
100
AcDbSymbolTableRecord
100
AcDbBlockTableRecord
  2
*D10
  0
BLOCK_RECORD
  5
21F
100
AcDbSymbolTableRecord
100
AcDbBlockTableRecord
  2
*D11
  0
BLOCK_RECORD
  5
220
100
AcDbSymbolTableRecord
100
AcDbBlockTableRecord
  2
*D12
  0
BLOCK_RECORD
  5
221
100
AcDbSymbolTableRecord
100
AcDbBlockTableRecord
  2
*D13
  0
BLOCK_RECORD
  5
222
100
AcDbSymbolTableRecord
100
AcDbBlockTableRecord
  2
*D14
  0
BLOCK_RECORD
  5
223
100
AcDbSymbolTableRecord
100
AcDbBlockTableRecord
  2
*D15
  0
BLOCK_RECORD
  5
224
100
AcDbSymbolTableRecord
100
AcDbBlockTableRecord
  2
RD010411_BL0
  0
ENDTAB
  0
TABLE
  2
DIMSTYLE
  5
A
100
AcDbSymbolTable
 70
1
100
AcDbDimStyleTable
 71
0
  0
DIMSTYLE
105
225
100
AcDbSymbolTableRecord
100
AcDbDimStyleTableRecord
  2
STANDARD
 70
0
  3

  4

 40
1.0
 41
0.4280821918
 42
0.0625
 43
0.38
 44
0.125
 45
0.0
 46
0.0
 47
0.01
 48
0.01
140
0.3567351598
141
0.09
142
0.0
143
25.4
144
1.0
145
0.0
146
1.0
147
0.09
 71
1.0
 72
0.0
 73
1
 74
1
 75
0
 76
0
 77
0
 78
4
170
0
171
2
172
0
173
0
174
0
175
0
176
0
177
0
178
0
270
2
271
3
272
3
273
2
274
2
275
0
280
0
281
0
282
0
283
1
284
4
285
0
286
0
287
3
288
0
340
11
278
46
341
213
342
213
343
213
344
213
  0
DIMSTYLE
105
226
100
AcDbSymbolTableRecord
100
AcDbDimStyleTableRecord
  2
DIMSTYLE_1
 70
0
  3

  4

 40
1.0
 41
0.4280821918
 42
0.0625
 43
0.38
 44
0.125
 45
0.0
 46
0.0
 47
0.01
 48
0.01
140
0.3567351598
141
0.09
142
0.0
143
25.4
144
1.0
145
0.0
146
1.0
147
0.078125
 71
0.0
 72
0.0
 73
1
 74
1
 75
0
 76
0
 77
0
 78
4
170
0
171
2
172
0
173
0
174
0
175
0
176
0
177
0
178
0
270
2
271
0
272
0
273
2
274
2
275
0
280
0
281
0
282
0
283
1
284
4
285
0
286
0
287
3
288
0
340
11
278
46
341
213
342
213
343
213
344
213
  0
DIMSTYLE
105
227
100
AcDbSymbolTableRecord
100
AcDbDimStyleTableRecord
  2
DIMSTYLE_2
 70
0
  3
<>
  4

 40
1.0
 41
0.4280821918
 42
0.0625
 43
0.38
 44
0.125
 45
0.0
 46
0.0
 47
0.01
 48
0.01
140
0.3567351598
141
0.09
142
0.0
143
25.4
144
1.0
145
0.0
146
1.0
147
0.09
 71
0.0
 72
0.0
 73
1
 74
1
 75
0
 76
0
 77
0
 78
4
170
0
171
2
172
0
173
0
174
0
175
0
176
0
177
0
178
0
270
2
271
0
272
0
273
2
274
2
275
0
280
0
281
0
282
0
283
1
284
4
285
0
286
0
287
3
288
1
340
11
278
46
289
2
341
213
342
213
343
213
344
213
  0
DIMSTYLE
105
228
100
AcDbSymbolTableRecord
100
AcDbDimStyleTableRecord
  2
DIMSTYLE_3
 70
0
  3

  4

 40
1.0
 41
0.4280821918
 42
0.0625
 43
0.38
 44
0.125
 45
0.0
 46
0.0
 47
0.5
 48
0.5
140
0.3567351598
141
0.09
142
0.0
143
25.4
144
1.0
145
0.0
146
1.0
147
0.078125
 71
0.0
 72
0.0
 73
1
 74
1
 75
0
 76
0
 77
0
 78
4
170
0
171
2
172
0
173
0
174
0
175
0
176
0
177
0
178
0
270
2
271
1
272
1
273
2
274
2
275
0
280
0
281
0
282
0
283
1
284
4
285
0
286
0
287
3
288
0
340
11
278
46
341
213
342
213
343
213
344
213
  0
ENDTAB
  0
ENDSEC
  0
SECTION
  2
BLOCKS
  0
BLOCK
  5
20
100
AcDbEntity
  8
0
100
AcDbBlockBegin
  2
*Model_Space
 70
0
 10
0.0
 20
0.0
 30
0.0
  3
*Model_Space
  1

  0
ENDBLK
  5
21
100
AcDbEntity
  8
0
100
AcDbBlockEnd
  0
BLOCK
  5
1C
100
AcDbEntity
  8
0
100
AcDbBlockBegin
  2
*Paper_Space
 70
0
 10
0.0
 20
0.0
 30
0.0
  3
*Paper_Space
  1

  0
ENDBLK
  5
1D
100
AcDbEntity
  8
0
100
AcDbBlockEnd
  0
BLOCK
  5
229
100
AcDbEntity
  8
0
100
AcDbBlockBegin
 62
7
  6
CONTINUOUS
  2
RD010411_BL0
 70
64
 10
27.1434253397
 20
6.1669193269
  3
RD010411_BL0
  1

  0
ARC
  5
22A
100
AcDbEntity
  8
0
100
AcDbCircle
 62
7
  6
CONTINUOUS
 10
28.6323786951
 20
6.3960904628
 40
0.0282454641
100
AcDbArc
 50
270.0
 51
360.0
  0
LINE
  5
22B
100
AcDbEntity
  8
0
100
AcDbLine
 62
7
  6
CONTINUOUS
 10
28.6606241592
 20
6.3960904628
 11
28.6606241592
 21
6.4526008034
  0
ARC
  5
22C
100
AcDbEntity
  8
0
100
AcDbCircle
 62
7
  6
CONTINUOUS
 10
28.6323786951
 20
6.4526008034
 40
0.0282454641
100
AcDbArc
 50
0.0
 51
90.0
  0
LINE
  5
22D
100
AcDbEntity
  8
0
100
AcDbLine
 62
7
  6
CONTINUOUS
 10
28.6323786951
 20
6.4808462675
 11
27.8730331877
 21
6.4808462675
  0
SPLINE
  5
22E
100
AcDbEntity
  8
0
100
AcDbSpline
 62
7
  6
CONTINUOUS
 70
0
 71
3
 72
13
 73
9
 74
0
 42
0.0000001
 43
0.0000001
 44
0.0000000001
 40
0.0
 40
0.0
 40
0.0
 40
0.0
 40
0.1310616762
 40
0.2699656353
 40
0.4157607805
 40
0.5899807757
 40
0.76586761
 40
0.9948829976
 40
0.9948829976
 40
0.9948829976
 40
0.9948829976
 10
27.8730331877
 20
6.4808462675
 30
0.0
 10
27.8570710541
 20
6.4796573973
 30
0.0
 10
27.8241916679
 20
6.477208519
 30
0.0
 10
27.7796335518
 20
6.4495977705
 30
0.0
 10
27.7476461417
 20
6.4032442967
 30
0.0
 10
27.7268462749
 20
6.3465642017
 30
0.0
 10
27.7151305201
 20
6.2772775629
 30
0.0
 10
27.7140518158
 20
6.2283184072
 30
0.0
 10
27.7134927486
 20
6.2006231461
 30
0.0
  0
LINE
  5
22F
100
AcDbEntity
  8
0
100
AcDbLine
 62
7
  6
CONTINUOUS
 10
27.7134927486
 20
6.2006231461
 11
27.7135423224
 21
6.1963253632
  0
SPLINE
  5
230
100
AcDbEntity
  8
0
100
AcDbSpline
 62
7
  6
CONTINUOUS
 70
0
 71
3
 72
13
 73
9
 74
0
 42
0.0000001
 43
0.0000001
 44
0.0000000001
 40
0.0
 40
0.0
 40
0.0
 40
0.0
 40
0.2222860645
 40
0.3981728988
 40
0.572392894
 40
0.7181880393
 40
0.8570919984
 40
0.9881536746
 40
0.9881536746
 40
0.9881536746
 40
0.9881536746
 10
27.7135423224
 20
6.1963253632
 30
0.0
 10
27.7140903713
 20
6.1694442476
 30
0.0
 10
27.7152664147
 20
6.121307718
 30
0.0
 10
27.7268462654
 20
6.0528242368
 30
0.0
 10
27.7476463811
 20
5.996150481
 30
0.0
 10
27.7796327936
 20
5.9497773349
 30
0.0
 10
27.8241943104
 20
5.9222325877
 30
0.0
 10
27.8570656806
 20
5.9196282973
 30
0.0
 10
27.8730331877
 20
5.9184390272
 30
0.0
  0
LINE
  5
231
100
AcDbEntity
  8
0
100
AcDbLine
 62
7
  6
CONTINUOUS
 10
27.8730331877
 20
5.9184390272
 11
28.6324403436
 21
5.9200965106
  0
ARC
  5
232
100
AcDbEntity
  8
0
100
AcDbCircle
 62
7
  6
CONTINUOUS
 10
28.6323786951
 20
5.9483419073
 40
0.028245464
100
AcDbArc
 50
270.125053868
 51
360.0
  0
LINE
  5
233
100
AcDbEntity
  8
0
100
AcDbLine
 62
7
  6
CONTINUOUS
 10
28.6606241592
 20
5.9483419073
 11
28.6606241592
 21
6.0026459696
  0
ARC
  5
234
100
AcDbEntity
  8
0
100
AcDbCircle
 62
7
  6
CONTINUOUS
 10
28.6323786951
 20
6.0026459696
 40
0.0282454641
100
AcDbArc
 50
0.0
 51
90.0
  0
LINE
  5
235
100
AcDbEntity
  8
0
100
AcDbLine
 62
7
  6
CONTINUOUS
 10
28.6323786951
 20
6.0308914336
 11
27.9815158111
 21
6.0308914336
  0
LINE
  5
236
100
AcDbEntity
  8
0
100
AcDbLine
 62
7
  6
CONTINUOUS
 10
27.953270347
 20
6.0591368977
 11
27.953270347
 21
6.3395995346
  0
ARC
  5
237
100
AcDbEntity
  8
0
100
AcDbCircle
 62
7
  6
CONTINUOUS
 10
27.9815158113
 20
6.3395995346
 40
0.0282454641
100
AcDbArc
 50
90.0
 51
180.0
  0
LINE
  5
238
100
AcDbEntity
  8
0
100
AcDbLine
 62
7
  6
CONTINUOUS
 10
27.9815158111
 20
6.3678449987
 11
28.6323786951
 21
6.3678449987
  0
LINE
  5
239
100
AcDbEntity
  8
0
100
AcDbLine
 62
7
  6
CONTINUOUS
 10
26.8209694818
 20
6.1426098187
 11
27.3634624823
 21
6.1426098187
  0
ARC
  5
23A
100
AcDbEntity
  8
0
100
AcDbCircle
 62
7
  6
CONTINUOUS
 10
27.3634624822
 20
6.1143643547
 40
0.0282454641
100
AcDbArc
 50
0.0
 51
90.0
  0
LINE
  5
23B
100
AcDbEntity
  8
0
100
AcDbLine
 62
7
  6
CONTINUOUS
 10
27.3917079463
 20
6.1143643546
 11
27.3917079463
 21
6.0566900345
  0
LINE
  5
23C
100
AcDbEntity
  8
0
100
AcDbLine
 62
7
  6
CONTINUOUS
 10
27.3634624823
 20
6.0284445704
 11
26.7310877337
 21
6.0284445704
  0
ARC
  5
23D
100
AcDbEntity
  8
0
100
AcDbCircle
 62
7
  6
CONTINUOUS
 10
26.7310877337
 20
6.0001991063
 40
0.0282454641
100
AcDbArc
 50
90.0
 51
180.0
  0
LINE
  5
23E
100
AcDbEntity
  8
0
100
AcDbLine
 62
7
  6
CONTINUOUS
 10
26.7028422696
 20
6.0001991063
 11
26.7028422696
 21
5.9466842063
  0
ARC
  5
23F
100
AcDbEntity
  8
0
100
AcDbCircle
 62
7
  6
CONTINUOUS
 10
26.7310877337
 20
5.9466842063
 40
0.0282454641
100
AcDbArc
 50
180.0
 51
270.0
  0
LINE
  5
240
100
AcDbEntity
  8
0
100
AcDbLine
 62
7
  6
CONTINUOUS
 10
26.7310877337
 20
5.9184387422
 11
27.5161487315
 21
5.9184387422
  0
SPLINE
  5
241
100
AcDbEntity
  8
0
100
AcDbSpline
 62
7
  6
CONTINUOUS
 70
0
 71
3
 72
13
 73
9
 74
0
 42
0.0000001
 43
0.0000001
 44
0.0000000001
 40
0.0
 40
0.0
 40
0.0
 40
0.0
 40
0.1604571392
 40
0.3334692485
 40
0.4767982758
 40
0.6242014838
 40
0.7505998515
 40
1.0
 40
1.0
 40
1.0
 40
1.0
 10
27.5161487315
 20
5.9184387422
 30
0.0
 10
27.5293849579
 20
5.9190760428
 30
0.0
 10
27.556893079
 20
5.9204005091
 30
0.0
 10
27.5938837098
 20
5.9364601448
 30
0.0
 10
27.6217573689
 20
5.9634550518
 30
0.0
 10
27.637465272
 20
5.9944036698
 30
0.0
 10
27.6495082871
 20
6.035921558
 30
0.0
 10
27.6499969931
 20
6.0669915759
 30
0.0
 10
27.6503213245
 20
6.0876113139
 30
0.0
  0
SPLINE
  5
242
100
AcDbEntity
  8
0
100
AcDbSpline
 62
7
  6
CONTINUOUS
 70
0
 71
3
 72
13
 73
9
 74
0
 42
0.0000001
 43
0.0000001
 44
0.0000000001
 40
0.0
 40
0.0
 40
0.0
 40
0.0
 40
0.2494001485
 40
0.3757985162
 40
0.5232017242
 40
0.6665307515
 40
0.8395428608
 40
1.0
 40
1.0
 40
1.0
 40
1.0
 10
27.6503213245
 20
6.0876113139
 30
0.0
 10
27.6499969931
 20
6.1082310524
 30
0.0
 10
27.6495082871
 20
6.1393010698
 30
0.0
 10
27.637465272
 20
6.1808189584
 30
0.0
 10
27.6217573689
 20
6.2117675764
 30
0.0
 10
27.5938837098
 20
6.238762483
 30
0.0
 10
27.556893079
 20
6.2548221187
 30
0.0
 10
27.5293849579
 20
6.2561465854
 30
0.0
 10
27.5161487315
 20
6.2567838856
 30
0.0
  0
LINE
  5
243
100
AcDbEntity
  8
0
100
AcDbLine
 62
7
  6
CONTINUOUS
 10
27.5161487315
 20
6.2567838856
 11
26.9808868036
 21
6.2567838856
  0
LINE
  5
244
100
AcDbEntity
  8
0
100
AcDbLine
 62
7
  6
CONTINUOUS
 10
26.9526413395
 20
6.2850293497
 11
26.9526413395
 21
6.3384726015
  0
ARC
  5
245
100
AcDbEntity
  8
0
100
AcDbCircle
 62
7
  6
CONTINUOUS
 10
26.9808868034
 20
6.3384726015
 40
0.0282454641
100
AcDbArc
 50
90.0
 51
180.0
  0
LINE
  5
246
100
AcDbEntity
  8
0
100
AcDbLine
 62
7
  6
CONTINUOUS
 10
26.9808868036
 20
6.3667180655
 11
27.6141199079
 21
6.3667180655
  0
ARC
  5
247
100
AcDbEntity
  8
0
100
AcDbCircle
 62
7
  6
CONTINUOUS
 10
27.6141199079
 20
6.3949635296
 40
0.0282454641
100
AcDbArc
 50
270.0
 51
360.0
  0
LINE
  5
248
100
AcDbEntity
  8
0
100
AcDbLine
 62
7
  6
CONTINUOUS
 10
27.642365372
 20
6.3949635296
 11
27.642365372
 21
6.4526008034
  0
ARC
  5
249
100
AcDbEntity
  8
0
100
AcDbCircle
 62
7
  6
CONTINUOUS
 10
27.6141199079
 20
6.4526008034
 40
0.0282454641
100
AcDbArc
 50
0.0
 51
90.0
  0
LINE
  5
24A
100
AcDbEntity
  8
0
100
AcDbLine
 62
7
  6
CONTINUOUS
 10
27.6141199079
 20
6.4808462675
 11
26.8209694818
 21
6.4808462675
  0
SPLINE
  5
24B
100
AcDbEntity
  8
0
100
AcDbSpline
 62
7
  6
CONTINUOUS
 70
0
 71
3
 72
13
 73
9
 74
0
 42
0.0000001
 43
0.0000001
 44
0.0000000001
 40
0.0
 40
0.0
 40
0.0
 40
0.0
 40
0.1133740464
 40
0.2392044088
 40
0.3655787964
 40
0.4912154373
 40
0.7445390876
 40
1.0
 40
1.0
 40
1.0
 40
1.0
 10
26.8209694818
 20
6.4808462675
 30
0.0
 10
26.8119086915
 20
6.4803999814
 30
0.0
 10
26.7927916095
 20
6.4794583754
 30
0.0
 10
26.7643950752
 20
6.4709743392
 30
0.0
 10
26.738991608
 20
6.453842428
 30
0.0
 10
26.7130417397
 20
6.4222847939
 30
0.0
 10
26.6967124364
 20
6.372743507
 30
0.0
 10
26.6949415209
 20
6.3321234092
 30
0.0
 10
26.6940523442
 20
6.3117280431
 30
0.0
  0
SPLINE
  5
24C
100
AcDbEntity
  8
0
100
AcDbSpline
 62
7
  6
CONTINUOUS
 70
0
 71
3
 72
13
 73
9
 74
0
 42
0.0000001
 43
0.0000001
 44
0.0000000001
 40
0.0
 40
0.0
 40
0.0
 40
0.0
 40
0.2554609124
 40
0.5087845627
 40
0.6344212036
 40
0.7607955912
 40
0.8866259536
 40
1.0
 40
1.0
 40
1.0
 40
1.0
 10
26.6940523442
 20
6.3117280431
 30
0.0
 10
26.6949415209
 20
6.291332677
 30
0.0
 10
26.6967124364
 20
6.2507125788
 30
0.0
 10
26.7130417397
 20
6.2011712923
 30
0.0
 10
26.738991608
 20
6.1696136582
 30
0.0
 10
26.7643950752
 20
6.152481747
 30
0.0
 10
26.7927916095
 20
6.1439977108
 30
0.0
 10
26.8119086915
 20
6.1430561048
 30
0.0
 10
26.8209694818
 20
6.1426098187
 30
0.0
  0
LINE
  5
24D
100
AcDbEntity
  8
0
100
AcDbLine
 62
7
  6
CONTINUOUS
 10
25.7773306069
 20
5.9184387422
 11
26.2162061705
 21
5.9184387422
  0
LINE
  5
24E
100
AcDbEntity
  8
0
100
AcDbLine
 62
7
  6
CONTINUOUS
 10
26.2162061705
 20
5.9184387422
 11
26.2162061705
 21
5.8638560263
  0
ARC
  5
24F
100
AcDbEntity
  8
0
100
AcDbCircle
 62
7
  6
CONTINUOUS
 10
26.2270698105
 20
5.8638560263
 40
0.01086364
100
AcDbArc
 50
180.0
 51
270.0
  0
LINE
  5
250
100
AcDbEntity
  8
0
100
AcDbLine
 62
7
  6
CONTINUOUS
 10
26.2270698105
 20
5.8529923862
 11
26.396227735
 21
5.8529923862
  0
ARC
  5
251
100
AcDbEntity
  8
0
100
AcDbCircle
 62
7
  6
CONTINUOUS
 10
26.396227735
 20
5.8638560263
 40
0.01086364
100
AcDbArc
 50
270.0
 51
360.0
  0
LINE
  5
252
100
AcDbEntity
  8
0
100
AcDbLine
 62
7
  6
CONTINUOUS
 10
26.407091375
 20
5.8638560263
 11
26.407091375
 21
5.9184387422
  0
LINE
  5
253
100
AcDbEntity
  8
0
100
AcDbLine
 62
7
  6
CONTINUOUS
 10
26.407091375
 20
5.9184387422
 11
26.4933907366
 21
5.9184387422
  0
SPLINE
  5
254
100
AcDbEntity
  8
0
100
AcDbSpline
 62
7
  6
CONTINUOUS
 70
0
 71
3
 72
12
 73
8
 74
0
 42
0.0000001
 43
0.0000001
 44
0.0000000001
 40
0.0
 40
0.0
 40
0.0
 40
0.0
 40
0.2415790084
 40
0.4893269843
 40
0.7378634303
 40
0.8656387112
 40
1.0
 40
1.0
 40
1.0
 40
1.0
 10
26.4933907366
 20
5.9184387422
 30
0.0
 10
26.5088650623
 20
5.9189198215
 30
0.0
 10
26.540208867
 20
5.9198942653
 30
0.0
 10
26.5860772545
 20
5.9362521521
 30
0.0
 10
26.6139340292
 20
5.9671315136
 30
0.0
 10
26.6262067994
 20
5.9979857079
 30
0.0
 10
26.6264279727
 20
6.0148875702
 30
0.0
 10
26.6265413378
 20
6.0235508251
 30
0.0
  0
LINE
  5
255
100
AcDbEntity
  8
0
100
AcDbLine
 62
7
  6
CONTINUOUS
 10
26.6265413378
 20
6.0235508251
 11
26.6265413378
 21
6.3750745478
  0
SPLINE
  5
256
100
AcDbEntity
  8
0
100
AcDbSpline
 62
7
  6
CONTINUOUS
 70
0
 71
3
 72
12
 73
8
 74
0
 42
0.0000001
 43
0.0000001
 44
0.0000000001
 40
0.0
 40
0.0
 40
0.0
 40
0.0
 40
0.1343612888
 40
0.2621365697
 40
0.5106730157
 40
0.7584209916
 40
1.0
 40
1.0
 40
1.0
 40
1.0
 10
26.6265413378
 20
6.3750745478
 30
0.0
 10
26.6264279727
 20
6.3837378032
 30
0.0
 10
26.6262067994
 20
6.4006396655
 30
0.0
 10
26.6139340292
 20
6.4314938598
 30
0.0
 10
26.5860772545
 20
6.4623732212
 30
0.0
 10
26.540208867
 20
6.4787311077
 30
0.0
 10
26.5088650623
 20
6.4797055514
 30
0.0
 10
26.4933907366
 20
6.4801866308
 30
0.0
  0
LINE
  5
257
100
AcDbEntity
  8
0
100
AcDbLine
 62
7
  6
CONTINUOUS
 10
26.4933907366
 20
6.4801866308
 11
25.7773306069
 21
6.4801866308
  0
SPLINE
  5
258
100
AcDbEntity
  8
0
100
AcDbSpline
 62
7
  6
CONTINUOUS
 70
0
 71
3
 72
12
 73
8
 74
0
 42
0.0000001
 43
0.0000001
 44
0.0000000001
 40
0.0
 40
0.0
 40
0.0
 40
0.0
 40
0.1341799809
 40
0.290831959
 40
0.5815217441
 40
0.760783857
 40
1.0
 40
1.0
 40
1.0
 40
1.0
 10
25.7773306069
 20
6.4801866308
 30
0.0
 10
25.7617120641
 20
6.4775172736
 30
0.0
 10
25.7278592397
 20
6.4717315041
 30
0.0
 10
25.6708734427
 20
6.4291575475
 30
0.0
 10
25.6438820772
 20
6.357531141
 30
0.0
 10
25.6280896706
 20
6.2763360077
 30
0.0
 10
25.6269041842
 20
6.2272254903
 30
0.0
 10
25.6262265203
 20
6.1991522787
 30
0.0
  0
SPLINE
  5
259
100
AcDbEntity
  8
0
100
AcDbSpline
 62
7
  6
CONTINUOUS
 70
0
 71
3
 72
12
 73
8
 74
0
 42
0.0000001
 43
0.0000001
 44
0.0000000001
 40
0.0
 40
0.0
 40
0.0
 40
0.0
 40
0.2392679579
 40
0.4185688994
 40
0.7093216488
 40
0.8660075581
 40
1.0
 40
1.0
 40
1.0
 40
1.0
 10
25.6262265203
 20
6.1991522787
 30
0.0
 10
25.6269044549
 20
6.1710801614
 30
0.0
 10
25.6280904146
 20
6.1219715581
 30
0.0
 10
25.6438794135
 20
6.0407626463
 30
0.0
 10
25.67088727
 20
5.9692029229
 30
0.0
 10
25.7278137367
 20
5.9264907201
 30
0.0
 10
25.7617070073
 20
5.9209793082
 30
0.0
 10
25.7773306069
 20
5.9184387422
 30
0.0
  0
LINE
  5
25A
100
AcDbEntity
  8
0
100
AcDbLine
 62
7
  6
CONTINUOUS
 10
26.4818976064
 20
6.0630649736
 11
26.4818976064
 21
6.3447156547
  0
ARC
  5
25B
100
AcDbEntity
  8
0
100
AcDbCircle
 62
7
  6
CONTINUOUS
 10
25.8893178418
 20
6.0630649736
 40
0.0282454641
100
AcDbArc
 50
180.0
 51
270.0
  0
LINE
  5
25C
100
AcDbEntity
  8
0
100
AcDbLine
 62
7
  6
CONTINUOUS
 10
25.8893178418
 20
6.0348195095
 11
26.2137354059
 21
6.0348195095
  0
LINE
  5
25D
100
AcDbEntity
  8
0
100
AcDbLine
 62
7
  6
CONTINUOUS
 10
26.2137354059
 20
6.0348195095
 11
26.2137354059
 21
6.0892331041
  0
ARC
  5
25E
100
AcDbEntity
  8
0
100
AcDbCircle
 62
7
  6
CONTINUOUS
 10
26.2245990461
 20
6.0892331041
 40
0.01086364
100
AcDbArc
 50
90.0
 51
180.0
  0
LINE
  5
25F
100
AcDbEntity
  8
0
100
AcDbLine
 62
7
  6
CONTINUOUS
 10
26.2245990459
 20
6.1000967442
 11
26.3928949037
 21
6.1000967442
  0
ARC
  5
260
100
AcDbEntity
  8
0
100
AcDbCircle
 62
7
  6
CONTINUOUS
 10
26.3928949033
 20
6.0892331045
 40
0.01086364
100
AcDbArc
 50
0.0
 51
90.0
  0
LINE
  5
261
100
AcDbEntity
  8
0
100
AcDbLine
 62
7
  6
CONTINUOUS
 10
26.4037585437
 20
6.0348195095
 11
26.4536521423
 21
6.0348195095
  0
ARC
  5
262
100
AcDbEntity
  8
0
100
AcDbCircle
 62
7
  6
CONTINUOUS
 10
26.4536521423
 20
6.0630649736
 40
0.0282454641
100
AcDbArc
 50
270.0
 51
360.0
  0
LINE
  5
263
100
AcDbEntity
  8
0
100
AcDbLine
 62
7
  6
CONTINUOUS
 10
26.4037585437
 20
6.0348195095
 11
26.4037585437
 21
6.0892331041
  0
LINE
  5
264
100
AcDbEntity
  8
0
100
AcDbLine
 62
7
  6
CONTINUOUS
 10
25.8610723777
 20
6.0630649736
 11
25.8610723777
 21
6.3447156547
  0
ARC
  5
265
100
AcDbEntity
  8
0
100
AcDbCircle
 62
7
  6
CONTINUOUS
 10
25.8893178422
 20
6.3447156547
 40
0.0282454641
100
AcDbArc
 50
90.0
 51
180.0
  0
LINE
  5
266
100
AcDbEntity
  8
0
100
AcDbLine
 62
7
  6
CONTINUOUS
 10
25.8893178418
 20
6.3729611187
 11
26.4536521423
 21
6.3729611187
  0
ARC
  5
267
100
AcDbEntity
  8
0
100
AcDbCircle
 62
7
  6
CONTINUOUS
 10
26.4536521426
 20
6.3447156544
 40
0.0282454641
100
AcDbArc
 50
0.0000000277
 51
90.0000000277
  0
ARC
  5
268
100
AcDbEntity
  8
0
100
AcDbCircle
 62
7
  6
CONTINUOUS
 10
26.9808868036
 20
6.2850293497
 40
0.0282454641
100
AcDbArc
 50
180.0
 51
270.0
  0
ARC
  5
269
100
AcDbEntity
  8
0
100
AcDbCircle
 62
7
  6
CONTINUOUS
 10
27.3634624823
 20
6.0566900345
 40
0.0282454641
100
AcDbArc
 50
270.0
 51
360.0
  0
ARC
  5
26A
100
AcDbEntity
  8
0
100
AcDbCircle
 62
7
  6
CONTINUOUS
 10
27.9815158111
 20
6.0591368977
 40
0.0282454641
100
AcDbArc
 50
180.0
 51
270.0
  0
ENDBLK
  5
26B
100
AcDbEntity
  8
0
  6
BYBLOCK
 62
0
100
AcDbBlockEnd
  0
BLOCK
  5
26C
100
AcDbEntity
  8
0
100
AcDbBlockBegin
  2
_FILLED
 70
64
 10
0.0
 20
0.0
  3
_FILLED
  1

  0
SOLID
  5
26D
100
AcDbEntity
  8
0
  6
BYBLOCK
 62
0
100
AcDbTrace
 10
0.0
 20
0.0
 11
-1.0
 21
0.1666666667
 12
-1.0
 22
-0.1666666667
 13
-1.0
 23
-0.1666666667
  0
ENDBLK
  5
26E
100
AcDbEntity
  8
0
  6
BYBLOCK
 62
0
100
AcDbBlockEnd
  0
BLOCK
  5
26F
100
AcDbEntity
  8
0
100
AcDbBlockBegin
 62
2
  6
CONTINUOUS
  2
*D0
 70
65
 10
0.0
 20
0.0
  3
*D0
  1

  0
MTEXT
  5
270
100
AcDbEntity
  8
0
100
AcDbMText
 62
2
  6
CONTINUOUS
  7
STANDARD
 71
1
 72
1
 10
8.9627671261
 20
20.315605154
 30
0.0
 11
1.0
 21
0.0
 31
0.0
 44
0.9
  1
25\P[1.0]
 40
0.3567351598
 41
1.4906433464
  0
LINE
  5
271
100
AcDbEntity
  8
0
100
AcDbLine
 62
2
  6
CONTINUOUS
 10
7.9437294151
 20
21.9406443905
 11
8.6773789983
 21
21.9406443905
  0
LINE
  5
272
100
AcDbEntity
  8
0
100
AcDbLine
 62
2
  6
CONTINUOUS
 10
6.8557585247
 20
20.956392422
 11
8.6773789983
 21
20.956392422
  0
LINE
  5
273
100
AcDbEntity
  8
0
100
AcDbLine
 62
2
  6
CONTINUOUS
 10
8.3919908704
 20
21.9406443905
 11
8.3919908704
 21
23.0821969019
  0
LINE
  5
274
100
AcDbEntity
  8
0
100
AcDbLine
 62
2
  6
CONTINUOUS
 10
8.3919908704
 20
20.956392422
 11
8.3919908704
 21
20.1372375741
  0
LINE
  5
275
100
AcDbEntity
  8
0
100
AcDbLine
 62
2
  6
CONTINUOUS
 10
8.3919908704
 20
20.1372375741
 11
8.7843995462
 21
20.1372375741
  0
INSERT
  5
276
100
AcDbEntity
  8
0
100
AcDbBlockReference
 62
2
  6
CONTINUOUS
  2
_FILLED
 10
8.3919908704
 20
21.9406443905
 41
0.4280821918
 42
0.4280821918
 43
0.4280821918
 50
270.0
  0
INSERT
  5
277
100
AcDbEntity
  8
0
100
AcDbBlockReference
 62
2
  6
CONTINUOUS
  2
_FILLED
 10
8.3919908704
 20
20.956392422
 41
0.4280821918
 42
0.4280821918
 43
0.4280821918
 50
90.0
  0
ENDBLK
  5
278
100
AcDbEntity
  8
0
  6
BYBLOCK
 62
0
100
AcDbBlockEnd
  0
BLOCK
  5
279
100
AcDbEntity
  8
0
100
AcDbBlockBegin
 62
2
  6
CONTINUOUS
  2
*D1
 70
65
 10
0.0
 20
0.0
  3
*D1
  1

  0
MTEXT
  5
27A
100
AcDbEntity
  8
0
100
AcDbMText
 62
2
  6
CONTINUOUS
  7
STANDARD
 71
2
 72
1
 10
2.424249181
 20
10.6585820152
 30
0.0
 11
1.0
 21
0.0
 31
0.0
 44
0.9
  1
92\P[3.6]
 40
0.3567351598
 41
1.5670865949
  0
LINE
  5
27B
100
AcDbEntity
  8
0
100
AcDbLine
 62
2
  6
CONTINUOUS
 10
3.6780263266
 20
12.0982113516
 11
2.3809313402
 21
12.0982113516
  0
LINE
  5
27C
100
AcDbEntity
  8
0
100
AcDbLine
 62
2
  6
CONTINUOUS
 10
3.6780263266
 20
8.4682900918
 11
2.3809313402
 21
8.4682900918
  0
LINE
  5
27D
100
AcDbEntity
  8
0
100
AcDbLine
 62
2
  6
CONTINUOUS
 10
2.666319468
 20
12.0982113516
 11
2.666319468
 21
10.8369495952
  0
LINE
  5
27E
100
AcDbEntity
  8
0
100
AcDbLine
 62
2
  6
CONTINUOUS
 10
2.666319468
 20
8.4682900918
 11
2.666319468
 21
9.5883765358
  0
INSERT
  5
27F
100
AcDbEntity
  8
0
100
AcDbBlockReference
 62
2
  6
CONTINUOUS
  2
_FILLED
 10
2.666319468
 20
12.0982113516
 41
0.4280821918
 42
0.4280821918
 43
0.4280821918
 50
90.0
  0
INSERT
  5
280
100
AcDbEntity
  8
0
100
AcDbBlockReference
 62
2
  6
CONTINUOUS
  2
_FILLED
 10
2.666319468
 20
8.4682900918
 41
0.4280821918
 42
0.4280821918
 43
0.4280821918
 50
270.0
  0
ENDBLK
  5
281
100
AcDbEntity
  8
0
  6
BYBLOCK
 62
0
100
AcDbBlockEnd
  0
BLOCK
  5
282
100
AcDbEntity
  8
0
100
AcDbBlockBegin
 62
2
  6
CONTINUOUS
  2
*D2
 70
65
 10
0.0
 20
0.0
  3
*D2
  1

  0
MTEXT
  5
283
100
AcDbEntity
  8
0
100
AcDbMText
 62
2
  6
CONTINUOUS
  7
STANDARD
 71
2
 72
1
 10
5.3936107334
 20
14.2409660886
 30
0.0
 11
1.0
 21
0.0
 31
0.0
 44
0.9
  1
92\P[3.6]
 40
0.3567351598
 41
1.5670865949
  0
LINE
  5
284
100
AcDbEntity
  8
0
100
AcDbLine
 62
2
  6
CONTINUOUS
 10
3.8207203905
 20
12.2409054156
 11
3.8207203905
 21
14.3479866366
  0
LINE
  5
285
100
AcDbEntity
  8
0
100
AcDbLine
 62
2
  6
CONTINUOUS
 10
7.4506416504
 20
12.2409054156
 11
7.4506416504
 21
14.3479866366
  0
LINE
  5
286
100
AcDbEntity
  8
0
100
AcDbLine
 62
2
  6
CONTINUOUS
 10
3.8207203905
 20
14.0625985087
 11
4.9349512422
 21
14.0625985087
  0
LINE
  5
287
100
AcDbEntity
  8
0
100
AcDbLine
 62
2
  6
CONTINUOUS
 10
7.4506416504
 20
14.0625985087
 11
6.3364107987
 21
14.0625985087
  0
INSERT
  5
288
100
AcDbEntity
  8
0
100
AcDbBlockReference
 62
2
  6
CONTINUOUS
  2
_FILLED
 10
3.8207203905
 20
14.0625985087
 41
0.4280821918
 42
0.4280821918
 43
0.4280821918
 50
180.0
  0
INSERT
  5
289
100
AcDbEntity
  8
0
100
AcDbBlockReference
 62
2
  6
CONTINUOUS
  2
_FILLED
 10
7.4506416504
 20
14.0625985087
 41
0.4280821918
 42
0.4280821918
 43
0.4280821918
  0
ENDBLK
  5
28A
100
AcDbEntity
  8
0
  6
BYBLOCK
 62
0
100
AcDbBlockEnd
  0
BLOCK
  5
28B
100
AcDbEntity
  8
0
100
AcDbBlockBegin
 62
2
  6
CONTINUOUS
  2
*D3
 70
65
 10
0.0
 20
0.0
  3
*D3
  1

  0
MTEXT
  5
28C
100
AcDbEntity
  8
0
100
AcDbMText
 62
2
  6
CONTINUOUS
  7
STANDARD
 71
2
 72
1
 10
29.6555710641
 20
15.8261021758
 30
0.0
 11
1.0
 21
0.0
 31
0.0
 44
0.9
  1
110\P[4.3]
 40
0.3567351598
 41
1.5670865949
  0
LINE
  5
28D
100
AcDbEntity
  8
0
100
AcDbLine
 62
2
  6
CONTINUOUS
 10
27.6685843133
 20
13.0637400612
 11
27.6685843133
 21
15.9331227238
  0
LINE
  5
28E
100
AcDbEntity
  8
0
100
AcDbLine
 62
2
  6
CONTINUOUS
 10
31.9992929747
 20
13.0637400612
 11
31.9992929747
 21
15.9331227238
  0
LINE
  5
28F
100
AcDbEntity
  8
0
100
AcDbLine
 62
2
  6
CONTINUOUS
 10
27.6685843133
 20
15.6477345959
 11
29.1332088658
 21
15.6477345959
  0
LINE
  5
290
100
AcDbEntity
  8
0
100
AcDbLine
 62
2
  6
CONTINUOUS
 10
31.9992929747
 20
15.6477345959
 11
30.5346684223
 21
15.6477345959
  0
INSERT
  5
291
100
AcDbEntity
  8
0
100
AcDbBlockReference
 62
2
  6
CONTINUOUS
  2
_FILLED
 10
27.6685843133
 20
15.6477345959
 41
0.4280821918
 42
0.4280821918
 43
0.4280821918
 50
180.0
  0
INSERT
  5
292
100
AcDbEntity
  8
0
100
AcDbBlockReference
 62
2
  6
CONTINUOUS
  2
_FILLED
 10
31.9992929747
 20
15.6477345959
 41
0.4280821918
 42
0.4280821918
 43
0.4280821918
  0
ENDBLK
  5
293
100
AcDbEntity
  8
0
  6
BYBLOCK
 62
0
100
AcDbBlockEnd
  0
BLOCK
  5
294
100
AcDbEntity
  8
0
100
AcDbBlockBegin
 62
2
  6
CONTINUOUS
  2
*D4
 70
65
 10
0.0
 20
0.0
  3
*D4
  1

  0
MTEXT
  5
295
100
AcDbEntity
  8
0
100
AcDbMText
 62
2
  6
CONTINUOUS
  7
STANDARD
 71
2
 72
1
 10
29.6046088984
 20
14.453712573
 30
0.0
 11
1.0
 21
0.0
 31
0.0
 44
0.9
  1
90\P[3.5]
 40
0.3567351598
 41
1.5288649706
  0
LINE
  5
296
100
AcDbEntity
  8
0
100
AcDbLine
 62
2
  6
CONTINUOUS
 10
28.0622851007
 20
10.7920505635
 11
28.0622851007
 21
14.560733121
  0
LINE
  5
297
100
AcDbEntity
  8
0
100
AcDbLine
 62
2
  6
CONTINUOUS
 10
31.6055921873
 20
10.7631308587
 11
31.6055921873
 21
14.560733121
  0
LINE
  5
298
100
AcDbEntity
  8
0
100
AcDbLine
 62
2
  6
CONTINUOUS
 10
28.0622851007
 20
14.2753449931
 11
29.1459494072
 21
14.2753449931
  0
LINE
  5
299
100
AcDbEntity
  8
0
100
AcDbLine
 62
2
  6
CONTINUOUS
 10
31.6055921873
 20
14.2753449931
 11
30.5219278808
 21
14.2753449931
  0
INSERT
  5
29A
100
AcDbEntity
  8
0
100
AcDbBlockReference
 62
2
  6
CONTINUOUS
  2
_FILLED
 10
28.0622851007
 20
14.2753449931
 41
0.4280821918
 42
0.4280821918
 43
0.4280821918
 50
180.0
  0
INSERT
  5
29B
100
AcDbEntity
  8
0
100
AcDbBlockReference
 62
2
  6
CONTINUOUS
  2
_FILLED
 10
31.6055921873
 20
14.2753449931
 41
0.4280821918
 42
0.4280821918
 43
0.4280821918
  0
ENDBLK
  5
29C
100
AcDbEntity
  8
0
  6
BYBLOCK
 62
0
100
AcDbBlockEnd
  0
BLOCK
  5
29D
100
AcDbEntity
  8
0
100
AcDbBlockBegin
 62
2
  6
CONTINUOUS
  2
*D5
 70
65
 10
0.0
 20
0.0
  3
*D5
  1

  0
MTEXT
  5
29E
100
AcDbEntity
  8
0
100
AcDbMText
 62
2
  6
CONTINUOUS
  7
STANDARD
 71
2
 72
1
 10
26.4412201676
 20
10.4616183016
 30
0.0
 11
1.0
 21
0.0
 31
0.0
 44
0.9
  1
115\P[4.5]
 40
0.3567351598
 41
1.5670865949
  0
LINE
  5
29F
100
AcDbEntity
  8
0
100
AcDbLine
 62
2
  6
CONTINUOUS
 10
29.3576972057
 20
12.5470302493
 11
26.346940161
 21
12.5470302493
  0
LINE
  5
2A0
100
AcDbEntity
  8
0
100
AcDbLine
 62
2
  6
CONTINUOUS
 10
29.3576972057
 20
8.0194711942
 11
26.346940161
 21
8.0194711942
  0
LINE
  5
2A1
100
AcDbEntity
  8
0
100
AcDbLine
 62
2
  6
CONTINUOUS
 10
26.6323282889
 20
12.5470302493
 11
26.6323282889
 21
10.6399858815
  0
LINE
  5
2A2
100
AcDbEntity
  8
0
100
AcDbLine
 62
2
  6
CONTINUOUS
 10
26.6323282889
 20
8.0194711942
 11
26.6323282889
 21
9.3914128222
  0
INSERT
  5
2A3
100
AcDbEntity
  8
0
100
AcDbBlockReference
 62
2
  6
CONTINUOUS
  2
_FILLED
 10
26.6323282889
 20
12.5470302493
 41
0.4280821918
 42
0.4280821918
 43
0.4280821918
 50
90.0
  0
INSERT
  5
2A4
100
AcDbEntity
  8
0
100
AcDbBlockReference
 62
2
  6
CONTINUOUS
  2
_FILLED
 10
26.6323282889
 20
8.0194711942
 41
0.4280821918
 42
0.4280821918
 43
0.4280821918
 50
270.0
  0
ENDBLK
  5
2A5
100
AcDbEntity
  8
0
  6
BYBLOCK
 62
0
100
AcDbBlockEnd
  0
BLOCK
  5
2A6
100
AcDbEntity
  8
0
100
AcDbBlockBegin
 62
2
  6
CONTINUOUS
  2
*D6
 70
65
 10
0.0
 20
0.0
  3
*D6
  1

  0
MTEXT
  5
2A7
100
AcDbEntity
  8
0
100
AcDbMText
 62
2
  6
CONTINUOUS
  7
STANDARD
 71
2
 72
1
 10
33.4111767516
 20
10.4616183016
 30
0.0
 11
1.0
 21
0.0
 31
0.0
 44
0.9
  1
134\P[5.3]
 40
0.3567351598
 41
1.5288649706
  0
LINE
  5
2A8
100
AcDbEntity
  8
0
100
AcDbLine
 62
2
  6
CONTINUOUS
 10
32.1419870387
 20
12.9210459973
 11
33.836710835
 21
12.9210459973
  0
LINE
  5
2A9
100
AcDbEntity
  8
0
100
AcDbLine
 62
2
  6
CONTINUOUS
 10
32.1419870387
 20
7.6454554461
 11
33.836710835
 21
7.6454554461
  0
LINE
  5
2AA
100
AcDbEntity
  8
0
100
AcDbLine
 62
2
  6
CONTINUOUS
 10
33.5513227072
 20
12.9210459973
 11
33.5513227072
 21
10.6399858815
  0
LINE
  5
2AB
100
AcDbEntity
  8
0
100
AcDbLine
 62
2
  6
CONTINUOUS
 10
33.5513227072
 20
7.6454554461
 11
33.5513227072
 21
9.3914128222
  0
INSERT
  5
2AC
100
AcDbEntity
  8
0
100
AcDbBlockReference
 62
2
  6
CONTINUOUS
  2
_FILLED
 10
33.5513227072
 20
12.9210459973
 41
0.4280821918
 42
0.4280821918
 43
0.4280821918
 50
90.0
  0
INSERT
  5
2AD
100
AcDbEntity
  8
0
100
AcDbBlockReference
 62
2
  6
CONTINUOUS
  2
_FILLED
 10
33.5513227072
 20
7.6454554461
 41
0.4280821918
 42
0.4280821918
 43
0.4280821918
 50
270.0
  0
ENDBLK
  5
2AE
100
AcDbEntity
  8
0
  6
BYBLOCK
 62
0
100
AcDbBlockEnd
  0
BLOCK
  5
2AF
100
AcDbEntity
  8
0
100
AcDbBlockBegin
 62
2
  6
CONTINUOUS
  2
*D7
 70
65
 10
0.0
 20
0.0
  3
*D7
  1

  0
MTEXT
  5
2B0
100
AcDbEntity
  8
0
100
AcDbMText
 62
2
  6
CONTINUOUS
  7
STANDARD
 71
3
 72
1
 10
25.924078453
 20
14.1556251558
 30
0.0
 11
1.0
 21
0.0
 31
0.0
 44
0.9
  1
4X \Fgdt;{\Fgdt;n}\Ftxt;7\P[.3]
 40
0.3567351598
 41
2.4334434116
  0
LINE
  5
2B1
100
AcDbEntity
  8
0
100
AcDbLine
 62
2
  6
CONTINUOUS
 10
28.0235087836
 20
10.4154775541
 11
26.9789952827
 21
13.9772575759
  0
LINE
  5
2B2
100
AcDbEntity
  8
0
100
AcDbLine
 62
2
  6
CONTINUOUS
 10
26.9789952827
 20
13.9772575759
 11
26.5865866069
 21
13.9772575759
  0
INSERT
  5
2B3
100
AcDbEntity
  8
0
100
AcDbBlockReference
 62
2
  6
CONTINUOUS
  2
_FILLED
 10
28.0235087836
 20
10.4154775541
 41
0.4280821918
 42
0.4280821918
 43
0.4280821918
 50
286.3440936911
  0
ENDBLK
  5
2B4
100
AcDbEntity
  8
0
  6
BYBLOCK
 62
0
100
AcDbBlockEnd
  0
BLOCK
  5
2B5
100
AcDbEntity
  8
0
100
AcDbBlockBegin
 62
2
  6
CONTINUOUS
  2
*D8
 70
65
 10
0.0
 20
0.0
  3
*D8
  1

  0
MTEXT
  5
2B6
100
AcDbEntity
  8
0
100
AcDbMText
 62
2
  6
CONTINUOUS
  7
STANDARD
 71
2
 72
1
 10
10.8233628458
 20
19.5264922854
 30
0.0
 11
1.0
 21
0.0
 31
0.0
 44
0.9
  1
132\P[5.2]
 40
0.3567351598
 41
1.5670865949
  0
LINE
  5
2B7
100
AcDbEntity
  8
0
100
AcDbLine
 62
2
  6
CONTINUOUS
 10
7.9437294151
 20
21.9406443905
 11
11.2616374708
 21
21.9406443905
  0
LINE
  5
2B8
100
AcDbEntity
  8
0
100
AcDbLine
 62
2
  6
CONTINUOUS
 10
7.5933357143
 20
16.7556050204
 11
11.2616374708
 21
16.7556050204
  0
LINE
  5
2B9
100
AcDbEntity
  8
0
100
AcDbLine
 62
2
  6
CONTINUOUS
 10
10.9762493429
 20
21.9406443905
 11
10.9762493429
 21
19.7048598653
  0
LINE
  5
2BA
100
AcDbEntity
  8
0
100
AcDbLine
 62
2
  6
CONTINUOUS
 10
10.9762493429
 20
16.7556050204
 11
10.9762493429
 21
18.4562868059
  0
INSERT
  5
2BB
100
AcDbEntity
  8
0
100
AcDbBlockReference
 62
2
  6
CONTINUOUS
  2
_FILLED
 10
10.9762493429
 20
21.9406443905
 41
0.4280821918
 42
0.4280821918
 43
0.4280821918
 50
90.0
  0
INSERT
  5
2BC
100
AcDbEntity
  8
0
100
AcDbBlockReference
 62
2
  6
CONTINUOUS
  2
_FILLED
 10
10.9762493429
 20
16.7556050204
 41
0.4280821918
 42
0.4280821918
 43
0.4280821918
 50
270.0
  0
ENDBLK
  5
2BD
100
AcDbEntity
  8
0
  6
BYBLOCK
 62
0
100
AcDbBlockEnd
  0
BLOCK
  5
2BE
100
AcDbEntity
  8
0
100
AcDbBlockBegin
 62
2
  6
CONTINUOUS
  2
*D9
 70
65
 10
0.0
 20
0.0
  3
*D9
  1

  0
MTEXT
  5
2BF
100
AcDbEntity
  8
0
100
AcDbMText
 62
2
  6
CONTINUOUS
  7
STANDARD
 71
2
 72
1
 10
12.3068419877
 20
19.4083820492
 30
0.0
 11
1.0
 21
0.0
 31
0.0
 44
0.9
  1
138\P[5.4]
 40
0.3567351598
 41
1.5670865949
  0
LINE
  5
2C0
100
AcDbEntity
  8
0
100
AcDbLine
 62
2
  6
CONTINUOUS
 10
7.9437294151
 20
21.9406443905
 11
12.7451166127
 21
21.9406443905
  0
LINE
  5
2C1
100
AcDbEntity
  8
0
100
AcDbLine
 62
2
  6
CONTINUOUS
 10
7.0596016483
 20
16.519384548
 11
12.7451166127
 21
16.519384548
  0
LINE
  5
2C2
100
AcDbEntity
  8
0
100
AcDbLine
 62
2
  6
CONTINUOUS
 10
12.4597284848
 20
21.9406443905
 11
12.4597284848
 21
19.5867496291
  0
LINE
  5
2C3
100
AcDbEntity
  8
0
100
AcDbLine
 62
2
  6
CONTINUOUS
 10
12.4597284848
 20
16.519384548
 11
12.4597284848
 21
18.3381765697
  0
INSERT
  5
2C4
100
AcDbEntity
  8
0
100
AcDbBlockReference
 62
2
  6
CONTINUOUS
  2
_FILLED
 10
12.4597284848
 20
21.9406443905
 41
0.4280821918
 42
0.4280821918
 43
0.4280821918
 50
90.0
  0
INSERT
  5
2C5
100
AcDbEntity
  8
0
100
AcDbBlockReference
 62
2
  6
CONTINUOUS
  2
_FILLED
 10
12.4597284848
 20
16.519384548
 41
0.4280821918
 42
0.4280821918
 43
0.4280821918
 50
270.0
  0
ENDBLK
  5
2C6
100
AcDbEntity
  8
0
  6
BYBLOCK
 62
0
100
AcDbBlockEnd
  0
BLOCK
  5
2C7
100
AcDbEntity
  8
0
100
AcDbBlockBegin
 62
2
  6
CONTINUOUS
  2
*D10
 70
65
 10
0.0
 20
0.0
  3
*D10
  1

  0
MTEXT
  5
2C8
100
AcDbEntity
  8
0
100
AcDbMText
 62
2
  6
CONTINUOUS
  7
STANDARD
 71
2
 72
1
 10
5.6356810205
 20
15.4980319648
 30
0.0
 11
1.0
 21
0.0
 31
0.0
 44
0.9
  1
B
 40
0.3567351598
 41
0.4204378669
  0
LINE
  5
2C9
100
AcDbEntity
  8
0
100
AcDbLine
 62
2
  6
CONTINUOUS
 10
5.591117107
 20
18.5779677596
 11
4.4021912857
 21
18.1452341499
  0
LINE
  5
2CA
100
AcDbEntity
  8
0
100
AcDbLine
 62
2
  6
CONTINUOUS
 10
4.4021912857
 20
18.1452341499
 11
2.2904585091
 21
17.3766262765
  0
LINE
  5
2CB
100
AcDbEntity
  8
0
100
AcDbLine
 62
2
  6
CONTINUOUS
 10
5.6779654284
 20
18.5787974317
 11
6.6216667691
 21
18.2353182337
  0
LINE
  5
2CC
100
AcDbEntity
  8
0
100
AcDbLine
 62
2
  6
CONTINUOUS
 10
6.6216667691
 20
18.2353182337
 11
8.9809035318
 21
17.3766262765
  0
ARC
  5
2CD
100
AcDbEntity
  8
0
100
AcDbCircle
 62
2
  6
CONTINUOUS
 10
5.6356810205
 20
18.5941876976
 40
3.2745233127
100
AcDbArc
 50
200.0
 51
264.4180020521
  0
ARC
  5
2CE
100
AcDbEntity
  8
0
100
AcDbCircle
 62
2
  6
CONTINUOUS
 10
5.6356810205
 20
18.5941876976
 40
3.2745233127
100
AcDbArc
 50
275.5819979479
 51
340.0
  0
SOLID
  5
2CF
100
AcDbEntity
  8
0
100
AcDbTrace
 62
2
  6
CONTINUOUS
 10
2.7963184701
 20
17.1111209701
 11
2.5586356269
 21
17.4742347649
 12
2.6657041128
 22
17.0536624153
 13
2.6657041128
 23
17.0536624153
  0
SOLID
  5
2D0
100
AcDbEntity
  8
0
100
AcDbTrace
 62
2
  6
CONTINUOUS
 10
8.6056579282
 20
17.0536624153
 11
8.712726414
 21
17.4742347649
 12
8.4750435708
 22
17.1111209701
 13
8.4750435708
 23
17.1111209701
  0
ENDBLK
  5
2D1
100
AcDbEntity
  8
0
  6
BYBLOCK
 62
0
100
AcDbBlockEnd
  0
BLOCK
  5
2D2
100
AcDbEntity
  8
0
100
AcDbBlockBegin
 62
2
  6
CONTINUOUS
  2
*D11
 70
65
 10
0.0
 20
0.0
  3
*D11
  1

  0
MTEXT
  5
2D3
100
AcDbEntity
  8
0
100
AcDbMText
 62
2
  6
CONTINUOUS
  7
STANDARD
 71
2
 72
1
 10
2.3767023533
 20
20.6968475681
 30
0.0
 11
1.0
 21
0.0
 31
0.0
 44
0.9
  1
85\P[3.3]
 40
0.3567351598
 41
1.5288649706
  0
LINE
  5
2D4
100
AcDbEntity
  8
0
100
AcDbLine
 62
2
  6
CONTINUOUS
 10
3.3276326258
 20
21.9406443905
 11
2.3333845125
 21
21.9406443905
  0
LINE
  5
2D5
100
AcDbEntity
  8
0
100
AcDbLine
 62
2
  6
CONTINUOUS
 10
4.0048339346
 20
18.5941876976
 11
2.3333845125
 21
18.5941876976
  0
LINE
  5
2D6
100
AcDbEntity
  8
0
100
AcDbLine
 62
2
  6
CONTINUOUS
 10
2.6187726404
 20
21.9406443905
 11
2.6187726404
 21
20.8752151481
  0
LINE
  5
2D7
100
AcDbEntity
  8
0
100
AcDbLine
 62
2
  6
CONTINUOUS
 10
2.6187726404
 20
18.5941876976
 11
2.6187726404
 21
19.6266420887
  0
INSERT
  5
2D8
100
AcDbEntity
  8
0
100
AcDbBlockReference
 62
2
  6
CONTINUOUS
  2
_FILLED
 10
2.6187726404
 20
21.9406443905
 41
0.4280821918
 42
0.4280821918
 43
0.4280821918
 50
90.0
  0
INSERT
  5
2D9
100
AcDbEntity
  8
0
100
AcDbBlockReference
 62
2
  6
CONTINUOUS
  2
_FILLED
 10
2.6187726404
 20
18.5941876976
 41
0.4280821918
 42
0.4280821918
 43
0.4280821918
 50
270.0
  0
ENDBLK
  5
2DA
100
AcDbEntity
  8
0
  6
BYBLOCK
 62
0
100
AcDbBlockEnd
  0
BLOCK
  5
2DB
100
AcDbEntity
  8
0
100
AcDbBlockBegin
 62
2
  6
CONTINUOUS
  2
*D12
 70
65
 10
0.0
 20
0.0
  3
*D12
  1

  0
MTEXT
  5
2DC
100
AcDbEntity
  8
0
100
AcDbMText
 62
2
  6
CONTINUOUS
  7
STANDARD
 71
2
 72
1
 10
13.9281034848
 20
12.7525820748
 30
0.0
 11
1.0
 21
0.0
 31
0.0
 44
0.9
  1
15.0\Fgdt;{\Fgdt;~}
 40
0.3567351598
 41
1.7709352577
  0
LINE
  5
2DD
100
AcDbEntity
  8
0
100
AcDbLine
 62
2
  6
CONTINUOUS
 10
17.0976359706
 20
10.3298521545
 11
13.080949268
 21
11.4061201127
  0
LINE
  5
2DE
100
AcDbEntity
  8
0
100
AcDbLine
 62
2
  6
CONTINUOUS
 10
14.8110704262
 20
10.2832507217
 11
12.9331207082
 21
10.2832507217
  0
ARC
  5
2DF
100
AcDbEntity
  8
0
100
AcDbCircle
 62
2
  6
CONTINUOUS
 10
17.2715548855
 20
10.2832507217
 40
4.0530460495
100
AcDbArc
 50
145.580697855
 51
165.0
  0
ARC
  5
2E0
100
AcDbEntity
  8
0
100
AcDbCircle
 62
2
  6
CONTINUOUS
 10
17.2715548855
 20
10.2832507217
 40
4.0530460495
100
AcDbArc
 50
180.0
 51
196.1375272322
  0
SOLID
  5
2E1
100
AcDbEntity
  8
0
100
AcDbTrace
 62
2
  6
CONTINUOUS
 10
13.4212357916
 20
11.7614049929
 11
13.3566130312
 21
11.33225623
 12
13.556926052
 22
11.7172490294
 13
13.556926052
 23
11.7172490294
  0
SOLID
  5
2E2
100
AcDbEntity
  8
0
100
AcDbTrace
 62
2
  6
CONTINUOUS
 10
13.3123528875
 20
9.8595314091
 11
13.218508836
 21
10.2832507217
 12
13.1698577563
 22
9.8519992471
 13
13.1698577563
 23
9.8519992471
  0
ENDBLK
  5
2E3
100
AcDbEntity
  8
0
  6
BYBLOCK
 62
0
100
AcDbBlockEnd
  0
BLOCK
  5
2E4
100
AcDbEntity
  8
0
100
AcDbBlockBegin
 62
2
  6
CONTINUOUS
  2
*D13
 70
65
 10
0.0
 20
0.0
  3
*D13
  1

  0
MTEXT
  5
2E5
100
AcDbEntity
  8
0
100
AcDbMText
 62
2
  6
CONTINUOUS
  7
STANDARD
 71
2
 72
1
 10
12.3582322373
 20
9.1450974659
 30
0.0
 11
1.0
 21
0.0
 31
0.0
 44
0.9
  1
A
 40
0.3567351598
 41
0.4586594912
  0
LINE
  5
2E6
100
AcDbEntity
  8
0
100
AcDbLine
 62
2
  6
CONTINUOUS
 10
14.8110704262
 20
10.2832507217
 11
12.2053457402
 21
10.2832507217
  0
LINE
  5
2E7
100
AcDbEntity
  8
0
100
AcDbLine
 62
2
  6
CONTINUOUS
 10
12.2053457402
 20
10.2832507217
 11
11.8995208533
 21
10.2832507217
  0
LINE
  5
2E8
100
AcDbEntity
  8
0
100
AcDbLine
 62
2
  6
CONTINUOUS
 10
17.1282931618
 20
10.200538527
 11
12.8245923547
 21
7.7157957075
  0
LINE
  5
2E9
100
AcDbEntity
  8
0
100
AcDbLine
 62
2
  6
CONTINUOUS
 10
12.8245923547
 20
7.7157957075
 11
12.6192369436
 21
7.5972337056
  0
ARC
  5
2EA
100
AcDbEntity
  8
0
100
AcDbCircle
 62
2
  6
CONTINUOUS
 10
17.2715548855
 20
10.2832507217
 40
5.0866459043
100
AcDbArc
 50
180.0
 51
190.8761886642
  0
ARC
  5
2EB
100
AcDbEntity
  8
0
100
AcDbCircle
 62
2
  6
CONTINUOUS
 10
17.2715548855
 20
10.2832507217
 40
5.0866459043
100
AcDbArc
 50
199.2051027887
 51
210.0
  0
SOLID
  5
2EC
100
AcDbEntity
  8
0
100
AcDbTrace
 62
2
  6
CONTINUOUS
 10
12.2742008228
 20
9.8585487922
 11
12.1849089811
 21
10.2832507217
 12
12.1316330705
 22
9.8525461371
 13
12.1316330705
 23
9.8525461371
  0
SOLID
  5
2ED
100
AcDbEntity
  8
0
100
AcDbTrace
 62
2
  6
CONTINUOUS
 10
12.6048997279
 20
8.086290926
 11
12.8663903123
 21
7.7399277695
 12
12.7313683508
 22
8.1523763503
 13
12.7313683508
 23
8.1523763503
  0
ENDBLK
  5
2EE
100
AcDbEntity
  8
0
  6
BYBLOCK
 62
0
100
AcDbBlockEnd
  0
BLOCK
  5
2EF
100
AcDbEntity
  8
0
100
AcDbBlockBegin
 62
2
  6
CONTINUOUS
  2
*D14
 70
65
 10
0.0
 20
0.0
  3
*D14
  1

  0
MTEXT
  5
2F0
100
AcDbEntity
  8
0
100
AcDbMText
 62
2
  6
CONTINUOUS
  7
STANDARD
 71
2
 72
1
 10
8.8467092194
 20
7.2505901026
 30
0.0
 11
1.0
 21
0.0
 31
0.0
 44
0.9
  1
30.0\Fgdt;{\Fgdt;~}
 40
0.3567351598
 41
1.8856001305
  0
LINE
  5
2F1
100
AcDbEntity
  8
0
100
AcDbLine
 62
2
  6
CONTINUOUS
 10
5.7183932152
 20
10.139988998
 11
8.0489148985
 21
6.1034070345
  0
LINE
  5
2F2
100
AcDbEntity
  8
0
100
AcDbLine
 62
2
  6
CONTINUOUS
 10
5.7789427442
 20
10.200538527
 11
9.8155247077
 21
7.8700168437
  0
ARC
  5
2F3
100
AcDbEntity
  8
0
100
AcDbCircle
 62
2
  6
CONTINUOUS
 10
5.6356810205
 20
10.2832507217
 40
4.5410796282
100
AcDbArc
 50
285.5967861495
 51
300.0
  0
ARC
  5
2F4
100
AcDbEntity
  8
0
100
AcDbCircle
 62
2
  6
CONTINUOUS
 10
5.6356810205
 20
10.2832507217
 40
4.5410796282
100
AcDbArc
 50
330.0
 51
344.4032138505
  0
SOLID
  5
2F5
100
AcDbEntity
  8
0
100
AcDbTrace
 62
2
  6
CONTINUOUS
 10
7.5585401746
 20
6.0908241511
 11
7.9062208345
 21
6.3505604031
 12
7.4930949394
 22
6.2176252436
 13
7.4930949394
 23
6.2176252436
  0
SOLID
  5
2F6
100
AcDbEntity
  8
0
100
AcDbTrace
 62
2
  6
CONTINUOUS
 10
9.7013064985
 20
8.4258368028
 11
9.5683713391
 21
8.0127109076
 12
9.8281075911
 22
8.3603915676
 13
9.8281075911
 23
8.3603915676
  0
ENDBLK
  5
2F7
100
AcDbEntity
  8
0
  6
BYBLOCK
 62
0
100
AcDbBlockEnd
  0
BLOCK
  5
2F8
100
AcDbEntity
  8
0
100
AcDbBlockBegin
 62
2
  6
CONTINUOUS
  2
*D15
 70
65
 10
0.0
 20
0.0
  3
*D15
  1

  0
MTEXT
  5
2F9
100
AcDbEntity
  8
0
100
AcDbMText
 62
2
  6
CONTINUOUS
  7
STANDARD
 71
2
 72
1
 10
18.9447832319
 20
15.1882678326
 30
0.0
 11
1.0
 21
0.0
 31
0.0
 44
0.9
  1
(85{\Ftxt.shx;\W1.357143;\H0.356735; }) \P[3.3]\PPOINT OF ARTICULATION
 40
0.3567351598
 41
8.7017897913
  0
LINE
  5
2FA
100
AcDbEntity
  8
0
100
AcDbLine
 62
2
  6
CONTINUOUS
 10
17.2715548855
 20
12.5926702727
 11
17.2715548855
 21
13.5829596134
  0
LINE
  5
2FB
100
AcDbEntity
  8
0
100
AcDbLine
 62
2
  6
CONTINUOUS
 10
17.2715548855
 20
14.2964299331
 11
17.2715548855
 21
15.2952883805
  0
LINE
  5
2FC
100
AcDbEntity
  8
0
100
AcDbLine
 62
2
  6
CONTINUOUS
 10
20.6180115784
 20
13.0955366806
 11
20.6180115784
 21
13.5829596134
  0
LINE
  5
2FD
100
AcDbEntity
  8
0
100
AcDbLine
 62
2
  6
CONTINUOUS
 10
20.6180115784
 20
14.2964299331
 11
20.6180115784
 21
15.2952883805
  0
LINE
  5
2FE
100
AcDbEntity
  8
0
100
AcDbLine
 62
2
  6
CONTINUOUS
 10
17.2715548855
 20
15.0099002527
 11
17.9637615425
 21
15.0099002527
  0
LINE
  5
2FF
100
AcDbEntity
  8
0
100
AcDbLine
 62
2
  6
CONTINUOUS
 10
20.6180115784
 20
15.0099002527
 11
19.9258049214
 21
15.0099002527
  0
INSERT
  5
300
100
AcDbEntity
  8
0
100
AcDbBlockReference
 62
2
  6
CONTINUOUS
  2
_FILLED
 10
17.2715548855
 20
15.0099002527
 41
0.4280821918
 42
0.4280821918
 43
0.4280821918
 50
180.0
  0
INSERT
  5
301
100
AcDbEntity
  8
0
100
AcDbBlockReference
 62
2
  6
CONTINUOUS
  2
_FILLED
 10
20.6180115784
 20
15.0099002527
 41
0.4280821918
 42
0.4280821918
 43
0.4280821918
  0
ENDBLK
  5
302
100
AcDbEntity
  8
0
  6
BYBLOCK
 62
0
100
AcDbBlockEnd
  0
ENDSEC
  0
SECTION
  2
ENTITIES
  0
MTEXT
  5
303
100
AcDbEntity
  8
0
100
AcDbMText
 62
2
  6
CONTINUOUS
  7
STANDARD
 71
1
 72
1
 10
5.6416509381
 20
0.9203740329
 30
0.0
 11
1.0
 21
0.0
 31
0.0
 44
0.9
  1
4
 40
0.3567351598
 41
0.4204378669
  0
MTEXT
  5
304
100
AcDbEntity
  8
0
100
AcDbMText
 62
2
  6
CONTINUOUS
  7
STANDARD
 71
1
 72
1
 10
14.4843716459
 20
0.918705116
 30
0.0
 11
1.0
 21
0.0
 31
0.0
 44
0.9
  1
3
 40
0.3567351598
 41
0.3822162427
  0
MTEXT
  5
305
100
AcDbEntity
  8
0
100
AcDbMText
 62
2
  6
CONTINUOUS
  7
STANDARD
 71
1
 72
1
 10
23.3066138437
 20
0.9194643858
 30
0.0
 11
1.0
 21
0.0
 31
0.0
 44
0.9
  1
2
 40
0.3567351598
 41
0.4204378669
  0
MTEXT
  5
306
100
AcDbEntity
  8
0
100
AcDbMText
 62
2
  6
CONTINUOUS
  7
STANDARD
 71
1
 72
1
 10
32.1454298915
 20
0.9195026628
 30
0.0
 11
1.0
 21
0.0
 31
0.0
 44
0.9
  1
1
 40
0.3567351598
 41
0.3057729941
  0
MTEXT
  5
307
100
AcDbEntity
  8
0
100
AcDbMText
 62
2
  6
CONTINUOUS
  7
STANDARD
 71
1
 72
1
 10
5.6429152314
 20
24.8163435969
 30
0.0
 11
1.0
 21
0.0
 31
0.0
 44
0.9
  1
4
 40
0.3567351598
 41
0.4204378669
  0
MTEXT
  5
308
100
AcDbEntity
  8
0
100
AcDbMText
 62
2
  6
CONTINUOUS
  7
STANDARD
 71
1
 72
1
 10
14.4808802131
 20
24.8136918531
 30
0.0
 11
1.0
 21
0.0
 31
0.0
 44
0.9
  1
3
 40
0.3567351598
 41
0.3822162427
  0
MTEXT
  5
309
100
AcDbEntity
  8
0
100
AcDbMText
 62
2
  6
CONTINUOUS
  7
STANDARD
 71
1
 72
1
 10
23.3108033535
 20
24.8132434812
 30
0.0
 11
1.0
 21
0.0
 31
0.0
 44
0.9
  1
2
 40
0.3567351598
 41
0.4204378669
  0
MTEXT
  5
30A
100
AcDbEntity
  8
0
100
AcDbMText
 62
2
  6
CONTINUOUS
  7
STANDARD
 71
1
 72
1
 10
32.145826541
 20
24.813565008
 30
0.0
 11
1.0
 21
0.0
 31
0.0
 44
0.9
  1
1
 40
0.3567351598
 41
0.3057729941
  0
MTEXT
  5
30B
100
AcDbEntity
  8
0
100
AcDbMText
 62
2
  6
CONTINUOUS
  7
STANDARD
 71
1
 72
1
 10
0.5805209282
 20
4.2449687425
 30
0.0
 11
1.0
 21
0.0
 31
0.0
 44
0.9
  1
A
 40
0.3567351598
 41
0.4586594912
  0
MTEXT
  5
30C
100
AcDbEntity
  8
0
100
AcDbMText
 62
2
  6
CONTINUOUS
  7
STANDARD
 71
1
 72
1
 10
0.5930302071
 20
9.9549557358
 30
0.0
 11
1.0
 21
0.0
 31
0.0
 44
0.9
  1
B
 40
0.3567351598
 41
0.4204378669
  0
MTEXT
  5
30D
100
AcDbEntity
  8
0
100
AcDbMText
 62
2
  6
CONTINUOUS
  7
STANDARD
 71
1
 72
1
 10
0.5897238735
 20
15.6573060809
 30
0.0
 11
1.0
 21
0.0
 31
0.0
 44
0.9
  1
C
 40
0.3567351598
 41
0.4459189498
  0
MTEXT
  5
30E
100
AcDbEntity
  8
0
100
AcDbMText
 62
2
  6
CONTINUOUS
  7
STANDARD
 71
1
 72
1
 10
0.5945017455
 20
21.3746751132
 30
0.0
 11
1.0
 21
0.0
 31
0.0
 44
0.9
  1
D
 40
0.3567351598
 41
0.484140574
  0
MTEXT
  5
30F
100
AcDbEntity
  8
0
100
AcDbMText
 62
2
  6
CONTINUOUS
  7
STANDARD
 71
1
 72
1
 10
37.1013671699
 20
4.2442812548
 30
0.0
 11
1.0
 21
0.0
 31
0.0
 44
0.9
  1
A
 40
0.3567351598
 41
0.4586594912
  0
MTEXT
  5
310
100
AcDbEntity
  8
0
100
AcDbMText
 62
2
  6
CONTINUOUS
  7
STANDARD
 71
1
 72
1
 10
37.0992394087
 20
9.9541852553
 30
0.0
 11
1.0
 21
0.0
 31
0.0
 44
0.9
  1
B
 40
0.3567351598
 41
0.4204378669
  0
MTEXT
  5
311
100
AcDbEntity
  8
0
100
AcDbMText
 62
2
  6
CONTINUOUS
  7
STANDARD
 71
1
 72
1
 10
37.0982945394
 20
15.656054247
 30
0.0
 11
1.0
 21
0.0
 31
0.0
 44
0.9
  1
C
 40
0.3567351598
 41
0.4459189498
  0
MTEXT
  5
312
100
AcDbEntity
  8
0
100
AcDbMText
 62
2
  6
CONTINUOUS
  7
STANDARD
 71
1
 72
1
 10
37.099166173
 20
21.3740155497
 30
0.0
 11
1.0
 21
0.0
 31
0.0
 44
0.9
  1
D
 40
0.3567351598
 41
0.484140574
  0
MTEXT
  5
313
100
AcDbEntity
  8
0
100
AcDbMText
 62
5
  6
CONTINUOUS
  7
STANDARD
 71
1
 72
1
 10
1.2425693062
 20
23.886922877
 30
0.0
 11
1.0
 21
0.0
 31
0.0
 44
0.9
  1
THIS DOCUMENT CONTAINS PROPRIETARY INFORMATION\PWHICH IS THE PROPERTY OF QSC, LLC, THAT MAY NOT BE\PDISCLOSED, REPRODUCED OR USED WITHOUT EXPRESS\PWRITTEN CONSENT FROM QSC, LLC.
 40
0.1712328767
 41
10.1455479452
  0
MTEXT
  5
314
100
AcDbEntity
  8
0
100
AcDbMText
 62
2
  6
CONTINUOUS
  7
STANDARD
 71
2
 72
1
 10
16.518144473
 20
5.917775111
 30
0.0
 11
1.0
 21
0.0
 31
0.0
 44
0.9
  1
TOLERANCES ARE:
 40
0.2054794521
 41
3.5298434442
  0
MTEXT
  5
315
100
AcDbEntity
  8
0
100
AcDbMText
 62
2
  6
CONTINUOUS
  7
STANDARD
 71
2
 72
1
 10
18.5600388
 20
5.3938372023
 30
0.0
 11
1.0
 21
0.0
 31
0.0
 44
0.9
  1
ANGLES\P\Fgdt;{\Fgdt;`}\Ftxt; 1/2
 40
0.2054794521
 41
1.4677103718
  0
MTEXT
  5
316
100
AcDbEntity
  8
0
100
AcDbMText
 62
2
  6
CONTINUOUS
  7
STANDARD
 71
2
 72
1
 10
14.7464029242
 20
3.8498171634
 30
0.0
 11
1.0
 21
0.0
 31
0.0
 44
0.9
  1
MATERIAL
 40
0.2054794521
 41
1.9740704501
  0
MTEXT
  5
317
100
AcDbEntity
  8
0
100
AcDbMText
 62
2
  6
CONTINUOUS
  7
STANDARD
 71
2
 72
1
 10
14.5277162466
 20
2.4592388743
 30
0.0
 11
1.0
 21
0.0
 31
0.0
 44
0.9
  1
FINISH
 40
0.2054794521
 41
1.4016634051
  0
MTEXT
  5
318
100
AcDbEntity
  8
0
100
AcDbMText
 62
2
  6
CONTINUOUS
  7
STANDARD
 71
2
 72
1
 10
30.2963294858
 20
1.5545720588
 30
0.0
 11
1.0
 21
0.0
 31
0.0
 44
0.9
  1
DO NOT SCALE DRAWING
 40
0.2853881279
 41
7.1143183301
  0
MTEXT
  5
319
100
AcDbEntity
  8
0
100
AcDbMText
 62
2
  6
CONTINUOUS
  7
STANDARD
 71
2
 72
1
 10
19.8834553791
 20
6.8710565606
 30
0.0
 11
1.0
 21
0.0
 31
0.0
 44
0.9
  1
DESIGNER
 40
0.2054794521
 41
1.9447162427
  0
MTEXT
  5
31A
100
AcDbEntity
  8
0
100
AcDbMText
 62
2
  6
CONTINUOUS
  7
STANDARD
 71
2
 72
1
 10
19.8407305657
 20
5.7094746548
 30
0.0
 11
1.0
 21
0.0
 31
0.0
 44
0.9
  1
ENGINEER
 40
0.2054794521
 41
1.8860078278
  0
MTEXT
  5
31B
100
AcDbEntity
  8
0
100
AcDbMText
 62
2
  6
CONTINUOUS
  7
STANDARD
 71
2
 72
1
 10
20.6569621123
 20
4.5309301073
 30
0.0
 11
1.0
 21
0.0
 31
0.0
 44
0.9
  1
TECHNICAL DIRECTOR
 40
0.2054794521
 41
4.3884540117
  0
MTEXT
  5
31C
100
AcDbEntity
  8
0
100
AcDbMText
 62
2
  6
CONTINUOUS
  7
STANDARD
 71
2
 72
1
 10
21.0021809935
 20
3.3384839897
 30
0.0
 11
1.0
 21
0.0
 31
0.0
 44
0.9
  1
MANUFACTURING ENGINEER
 40
0.2054794521
 41
5.313111546
  0
MTEXT
  5
31D
100
AcDbEntity
  8
0
100
AcDbMText
 62
2
  6
CONTINUOUS
  7
STANDARD
 71
2
 72
1
 10
20.4486837908
 20
1.5433846321
 30
0.0
 11
1.0
 21
0.0
 31
0.0
 44
0.9
  1
MODEL INFO:
 40
0.2054794521
 41
2.5171232877
  0
MTEXT
  5
31E
100
AcDbEntity
  8
0
100
AcDbMText
 62
2
  6
CONTINUOUS
  7
STANDARD
 71
2
 72
1
 10
20.2371024961
 20
2.0967147066
 30
0.0
 11
1.0
 21
0.0
 31
0.0
 44
0.9
  1
DRAWING INFO:
 40
0.2054794521
 41
3.1996086106
  0
MTEXT
  5
31F
100
AcDbEntity
  8
0
100
AcDbMText
 62
2
  6
CONTINUOUS
  7
STANDARD
 71
2
 72
1
 10
25.6606497292
 20
1.5228774663
 30
0.0
 11
1.0
 21
0.0
 31
0.0
 44
0.9
  1
SCALE:
 40
0.2054794521
 41
1.3502935421
  0
MTEXT
  5
320
100
AcDbEntity
  8
0
100
AcDbMText
 62
2
  6
CONTINUOUS
  7
STANDARD
 71
2
 72
1
 10
33.3704172016
 20
1.5266686907
 30
0.0
 11
1.0
 21
0.0
 31
0.0
 44
0.9
  1
SHEET
 40
0.2054794521
 41
1.247553816
  0
MTEXT
  5
321
100
AcDbEntity
  8
0
100
AcDbMText
 62
2
  6
CONTINUOUS
  7
STANDARD
 71
2
 72
1
 10
25.6666197506
 20
2.7633097427
 30
0.0
 11
1.0
 21
0.0
 31
0.0
 44
0.9
  1
SIZE
 40
0.2054794521
 41
0.9613502935
  0
MTEXT
  5
322
100
AcDbEntity
  8
0
100
AcDbMText
 62
2
  6
CONTINUOUS
  7
STANDARD
 71
2
 72
1
 10
27.3600402024
 20
2.765790966
 30
0.0
 11
1.0
 21
0.0
 31
0.0
 44
0.9
  1
CAGE CODE
 40
0.2054794521
 41
2.2822896282
  0
MTEXT
  5
323
100
AcDbEntity
  8
0
100
AcDbMText
 62
2
  6
CONTINUOUS
  7
STANDARD
 71
2
 72
1
 10
29.5455473699
 20
2.7610341683
 30
0.0
 11
1.0
 21
0.0
 31
0.0
 44
0.9
  1
DRAWING NO.
 40
0.2054794521
 41
2.8473581213
  0
MTEXT
  5
324
100
AcDbEntity
  8
0
100
AcDbMText
 62
2
  6
CONTINUOUS
  7
STANDARD
 71
2
 72
1
 10
35.9866042453
 20
2.7640956774
 30
0.0
 11
1.0
 21
0.0
 31
0.0
 44
0.9
  1
REV
 40
0.2054794521
 41
0.7778864971
  0
MTEXT
  5
325
100
AcDbEntity
  8
0
100
AcDbMText
 62
2
  6
CONTINUOUS
  7
STANDARD
 71
2
 72
1
 10
30.6080335529
 20
6.8047297908
 30
0.0
 11
1.0
 21
0.0
 31
0.0
 44
0.9
  1
QSC, LLC
 40
0.3567351598
 41
3.2870596869
  0
MTEXT
  5
326
100
AcDbEntity
  8
0
100
AcDbMText
 62
2
  6
CONTINUOUS
  7
STANDARD
 71
1
 72
1
 10
29.4797543694
 20
6.2883337075
 30
0.0
 11
1.0
 21
0.0
 31
0.0
 44
0.9
  1
1675  MACARTHUR BOULEVARD\PCOSTA MESA, CA  92626
 40
0.2853881279
 41
8.5208741031
  0
MTEXT
  5
327
100
AcDbEntity
  8
0
100
AcDbMText
 62
2
  6
CONTINUOUS
  7
STANDARD
 71
1
 72
1
 10
26.5527591071
 20
2.2746038625
 30
0.0
 11
1.0
 21
0.0
 31
0.0
 44
0.9
  1
00PW4
 40
0.3567351598
 41
2.5098866601
  0
MTEXT
  5
328
100
AcDbEntity
  8
0
100
AcDbMText
 62
2
  6
CONTINUOUS
  7
STANDARD
 71
2
 72
1
 10
16.5640841944
 20
6.7848914038
 30
0.0
 11
1.0
 21
0.0
 31
0.0
 44
0.9
  1
UNLESS OTHERWISE SPECIFIED\PDIMENSIONS IN MILLIMETERS [IN]
 40
0.2283105023
 41
7.5016307893
  0
MTEXT
  5
329
100
AcDbEntity
  8
0
100
AcDbMText
 62
2
  6
CONTINUOUS
  7
STANDARD
 71
2
 72
1
 10
14.9050862206
 20
5.3970666993
 30
0.0
 11
1.0
 21
0.0
 31
0.0
 44
0.9
  1
DECIMALS\P.X\Fgdt;{\Fgdt;`}\Ftxt;.5[.02]
 40
0.2054794521
 41
2.1208414873
  0
MTEXT
  5
32A
100
AcDbEntity
  8
0
100
AcDbMText
 62
2
  6
CONTINUOUS
  7
STANDARD
 71
2
 72
1
 10
16.8968237164
 20
5.3981605332
 30
0.0
 11
1.0
 21
0.0
 31
0.0
 44
0.9
  1
DECIMALS\P.XX\Fgdt;{\Fgdt;`}\Ftxt;.25[.010]
 40
0.2054794521
 41
2.8033268102
  0
MTEXT
  5
32B
100
AcDbEntity
  8
0
100
AcDbMText
 62
2
  6
CONTINUOUS
  7
STANDARD
 71
2
 72
1
 10
16.5309845868
 20
4.5012872525
 30
0.0
 11
1.0
 21
0.0
 31
0.0
 44
0.9
  1
DEBURR EDGES .25 [.010] R MAX
 40
0.2054794521
 41
6.7147749511
  0
INSERT
  5
32C
100
AcDbEntity
  8
0
100
AcDbBlockReference
 62
7
  6
CONTINUOUS
  2
RD010411_BL0
 10
27.1434253397
 20
6.1669193269
  0
DIMENSION
  5
32D
100
AcDbEntity
  8
0
100
AcDbDimension
 62
2
  6
CONTINUOUS
  2
*D0
 10
8.3919908704
 20
20.956392422
 11
9.4596482416
 21
19.8696862043
 70
160
 71
1
 42
25.0
  3
DIMSTYLE_1
100
AcDbAlignedDimension
 13
7.8812294151
 23
21.9406443905
 14
6.7932585247
 24
20.956392422
 50
270.0
100
AcDbRotatedDimension
  0
DIMENSION
  5
32E
100
AcDbEntity
  8
0
100
AcDbDimension
 62
2
  6
CONTINUOUS
  2
*D1
 10
2.666319468
 20
8.4682900918
 11
2.666319468
 21
10.2126630655
 70
160
 71
2
 42
92.2
  3
DIMSTYLE_1
100
AcDbAlignedDimension
 13
3.7405263266
 23
12.0982113516
 14
3.7405263266
 24
8.4682900918
 50
270.0
100
AcDbRotatedDimension
  0
DIMENSION
  5
32F
100
AcDbEntity
  8
0
100
AcDbDimension
 62
2
  6
CONTINUOUS
  2
*D2
 10
7.4506416504
 20
14.0625985087
 11
5.6356810205
 21
13.7950471389
 70
160
 71
2
 42
92.2
  3
DIMSTYLE_1
100
AcDbAlignedDimension
 13
3.8207203905
 23
12.1784054156
 14
7.4506416504
 24
12.1784054156
100
AcDbRotatedDimension
  0
DIMENSION
  5
330
100
AcDbEntity
  8
0
100
AcDbDimension
 62
2
  6
CONTINUOUS
  2
*D3
 10
31.9992929747
 20
15.6477345959
 11
29.833938644
 21
15.3801832261
 70
160
 71
2
 42
110.0
  3
DIMSTYLE_1
100
AcDbAlignedDimension
 13
27.6685843133
 23
13.0012400612
 14
31.9992929747
 24
13.0012400612
100
AcDbRotatedDimension
  0
DIMENSION
  5
331
100
AcDbEntity
  8
0
100
AcDbDimension
 62
2
  6
CONTINUOUS
  2
*D4
 10
31.6055921873
 20
14.2753449931
 11
29.833938644
 21
14.0077936232
 70
160
 71
2
 42
90.0
  3
DIMSTYLE_1
100
AcDbAlignedDimension
 13
28.0622851007
 23
10.7295505635
 14
31.6055921873
 24
10.7006308587
100
AcDbRotatedDimension
  0
DIMENSION
  5
332
100
AcDbEntity
  8
0
100
AcDbDimension
 62
2
  6
CONTINUOUS
  2
*D5
 10
26.6323282889
 20
8.0194711942
 11
26.6323282889
 21
10.0156993519
 70
160
 71
2
 42
115.0
  3
DIMSTYLE_1
100
AcDbAlignedDimension
 13
29.4201972057
 23
12.5470302493
 14
29.4201972057
 24
8.0194711942
 50
270.0
100
AcDbRotatedDimension
  0
DIMENSION
  5
333
100
AcDbEntity
  8
0
100
AcDbDimension
 62
2
  6
CONTINUOUS
  2
*D6
 10
33.5513227072
 20
7.6454554461
 11
33.5513227072
 21
10.0156993519
 70
160
 71
2
 42
134.0
  3
DIMSTYLE_1
100
AcDbAlignedDimension
 13
32.0794870387
 23
12.9210459973
 14
32.0794870387
 24
7.6454554461
 50
270.0
100
AcDbRotatedDimension
  0
DIMENSION
  5
334
100
AcDbEntity
  8
0
100
AcDbDimension
 62
2
  6
CONTINUOUS
  2
*D7
 10
28.0235087836
 20
10.4154775541
 11
25.3550009361
 21
13.7097062061
 70
163
 71
3
 42
7.0
  1
4X %%c<>
  3
DIMSTYLE_2
100
AcDbDiametricDimension
 15
28.1010614178
 25
10.1510238893
  0
DIMENSION
  5
335
100
AcDbEntity
  8
0
100
AcDbDimension
 62
2
  6
CONTINUOUS
  2
*D8
 10
10.9762493429
 20
16.7556050204
 11
10.9762493429
 21
19.0805733356
 70
160
 71
2
 42
131.7
  3
DIMSTYLE_1
100
AcDbAlignedDimension
 13
7.8812294151
 23
21.9406443905
 14
7.5308357143
 24
16.7556050204
 50
270.0
100
AcDbRotatedDimension
  0
DIMENSION
  5
336
100
AcDbEntity
  8
0
100
AcDbDimension
 62
2
  6
CONTINUOUS
  2
*D9
 10
12.4597284848
 20
16.519384548
 11
12.4597284848
 21
18.9624630994
 70
160
 71
2
 42
137.7
  3
DIMSTYLE_1
100
AcDbAlignedDimension
 13
7.8812294151
 23
21.9406443905
 14
6.9971016483
 24
16.519384548
 50
270.0
100
AcDbRotatedDimension
  0
DIMENSION
  5
337
100
AcDbEntity
  8
0
100
AcDbDimension
 62
2
  6
CONTINUOUS
  2
*D10
 10
5.6192346396
 20
18.6001736907
 11
5.5847189568
 21
15.3196642105
 70
162
 71
2
 42
2.4434609528
  1
B
  3
DIMSTYLE_3
100
AcDb2LineAngularDimension
 13
5.6806183497
 23
18.6105435479
 14
5.6498478958
 24
18.5993440185
 15
5.5884641857
 25
18.61137322
 16
5.6356810205
 26
15.3196643849
  0
DIMENSION
  5
338
100
AcDbEntity
  8
0
100
AcDbDimension
 62
2
  6
CONTINUOUS
  2
*D11
 10
2.6187726404
 20
18.5941876976
 11
2.6187726404
 21
20.2509286184
 70
160
 71
2
 42
85.0
  3
DIMSTYLE_1
100
AcDbAlignedDimension
 13
3.3901326258
 23
21.9406443905
 14
4.0673339346
 24
18.5941876976
 50
270.0
100
AcDbRotatedDimension
  0
DIMENSION
  5
339
100
AcDbEntity
  8
0
100
AcDbDimension
 62
2
  6
CONTINUOUS
  2
*D12
 10
14.8735704262
 20
10.2832507217
 11
13.9281034848
 21
12.5742144949
 70
162
 71
2
 42
0.2617993878
  3
DIMSTYLE_3
100
AcDb2LineAngularDimension
 13
17.1971557533
 23
10.3031859091
 14
17.1580063347
 24
10.3136759642
 15
14.9141008867
 25
10.2832507217
 16
13.2531832068
 26
10.8122793894
  0
DIMENSION
  5
33A
100
AcDbEntity
  8
0
100
AcDbDimension
 62
2
  6
CONTINUOUS
  2
*D13
 10
17.1824197495
 20
10.231788527
 11
12.3072697539
 21
8.9667297433
 70
162
 71
2
 42
0.5235987756
  1
A
  3
DIMSTYLE_3
100
AcDb2LineAngularDimension
 13
14.9244368852
 23
10.2832507217
 14
14.8735704262
 24
10.2832507217
 15
17.2264713953
 25
10.2572217565
 16
12.3582322373
 26
8.966729886
  0
DIMENSION
  5
33B
100
AcDbEntity
  8
0
100
AcDbDimension
 62
2
  6
CONTINUOUS
  2
*D14
 10
5.7248161564
 20
10.231788527
 11
8.8467092194
 21
7.0722225227
 70
162
 71
2
 42
0.5235987756
  3
DIMSTYLE_3
100
AcDb2LineAngularDimension
 13
5.6644378171
 23
10.2334424889
 14
5.6871432152
 24
10.1941155858
 15
5.6854892532
 25
10.2544939251
 16
8.8467092194
 26
7.0722225227
  0
DIMENSION
  5
33C
100
AcDbEntity
  8
0
100
AcDbDimension
 62
2
  6
CONTINUOUS
  2
*D15
 10
20.6180115784
 20
15.0099002527
 11
18.9447832319
 21
14.474797513
 70
160
 71
2
 42
85.0
  1
(<>) \PPOINT OF ARTICULATION
  3
DIMSTYLE_1
100
AcDbAlignedDimension
 13
17.2715548855
 23
12.5301702727
 14
20.6180115784
 24
13.0330366806
100
AcDbRotatedDimension
  0
LWPOLYLINE
  5
33D
100
AcDbEntity
  8
0
100
AcDbPolyline
 62
2
  6
CONTINUOUS
 90
2
 70
0
 43
0.0456621005
 10
36.5485685198
 20
23.9704486855
 10
13.5291621271
 20
23.9704486855
  0
LWPOLYLINE
  5
33E
100
AcDbEntity
  8
0
100
AcDbPolyline
 62
2
  6
CONTINUOUS
 90
2
 70
0
 43
0.0456621005
 10
36.5257374695
 20
23.9704486855
 10
36.5257374695
 20
21.8300377266
  0
LWPOLYLINE
  5
33F
100
AcDbEntity
  8
0
100
AcDbPolyline
 62
2
  6
CONTINUOUS
 90
2
 70
0
 43
0.0456621005
 10
36.5257374695
 20
23.2569783659
 10
13.5519931773
 20
23.2569783659
  0
LWPOLYLINE
  5
340
100
AcDbEntity
  8
0
100
AcDbPolyline
 62
2
  6
CONTINUOUS
 90
2
 70
0
 43
0.0456621005
 10
36.5257374695
 20
22.5435080463
 10
13.5519931773
 20
22.5435080463
  0
LWPOLYLINE
  5
341
100
AcDbEntity
  8
0
100
AcDbPolyline
 62
2
  6
CONTINUOUS
 90
2
 70
0
 43
0.0456621005
 10
36.5485685198
 20
21.8300377266
 10
13.5291621271
 20
21.8300377266
  0
LWPOLYLINE
  5
342
100
AcDbEntity
  8
0
100
AcDbPolyline
 62
2
  6
CONTINUOUS
 90
2
 70
0
 43
0.0456621005
 10
34.8134087024
 20
23.2569783659
 10
34.8134087024
 20
21.8300377266
  0
LWPOLYLINE
  5
343
100
AcDbEntity
  8
0
100
AcDbPolyline
 62
2
  6
CONTINUOUS
 90
2
 70
0
 43
0.0456621005
 10
32.2449155517
 20
23.2569783659
 10
32.2449155517
 20
21.8300377266
  0
LWPOLYLINE
  5
344
100
AcDbEntity
  8
0
100
AcDbPolyline
 62
2
  6
CONTINUOUS
 90
2
 70
0
 43
0.0456621005
 10
31.1033630403
 20
23.2569783659
 10
31.1033630403
 20
21.8300377266
  0
LWPOLYLINE
  5
345
100
AcDbEntity
  8
0
100
AcDbPolyline
 62
2
  6
CONTINUOUS
 90
2
 70
0
 43
0.0456621005
 10
16.5485685198
 20
23.2569783659
 10
16.5485685198
 20
21.8300377266
  0
LWPOLYLINE
  5
346
100
AcDbEntity
  8
0
100
AcDbPolyline
 62
2
  6
CONTINUOUS
 90
2
 70
0
 43
0.0456621005
 10
14.6935456887
 20
23.2569783659
 10
14.6935456887
 20
21.8300377266
  0
LWPOLYLINE
  5
347
100
AcDbEntity
  8
0
100
AcDbPolyline
 62
2
  6
CONTINUOUS
 90
2
 70
0
 43
0.0456621005
 10
13.5519931773
 20
23.9704486855
 10
13.5519931773
 20
21.8300377266
  0
MTEXT
  5
348
100
AcDbEntity
  8
0
100
AcDbMText
 62
2
  6
CONTINUOUS
  7
STANDARD
 71
2
 72
1
 10
25.0388653234
 20
23.7920811056
 30
0.0
 11
1.0
 21
0.0
 31
0.0
 44
0.9
  1
REVISIONS
 40
0.3567351598
 41
3.6183137639
  0
MTEXT
  5
349
100
AcDbEntity
  8
0
100
AcDbMText
 62
2
  6
CONTINUOUS
  7
STANDARD
 71
2
 72
1
 10
35.669573086
 20
23.0783253979
 30
0.0
 11
1.0
 21
0.0
 31
0.0
 44
0.9
  1
ISSUED
 40
0.3561643836
 41
2.4677103718
  0
MTEXT
  5
34A
100
AcDbEntity
  8
0
100
AcDbMText
 62
2
  6
CONTINUOUS
  7
STANDARD
 71
2
 72
1
 10
33.5291621271
 20
23.0783253979
 30
0.0
 11
1.0
 21
0.0
 31
0.0
 44
0.9
  1
EFF DATE
 40
0.3561643836
 41
3.3454011742
  0
MTEXT
  5
34B
100
AcDbEntity
  8
0
100
AcDbMText
 62
2
  6
CONTINUOUS
  7
STANDARD
 71
2
 72
1
 10
31.674139296
 20
23.078610786
 30
0.0
 11
1.0
 21
0.0
 31
0.0
 44
0.9
  1
BY
 40
0.3567351598
 41
0.8790973581
  0
MTEXT
  5
34C
100
AcDbEntity
  8
0
100
AcDbMText
 62
2
  6
CONTINUOUS
  7
STANDARD
 71
2
 72
1
 10
23.82596578
 20
23.0783253979
 30
0.0
 11
1.0
 21
0.0
 31
0.0
 44
0.9
  1
DESCRIPTION
 40
0.3561643836
 41
4.553816047
  0
MTEXT
  5
34D
100
AcDbEntity
  8
0
100
AcDbMText
 62
2
  6
CONTINUOUS
  7
STANDARD
 71
2
 72
1
 10
15.6210571042
 20
23.078610786
 30
0.0
 11
1.0
 21
0.0
 31
0.0
 44
0.9
  1
ECO
 40
0.3567351598
 41
1.2485730594
  0
MTEXT
  5
34E
100
AcDbEntity
  8
0
100
AcDbMText
 62
2
  6
CONTINUOUS
  7
STANDARD
 71
2
 72
1
 10
14.122769433
 20
23.0783253979
 30
0.0
 11
1.0
 21
0.0
 31
0.0
 44
0.9
  1
REV
 40
0.3561643836
 41
1.2465753425
  0
MTEXT
  5
34F
100
AcDbEntity
  8
0
100
AcDbMText
 62
2
  6
CONTINUOUS
  7
STANDARD
 71
2
 72
1
 10
35.669573086
 20
22.3651404663
 30
0.0
 11
1.0
 21
0.0
 31
0.0
 44
0.9
  1
-
 40
0.3567351598
 41
0.484140574
  0
MTEXT
  5
350
100
AcDbEntity
  8
0
100
AcDbMText
 62
2
  6
CONTINUOUS
  7
STANDARD
 71
2
 72
1
 10
33.5291621271
 20
22.3651404663
 30
0.0
 11
1.0
 21
0.0
 31
0.0
 44
0.9
  1
28-JAN-14
 40
0.3567351598
 41
3.6565353881
  0
MTEXT
  5
351
100
AcDbEntity
  8
0
100
AcDbMText
 62
2
  6
CONTINUOUS
  7
STANDARD
 71
2
 72
1
 10
31.674139296
 20
22.3651404663
 30
0.0
 11
1.0
 21
0.0
 31
0.0
 44
0.9
  1
 JD 
 40
0.3567351598
 41
1.7709352577
  0
MTEXT
  5
352
100
AcDbEntity
  8
0
100
AcDbMText
 62
2
  6
CONTINUOUS
  7
STANDARD
 71
1
 72
1
 10
16.6912625837
 20
22.3651404663
 30
0.0
 11
1.0
 21
0.0
 31
0.0
 44
0.9
  1
RELEASE
 40
0.3567351598
 41
2.8921029028
  0
MTEXT
  5
353
100
AcDbEntity
  8
0
100
AcDbMText
 62
2
  6
CONTINUOUS
  7
STANDARD
 71
2
 72
1
 10
15.6210571042
 20
22.3651404663
 30
0.0
 11
1.0
 21
0.0
 31
0.0
 44
0.9
  1
-
 40
0.3567351598
 41
0.484140574
  0
MTEXT
  5
354
100
AcDbEntity
  8
0
100
AcDbMText
 62
2
  6
CONTINUOUS
  7
STANDARD
 71
2
 72
1
 10
14.122769433
 20
22.3651404663
 30
0.0
 11
1.0
 21
0.0
 31
0.0
 44
0.9
  1
A
 40
0.3567351598
 41
0.5605838226
  0
LINE
  5
355
100
AcDbEntity
  8
0
100
AcDbLine
 62
2
  6
CONTINUOUS
 10
13.9840182648
 20
3.99543379
 11
19.1210045662
 21
3.99543379
  0
LINE
  5
356
100
AcDbEntity
  8
0
100
AcDbLine
 62
2
  6
CONTINUOUS
 10
13.9840182648
 20
3.99543379
 11
13.9840182648
 21
2.5684931507
  0
LINE
  5
357
100
AcDbEntity
  8
0
100
AcDbLine
 62
2
  6
CONTINUOUS
 10
13.9840182648
 20
2.5684931507
 11
19.1210045662
 21
2.5684931507
  0
LINE
  5
358
100
AcDbEntity
  8
0
100
AcDbLine
 62
2
  6
CONTINUOUS
 10
19.1210045662
 20
3.99543379
 11
19.1210045662
 21
2.5684931507
  0
LINE
  5
359
100
AcDbEntity
  8
0
100
AcDbLine
 62
2
  6
CONTINUOUS
 10
13.9840182648
 20
2.5684931507
 11
19.1210045662
 21
2.5684931507
  0
LINE
  5
35A
100
AcDbEntity
  8
0
100
AcDbLine
 62
2
  6
CONTINUOUS
 10
13.9840182648
 20
2.5684931507
 11
13.9840182648
 21
1.1415525114
  0
LINE
  5
35B
100
AcDbEntity
  8
0
100
AcDbLine
 62
2
  6
CONTINUOUS
 10
13.9840182648
 20
1.1415525114
 11
19.1210045662
 21
1.1415525114
  0
LINE
  5
35C
100
AcDbEntity
  8
0
100
AcDbLine
 62
2
  6
CONTINUOUS
 10
19.1210045662
 20
2.5684931507
 11
19.1210045662
 21
1.1415525114
  0
LINE
  5
35D
100
AcDbEntity
  8
0
100
AcDbLine
 62
2
  6
CONTINUOUS
 10
19.1210045662
 20
6.2785388128
 11
23.1164383562
 21
6.2785388128
  0
LINE
  5
35E
100
AcDbEntity
  8
0
100
AcDbLine
 62
2
  6
CONTINUOUS
 10
19.1210045662
 20
6.2785388128
 11
19.1210045662
 21
5.2975171233
  0
LINE
  5
35F
100
AcDbEntity
  8
0
100
AcDbLine
 62
2
  6
CONTINUOUS
 10
19.1210045662
 20
5.2975171233
 11
23.1164383562
 21
5.2975171233
  0
LINE
  5
360
100
AcDbEntity
  8
0
100
AcDbLine
 62
2
  6
CONTINUOUS
 10
23.1164383562
 20
6.2785388128
 11
23.1164383562
 21
5.2975171233
  0
MTEXT
  5
361
100
AcDbEntity
  8
0
100
AcDbMText
 62
2
  6
CONTINUOUS
  7
STANDARD
 71
1
 72
1
 10
19.2636986301
 20
5.832619863
 30
0.0
 11
1.0
 21
0.0
 31
0.0
 44
0.9
  1
J. DELARM 
 40
0.3567351598
 41
4.0387516308
  0
LINE
  5
362
100
AcDbEntity
  8
0
100
AcDbLine
 62
2
  6
CONTINUOUS
 10
19.1210045662
 20
5.2796803653
 11
23.1164383562
 21
5.2796803653
  0
LINE
  5
363
100
AcDbEntity
  8
0
100
AcDbLine
 62
2
  6
CONTINUOUS
 10
19.1210045662
 20
5.2796803653
 11
19.1210045662
 21
4.2751141553
  0
LINE
  5
364
100
AcDbEntity
  8
0
100
AcDbLine
 62
2
  6
CONTINUOUS
 10
19.1210045662
 20
4.2751141553
 11
23.1164383562
 21
4.2751141553
  0
LINE
  5
365
100
AcDbEntity
  8
0
100
AcDbLine
 62
2
  6
CONTINUOUS
 10
23.1164383562
 20
5.2796803653
 11
23.1164383562
 21
4.2751141553
  0
MTEXT
  5
366
100
AcDbEntity
  8
0
100
AcDbMText
 62
2
  6
CONTINUOUS
  7
STANDARD
 71
1
 72
1
 10
19.2636986301
 20
4.810216895
 30
0.0
 11
1.0
 21
0.0
 31
0.0
 44
0.9
  1
B. HAWKINS 
 40
0.3567351598
 41
4.7777030333
  0
LINE
  5
367
100
AcDbEntity
  8
0
100
AcDbLine
 62
2
  6
CONTINUOUS
 10
19.1210045662
 20
4.2808219178
 11
23.1164383562
 21
4.2808219178
  0
LINE
  5
368
100
AcDbEntity
  8
0
100
AcDbLine
 62
2
  6
CONTINUOUS
 10
19.1210045662
 20
4.2808219178
 11
19.1210045662
 21
3.2998002283
  0
LINE
  5
369
100
AcDbEntity
  8
0
100
AcDbLine
 62
2
  6
CONTINUOUS
 10
19.1210045662
 20
3.2998002283
 11
23.1164383562
 21
3.2998002283
  0
LINE
  5
36A
100
AcDbEntity
  8
0
100
AcDbLine
 62
2
  6
CONTINUOUS
 10
23.1164383562
 20
4.2808219178
 11
23.1164383562
 21
3.2998002283
  0
MTEXT
  5
36B
100
AcDbEntity
  8
0
100
AcDbMText
 62
2
  6
CONTINUOUS
  7
STANDARD
 71
1
 72
1
 10
19.2636986301
 20
3.834902968
 30
0.0
 11
1.0
 21
0.0
 31
0.0
 44
0.9
  1
T. NIE
 40
0.3567351598
 41
2.4334434116
  0
LINE
  5
36C
100
AcDbEntity
  8
0
100
AcDbLine
 62
2
  6
CONTINUOUS
 10
19.1210045662
 20
3.2819634703
 11
23.1164383562
 21
3.2819634703
  0
LINE
  5
36D
100
AcDbEntity
  8
0
100
AcDbLine
 62
2
  6
CONTINUOUS
 10
19.1210045662
 20
3.2819634703
 11
19.1210045662
 21
2.2773972603
  0
LINE
  5
36E
100
AcDbEntity
  8
0
100
AcDbLine
 62
2
  6
CONTINUOUS
 10
19.1210045662
 20
2.2773972603
 11
23.1164383562
 21
2.2773972603
  0
LINE
  5
36F
100
AcDbEntity
  8
0
100
AcDbLine
 62
2
  6
CONTINUOUS
 10
23.1164383562
 20
3.2819634703
 11
23.1164383562
 21
2.2773972603
  0
MTEXT
  5
370
100
AcDbEntity
  8
0
100
AcDbMText
 62
2
  6
CONTINUOUS
  7
STANDARD
 71
1
 72
1
 10
19.2636986301
 20
2.8125
 30
0.0
 11
1.0
 21
0.0
 31
0.0
 44
0.9
  1
N/A
 40
0.3567351598
 41
1.2867946836
  0
LINE
  5
371
100
AcDbEntity
  8
0
100
AcDbLine
 62
2
  6
CONTINUOUS
 10
23.1164383562
 20
6.2785388128
 11
25.1141552511
 21
6.2785388128
  0
LINE
  5
372
100
AcDbEntity
  8
0
100
AcDbLine
 62
2
  6
CONTINUOUS
 10
23.1164383562
 20
6.2785388128
 11
23.1164383562
 21
5.2739726027
  0
LINE
  5
373
100
AcDbEntity
  8
0
100
AcDbLine
 62
2
  6
CONTINUOUS
 10
23.1164383562
 20
5.2739726027
 11
25.1141552511
 21
5.2739726027
  0
LINE
  5
374
100
AcDbEntity
  8
0
100
AcDbLine
 62
2
  6
CONTINUOUS
 10
25.1141552511
 20
6.2785388128
 11
25.1141552511
 21
5.2739726027
  0
MTEXT
  5
375
100
AcDbEntity
  8
0
100
AcDbMText
 62
2
  6
CONTINUOUS
  7
STANDARD
 71
2
 72
1
 10
24.1152968037
 20
5.7263127854
 30
0.0
 11
1.0
 21
0.0
 31
0.0
 44
0.9
  1
23-JAN-14
 40
0.2739726027
 41
2.7005870841
  0
LINE
  5
376
100
AcDbEntity
  8
0
100
AcDbLine
 62
2
  6
CONTINUOUS
 10
23.1164383562
 20
5.2796803653
 11
25.1141552511
 21
5.2796803653
  0
LINE
  5
377
100
AcDbEntity
  8
0
100
AcDbLine
 62
2
  6
CONTINUOUS
 10
23.1164383562
 20
5.2796803653
 11
23.1164383562
 21
4.2751141553
  0
LINE
  5
378
100
AcDbEntity
  8
0
100
AcDbLine
 62
2
  6
CONTINUOUS
 10
23.1164383562
 20
4.2751141553
 11
25.1141552511
 21
4.2751141553
  0
LINE
  5
379
100
AcDbEntity
  8
0
100
AcDbLine
 62
2
  6
CONTINUOUS
 10
25.1141552511
 20
5.2796803653
 11
25.1141552511
 21
4.2751141553
  0
MTEXT
  5
37A
100
AcDbEntity
  8
0
100
AcDbMText
 62
2
  6
CONTINUOUS
  7
STANDARD
 71
2
 72
1
 10
24.1152968037
 20
4.7274543379
 30
0.0
 11
1.0
 21
0.0
 31
0.0
 44
0.9
  1
28-JAN-14
 40
0.2739726027
 41
2.7299412916
  0
LINE
  5
37B
100
AcDbEntity
  8
0
100
AcDbLine
 62
2
  6
CONTINUOUS
 10
23.1164383562
 20
4.2808219178
 11
25.1141552511
 21
4.2808219178
  0
LINE
  5
37C
100
AcDbEntity
  8
0
100
AcDbLine
 62
2
  6
CONTINUOUS
 10
23.1164383562
 20
4.2808219178
 11
23.1164383562
 21
3.2762557078
  0
LINE
  5
37D
100
AcDbEntity
  8
0
100
AcDbLine
 62
2
  6
CONTINUOUS
 10
23.1164383562
 20
3.2762557078
 11
25.1141552511
 21
3.2762557078
  0
LINE
  5
37E
100
AcDbEntity
  8
0
100
AcDbLine
 62
2
  6
CONTINUOUS
 10
25.1141552511
 20
4.2808219178
 11
25.1141552511
 21
3.2762557078
  0
MTEXT
  5
37F
100
AcDbEntity
  8
0
100
AcDbMText
 62
2
  6
CONTINUOUS
  7
STANDARD
 71
2
 72
1
 10
24.1152968037
 20
3.7285958904
 30
0.0
 11
1.0
 21
0.0
 31
0.0
 44
0.9
  1
28-JAN-14
 40
0.2739726027
 41
2.7299412916
  0
LINE
  5
380
100
AcDbEntity
  8
0
100
AcDbLine
 62
2
  6
CONTINUOUS
 10
23.1164383562
 20
3.2819634703
 11
25.1141552511
 21
3.2819634703
  0
LINE
  5
381
100
AcDbEntity
  8
0
100
AcDbLine
 62
2
  6
CONTINUOUS
 10
23.1164383562
 20
3.2819634703
 11
23.1164383562
 21
2.3009417808
  0
LINE
  5
382
100
AcDbEntity
  8
0
100
AcDbLine
 62
2
  6
CONTINUOUS
 10
23.1164383562
 20
2.3009417808
 11
25.1141552511
 21
2.3009417808
  0
LINE
  5
383
100
AcDbEntity
  8
0
100
AcDbLine
 62
2
  6
CONTINUOUS
 10
25.1141552511
 20
3.2819634703
 11
25.1141552511
 21
2.3009417808
  0
MTEXT
  5
384
100
AcDbEntity
  8
0
100
AcDbMText
 62
2
  6
CONTINUOUS
  7
STANDARD
 71
2
 72
1
 10
24.1152968037
 20
2.7532819635
 30
0.0
 11
1.0
 21
0.0
 31
0.0
 44
0.9
  1
-
 40
0.2739726027
 41
0.2935420744
  0
LINE
  5
385
100
AcDbEntity
  8
0
100
AcDbLine
 62
2
  6
CONTINUOUS
 10
19.1210045662
 20
2.2831050228
 11
25.1141552511
 21
2.2831050228
  0
LINE
  5
386
100
AcDbEntity
  8
0
100
AcDbLine
 62
2
  6
CONTINUOUS
 10
19.1210045662
 20
2.2831050228
 11
19.1210045662
 21
1.7123287671
  0
LINE
  5
387
100
AcDbEntity
  8
0
100
AcDbLine
 62
2
  6
CONTINUOUS
 10
19.1210045662
 20
1.7123287671
 11
25.1141552511
 21
1.7123287671
  0
LINE
  5
388
100
AcDbEntity
  8
0
100
AcDbLine
 62
2
  6
CONTINUOUS
 10
25.1141552511
 20
2.2831050228
 11
25.1141552511
 21
1.7123287671
  0
MTEXT
  5
389
100
AcDbEntity
  8
0
100
AcDbMText
 62
2
  6
CONTINUOUS
  7
STANDARD
 71
3
 72
1
 10
24.9714611872
 20
2.1418378995
 30
0.0
 11
1.0
 21
0.0
 31
0.0
 44
0.9
  1
RD-000586-2D.A.2
 40
0.2511415525
 41
4.6102413568
  0
LINE
  5
38A
100
AcDbEntity
  8
0
100
AcDbLine
 62
2
  6
CONTINUOUS
 10
19.1210045662
 20
1.7123287671
 11
25.1141552511
 21
1.7123287671
  0
LINE
  5
38B
100
AcDbEntity
  8
0
100
AcDbLine
 62
2
  6
CONTINUOUS
 10
19.1210045662
 20
1.7123287671
 11
19.1210045662
 21
1.1415525114
  0
LINE
  5
38C
100
AcDbEntity
  8
0
100
AcDbLine
 62
2
  6
CONTINUOUS
 10
19.1210045662
 20
1.1415525114
 11
25.1141552511
 21
1.1415525114
  0
LINE
  5
38D
100
AcDbEntity
  8
0
100
AcDbLine
 62
2
  6
CONTINUOUS
 10
25.1141552511
 20
1.7123287671
 11
25.1141552511
 21
1.1415525114
  0
MTEXT
  5
38E
100
AcDbEntity
  8
0
100
AcDbMText
 62
2
  6
CONTINUOUS
  7
STANDARD
 71
3
 72
1
 10
24.9714611872
 20
1.5710616438
 30
0.0
 11
1.0
 21
0.0
 31
0.0
 44
0.9
  1
RD-000586-3D.A.1
 40
0.2511415525
 41
4.5026092629
  0
LINE
  5
38F
100
AcDbEntity
  8
0
100
AcDbLine
 62
2
  6
CONTINUOUS
 10
25.1141552511
 20
5.4223744292
 11
36.5296803653
 21
5.4223744292
  0
LINE
  5
390
100
AcDbEntity
  8
0
100
AcDbLine
 62
2
  6
CONTINUOUS
 10
25.1141552511
 20
5.4223744292
 11
25.1141552511
 21
2.8538812785
  0
LINE
  5
391
100
AcDbEntity
  8
0
100
AcDbLine
 62
2
  6
CONTINUOUS
 10
25.1141552511
 20
2.8538812785
 11
36.5296803653
 21
2.8538812785
  0
LINE
  5
392
100
AcDbEntity
  8
0
100
AcDbLine
 62
2
  6
CONTINUOUS
 10
36.5296803653
 20
5.4223744292
 11
36.5296803653
 21
2.8538812785
  0
MTEXT
  5
393
100
AcDbEntity
  8
0
100
AcDbMText
 62
2
  6
CONTINUOUS
  7
STANDARD
 71
2
 72
1
 10
30.8219178082
 20
4.8344748858
 30
0.0
 11
1.0
 21
0.0
 31
0.0
 44
1.02
  1
WALL MOUNT,\PS12/S10T/S8T
 40
0.4566210046
 41
6.2296151337
  0
LINE
  5
394
100
AcDbEntity
  8
0
100
AcDbLine
 62
2
  6
CONTINUOUS
 10
25.1166490935
 20
2.8491791495
 11
26.2582016049
 21
2.8491791495
  0
LINE
  5
395
100
AcDbEntity
  8
0
100
AcDbLine
 62
2
  6
CONTINUOUS
 10
25.1166490935
 20
2.8491791495
 11
25.1166490935
 21
1.7076266381
  0
LINE
  5
396
100
AcDbEntity
  8
0
100
AcDbLine
 62
2
  6
CONTINUOUS
 10
25.1166490935
 20
1.7076266381
 11
26.2582016049
 21
1.7076266381
  0
LINE
  5
397
100
AcDbEntity
  8
0
100
AcDbLine
 62
2
  6
CONTINUOUS
 10
26.2582016049
 20
2.8491791495
 11
26.2582016049
 21
1.7076266381
  0
MTEXT
  5
398
100
AcDbEntity
  8
0
100
AcDbMText
 62
2
  6
CONTINUOUS
  7
STANDARD
 71
2
 72
1
 10
25.6874253492
 20
2.3426152226
 30
0.0
 11
1.0
 21
0.0
 31
0.0
 44
0.9
  1
B
 40
0.4566210046
 41
0.5381604697
  0
LINE
  5
399
100
AcDbEntity
  8
0
100
AcDbLine
 62
2
  6
CONTINUOUS
 10
28.5399942867
 20
2.8424077377
 11
35.3893093552
 21
2.8424077377
  0
LINE
  5
39A
100
AcDbEntity
  8
0
100
AcDbLine
 62
2
  6
CONTINUOUS
 10
28.5399942867
 20
2.8424077377
 11
28.5399942867
 21
1.7008552263
  0
LINE
  5
39B
100
AcDbEntity
  8
0
100
AcDbLine
 62
2
  6
CONTINUOUS
 10
28.5399942867
 20
1.7008552263
 11
35.3893093552
 21
1.7008552263
  0
LINE
  5
39C
100
AcDbEntity
  8
0
100
AcDbLine
 62
2
  6
CONTINUOUS
 10
35.3893093552
 20
2.8424077377
 11
35.3893093552
 21
1.7008552263
  0
MTEXT
  5
39D
100
AcDbEntity
  8
0
100
AcDbMText
 62
2
  6
CONTINUOUS
  7
STANDARD
 71
2
 72
1
 10
31.964651821
 20
2.4043369615
 30
0.0
 11
1.0
 21
0.0
 31
0.0
 44
0.9
  1
RD-000586-2D
 40
0.5251141553
 41
7.4453685584
  0
LINE
  5
39E
100
AcDbEntity
  8
0
100
AcDbLine
 62
2
  6
CONTINUOUS
 10
35.3851595805
 20
2.8499721978
 11
36.5267120919
 21
2.8499721978
  0
LINE
  5
39F
100
AcDbEntity
  8
0
100
AcDbLine
 62
2
  6
CONTINUOUS
 10
35.3851595805
 20
2.8499721978
 11
35.3851595805
 21
1.7084196863
  0
LINE
  5
3A0
100
AcDbEntity
  8
0
100
AcDbLine
 62
2
  6
CONTINUOUS
 10
35.3851595805
 20
1.7084196863
 11
36.5267120919
 21
1.7084196863
  0
LINE
  5
3A1
100
AcDbEntity
  8
0
100
AcDbLine
 62
2
  6
CONTINUOUS
 10
36.5267120919
 20
2.8499721978
 11
36.5267120919
 21
1.7084196863
  0
MTEXT
  5
3A2
100
AcDbEntity
  8
0
100
AcDbMText
 62
2
  6
CONTINUOUS
  7
STANDARD
 71
2
 72
1
 10
35.9559358362
 20
2.2977461704
 30
0.0
 11
1.0
 21
0.0
 31
0.0
 44
0.9
  1
A
 40
0.4109589041
 41
0.5283757339
  0
LINE
  5
3A3
100
AcDbEntity
  8
0
100
AcDbLine
 62
2
  6
CONTINUOUS
 10
32.8210516424
 20
1.6961846658
 11
36.5310973045
 21
1.6961846658
  0
LINE
  5
3A4
100
AcDbEntity
  8
0
100
AcDbLine
 62
2
  6
CONTINUOUS
 10
32.8210516424
 20
1.6961846658
 11
32.8210516424
 21
1.1254084101
  0
LINE
  5
3A5
100
AcDbEntity
  8
0
100
AcDbLine
 62
2
  6
CONTINUOUS
 10
32.8210516424
 20
1.1254084101
 11
36.5310973045
 21
1.1254084101
  0
LINE
  5
3A6
100
AcDbEntity
  8
0
100
AcDbLine
 62
2
  6
CONTINUOUS
 10
36.5310973045
 20
1.6961846658
 11
36.5310973045
 21
1.1254084101
  0
MTEXT
  5
3A7
100
AcDbEntity
  8
0
100
AcDbMText
 62
2
  6
CONTINUOUS
  7
STANDARD
 71
3
 72
1
 10
36.3884032406
 20
1.6234106932
 30
0.0
 11
1.0
 21
0.0
 31
0.0
 44
0.9
  1
1 OF 1
 40
0.3196347032
 41
2.0205479452
  0
LINE
  5
3A8
100
AcDbEntity
  8
0
100
AcDbLine
 62
2
  6
CONTINUOUS
 10
25.1101822194
 20
1.7096420477
 11
27.8225109865
 21
1.7096420477
  0
LINE
  5
3A9
100
AcDbEntity
  8
0
100
AcDbLine
 62
2
  6
CONTINUOUS
 10
25.1101822194
 20
1.7096420477
 11
25.1101822194
 21
1.129947413
  0
LINE
  5
3AA
100
AcDbEntity
  8
0
100
AcDbLine
 62
2
  6
CONTINUOUS
 10
25.1101822194
 20
1.129947413
 11
27.8225109865
 21
1.129947413
  0
LINE
  5
3AB
100
AcDbEntity
  8
0
100
AcDbLine
 62
2
  6
CONTINUOUS
 10
27.8225109865
 20
1.7096420477
 11
27.8225109865
 21
1.129947413
  0
MTEXT
  5
3AC
100
AcDbEntity
  8
0
100
AcDbMText
 62
2
  6
CONTINUOUS
  7
STANDARD
 71
3
 72
1
 10
27.6798169226
 20
1.5822875957
 30
0.0
 11
1.0
 21
0.0
 31
0.0
 44
0.9
  1
0.438
 40
0.2739726027
 41
1.4970645793
  0
LINE
  5
3AD
100
AcDbEntity
  8
0
100
AcDbLine
 62
2
  6
CONTINUOUS
 10
18.2857782546
 20
19.997859916
 11
23.4227645559
 21
19.997859916
  0
LINE
  5
3AE
100
AcDbEntity
  8
0
100
AcDbLine
 62
2
  6
CONTINUOUS
 10
18.2857782546
 20
19.997859916
 11
18.2857782546
 21
17.1439786375
  0
LINE
  5
3AF
100
AcDbEntity
  8
0
100
AcDbLine
 62
2
  6
CONTINUOUS
 10
18.2857782546
 20
19.2843895964
 11
23.4227645559
 21
19.2843895964
  0
LINE
  5
3B0
100
AcDbEntity
  8
0
100
AcDbLine
 62
2
  6
CONTINUOUS
 10
18.2857782546
 20
18.5709192768
 11
23.4227645559
 21
18.5709192768
  0
LINE
  5
3B1
100
AcDbEntity
  8
0
100
AcDbLine
 62
2
  6
CONTINUOUS
 10
18.2857782546
 20
17.8574489571
 11
23.4227645559
 21
17.8574489571
  0
LINE
  5
3B2
100
AcDbEntity
  8
0
100
AcDbLine
 62
2
  6
CONTINUOUS
 10
18.2857782546
 20
17.1439786375
 11
23.4227645559
 21
17.1439786375
  0
LINE
  5
3B3
100
AcDbEntity
  8
0
100
AcDbLine
 62
2
  6
CONTINUOUS
 10
19.9981070217
 20
19.997859916
 11
19.9981070217
 21
17.1439786375
  0
LINE
  5
3B4
100
AcDbEntity
  8
0
100
AcDbLine
 62
2
  6
CONTINUOUS
 10
21.7104357888
 20
19.997859916
 11
21.7104357888
 21
17.1439786375
  0
LINE
  5
3B5
100
AcDbEntity
  8
0
100
AcDbLine
 62
2
  6
CONTINUOUS
 10
23.4227645559
 20
19.997859916
 11
23.4227645559
 21
17.1439786375
  0
MTEXT
  5
3B6
100
AcDbEntity
  8
0
100
AcDbMText
 62
2
  6
CONTINUOUS
  7
STANDARD
 71
2
 72
1
 10
19.1419426381
 20
19.8194923361
 30
0.0
 11
1.0
 21
0.0
 31
0.0
 44
0.9
  1
MODEL
 40
0.3567351598
 41
2.1913731246
  0
MTEXT
  5
3B7
100
AcDbEntity
  8
0
100
AcDbMText
 62
2
  6
CONTINUOUS
  7
STANDARD
 71
1
 72
1
 10
20.1408010856
 20
19.8194923361
 30
0.0
 11
1.0
 21
0.0
 31
0.0
 44
0.9
  1
DIM A
 40
0.3567351598
 41
2.2678163731
  0
MTEXT
  5
3B8
100
AcDbEntity
  8
0
100
AcDbMText
 62
2
  6
CONTINUOUS
  7
STANDARD
 71
2
 72
1
 10
22.5666001724
 20
19.8194923361
 30
0.0
 11
1.0
 21
0.0
 31
0.0
 44
0.9
  1
DIM B
 40
0.3567351598
 41
2.2295947489
  0
MTEXT
  5
3B9
100
AcDbEntity
  8
0
100
AcDbMText
 62
2
  6
CONTINUOUS
  7
STANDARD
 71
2
 72
1
 10
19.1419426381
 20
19.1060220165
 30
0.0
 11
1.0
 21
0.0
 31
0.0
 44
0.9
  1
S12
 40
0.3567351598
 41
1.2485730594
  0
MTEXT
  5
3BA
100
AcDbEntity
  8
0
100
AcDbMText
 62
2
  6
CONTINUOUS
  7
STANDARD
 71
2
 72
1
 10
20.8542714052
 20
19.1060220165
 30
0.0
 11
1.0
 21
0.0
 31
0.0
 44
0.9
  1
22.5\Fgdt;{\Fgdt;~}
 40
0.3567351598
 41
1.9875244618
  0
MTEXT
  5
3BB
100
AcDbEntity
  8
0
100
AcDbMText
 62
2
  6
CONTINUOUS
  7
STANDARD
 71
2
 72
1
 10
22.5666001724
 20
19.1060220165
 30
0.0
 11
1.0
 21
0.0
 31
0.0
 44
0.9
  1
90.0\Fgdt;{\Fgdt;~}
 40
0.3567351598
 41
2.0257460861
  0
MTEXT
  5
3BC
100
AcDbEntity
  8
0
100
AcDbMText
 62
2
  6
CONTINUOUS
  7
STANDARD
 71
2
 72
1
 10
19.1419426381
 20
18.3925516969
 30
0.0
 11
1.0
 21
0.0
 31
0.0
 44
0.9
  1
S10T
 40
0.3567351598
 41
1.7072325506
  0
MTEXT
  5
3BD
100
AcDbEntity
  8
0
100
AcDbMText
 62
2
  6
CONTINUOUS
  7
STANDARD
 71
2
 72
1
 10
20.8542714052
 20
18.3925516969
 30
0.0
 11
1.0
 21
0.0
 31
0.0
 44
0.9
  1
22.5\Fgdt;{\Fgdt;~}
 40
0.3567351598
 41
1.9875244618
  0
MTEXT
  5
3BE
100
AcDbEntity
  8
0
100
AcDbMText
 62
2
  6
CONTINUOUS
  7
STANDARD
 71
2
 72
1
 10
22.5666001724
 20
18.3925516969
 30
0.0
 11
1.0
 21
0.0
 31
0.0
 44
0.9
  1
105.0\Fgdt;{\Fgdt;~}
 40
0.3567351598
 41
2.293297456
  0
MTEXT
  5
3BF
100
AcDbEntity
  8
0
100
AcDbMText
 62
2
  6
CONTINUOUS
  7
STANDARD
 71
2
 72
1
 10
19.1419426381
 20
17.6790813772
 30
0.0
 11
1.0
 21
0.0
 31
0.0
 44
0.9
  1
S8T
 40
0.3567351598
 41
1.4014595564
  0
MTEXT
  5
3C0
100
AcDbEntity
  8
0
100
AcDbMText
 62
2
  6
CONTINUOUS
  7
STANDARD
 71
2
 72
1
 10
20.8542714052
 20
17.6790813772
 30
0.0
 11
1.0
 21
0.0
 31
0.0
 44
0.9
  1
30.0\Fgdt;{\Fgdt;~}
 40
0.3567351598
 41
1.9875244618
  0
MTEXT
  5
3C1
100
AcDbEntity
  8
0
100
AcDbMText
 62
2
  6
CONTINUOUS
  7
STANDARD
 71
2
 72
1
 10
22.5666001724
 20
17.6790813772
 30
0.0
 11
1.0
 21
0.0
 31
0.0
 44
0.9
  1
135.0\Fgdt;{\Fgdt;~}
 40
0.3567351598
 41
2.2550758317
  0
MTEXT
  5
3C2
100
AcDbEntity
  8
0
100
AcDbMText
 62
2
  6
CONTINUOUS
  7
STANDARD
 71
1
 72
1
 10
1.4199861114
 20
4.2824351714
 30
0.0
 11
1.0
 21
0.0
 31
0.0
 44
1.2
  1
3. PARTS ARE SYMMETRICAL ABOUT CENTER LINES \P   UNLESS OTHERWISE NOTED.\P2. TOLERANCES (MM): X \Fgdt;{\Fgdt;`}\Ftxt; 3, ANGLES: \Fgdt;{\Fgdt;`}\Ftxt; 1\Fgdt;{\Fgdt;~}\Ftxt;.\P1. NET WEIGHT APPROX. 0.8 KG (2 LBS)\PNOTE:  UNLESS OTHERWISE SPECIFIED
 40
0.3196347032
 41
16.5068493151
  0
MTEXT
  5
3C3
100
AcDbEntity
  8
0
100
AcDbMText
 62
2
  6
CONTINUOUS
  7
STANDARD
 71
1
 72
1
 10
22.4481922247
 20
4.1946124623
 30
0.0
 11
1.0
 21
0.0
 31
0.0
 44
0.9
  1
MKT
 40
0.2283105023
 41
0.9213959556
  0
MTEXT
  5
3C4
100
AcDbEntity
  8
0
100
AcDbMText
 62
2
  6
CONTINUOUS
  7
STANDARD
 71
3
 72
1
 10
34.8454964363
 20
16.7511977541
 30
0.0
 11
1.0
 21
0.0
 31
0.0
 44
0.9
  1
SCALE  0.250
 40
0.3567351598
 41
4.8414057404
  0
LINE
  5
3C5
100
AcDbEntity
  8
DEFAULT_3
100
AcDbLine
 62
7
  6
PHANTOM
 10
-0.0000044335
 20
-0.0
 11
-0.0000044335
 21
25.1141166498
  0
LWPOLYLINE
  5
3C6
100
AcDbEntity
  8
0
100
AcDbPolyline
 62
7
  6
CONTINUOUS
 90
2
 70
0
 43
0.0456621024
 10
0.5993343428
 20
12.1720395861
 10
0.5993343428
 20
12.942153236
  0
LWPOLYLINE
  5
3C7
100
AcDbEntity
  8
0
100
AcDbPolyline
 62
7
  6
CONTINUOUS
 90
2
 70
0
 43
0.0684931512
 10
1.1412497642
 20
23.9717675548
 10
1.1412497642
 20
1.1415525114
  0
LINE
  5
3C8
100
AcDbEntity
  8
DEFAULT_3
100
AcDbLine
 62
7
  6
PHANTOM
 10
-0.0000044335
 20
-0.0
 11
38.8127853881
 21
-0.0
  0
LWPOLYLINE
  5
3C9
100
AcDbEntity
  8
0
100
AcDbPolyline
 62
7
  6
CONTINUOUS
 90
2
 70
0
 43
0.0684931512
 10
8.1074853769
 20
23.9861499588
 10
8.1074853769
 20
22.8445974474
  0
LWPOLYLINE
  5
3CA
100
AcDbEntity
  8
0
100
AcDbPolyline
 62
7
  6
CONTINUOUS
 90
2
 70
0
 43
0.0456621024
 10
18.4506298174
 20
0.6003273321
 10
19.2207434673
 20
0.6003273321
  0
LWPOLYLINE
  5
3CB
100
AcDbEntity
  8
0
100
AcDbPolyline
 62
7
  6
CONTINUOUS
 90
2
 70
0
 43
0.0684931512
 10
1.1412497642
 20
1.1415525114
 10
36.5296803653
 20
1.1415525114
  0
LWPOLYLINE
  5
3CC
100
AcDbEntity
  8
0
100
AcDbPolyline
 62
7
  6
CONTINUOUS
 90
2
 70
0
 43
0.0456621024
 10
19.1210045662
 20
1.7123287671
 10
36.5296803653
 20
1.7123287671
  0
LWPOLYLINE
  5
3CD
100
AcDbEntity
  8
0
100
AcDbPolyline
 62
7
  6
CONTINUOUS
 90
2
 70
0
 43
0.0456621024
 10
9.98837428
 20
1.1414051435
 10
9.98837428
 20
-0.0001473679
  0
LWPOLYLINE
  5
3CE
100
AcDbEntity
  8
0
100
AcDbPolyline
 62
7
  6
CONTINUOUS
 90
2
 70
0
 43
0.0456621024
 10
9.9885154888
 20
23.9721284747
 10
9.9885154888
 20
25.1136809862
  0
LWPOLYLINE
  5
3CF
100
AcDbEntity
  8
0
100
AcDbPolyline
 62
7
  6
CONTINUOUS
 90
2
 70
0
 43
0.0456621024
 10
1.141656895
 20
12.557096411
 10
0.5993343428
 20
12.1720395861
  0
LINE
  5
3D0
100
AcDbEntity
  8
0
100
AcDbLine
 62
7
  6
CONTINUOUS
 10
19.128188646
 20
2.5682781842
 11
14.0071320919
 21
1.1687991663
  0
LWPOLYLINE
  5
3D1
100
AcDbEntity
  8
0
100
AcDbPolyline
 62
7
  6
CONTINUOUS
 90
2
 70
0
 43
0.0456621024
 10
19.1210045662
 20
2.2831050228
 10
25.1141552511
 20
2.2831050228
  0
LWPOLYLINE
  5
3D2
100
AcDbEntity
  8
0
100
AcDbPolyline
 62
7
  6
CONTINUOUS
 90
2
 70
0
 43
0.0456621024
 10
19.1210045662
 20
2.5684931507
 10
13.9840182648
 20
2.5684931507
  0
LWPOLYLINE
  5
3D3
100
AcDbEntity
  8
0
100
AcDbPolyline
 62
7
  6
CONTINUOUS
 90
2
 70
0
 43
0.0456621024
 10
25.1141552511
 20
2.8538812785
 10
36.5296803653
 20
2.8538812785
  0
LWPOLYLINE
  5
3D4
100
AcDbEntity
  8
0
100
AcDbPolyline
 62
7
  6
CONTINUOUS
 90
2
 70
0
 43
0.0456621024
 10
1.141656895
 20
12.557096411
 10
0.5993343428
 20
12.942153236
  0
LINE
  5
3D5
100
AcDbEntity
  8
0
100
AcDbLine
 62
7
  6
CONTINUOUS
 10
19.1178221348
 20
3.9936734801
 11
13.991582325
 21
2.583827951
  0
LINE
  5
3D6
100
AcDbEntity
  8
0
100
AcDbLine
 62
7
  6
CONTINUOUS
 10
20.3697532584
 20
4.2355204076
 11
19.1702235094
 21
4.0046374692
  0
LWPOLYLINE
  5
3D7
100
AcDbEntity
  8
0
100
AcDbPolyline
 62
7
  6
CONTINUOUS
 90
2
 70
0
 43
0.0456621024
 10
19.1248364936
 20
3.4668122342
 10
25.1179871785
 20
3.4668122342
  0
LWPOLYLINE
  5
3D8
100
AcDbEntity
  8
0
100
AcDbPolyline
 62
7
  6
CONTINUOUS
 90
2
 70
0
 43
0.0456621024
 10
13.9840182648
 20
3.99543379
 10
19.1210045662
 20
3.99543379
  0
LINE
  5
3D9
100
AcDbEntity
  8
0
100
AcDbLine
 62
7
  6
CONTINUOUS
 10
19.1622620288
 20
4.2381742344
 11
20.3670994315
 21
4.0019836423
  0
LWPOLYLINE
  5
3DA
100
AcDbEntity
  8
0
100
AcDbPolyline
 62
7
  6
CONTINUOUS
 90
2
 70
0
 43
0.0456621024
 10
18.8349090158
 20
23.9726921659
 10
19.2199658408
 20
24.5150147182
  0
LWPOLYLINE
  5
3DB
100
AcDbEntity
  8
0
100
AcDbPolyline
 62
7
  6
CONTINUOUS
 90
2
 70
0
 43
0.0456621024
 10
19.1154112317
 20
4.6474489859
 10
25.1085619167
 20
4.6474489859
  0
LWPOLYLINE
  5
3DC
100
AcDbEntity
  8
0
100
AcDbPolyline
 62
7
  6
CONTINUOUS
 90
2
 70
0
 43
0.0456621024
 10
25.1141552511
 20
5.4223744292
 10
36.5296803653
 20
5.4223744292
  0
LWPOLYLINE
  5
3DD
100
AcDbEntity
  8
0
100
AcDbPolyline
 62
7
  6
CONTINUOUS
 90
2
 70
0
 43
0.0456621024
 10
19.1354731117
 20
5.8132448335
 10
25.1286237966
 20
5.8132448335
  0
LINE
  5
3DE
100
AcDbEntity
  8
0
100
AcDbLine
 62
7
  6
CONTINUOUS
 10
13.9863990694
 20
6.9895952294
 11
19.1230053904
 21
4.0040399913
  0
LWPOLYLINE
  5
3DF
100
AcDbEntity
  8
0
100
AcDbPolyline
 62
7
  6
CONTINUOUS
 90
2
 70
0
 43
0.0456621024
 10
18.8356866424
 20
1.1426498843
 10
19.2207434673
 20
0.6003273321
  0
LWPOLYLINE
  5
3E0
100
AcDbEntity
  8
0
100
AcDbPolyline
 62
7
  6
CONTINUOUS
 90
2
 70
0
 43
0.0456621024
 10
13.9840182648
 20
1.1415525114
 10
13.9840182648
 20
6.9920091324
  0
LWPOLYLINE
  5
3E1
100
AcDbEntity
  8
0
100
AcDbPolyline
 62
7
  6
CONTINUOUS
 90
2
 70
0
 43
0.0456621024
 10
1.1414991974
 20
6.848942657
 10
-0.0000533141
 20
6.848942657
  0
LWPOLYLINE
  5
3E2
100
AcDbEntity
  8
0
100
AcDbPolyline
 62
7
  6
CONTINUOUS
 90
2
 70
0
 43
0.0456621024
 10
36.5515025602
 20
6.8489644558
 10
37.6930550717
 20
6.8489644558
  0
LWPOLYLINE
  5
3E3
100
AcDbEntity
  8
0
100
AcDbPolyline
 62
7
  6
CONTINUOUS
 90
2
 70
0
 43
0.0456621024
 10
13.9840182648
 20
6.9920091324
 10
36.5296803653
 20
6.9920091324
  0
LWPOLYLINE
  5
3E4
100
AcDbEntity
  8
0
100
AcDbPolyline
 62
7
  6
CONTINUOUS
 90
2
 70
0
 43
0.0456621024
 10
18.8349090158
 20
23.9726921659
 10
18.8349090158
 20
25.1142446773
  0
LWPOLYLINE
  5
3E5
100
AcDbEntity
  8
0
100
AcDbPolyline
 62
7
  6
CONTINUOUS
 90
2
 70
0
 43
0.0456621024
 10
18.8356866424
 20
1.1426498843
 10
18.8356866424
 20
0.0010973729
  0
LWPOLYLINE
  5
3E6
100
AcDbEntity
  8
0
100
AcDbPolyline
 62
7
  6
CONTINUOUS
 90
2
 70
0
 43
0.0456621024
 10
19.1210045662
 20
1.1415525114
 10
19.1210045662
 20
6.9920091324
  0
LWPOLYLINE
  5
3E7
100
AcDbEntity
  8
0
100
AcDbPolyline
 62
7
  6
CONTINUOUS
 90
2
 70
0
 43
0.0456621024
 10
36.5375292349
 20
12.5570504981
 10
37.6790817464
 20
12.5570504981
  0
LWPOLYLINE
  5
3E8
100
AcDbEntity
  8
0
100
AcDbPolyline
 62
7
  6
CONTINUOUS
 90
2
 70
0
 43
0.0456621024
 10
1.141656895
 20
12.557096411
 10
0.0001043836
 20
12.557096411
  0
LINE
  5
3E9
100
AcDbEntity
  8
0
100
AcDbLine
 62
7
  6
CONTINUOUS
 10
19.1230053904
 20
6.9895952294
 11
13.9967655806
 21
4.009223247
  0
LWPOLYLINE
  5
3EA
100
AcDbEntity
  8
0
100
AcDbPolyline
 62
7
  6
CONTINUOUS
 90
2
 70
0
 43
0.0456621024
 10
25.1141552511
 20
1.1415525114
 10
25.1141552511
 20
6.9920091324
  0
LWPOLYLINE
  5
3EB
100
AcDbEntity
  8
0
100
AcDbPolyline
 62
7
  6
CONTINUOUS
 90
2
 70
0
 43
0.0456621024
 10
26.2557077626
 20
1.7123287671
 10
26.2557077626
 20
2.8538812785
  0
LWPOLYLINE
  5
3EC
100
AcDbEntity
  8
0
100
AcDbPolyline
 62
7
  6
CONTINUOUS
 90
2
 70
0
 43
0.0456621024
 10
18.8356866424
 20
1.1426498843
 10
18.4506298174
 20
0.6003273321
  0
LWPOLYLINE
  5
3ED
100
AcDbEntity
  8
0
100
AcDbPolyline
 62
7
  6
CONTINUOUS
 90
2
 70
0
 43
0.0456621024
 10
36.5400261819
 20
18.2641246199
 10
37.6815786933
 20
18.2641246199
  0
LWPOLYLINE
  5
3EE
100
AcDbEntity
  8
0
100
AcDbPolyline
 62
7
  6
CONTINUOUS
 90
2
 70
0
 43
0.0456621024
 10
1.1412494788
 20
18.2641987546
 10
-0.0003030326
 20
18.2641987546
  0
LWPOLYLINE
  5
3EF
100
AcDbEntity
  8
0
100
AcDbPolyline
 62
7
  6
CONTINUOUS
 90
2
 70
0
 43
0.0456621024
 10
18.8349090158
 20
23.9726921659
 10
18.4498521909
 20
24.5150147182
  0
LWPOLYLINE
  5
3F0
100
AcDbEntity
  8
0
100
AcDbPolyline
 62
7
  6
CONTINUOUS
 90
2
 70
0
 43
0.0456621024
 10
27.6819929685
 20
23.9758716897
 10
27.6819929685
 20
25.1174242011
  0
LWPOLYLINE
  5
3F1
100
AcDbEntity
  8
0
100
AcDbPolyline
 62
7
  6
CONTINUOUS
 90
2
 70
0
 43
0.0456621024
 10
27.6826269297
 20
1.1408036624
 10
27.6826269297
 20
-0.000748849
  0
LWPOLYLINE
  5
3F2
100
AcDbEntity
  8
0
100
AcDbPolyline
 62
7
  6
CONTINUOUS
 90
2
 70
0
 43
0.0456621024
 10
27.8165044898
 20
1.1523976154
 10
27.8165044898
 20
1.7231738711
  0
LWPOLYLINE
  5
3F3
100
AcDbEntity
  8
0
100
AcDbPolyline
 62
7
  6
CONTINUOUS
 90
2
 70
0
 43
0.0456621024
 10
28.5388127854
 20
1.7123287671
 10
28.5388127854
 20
2.8538812785
  0
LWPOLYLINE
  5
3F4
100
AcDbEntity
  8
0
100
AcDbPolyline
 62
7
  6
CONTINUOUS
 90
2
 70
0
 43
0.0456621024
 10
36.5375292349
 20
12.5570504981
 10
37.0798517872
 20
12.9421073231
  0
LWPOLYLINE
  5
3F5
100
AcDbEntity
  8
0
100
AcDbPolyline
 62
7
  6
CONTINUOUS
 90
2
 70
0
 43
0.0684931512
 10
8.1074853769
 20
22.8445974474
 10
1.1154762445
 20
22.8445974474
  0
LWPOLYLINE
  5
3F6
100
AcDbEntity
  8
0
100
AcDbPolyline
 62
7
  6
CONTINUOUS
 90
2
 70
0
 43
0.0456621024
 10
36.5375292349
 20
12.5570504981
 10
37.0798517872
 20
12.1719936732
  0
LWPOLYLINE
  5
3F7
100
AcDbEntity
  8
0
100
AcDbPolyline
 62
7
  6
CONTINUOUS
 90
2
 70
0
 43
0.0684931512
 10
36.5296803653
 20
23.9717675548
 10
1.1412497642
 20
23.9717675548
  0
LWPOLYLINE
  5
3F8
100
AcDbEntity
  8
0
100
AcDbPolyline
 62
7
  6
CONTINUOUS
 90
2
 70
0
 43
0.0456621024
 10
18.4498521909
 20
24.5150147182
 10
19.2199658408
 20
24.5150147182
  0
LWPOLYLINE
  5
3F9
100
AcDbEntity
  8
0
100
AcDbPolyline
 62
7
  6
CONTINUOUS
 90
2
 70
0
 43
0.0456621024
 10
32.8196347032
 20
1.1415525114
 10
32.8196347032
 20
1.7123287671
  0
LINE
  5
3FA
100
AcDbEntity
  8
DEFAULT_3
100
AcDbLine
 62
7
  6
PHANTOM
 10
-0.0000044335
 20
25.1141166498
 11
38.8128081477
 21
25.1141166498
  0
LWPOLYLINE
  5
3FB
100
AcDbEntity
  8
0
100
AcDbPolyline
 62
7
  6
CONTINUOUS
 90
2
 70
0
 43
0.0456621024
 10
35.3881278539
 20
1.7123287671
 10
35.3881278539
 20
2.8538812785
  0
LWPOLYLINE
  5
3FC
100
AcDbEntity
  8
0
100
AcDbPolyline
 62
7
  6
CONTINUOUS
 90
2
 70
0
 43
0.0684931512
 10
36.5296803653
 20
23.9717675548
 10
36.5296803653
 20
1.1415525114
  0
LWPOLYLINE
  5
3FD
100
AcDbEntity
  8
0
100
AcDbPolyline
 62
7
  6
CONTINUOUS
 90
2
 70
0
 43
0.0456621024
 10
37.0798517872
 20
12.1719936732
 10
37.0798517872
 20
12.9421073231
  0
LINE
  5
3FE
100
AcDbEntity
  8
DEFAULT_3
100
AcDbLine
 62
7
  6
PHANTOM
 10
38.8127853881
 20
-0.0
 11
38.8127853881
 21
25.1133200662
  0
LINE
  5
3FF
100
AcDbEntity
  8
0
100
AcDbLine
 62
7
  6
CONTINUOUS
 10
3.4703266898
 20
7.6454554461
 11
7.8010353512
 21
7.6454554461
  0
LINE
  5
400
100
AcDbEntity
  8
0
100
AcDbLine
 62
7
  6
CONTINUOUS
 10
3.4703266898
 20
7.6454554461
 11
3.4703266898
 21
12.9210459973
  0
LINE
  5
401
100
AcDbEntity
  8
3_AXES_OTHER
100
AcDbLine
 62
7
  6
CONTINUOUS
 10
3.8207203905
 20
12.0982113516
 11
3.8207203905
 21
11.3304948162
  0
LINE
  5
402
100
AcDbEntity
  8
3_AXES_OTHER
100
AcDbLine
 62
7
  6
CONTINUOUS
 10
3.8207203905
 20
9.2360066272
 11
3.8207203905
 21
8.4682900918
  0
LINE
  5
403
100
AcDbEntity
  8
3_AXES_OTHER
100
AcDbLine
 62
7
  6
CONTINUOUS
 10
3.8207203905
 20
8.4682900918
 11
4.588436926
 21
8.4682900918
  0
LINE
  5
404
100
AcDbEntity
  8
3_AXES_OTHER
100
AcDbLine
 62
7
  6
CONTINUOUS
 10
6.682925115
 20
8.4682900918
 11
7.4506416504
 21
8.4682900918
  0
LINE
  5
405
100
AcDbEntity
  8
3_ALL_AXES
100
AcDbLine
 62
7
  6
CONTINUOUS
 10
5.3797755087
 20
8.5312822178
 11
5.8915865323
 21
8.5312822178
  0
LINE
  5
406
100
AcDbEntity
  8
3_ALL_AXES
100
AcDbLine
 62
7
  6
CONTINUOUS
 10
5.8915865322
 20
9.0899086299
 11
5.3797755088
 21
9.0899086299
  0
LINE
  5
407
100
AcDbEntity
  8
0
100
AcDbLine
 62
7
  6
CONTINUOUS
 10
4.6435550362
 20
10.2930932414
 11
4.6435550362
 21
10.273408202
  0
LINE
  5
408
100
AcDbEntity
  8
3_AXES_OTHER
100
AcDbLine
 62
7
  6
CONTINUOUS
 10
6.682925115
 20
12.0982113516
 11
5.6356810205
 21
11.0509672572
  0
LINE
  5
409
100
AcDbEntity
  8
3_AXES_OTHER
100
AcDbLine
 62
7
  6
CONTINUOUS
 10
4.867964485
 20
10.2832507217
 11
3.8207203905
 21
9.2360066272
  0
LINE
  5
40A
100
AcDbEntity
  8
3_AXES_OTHER
100
AcDbLine
 62
7
  6
CONTINUOUS
 10
3.8207203905
 20
11.3304948162
 11
4.867964485
 21
10.2832507217
  0
LINE
  5
40B
100
AcDbEntity
  8
3_AXES_OTHER
100
AcDbLine
 62
7
  6
CONTINUOUS
 10
5.6356810205
 20
9.5155341863
 11
6.682925115
 21
8.4682900918
  0
LINE
  5
40C
100
AcDbEntity
  8
3_ALL_AXES
100
AcDbLine
 62
7
  6
CONTINUOUS
 10
5.3797755087
 20
8.5312822178
 11
5.3797755087
 21
9.0899086299
  0
LINE
  5
40D
100
AcDbEntity
  8
3_ALL_AXES
100
AcDbLine
 62
7
  6
CONTINUOUS
 10
5.3797755087
 20
11.4765928135
 11
5.3797755087
 21
12.0352192257
  0
LINE
  5
40E
100
AcDbEntity
  8
0
100
AcDbLine
 62
7
  6
CONTINUOUS
 10
4.034500543
 20
8.4682900918
 11
3.4703266898
 21
7.6987955528
  0
LINE
  5
40F
100
AcDbEntity
  8
0
100
AcDbLine
 62
7
  6
CONTINUOUS
 10
3.4703266898
 20
12.8677058906
 11
4.034500543
 21
12.0982113516
  0
LINE
  5
410
100
AcDbEntity
  8
3_ALL_AXES
100
AcDbLine
 62
7
  6
CENTER
 10
5.6356810205
 20
13.0979347896
 11
5.6356810205
 21
7.3085318431
  0
LINE
  5
411
100
AcDbEntity
  8
3_ALL_AXES
100
AcDbLine
 62
7
  6
CONTINUOUS
 10
6.8561137732
 20
10.273408202
 11
6.6198837751
 21
10.273408202
  0
LINE
  5
412
100
AcDbEntity
  8
3_ALL_AXES
100
AcDbLine
 62
7
  6
CONTINUOUS
 10
4.6514782658
 20
10.273408202
 11
4.4152482677
 21
10.273408202
  0
LINE
  5
413
100
AcDbEntity
  8
3_ALL_AXES
100
AcDbLine
 62
7
  6
CENTER
 10
5.6356810205
 20
10.2832507217
 11
3.3264895944
 21
10.2832507217
  0
LINE
  5
414
100
AcDbEntity
  8
3_ALL_AXES
100
AcDbLine
 62
7
  6
CENTER
 10
5.6356810205
 20
10.2832507217
 11
7.9529501785
 21
10.2832507217
  0
LINE
  5
415
100
AcDbEntity
  8
3_ALL_AXES
100
AcDbLine
 62
7
  6
CONTINUOUS
 10
4.4152482677
 20
10.2930932414
 11
4.6514782658
 21
10.2930932414
  0
LINE
  5
416
100
AcDbEntity
  8
3_ALL_AXES
100
AcDbLine
 62
7
  6
CONTINUOUS
 10
6.6198837751
 20
10.2930932414
 11
6.8561137732
 21
10.2930932414
  0
LINE
  5
417
100
AcDbEntity
  8
5_ALL_CURVES
100
AcDbLine
 62
4
  6
CONTINUOUS
 10
5.6356810205
 20
10.2832507217
 11
5.6553660598
 21
10.2718855589
  0
LINE
  5
418
100
AcDbEntity
  8
3_ALL_AXES
100
AcDbLine
 62
7
  6
CENTER
 10
7.678379683
 20
8.2405520592
 11
3.6942106471
 21
12.2247210951
  0
LINE
  5
419
100
AcDbEntity
  8
5_ALL_CURVES
100
AcDbLine
 62
4
  6
CONTINUOUS
 10
5.6356810205
 20
10.2832507217
 11
5.6470461832
 21
10.2635656823
  0
LINE
  5
41A
100
AcDbEntity
  8
3_ALL_AXES
100
AcDbLine
 62
7
  6
CONTINUOUS
 10
5.8915865323
 20
8.5312822178
 11
5.8915865323
 21
9.0899086299
  0
LINE
  5
41B
100
AcDbEntity
  8
3_ALL_AXES
100
AcDbLine
 62
7
  6
CONTINUOUS
 10
5.8915865323
 20
11.4765928135
 11
5.8915865323
 21
12.0352192257
  0
LINE
  5
41C
100
AcDbEntity
  8
0
100
AcDbLine
 62
7
  6
CONTINUOUS
 10
7.2368614979
 20
12.0982113516
 11
7.8010353512
 21
12.8677058906
  0
LINE
  5
41D
100
AcDbEntity
  8
0
100
AcDbLine
 62
7
  6
CONTINUOUS
 10
7.8010353512
 20
7.6987955528
 11
7.2368614979
 21
8.4682900918
  0
LINE
  5
41E
100
AcDbEntity
  8
3_AXES_OTHER
100
AcDbLine
 62
7
  6
CONTINUOUS
 10
4.588436926
 20
8.4682900918
 11
5.6356810205
 21
9.5155341863
  0
LINE
  5
41F
100
AcDbEntity
  8
3_AXES_OTHER
100
AcDbLine
 62
7
  6
CONTINUOUS
 10
6.4033975559
 20
10.2832507217
 11
7.4506416504
 21
11.3304948162
  0
LINE
  5
420
100
AcDbEntity
  8
3_AXES_OTHER
100
AcDbLine
 62
7
  6
CONTINUOUS
 10
7.4506416504
 20
9.2360066272
 11
6.4033975559
 21
10.2832507217
  0
LINE
  5
421
100
AcDbEntity
  8
3_AXES_OTHER
100
AcDbLine
 62
7
  6
CONTINUOUS
 10
5.6356810205
 20
11.0509672572
 11
4.588436926
 21
12.0982113516
  0
LINE
  5
422
100
AcDbEntity
  8
0
100
AcDbLine
 62
7
  6
CONTINUOUS
 10
6.6278070047
 20
10.273408202
 11
6.6278070047
 21
10.2930932414
  0
LINE
  5
423
100
AcDbEntity
  8
3_ALL_AXES
100
AcDbLine
 62
7
  6
CONTINUOUS
 10
5.3797755088
 20
11.4765928135
 11
5.8915865322
 21
11.4765928135
  0
LINE
  5
424
100
AcDbEntity
  8
3_AXES_OTHER
100
AcDbLine
 62
7
  6
CONTINUOUS
 10
7.4506416504
 20
8.4682900918
 11
7.4506416504
 21
9.2360066272
  0
LINE
  5
425
100
AcDbEntity
  8
3_AXES_OTHER
100
AcDbLine
 62
7
  6
CONTINUOUS
 10
7.4506416504
 20
11.3304948162
 11
7.4506416504
 21
12.0982113516
  0
LINE
  5
426
100
AcDbEntity
  8
3_ALL_AXES
100
AcDbLine
 62
7
  6
CONTINUOUS
 10
5.3797755087
 20
12.0352192257
 11
5.8915865323
 21
12.0352192257
  0
LINE
  5
427
100
AcDbEntity
  8
3_AXES_OTHER
100
AcDbLine
 62
7
  6
CONTINUOUS
 10
7.4506416504
 20
12.0982113516
 11
6.682925115
 21
12.0982113516
  0
LINE
  5
428
100
AcDbEntity
  8
3_AXES_OTHER
100
AcDbLine
 62
7
  6
CONTINUOUS
 10
4.588436926
 20
12.0982113516
 11
3.8207203905
 21
12.0982113516
  0
LINE
  5
429
100
AcDbEntity
  8
5_ALL_CURVES
100
AcDbLine
 62
4
  6
CONTINUOUS
 10
7.8010353512
 20
10.2718855589
 11
7.8010353512
 21
10.2885253121
  0
LINE
  5
42A
100
AcDbEntity
  8
0
100
AcDbLine
 62
7
  6
CONTINUOUS
 10
7.8010353512
 20
7.6454554461
 11
7.8010353512
 21
12.9210459973
  0
LINE
  5
42B
100
AcDbEntity
  8
0
100
AcDbLine
 62
7
  6
CONTINUOUS
 10
7.8010353512
 20
12.9210459973
 11
3.4703266898
 21
12.9210459973
  0
LINE
  5
42C
100
AcDbEntity
  8
3_ALL_AXES
100
AcDbLine
 62
7
  6
CONTINUOUS
 10
6.9169075844
 20
16.519384548
 11
6.6511595529
 21
16.519384548
  0
LINE
  5
42D
100
AcDbEntity
  8
3_ALL_AXES
100
AcDbLine
 62
7
  6
CONTINUOUS
 10
5.8915865323
 20
16.519384548
 11
5.3797755087
 21
16.519384548
  0
LINE
  5
42E
100
AcDbEntity
  8
3_ALL_AXES
100
AcDbLine
 62
7
  6
CONTINUOUS
 10
4.620202488
 20
16.519384548
 11
4.3544544565
 21
16.519384548
  0
LINE
  5
42F
100
AcDbEntity
  8
3_AXES_OTHER
100
AcDbLine
 62
7
  6
CONTINUOUS
 10
7.4506416504
 20
16.7556050204
 11
3.8207203905
 21
16.7556050204
  0
LINE
  5
430
100
AcDbEntity
  8
0
100
AcDbLine
 62
7
  6
CONTINUOUS
 10
3.4703266898
 20
21.4288333669
 11
3.4703266898
 21
21.9406443905
  0
LINE
  5
431
100
AcDbEntity
  8
3_AXES_OTHER
100
AcDbLine
 62
7
  6
CONTINUOUS
 10
3.8207203905
 20
17.019384548
 11
7.4506416504
 21
17.019384548
  0
LINE
  5
432
100
AcDbEntity
  8
3_AXES_OTHER
100
AcDbLine
 62
7
  6
CONTINUOUS
 10
3.8207203905
 20
17.019384548
 11
3.8207203905
 21
16.7556050204
  0
LINE
  5
433
100
AcDbEntity
  8
3_ALL_AXES
100
AcDbLine
 62
7
  6
CONTINUOUS
 10
6.6198837751
 20
17.8725222338
 11
4.6514782658
 21
17.8725222338
  0
LINE
  5
434
100
AcDbEntity
  8
3_ALL_AXES
100
AcDbLine
 62
7
  6
CONTINUOUS
 10
4.3544544565
 20
16.7556050204
 11
4.3544544565
 21
16.519384548
  0
LINE
  5
435
100
AcDbEntity
  8
0
100
AcDbLine
 62
7
  6
CONTINUOUS
 10
6.6278070047
 20
20.956392422
 11
7.8010353512
 21
21.4288333669
  0
LINE
  5
436
100
AcDbEntity
  8
3_AXES_OTHER
100
AcDbLine
 62
7
  6
CONTINUOUS
 10
4.588436926
 20
17.019384548
 11
4.588436926
 21
16.7556050204
  0
LINE
  5
437
100
AcDbEntity
  8
3_ALL_AXES
100
AcDbLine
 62
7
  6
CONTINUOUS
 10
4.620202488
 20
16.7556050204
 11
4.620202488
 21
16.519384548
  0
LINE
  5
438
100
AcDbEntity
  8
3_ALL_AXES
100
AcDbLine
 62
7
  6
CONTINUOUS
 10
4.651429052
 20
17.019384548
 11
4.6514782658
 21
17.8725222338
  0
LINE
  5
439
100
AcDbEntity
  8
3_ALL_AXES
100
AcDbLine
 62
7
  6
CONTINUOUS
 10
4.6514782658
 20
19.3158531614
 11
4.651429052
 21
20.956392422
  0
LINE
  5
43A
100
AcDbEntity
  8
3_ALL_AXES
100
AcDbLine
 62
7
  6
CENTER
 10
5.6356810205
 20
18.5941876976
 11
4.1475279985
 21
18.5941876976
  0
LINE
  5
43B
100
AcDbEntity
  8
3_ALL_AXES
100
AcDbLine
 62
7
  6
CENTER
 10
5.6356810205
 20
18.5941876976
 11
7.1238340424
 21
18.5941876976
  0
LINE
  5
43C
100
AcDbEntity
  8
3_ALL_AXES
100
AcDbLine
 62
7
  6
CONTINUOUS
 10
5.3797755087
 20
16.7556050204
 11
5.3797755087
 21
16.519384548
  0
LINE
  5
43D
100
AcDbEntity
  8
3_ALL_AXES
100
AcDbLine
 62
7
  6
CENTER
 10
5.6356810205
 20
22.1908107036
 11
5.6356810205
 21
16.0613198791
  0
LINE
  5
43E
100
AcDbEntity
  8
3_AXES_OTHER
100
AcDbLine
 62
7
  6
CONTINUOUS
 10
5.6356810205
 20
17.019384548
 11
5.6356810205
 21
16.7556050204
  0
LINE
  5
43F
100
AcDbEntity
  8
3_ALL_AXES
100
AcDbLine
 62
7
  6
CONTINUOUS
 10
5.8915865323
 20
16.7556050204
 11
5.8915865323
 21
16.519384548
  0
LINE
  5
440
100
AcDbEntity
  8
3_ALL_AXES
100
AcDbLine
 62
7
  6
CONTINUOUS
 10
4.6514782658
 20
19.3158531614
 11
6.6198837751
 21
19.3158531614
  0
LINE
  5
441
100
AcDbEntity
  8
3_ALL_AXES
100
AcDbLine
 62
7
  6
CONTINUOUS
 10
6.619932989
 20
20.956392422
 11
6.6198837751
 21
19.3158531614
  0
LINE
  5
442
100
AcDbEntity
  8
3_ALL_AXES
100
AcDbLine
 62
7
  6
CONTINUOUS
 10
6.6198837751
 20
17.8725222338
 11
6.619932989
 21
17.019384548
  0
LINE
  5
443
100
AcDbEntity
  8
3_ALL_AXES
100
AcDbLine
 62
7
  6
CONTINUOUS
 10
6.6511595529
 20
16.7556050204
 11
6.6511595529
 21
16.519384548
  0
LINE
  5
444
100
AcDbEntity
  8
3_AXES_OTHER
100
AcDbLine
 62
7
  6
CONTINUOUS
 10
6.682925115
 20
17.019384548
 11
6.682925115
 21
16.7556050204
  0
LINE
  5
445
100
AcDbEntity
  8
3_ALL_AXES
100
AcDbLine
 62
7
  6
CONTINUOUS
 10
6.9169075844
 20
16.7556050204
 11
6.9169075844
 21
16.519384548
  0
LINE
  5
446
100
AcDbEntity
  8
0
100
AcDbLine
 62
7
  6
CONTINUOUS
 10
3.4703266898
 20
21.4288333669
 11
4.6435550362
 21
20.956392422
  0
LINE
  5
447
100
AcDbEntity
  8
3_AXES_OTHER
100
AcDbLine
 62
7
  6
CONTINUOUS
 10
7.4506416504
 20
17.019384548
 11
7.4506416504
 21
16.7556050204
  0
LINE
  5
448
100
AcDbEntity
  8
0
100
AcDbLine
 62
7
  6
CONTINUOUS
 10
6.6278070047
 20
20.956392422
 11
4.6435550362
 21
20.956392422
  0
LINE
  5
449
100
AcDbEntity
  8
0
100
AcDbLine
 62
7
  6
CONTINUOUS
 10
7.8010353512
 20
21.9406443905
 11
7.8010353512
 21
21.4288333669
  0
LINE
  5
44A
100
AcDbEntity
  8
5_ALL_CURVES
100
AcDbLine
 62
4
  6
CONTINUOUS
 10
7.8010353512
 20
18.5941876976
 11
7.8010353512
 21
18.5745026582
  0
LINE
  5
44B
100
AcDbEntity
  8
0
100
AcDbLine
 62
7
  6
CONTINUOUS
 10
7.8010353512
 20
21.4445813984
 11
3.4703266898
 21
21.4445813984
  0
LINE
  5
44C
100
AcDbEntity
  8
3_AXES_OTHER
100
AcDbLine
 62
7
  6
CONTINUOUS
 10
3.4703266898
 20
21.9406443905
 11
7.8010353512
 21
21.9406443905
  0
LINE
  5
44D
100
AcDbEntity
  8
3_ALL_AXES
100
AcDbLine
 62
7
  6
CONTINUOUS
 10
15.1967517359
 20
9.0020241578
 11
15.1967517359
 21
9.2677721893
  0
LINE
  5
44E
100
AcDbEntity
  8
3_ALL_AXES
100
AcDbLine
 62
7
  6
CONTINUOUS
 10
15.1967517359
 20
10.0273452099
 11
15.1967517359
 21
10.5391562335
  0
LINE
  5
44F
100
AcDbEntity
  8
3_ALL_AXES
100
AcDbLine
 62
7
  6
CONTINUOUS
 10
15.1967517359
 20
11.2987292542
 11
15.1967517359
 21
11.5644772857
  0
LINE
  5
450
100
AcDbEntity
  8
0
100
AcDbLine
 62
7
  6
CONTINUOUS
 10
20.6180115784
 20
7.6454554461
 11
20.1219485863
 21
7.6454554461
  0
LINE
  5
451
100
AcDbEntity
  8
3_AXES_OTHER
100
AcDbLine
 62
7
  6
CONTINUOUS
 10
15.4329722083
 20
8.4682900918
 11
15.4329722083
 21
12.0982113516
  0
LINE
  5
452
100
AcDbEntity
  8
3_AXES_OTHER
100
AcDbLine
 62
7
  6
CONTINUOUS
 10
15.6967517359
 20
8.4682900918
 11
15.6967517359
 21
12.0982113516
  0
LINE
  5
453
100
AcDbEntity
  8
3_ALL_AXES
100
AcDbLine
 62
7
  6
CONTINUOUS
 10
16.0215548855
 20
9.3019504862
 11
16.0215548855
 21
9.3245425528
  0
LINE
  5
454
100
AcDbEntity
  8
3_AXES_OTHER
100
AcDbLine
 62
7
  6
CONTINUOUS
 10
15.6967517359
 20
8.4682900918
 11
15.4329722083
 21
8.4682900918
  0
LINE
  5
455
100
AcDbEntity
  8
3_ALL_AXES
100
AcDbLine
 62
7
  6
CONTINUOUS
 10
17.5274603973
 20
8.5312822178
 11
17.0156493737
 21
8.5312822178
  0
LINE
  5
456
100
AcDbEntity
  8
3_ALL_AXES
100
AcDbLine
 62
7
  6
CONTINUOUS
 10
16.5498894217
 20
9.2989987532
 11
16.5498894217
 21
10.273408202
  0
LINE
  5
457
100
AcDbEntity
  8
3_ALL_AXES
100
AcDbLine
 62
7
  6
CONTINUOUS
 10
16.5498894217
 20
10.2930932414
 11
16.5498894217
 21
11.2675026902
  0
LINE
  5
458
100
AcDbEntity
  8
3_ALL_AXES
100
AcDbLine
 62
7
  6
CONTINUOUS
 10
15.4329722083
 20
9.0020241578
 11
15.1967517359
 21
9.0020241578
  0
LINE
  5
459
100
AcDbEntity
  8
3_ALL_AXES
100
AcDbLine
 62
7
  6
CONTINUOUS
 10
17.5274603973
 20
9.0899086299
 11
17.0156493737
 21
9.0899086299
  0
LINE
  5
45A
100
AcDbEntity
  8
3_AXES_OTHER
100
AcDbLine
 62
7
  6
CONTINUOUS
 10
15.6967517359
 20
9.2360066272
 11
15.4329722083
 21
9.2360066272
  0
LINE
  5
45B
100
AcDbEntity
  8
3_ALL_AXES
100
AcDbLine
 62
7
  6
CONTINUOUS
 10
15.4329722083
 20
9.2677721893
 11
15.1967517359
 21
9.2677721893
  0
LINE
  5
45C
100
AcDbEntity
  8
3_ALL_AXES
100
AcDbLine
 62
7
  6
CONTINUOUS
 10
16.0238776951
 20
9.2989987532
 11
16.5498894217
 21
9.2989987532
  0
LINE
  5
45D
100
AcDbEntity
  8
3_ALL_AXES
100
AcDbLine
 62
7
  6
CONTINUOUS
 10
15.6967517359
 20
9.2989987532
 11
16.00413764
 21
9.2989987532
  0
LINE
  5
45E
100
AcDbEntity
  8
3_ALL_AXES
100
AcDbLine
 62
7
  6
CONTINUOUS
 10
17.9932203493
 20
9.2989987532
 11
19.6337596099
 21
9.2989987532
  0
LINE
  5
45F
100
AcDbEntity
  8
3_ALL_AXES
100
AcDbLine
 62
7
  6
CONTINUOUS
 10
17.0156493737
 20
12.0352192257
 11
17.0156493737
 21
11.4765928135
  0
LINE
  5
460
100
AcDbEntity
  8
3_ALL_AXES
100
AcDbLine
 62
7
  6
CONTINUOUS
 10
17.0156493737
 20
9.0899086299
 11
17.0156493737
 21
8.5312822178
  0
LINE
  5
461
100
AcDbEntity
  8
3_ALL_AXES
100
AcDbLine
 62
7
  6
CONTINUOUS
 10
17.0156493737
 20
10.273408202
 11
17.0156493737
 21
10.2930932414
  0
LINE
  5
462
100
AcDbEntity
  8
3_ALL_AXES
100
AcDbLine
 62
7
  6
CENTER
 10
17.2715548855
 20
12.4499762088
 11
17.2715548855
 21
8.0928019519
  0
LINE
  5
463
100
AcDbEntity
  8
3_ALL_AXES
100
AcDbLine
 62
7
  6
CONTINUOUS
 10
17.5274603973
 20
12.0352192257
 11
17.5274603973
 21
11.4765928135
  0
LINE
  5
464
100
AcDbEntity
  8
3_ALL_AXES
100
AcDbLine
 62
7
  6
CONTINUOUS
 10
17.5274603973
 20
10.2930932414
 11
17.5274603973
 21
10.273408202
  0
LINE
  5
465
100
AcDbEntity
  8
3_ALL_AXES
100
AcDbLine
 62
7
  6
CONTINUOUS
 10
17.5274603973
 20
9.0899086299
 11
17.5274603973
 21
8.5312822178
  0
LINE
  5
466
100
AcDbEntity
  8
5_ALL_CURVES
100
AcDbLine
 62
4
  6
CONTINUOUS
 10
17.2715548855
 20
10.2832507217
 11
17.2518698461
 21
10.2718855589
  0
LINE
  5
467
100
AcDbEntity
  8
3_ALL_AXES
100
AcDbLine
 62
7
  6
CONTINUOUS
 10
15.4329722083
 20
10.0273452099
 11
15.1967517359
 21
10.0273452099
  0
LINE
  5
468
100
AcDbEntity
  8
3_ALL_AXES
100
AcDbLine
 62
7
  6
CONTINUOUS
 10
16.4687398956
 20
10.273408202
 11
18.0737051438
 21
10.273408202
  0
LINE
  5
469
100
AcDbEntity
  8
3_AXES_OTHER
100
AcDbLine
 62
7
  6
CONTINUOUS
 10
15.6967517359
 20
10.2832507217
 11
15.4329722083
 21
10.2832507217
  0
LINE
  5
46A
100
AcDbEntity
  8
3_ALL_AXES
100
AcDbLine
 62
7
  6
CENTER
 10
20.7606305537
 20
10.2832507217
 11
14.9537644901
 21
10.2832507217
  0
LINE
  5
46B
100
AcDbEntity
  8
3_ALL_AXES
100
AcDbLine
 62
7
  6
CONTINUOUS
 10
16.4694046272
 20
10.2930932414
 11
18.0744796257
 21
10.2930932414
  0
LINE
  5
46C
100
AcDbEntity
  8
5_ALL_CURVES
100
AcDbLine
 62
4
  6
CONTINUOUS
 10
17.2715548855
 20
10.2832507217
 11
17.2518698461
 21
10.2885253121
  0
LINE
  5
46D
100
AcDbEntity
  8
3_ALL_AXES
100
AcDbLine
 62
7
  6
CONTINUOUS
 10
17.9932203493
 20
11.2675026902
 11
17.9932203493
 21
10.2930932414
  0
LINE
  5
46E
100
AcDbEntity
  8
3_ALL_AXES
100
AcDbLine
 62
7
  6
CONTINUOUS
 10
17.9932203493
 20
10.273408202
 11
17.9932203493
 21
9.2989987532
  0
LINE
  5
46F
100
AcDbEntity
  8
3_ALL_AXES
100
AcDbLine
 62
7
  6
CONTINUOUS
 10
15.4329722083
 20
10.5391562335
 11
15.1967517359
 21
10.5391562335
  0
LINE
  5
470
100
AcDbEntity
  8
3_ALL_AXES
100
AcDbLine
 62
7
  6
CONTINUOUS
 10
18.5215548855
 20
11.2419202676
 11
18.5215548855
 21
11.2672098449
  0
LINE
  5
471
100
AcDbEntity
  8
3_ALL_AXES
100
AcDbLine
 62
7
  6
CONTINUOUS
 10
15.6967517359
 20
11.2675026902
 11
16.5498894217
 21
11.2675026902
  0
LINE
  5
472
100
AcDbEntity
  8
3_ALL_AXES
100
AcDbLine
 62
7
  6
CONTINUOUS
 10
17.9932203493
 20
11.2675026902
 11
18.5213250502
 21
11.2675026902
  0
LINE
  5
473
100
AcDbEntity
  8
3_ALL_AXES
100
AcDbLine
 62
7
  6
CONTINUOUS
 10
18.5410073121
 20
11.2675026902
 11
19.6337596099
 21
11.2675026902
  0
LINE
  5
474
100
AcDbEntity
  8
3_ALL_AXES
100
AcDbLine
 62
7
  6
CONTINUOUS
 10
15.4329722083
 20
11.2987292542
 11
15.1967517359
 21
11.2987292542
  0
LINE
  5
475
100
AcDbEntity
  8
3_AXES_OTHER
100
AcDbLine
 62
7
  6
CONTINUOUS
 10
15.6967517359
 20
11.3304948162
 11
15.4329722083
 21
11.3304948162
  0
LINE
  5
476
100
AcDbEntity
  8
3_ALL_AXES
100
AcDbLine
 62
7
  6
CONTINUOUS
 10
17.0156493737
 20
11.4765928135
 11
17.5274603973
 21
11.4765928135
  0
LINE
  5
477
100
AcDbEntity
  8
3_ALL_AXES
100
AcDbLine
 62
7
  6
CONTINUOUS
 10
15.4329722083
 20
11.5644772857
 11
15.1967517359
 21
11.5644772857
  0
LINE
  5
478
100
AcDbEntity
  8
0
100
AcDbLine
 62
7
  6
CONTINUOUS
 10
19.6337596099
 20
11.2675026902
 11
20.1219485863
 21
12.9210459973
  0
LINE
  5
479
100
AcDbEntity
  8
0
100
AcDbLine
 62
7
  6
CONTINUOUS
 10
20.1219485863
 20
7.6454554461
 11
19.6337596099
 21
9.2989987532
  0
LINE
  5
47A
100
AcDbEntity
  8
0
100
AcDbLine
 62
7
  6
CONTINUOUS
 10
19.6337596099
 20
9.2989987532
 11
19.6337596099
 21
11.2675026902
  0
LINE
  5
47B
100
AcDbEntity
  8
3_ALL_AXES
100
AcDbLine
 62
7
  6
CONTINUOUS
 10
17.5274603973
 20
12.0352192257
 11
17.0156493737
 21
12.0352192257
  0
LINE
  5
47C
100
AcDbEntity
  8
3_AXES_OTHER
100
AcDbLine
 62
7
  6
CONTINUOUS
 10
15.6967517359
 20
12.0982113516
 11
15.4329722083
 21
12.0982113516
  0
LINE
  5
47D
100
AcDbEntity
  8
0
100
AcDbLine
 62
7
  6
CONTINUOUS
 10
20.1062005548
 20
7.6987955528
 11
20.1062005548
 21
12.8677058906
  0
LINE
  5
47E
100
AcDbEntity
  8
3_AXES_OTHER
100
AcDbLine
 62
7
  6
CONTINUOUS
 10
20.6180115784
 20
12.9210459973
 11
20.6180115784
 21
7.6454554461
  0
LINE
  5
47F
100
AcDbEntity
  8
0
100
AcDbLine
 62
7
  6
CONTINUOUS
 10
20.6180115784
 20
12.9210459973
 11
20.1219485863
 21
12.9210459973
  0
LINE
  5
480
100
AcDbEntity
  8
3_AXES_OTHER
100
AcDbLine
 62
7
  6
CONTINUOUS
 10
31.4338974951
 20
19.6905344758
 11
31.4338974951
 21
19.3327971277
  0
LINE
  5
481
100
AcDbEntity
  8
3_AXES_OTHER
100
AcDbLine
 62
7
  6
CONTINUOUS
 10
31.4338974951
 20
18.35681626
 11
31.4338974951
 21
17.9990789118
  0
LINE
  5
482
100
AcDbEntity
  8
3_AXES_OTHER
100
AcDbLine
 62
7
  6
CONTINUOUS
 10
31.4338974951
 20
17.9990789118
 11
31.7437477053
 21
17.8201399624
  0
LINE
  5
483
100
AcDbEntity
  8
3_AXES_OTHER
100
AcDbLine
 62
7
  6
CONTINUOUS
 10
32.5890826377
 20
17.3319578029
 11
32.8989328479
 21
17.1530188535
  0
LINE
  5
484
100
AcDbEntity
  8
0
100
AcDbLine
 62
7
  6
CONTINUOUS
 10
33.3851593315
 20
21.3641512382
 11
33.1849484265
 21
21.2485291478
  0
LINE
  5
485
100
AcDbEntity
  8
5_ALL_CURVES
100
AcDbLine
 62
4
  6
CONTINUOUS
 10
32.0710766453
 20
18.3667185263
 11
32.0790215225
 21
18.356834457
  0
LINE
  5
486
100
AcDbEntity
  8
3_AXES_OTHER
100
AcDbLine
 62
7
  6
CONTINUOUS
 10
31.4338974951
 20
19.3327971277
 11
31.8565649613
 21
18.6007156141
  0
LINE
  5
487
100
AcDbEntity
  8
3_AXES_OTHER
100
AcDbLine
 62
7
  6
CONTINUOUS
 10
32.1664151715
 20
18.0640393165
 11
32.5890826377
 21
17.3319578029
  0
LINE
  5
488
100
AcDbEntity
  8
3_AXES_OTHER
100
AcDbLine
 62
7
  6
CONTINUOUS
 10
31.5403588494
 20
19.7520160636
 11
31.4338974951
 21
19.6905344758
  0
LINE
  5
489
100
AcDbEntity
  8
5_ALL_CURVES
100
AcDbLine
 62
4
  6
CONTINUOUS
 10
32.0710766453
 20
18.3667185263
 11
32.0756636223
 21
18.3548967879
  0
LINE
  5
48A
100
AcDbEntity
  8
3_AXES_OTHER
100
AcDbLine
 62
7
  6
CONTINUOUS
 10
32.8989328479
 20
17.5107562016
 11
32.4762653817
 21
18.2428377152
  0
LINE
  5
48B
100
AcDbEntity
  8
3_AXES_OTHER
100
AcDbLine
 62
7
  6
CONTINUOUS
 10
32.1664151715
 20
18.7795140128
 11
31.7437477053
 21
19.5115955264
  0
LINE
  5
48C
100
AcDbEntity
  8
3_AXES_OTHER
100
AcDbLine
 62
7
  6
CONTINUOUS
 10
31.8502090596
 20
19.5730771141
 11
31.7437477053
 21
19.5115955264
  0
LINE
  5
48D
100
AcDbEntity
  8
5_ALL_CURVES
100
AcDbLine
 62
4
  6
CONTINUOUS
 10
33.7824031907
 20
18.3456129067
 11
33.7744583135
 21
18.3434825601
  0
LINE
  5
48E
100
AcDbEntity
  8
3_AXES_OTHER
100
AcDbLine
 62
7
  6
CONTINUOUS
 10
33.0053942021
 20
17.5722377894
 11
32.5827267359
 21
18.304319303
  0
LINE
  5
48F
100
AcDbEntity
  8
3_AXES_OTHER
100
AcDbLine
 62
7
  6
CONTINUOUS
 10
32.2728765258
 20
18.8409956005
 11
31.8502090596
 21
19.5730771141
  0
LINE
  5
490
100
AcDbEntity
  8
3_ALL_AXES
100
AcDbLine
 62
7
  6
CONTINUOUS
 10
31.6650122439
 20
19.2902147977
 11
31.5696737177
 21
19.2351566594
  0
LINE
  5
491
100
AcDbEntity
  8
3_ALL_AXES
100
AcDbLine
 62
7
  6
CONTINUOUS
 10
31.7408684712
 20
19.1588623556
 11
31.645529945
 21
19.1038042173
  0
LINE
  5
492
100
AcDbEntity
  8
3_AXES_OTHER
100
AcDbLine
 62
7
  6
CONTINUOUS
 10
32.8989328479
 20
18.8444744174
 11
32.5890826377
 21
19.0234133669
  0
LINE
  5
493
100
AcDbEntity
  8
3_AXES_OTHER
100
AcDbLine
 62
7
  6
CONTINUOUS
 10
31.7437477053
 20
19.5115955264
 11
31.4338974951
 21
19.6905344758
  0
LINE
  5
494
100
AcDbEntity
  8
3_ALL_AXES
100
AcDbLine
 62
7
  6
CONTINUOUS
 10
32.7624019106
 20
18.0339375337
 11
32.7624019106
 21
18.1163999415
  0
LINE
  5
495
100
AcDbEntity
  8
3_ALL_AXES
100
AcDbLine
 62
7
  6
CONTINUOUS
 10
32.7624019106
 20
19.4063810768
 11
32.7624019106
 21
19.6666874816
  0
LINE
  5
496
100
AcDbEntity
  8
3_AXES_OTHER
100
AcDbLine
 62
7
  6
CONTINUOUS
 10
32.8989328479
 20
17.1530188535
 11
32.8989328479
 21
17.5107562016
  0
LINE
  5
497
100
AcDbEntity
  8
3_AXES_OTHER
100
AcDbLine
 62
7
  6
CONTINUOUS
 10
32.8989328479
 20
18.4867370693
 11
32.8989328479
 21
18.8444744174
  0
LINE
  5
498
100
AcDbEntity
  8
0
100
AcDbLine
 62
7
  6
CONTINUOUS
 10
33.1785925247
 20
21.2200034049
 11
33.1849484265
 21
21.2485291478
  0
LINE
  5
499
100
AcDbEntity
  8
3_ALL_AXES
100
AcDbLine
 62
7
  6
CONTINUOUS
 10
32.1468773707
 20
19.0592325351
 11
32.3362537015
 21
19.1685976431
  0
LINE
  5
49A
100
AcDbEntity
  8
3_ALL_AXES
100
AcDbLine
 62
7
  6
CONTINUOUS
 10
33.0559194345
 20
19.5842056561
 11
33.5809029723
 21
19.8873844169
  0
LINE
  5
49B
100
AcDbEntity
  8
0
100
AcDbLine
 62
7
  6
CONTINUOUS
 10
33.5563668314
 20
18.5757368016
 11
34.932821407
 21
17.7808322715
  0
LINE
  5
49C
100
AcDbEntity
  8
3_AXES_OTHER
100
AcDbLine
 62
7
  6
CONTINUOUS
 10
33.0053942021
 20
18.9059560052
 11
32.6955439919
 21
19.0848949546
  0
LINE
  5
49D
100
AcDbEntity
  8
3_AXES_OTHER
100
AcDbLine
 62
7
  6
CONTINUOUS
 10
31.8502090596
 20
19.5730771141
 11
31.5403588494
 21
19.7520160636
  0
LINE
  5
49E
100
AcDbEntity
  8
3_AXES_OTHER
100
AcDbLine
 62
7
  6
CONTINUOUS
 10
33.0053942021
 20
17.2145004412
 11
33.0053942021
 21
17.5722377894
  0
LINE
  5
49F
100
AcDbEntity
  8
3_AXES_OTHER
100
AcDbLine
 62
7
  6
CONTINUOUS
 10
33.0053942021
 20
18.5482186571
 11
33.0053942021
 21
18.9059560052
  0
LINE
  5
4A0
100
AcDbEntity
  8
3_ALL_AXES
100
AcDbLine
 62
7
  6
CONTINUOUS
 10
33.0545314903
 20
18.0339375337
 11
33.0545314903
 21
18.1706028313
  0
LINE
  5
4A1
100
AcDbEntity
  8
3_ALL_AXES
100
AcDbLine
 62
7
  6
CONTINUOUS
 10
33.0545314903
 20
19.4063810768
 11
33.0545314903
 21
19.6666874816
  0
LINE
  5
4A2
100
AcDbEntity
  8
0
100
AcDbLine
 62
7
  6
CONTINUOUS
 10
33.1785925247
 20
21.2200034049
 11
33.1785925247
 21
19.6550495451
  0
LINE
  5
4A3
100
AcDbEntity
  8
0
100
AcDbLine
 62
7
  6
CONTINUOUS
 10
35.133032312
 20
20.3547520362
 11
34.932821407
 21
20.2391299458
  0
LINE
  5
4A4
100
AcDbEntity
  8
3_ALL_AXES
100
AcDbLine
 62
7
  6
CONTINUOUS
 10
32.093368434
 20
18.5482642015
 11
31.9980299078
 21
18.4932060632
  0
LINE
  5
4A5
100
AcDbEntity
  8
3_AXES_OTHER
100
AcDbLine
 62
7
  6
CONTINUOUS
 10
32.6955439919
 20
19.0848949546
 11
32.1664151715
 21
18.7795140128
  0
LINE
  5
4A6
100
AcDbEntity
  8
3_AXES_OTHER
100
AcDbLine
 62
7
  6
CONTINUOUS
 10
31.8565649613
 20
18.6007156141
 11
31.4338974951
 21
18.35681626
  0
LINE
  5
4A7
100
AcDbEntity
  8
0
100
AcDbLine
 62
7
  6
CONTINUOUS
 10
34.026441462
 20
18.8472055881
 11
34.2622737726
 21
18.7110120839
  0
LINE
  5
4A8
100
AcDbEntity
  8
0
100
AcDbLine
 62
7
  6
CONTINUOUS
 10
33.4614301525
 20
20.0907756971
 11
33.4614301525
 21
19.8183886887
  0
LINE
  5
4A9
100
AcDbEntity
  8
3_ALL_AXES
100
AcDbLine
 62
7
  6
CONTINUOUS
 10
31.6650122439
 20
18.2200057392
 11
31.5696737177
 21
18.1649476009
  0
LINE
  5
4AA
100
AcDbEntity
  8
3_ALL_AXES
100
AcDbLine
 62
7
  6
CONTINUOUS
 10
32.5919618717
 20
18.7549000322
 11
32.4966233455
 21
18.6998418939
  0
LINE
  5
4AB
100
AcDbEntity
  8
3_AXES_OTHER
100
AcDbLine
 62
7
  6
CONTINUOUS
 10
33.0053942021
 20
18.9059560052
 11
32.8989328479
 21
18.8444744174
  0
LINE
  5
4AC
100
AcDbEntity
  8
3_ALL_AXES
100
AcDbLine
 62
7
  6
CONTINUOUS
 10
33.6219370201
 20
18.8548988839
 11
33.6219370201
 21
19.0507485
  0
LINE
  5
4AD
100
AcDbEntity
  8
3_ALL_AXES
100
AcDbLine
 62
7
  6
CONTINUOUS
 10
33.6167100615
 20
18.8051155829
 11
33.621932604
 21
18.8549748901
  0
LINE
  5
4AE
100
AcDbEntity
  8
0
100
AcDbLine
 62
7
  6
CONTINUOUS
 10
34.2622737726
 20
19.6282873355
 11
34.9264655052
 21
20.2106042029
  0
LINE
  5
4AF
100
AcDbEntity
  8
3_ALL_AXES
100
AcDbLine
 62
7
  6
CONTINUOUS
 10
31.7408684712
 20
18.088653297
 11
31.645529945
 21
18.0335951588
  0
LINE
  5
4B0
100
AcDbEntity
  8
3_ALL_AXES
100
AcDbLine
 62
7
  6
CONTINUOUS
 10
32.6678180991
 20
18.6235475901
 11
32.5724795729
 21
18.5684894518
  0
LINE
  5
4B1
100
AcDbEntity
  8
3_ALL_AXES
100
AcDbLine
 62
7
  6
CONTINUOUS
 10
32.239461909
 20
18.2952891278
 11
32.1441233828
 21
18.2402309895
  0
LINE
  5
4B2
100
AcDbEntity
  8
0
100
AcDbLine
 62
7
  6
CONTINUOUS
 10
33.1785925247
 20
21.2200034049
 11
33.4614301525
 21
20.0907756971
  0
LINE
  5
4B3
100
AcDbEntity
  8
3_ALL_AXES
100
AcDbLine
 62
7
  6
CONTINUOUS
 10
32.9819430445
 20
18.4385367024
 11
33.0144266883
 21
18.4572960542
  0
LINE
  5
4B4
100
AcDbEntity
  8
3_ALL_AXES
100
AcDbLine
 62
7
  6
CONTINUOUS
 10
33.5969547057
 20
18.793706836
 11
33.6167100615
 21
18.8051155829
  0
LINE
  5
4B5
100
AcDbEntity
  8
3_ALL_AXES
100
AcDbLine
 62
7
  6
CONTINUOUS
 10
32.9946713325
 20
18.4367145548
 11
33.0144266883
 21
18.4481233017
  0
LINE
  5
4B6
100
AcDbEntity
  8
3_ALL_AXES
100
AcDbLine
 62
7
  6
CONTINUOUS
 10
33.5969547057
 20
18.7845340835
 11
33.6294383495
 21
18.8032934353
  0
LINE
  5
4B7
100
AcDbEntity
  8
3_AXES_OTHER
100
AcDbLine
 62
7
  6
CONTINUOUS
 10
31.7437477053
 20
17.8201399624
 11
32.1664151715
 21
18.0640393165
  0
LINE
  5
4B8
100
AcDbEntity
  8
3_AXES_OTHER
100
AcDbLine
 62
7
  6
CONTINUOUS
 10
32.4762653817
 20
18.2428377152
 11
33.0053942021
 21
18.5482186571
  0
LINE
  5
4B9
100
AcDbEntity
  8
0
100
AcDbLine
 62
7
  6
CONTINUOUS
 10
34.9264655052
 20
17.8020169293
 11
34.2622737726
 21
18.7110120839
  0
LINE
  5
4BA
100
AcDbEntity
  8
3_ALL_AXES
100
AcDbLine
 62
7
  6
CONTINUOUS
 10
32.7086650348
 20
18.0861877745
 11
32.7609533398
 21
18.1163843471
  0
LINE
  5
4BB
100
AcDbEntity
  8
3_ALL_AXES
100
AcDbLine
 62
7
  6
CONTINUOUS
 10
32.770491142
 20
18.1218924419
 11
32.8981516821
 21
18.1956165904
  0
LINE
  5
4BC
100
AcDbEntity
  8
3_ALL_AXES
100
AcDbLine
 62
7
  6
CONTINUOUS
 10
33.5454205823
 20
18.5694153267
 11
34.1428009529
 21
18.9144033642
  0
LINE
  5
4BD
100
AcDbEntity
  8
0
100
AcDbLine
 62
7
  6
CONTINUOUS
 10
34.2622737726
 20
19.6282873355
 11
33.4614301525
 21
20.0907756971
  0
LINE
  5
4BE
100
AcDbEntity
  8
0
100
AcDbLine
 62
7
  6
CONTINUOUS
 10
34.2622737726
 20
18.7110120839
 11
34.2622737726
 21
19.6282873355
  0
LINE
  5
4BF
100
AcDbEntity
  8
5_ALL_CURVES
100
AcDbLine
 62
4
  6
CONTINUOUS
 10
33.7824031907
 20
18.3456129067
 11
33.7744583135
 21
18.3357288373
  0
LINE
  5
4C0
100
AcDbEntity
  8
3_ALL_AXES
100
AcDbLine
 62
7
  6
CONTINUOUS
 10
32.5919618717
 20
17.6846909737
 11
32.4966233455
 21
17.6296328354
  0
LINE
  5
4C1
100
AcDbEntity
  8
3_ALL_AXES
100
AcDbLine
 62
7
  6
CONTINUOUS
 10
32.6678180991
 20
17.5533385316
 11
32.5724795729
 21
17.4982803933
  0
LINE
  5
4C2
100
AcDbEntity
  8
3_AXES_OTHER
100
AcDbLine
 62
7
  6
CONTINUOUS
 10
33.0053942021
 20
17.5722377894
 11
32.8989328479
 21
17.5107562016
  0
LINE
  5
4C3
100
AcDbEntity
  8
0
100
AcDbLine
 62
7
  6
CONTINUOUS
 10
34.9264655052
 20
17.8020169293
 11
34.932821407
 21
17.7808322715
  0
LINE
  5
4C4
100
AcDbEntity
  8
0
100
AcDbLine
 62
7
  6
CONTINUOUS
 10
34.932821407
 20
20.2391299458
 11
34.9264655052
 21
20.2106042029
  0
LINE
  5
4C5
100
AcDbEntity
  8
0
100
AcDbLine
 62
7
  6
CONTINUOUS
 10
34.9264655052
 20
17.8020169293
 11
34.9264655052
 21
20.2106042029
  0
LINE
  5
4C6
100
AcDbEntity
  8
3_AXES_OTHER
100
AcDbLine
 62
7
  6
CONTINUOUS
 10
33.0053942021
 20
17.2145004412
 11
32.8989328479
 21
17.1530188535
  0
LINE
  5
4C7
100
AcDbEntity
  8
0
100
AcDbLine
 62
7
  6
CONTINUOUS
 10
34.932821407
 20
20.2391299458
 11
33.1849484265
 21
21.2485291478
  0
LINE
  5
4C8
100
AcDbEntity
  8
3_AXES_OTHER
100
AcDbLine
 62
7
  6
CONTINUOUS
 10
35.133032312
 20
20.3547520362
 11
35.133032312
 21
17.8964543619
  0
LINE
  5
4C9
100
AcDbEntity
  8
3_AXES_OTHER
100
AcDbLine
 62
7
  6
CONTINUOUS
 10
33.3851593315
 20
21.3641512382
 11
35.133032312
 21
20.3547520362
  0
LINE
  5
4CA
100
AcDbEntity
  8
0
100
AcDbLine
 62
7
  6
CONTINUOUS
 10
35.133032312
 20
17.8964543619
 11
34.932821407
 21
17.7808322715
  0
LINE
  5
4CB
100
AcDbEntity
  8
3_AXES_OTHER
100
AcDbLine
 62
7
  6
CONTINUOUS
 10
27.6685843133
 20
7.6454554461
 11
31.9992929747
 21
7.6454554461
  0
LINE
  5
4CC
100
AcDbEntity
  8
3_ALL_AXES
100
AcDbLine
 62
7
  6
CENTER
 10
29.833938644
 20
8.0194711942
 11
29.4678328662
 21
8.0194711942
  0
LINE
  5
4CD
100
AcDbEntity
  8
3_ALL_AXES
100
AcDbLine
 62
7
  6
CENTER
 10
29.833938644
 20
8.0194711942
 11
30.2000444219
 21
8.0194711942
  0
LINE
  5
4CE
100
AcDbEntity
  8
3_AXES_OTHER
100
AcDbLine
 62
7
  6
CONTINUOUS
 10
27.6685843133
 20
12.9210459973
 11
27.6685843133
 21
7.6454554461
  0
LINE
  5
4CF
100
AcDbEntity
  8
3_ALL_AXES
100
AcDbLine
 62
7
  6
CENTER
 10
28.0622851007
 20
10.2832507217
 11
28.0622851007
 21
9.9171449438
  0
LINE
  5
4D0
100
AcDbEntity
  8
3_ALL_AXES
100
AcDbLine
 62
7
  6
CENTER
 10
28.0622851007
 20
10.2832507217
 11
28.0622851007
 21
10.6493564996
  0
LINE
  5
4D1
100
AcDbEntity
  8
3_ALL_AXES
100
AcDbLine
 62
7
  6
CENTER
 10
29.833938644
 20
12.5470302493
 11
29.833938644
 21
7.4230795393
  0
LINE
  5
4D2
100
AcDbEntity
  8
3_ALL_AXES
100
AcDbLine
 62
7
  6
CENTER
 10
29.833938644
 20
12.5470302493
 11
29.833938644
 21
13.1653050788
  0
LINE
  5
4D3
100
AcDbEntity
  8
3_ALL_AXES
100
AcDbLine
 62
7
  6
CENTER
 10
28.0622851007
 20
10.2832507217
 11
27.6961793229
 21
10.2832507217
  0
LINE
  5
4D4
100
AcDbEntity
  8
3_ALL_AXES
100
AcDbLine
 62
7
  6
CENTER
 10
31.6055921873
 20
10.2832507217
 11
28.0622851007
 21
10.2832507217
  0
LINE
  5
4D5
100
AcDbEntity
  8
3_ALL_AXES
100
AcDbLine
 62
7
  6
CENTER
 10
27.6961793229
 20
10.2832507217
 11
27.2025157274
 21
10.2832507217
  0
LINE
  5
4D6
100
AcDbEntity
  8
3_ALL_AXES
100
AcDbLine
 62
7
  6
CENTER
 10
31.6055921873
 20
10.2832507217
 11
32.4530031354
 21
10.2832507217
  0
LINE
  5
4D7
100
AcDbEntity
  8
3_ALL_AXES
100
AcDbLine
 62
7
  6
CENTER
 10
31.6055921873
 20
10.2832507217
 11
31.6055921873
 21
9.9171449438
  0
LINE
  5
4D8
100
AcDbEntity
  8
3_ALL_AXES
100
AcDbLine
 62
7
  6
CENTER
 10
31.6055921873
 20
10.2832507217
 11
31.6055921873
 21
10.6493564996
  0
LINE
  5
4D9
100
AcDbEntity
  8
3_AXES_OTHER
100
AcDbLine
 62
7
  6
CONTINUOUS
 10
31.9992929747
 20
7.6454554461
 11
31.9992929747
 21
12.9210459973
  0
LINE
  5
4DA
100
AcDbEntity
  8
3_ALL_AXES
100
AcDbLine
 62
7
  6
CENTER
 10
29.833938644
 20
12.5470302493
 11
29.4678328662
 21
12.5470302493
  0
LINE
  5
4DB
100
AcDbEntity
  8
3_ALL_AXES
100
AcDbLine
 62
7
  6
CENTER
 10
29.833938644
 20
12.5470302493
 11
30.2000444219
 21
12.5470302493
  0
LINE
  5
4DC
100
AcDbEntity
  8
3_AXES_OTHER
100
AcDbLine
 62
7
  6
CONTINUOUS
 10
31.9992929747
 20
12.9210459973
 11
27.6685843133
 21
12.9210459973
  0
ARC
  5
4DD
100
AcDbEntity
  8
3_AXES_OTHER
100
AcDbCircle
 62
7
  6
CONTINUOUS
 10
5.6356810205
 20
10.2832507217
 40
1.2204724409
100
AcDbArc
 50
102.1032591203
 51
108.4990162073
  0
ARC
  5
4DE
100
AcDbEntity
  8
3_AXES_OTHER
100
AcDbCircle
 62
7
  6
CONTINUOUS
 10
5.6356810205
 20
10.2832507217
 40
1.2204724409
100
AcDbArc
 50
161.4625004566
 51
179.5379322534
  0
ARC
  5
4DF
100
AcDbEntity
  8
3_AXES_OTHER
100
AcDbCircle
 62
7
  6
CONTINUOUS
 10
5.6356810205
 20
10.2832507217
 40
1.2204724409
100
AcDbArc
 50
0.4620677466
 51
18.4933005489
  0
ARC
  5
4E0
100
AcDbEntity
  8
3_AXES_OTHER
100
AcDbCircle
 62
7
  6
CONTINUOUS
 10
5.6356810205
 20
10.2832507217
 40
1.2204724409
100
AcDbArc
 50
71.4544332918
 51
77.8966056656
  0
ARC
  5
4E1
100
AcDbEntity
  8
3_AXES_OTHER
100
AcDbCircle
 62
7
  6
CONTINUOUS
 10
5.6356810205
 20
10.2832507217
 40
1.2204724409
100
AcDbArc
 50
282.1033943432
 51
288.5455667082
  0
ARC
  5
4E2
100
AcDbEntity
  8
3_AXES_OTHER
100
AcDbCircle
 62
7
  6
CONTINUOUS
 10
5.6356810205
 20
10.2832507217
 40
1.2204724409
100
AcDbArc
 50
341.5066994511
 51
359.5379322534
  0
ARC
  5
4E3
100
AcDbEntity
  8
3_AXES_OTHER
100
AcDbCircle
 62
7
  6
CONTINUOUS
 10
5.6356810205
 20
10.2832507217
 40
1.2204724409
100
AcDbArc
 50
180.4620677466
 51
198.5374995434
  0
ARC
  5
4E4
100
AcDbEntity
  8
3_AXES_OTHER
100
AcDbCircle
 62
7
  6
CONTINUOUS
 10
5.6356810205
 20
10.2832507217
 40
1.2204724409
100
AcDbArc
 50
251.5009840052
 51
257.8967409111
  0
ARC
  5
4E5
100
AcDbEntity
  8
3_AXES_OTHER
100
AcDbCircle
 62
7
  6
CONTINUOUS
 10
5.6356810205
 20
10.2832507217
 40
0.9842519685
100
AcDbArc
 50
168.4729536163
 51
191.5270463837
  0
ARC
  5
4E6
100
AcDbEntity
  8
3_AXES_OTHER
100
AcDbCircle
 62
7
  6
CONTINUOUS
 10
5.6356810205
 20
10.2832507217
 40
0.9842519685
100
AcDbArc
 50
78.4729536163
 51
101.5270463837
  0
ARC
  5
4E7
100
AcDbEntity
  8
3_AXES_OTHER
100
AcDbCircle
 62
7
  6
CONTINUOUS
 10
5.6356810205
 20
10.2832507217
 40
0.9842519685
100
AcDbArc
 50
258.4729536163
 51
281.5270463837
  0
ARC
  5
4E8
100
AcDbEntity
  8
3_AXES_OTHER
100
AcDbCircle
 62
7
  6
CONTINUOUS
 10
5.6356810205
 20
10.2832507217
 40
0.9842519685
100
AcDbArc
 50
348.4729536163
 51
11.5270463837
  0
CIRCLE
  5
4E9
100
AcDbEntity
  8
3_ALL_AXES
100
AcDbCircle
 62
7
  6
CONTINUOUS
 10
5.6356810205
 20
10.2832507217
 40
0.2559055118
  0
CIRCLE
  5
4EA
100
AcDbEntity
  8
0
100
AcDbCircle
 62
7
  6
CONTINUOUS
 10
7.4073345638
 20
10.2832507217
 40
0.1377952756
  0
CIRCLE
  5
4EB
100
AcDbEntity
  8
0
100
AcDbCircle
 62
7
  6
CONTINUOUS
 10
5.6356810205
 20
8.0194711942
 40
0.1377952756
  0
CIRCLE
  5
4EC
100
AcDbEntity
  8
0
100
AcDbCircle
 62
7
  6
CONTINUOUS
 10
3.8640274772
 20
10.2832507217
 40
0.1377952756
  0
CIRCLE
  5
4ED
100
AcDbEntity
  8
0
100
AcDbCircle
 62
7
  6
CONTINUOUS
 10
5.6356810205
 20
12.5470302493
 40
0.1377952756
  0
CIRCLE
  5
4EE
100
AcDbEntity
  8
3_ALL_AXES
100
AcDbCircle
 62
7
  6
CONTINUOUS
 10
6.7840335686
 20
9.1348981735
 40
0.1328740157
  0
CIRCLE
  5
4EF
100
AcDbEntity
  8
3_ALL_AXES
100
AcDbCircle
 62
7
  6
CONTINUOUS
 10
4.4873284723
 20
9.1348981735
 40
0.1328740157
  0
CIRCLE
  5
4F0
100
AcDbEntity
  8
3_ALL_AXES
100
AcDbCircle
 62
7
  6
CONTINUOUS
 10
6.7840335686
 20
11.4316032699
 40
0.1328740157
  0
CIRCLE
  5
4F1
100
AcDbEntity
  8
3_ALL_AXES
100
AcDbCircle
 62
7
  6
CONTINUOUS
 10
4.4873284723
 20
11.4316032699
 40
0.1328740157
  0
ARC
  5
4F2
100
AcDbEntity
  8
3_ALL_AXES
100
AcDbCircle
 62
7
  6
CONTINUOUS
 10
5.6356810205
 20
18.5941876976
 40
1.2696850394
100
AcDbArc
 50
39.1773936864
 51
140.8226063136
  0
ARC
  5
4F3
100
AcDbEntity
  8
3_ALL_AXES
100
AcDbCircle
 62
7
  6
CONTINUOUS
 10
5.6356810205
 20
18.5941876976
 40
1.25
100
AcDbArc
 50
38.0603158734
 51
141.9396841266
  0
ARC
  5
4F4
100
AcDbEntity
  8
3_ALL_AXES
100
AcDbCircle
 62
7
  6
CONTINUOUS
 10
5.6356810205
 20
18.5941876976
 40
1.2204327527
100
AcDbArc
 50
323.7493129498
 51
36.2506870502
  0
ARC
  5
4F5
100
AcDbEntity
  8
3_ALL_AXES
100
AcDbCircle
 62
7
  6
CONTINUOUS
 10
5.6356810205
 20
18.5941876976
 40
1.2204327527
100
AcDbArc
 50
143.7493129498
 51
216.2506870502
  0
CIRCLE
  5
4F6
100
AcDbEntity
  8
3_ALL_AXES
100
AcDbCircle
 62
7
  6
CONTINUOUS
 10
5.6356810205
 20
18.5941876976
 40
0.2559055118
  0
ARC
  5
4F7
100
AcDbEntity
  8
3_AXES_OTHER
100
AcDbCircle
 62
7
  6
CONTINUOUS
 10
17.2715548855
 20
10.2832507217
 40
1.2204724409
100
AcDbArc
 50
233.7506791171
 51
257.8965511293
  0
ARC
  5
4F8
100
AcDbEntity
  8
3_AXES_OTHER
100
AcDbCircle
 62
7
  6
CONTINUOUS
 10
17.2715548855
 20
10.2832507217
 40
1.2204724409
100
AcDbArc
 50
282.1034488707
 51
306.2493208829
  0
ARC
  5
4F9
100
AcDbEntity
  8
3_AXES_OTHER
100
AcDbCircle
 62
7
  6
CONTINUOUS
 10
17.2715548855
 20
10.2832507217
 40
1.2204724409
100
AcDbArc
 50
102.1034488707
 51
126.2493208829
  0
ARC
  5
4FA
100
AcDbEntity
  8
3_AXES_OTHER
100
AcDbCircle
 62
7
  6
CONTINUOUS
 10
17.2715548855
 20
10.2832507217
 40
1.2204724409
100
AcDbArc
 50
53.7506791171
 51
77.8965511293
  0
ARC
  5
4FB
100
AcDbEntity
  8
3_ALL_AXES
100
AcDbCircle
 62
7
  6
CONTINUOUS
 10
18.8758629477
 20
10.2832511385
 40
0.8022181909
100
AcDbArc
 50
180.0000297677
 51
180.7030168044
  0
ARC
  5
4FC
100
AcDbEntity
  8
3_ALL_AXES
100
AcDbCircle
 62
7
  6
CONTINUOUS
 10
15.6672468234
 20
10.2832503049
 40
0.8022181908
100
AcDbArc
 50
0.0000297677
 51
0.7030168045
  0
ARC
  5
4FD
100
AcDbEntity
  8
3_ALL_AXES
100
AcDbCircle
 62
7
  6
CONTINUOUS
 10
35.9236255233
 20
18.8078422073
 40
2.2941916833
100
AcDbArc
 50
179.9996988468
 51
180.113602369
  0
ARC
  5
4FE
100
AcDbEntity
  8
3_ALL_AXES
100
AcDbCircle
 62
7
  6
CONTINUOUS
 10
32.9094133027
 20
19.6497382001
 40
1.2160161576
100
AcDbArc
 50
273.4234835033
 51
274.0204534493
  0
ARC
  5
4FF
100
AcDbEntity
  8
3_AXES_OTHER
100
AcDbCircle
 62
7
  6
CONTINUOUS
 10
32.9084966392
 20
18.8502817821
 40
0.6966377193
100
AcDbArc
 50
73.6118586065
 51
77.8614478351
  0
ARC
  5
500
100
AcDbEntity
  8
3_AXES_OTHER
100
AcDbCircle
 62
7
  6
CONTINUOUS
 10
32.9084637886
 20
18.850316042
 40
0.6966203512
100
AcDbArc
 50
263.8684798715
 51
346.4039837612
  0
ARC
  5
501
100
AcDbEntity
  8
3_AXES_OTHER
100
AcDbCircle
 62
7
  6
CONTINUOUS
 10
32.9084686115
 20
18.8503102737
 40
0.6966187679
100
AcDbArc
 50
102.128133315
 51
156.2023826746
  0
ARC
  5
502
100
AcDbEntity
  8
3_ALL_AXES
100
AcDbCircle
 62
7
  6
CONTINUOUS
 10
32.3222184511
 20
18.4393227248
 40
0.692946766
100
AcDbArc
 50
9.0522864266
 51
9.393742464
  0
ARC
  5
503
100
AcDbEntity
  8
3_ALL_AXES
100
AcDbCircle
 62
7
  6
CONTINUOUS
 10
32.3283227512
 20
18.4402966556
 40
0.6867652597
100
AcDbArc
 50
8.7887611759
 51
9.0521716158
  0
ARC
  5
504
100
AcDbEntity
  8
3_ALL_AXES
100
AcDbCircle
 62
7
  6
CONTINUOUS
 10
32.5006263116
 20
18.5667191686
 40
0.5201660275
100
AcDbArc
 50
301.2471392056
 51
302.0817128129
  0
ARC
  5
505
100
AcDbEntity
  8
3_ALL_AXES
100
AcDbCircle
 62
7
  6
CONTINUOUS
 10
32.5020002547
 20
18.5644607419
 40
0.517522507
100
AcDbArc
 50
300.8281054253
 51
301.2467936785
  0
ARC
  5
506
100
AcDbEntity
  8
3_ALL_AXES
100
AcDbCircle
 62
7
  6
CONTINUOUS
 10
33.3049424822
 20
19.1314429172
 40
0.5166149526
100
AcDbArc
 50
118.8098794765
 51
119.0038039655
  0
ARC
  5
507
100
AcDbEntity
  8
3_ALL_AXES
100
AcDbCircle
 62
7
  6
CONTINUOUS
 10
32.5033744821
 20
18.5621520343
 40
0.5148357575
100
AcDbArc
 50
300.0236816904
 51
300.8284469756
  0
ARC
  5
508
100
AcDbEntity
  8
3_ALL_AXES
100
AcDbCircle
 62
7
  6
CONTINUOUS
 10
33.3810358734
 20
18.8443533665
 40
0.2522329797
100
AcDbArc
 50
7.5117664061
 51
15.4510945677
  0
ARC
  5
509
100
AcDbEntity
  8
3_ALL_AXES
100
AcDbCircle
 62
7
  6
CONTINUOUS
 10
33.3552198526
 20
18.858143676
 40
0.2501756294
100
AcDbArc
 50
343.1799735221
 51
345.0742893152
  0
ARC
  5
50A
100
AcDbEntity
  8
3_ALL_AXES
100
AcDbCircle
 62
7
  6
CONTINUOUS
 10
32.7445767568
 20
18.433953943
 40
0.2374105225
100
AcDbArc
 50
359.9997556267
 51
1.1060549502
  0
CIRCLE
  5
50B
100
AcDbEntity
  8
3_ALL_AXES
100
AcDbCircle
 62
7
  6
CONTINUOUS
 10
29.833938644
 20
12.5470302493
 40
0.1377952756
  0
CIRCLE
  5
50C
100
AcDbEntity
  8
3_ALL_AXES
100
AcDbCircle
 62
7
  6
CONTINUOUS
 10
31.6055921873
 20
10.2832507217
 40
0.1377952756
  0
CIRCLE
  5
50D
100
AcDbEntity
  8
3_ALL_AXES
100
AcDbCircle
 62
7
  6
CONTINUOUS
 10
29.833938644
 20
8.0194711942
 40
0.1377952756
  0
CIRCLE
  5
50E
100
AcDbEntity
  8
3_ALL_AXES
100
AcDbCircle
 62
7
  6
CONTINUOUS
 10
28.0622851007
 20
10.2832507217
 40
0.1377952756
  0
LINE
  5
50F
100
AcDbEntity
  8
3_ALL_AXES
100
AcDbLine
 62
7
  6
CONTINUOUS
 10
18.5412398664
 20
11.2675026337
 11
18.5328934827
 21
11.2567120179
  0
SPLINE
  5
510
100
AcDbEntity
  8
3_ALL_AXES
100
AcDbSpline
 62
7
  6
CONTINUOUS
 70
0
 71
3
 72
13
 73
9
 74
0
 42
0.0000001
 43
0.0000001
 44
0.0000000001
 40
0.0
 40
0.0
 40
0.0
 40
0.0
 40
0.1328183592
 40
0.3702813766
 40
0.5137605956
 40
0.6685304626
 40
0.8317336454
 40
1.0
 40
1.0
 40
1.0
 40
1.0
 10
18.5328934827
 20
11.2567120179
 30
0.0
 10
18.5032850617
 20
11.2183462926
 30
0.0
 10
18.4219844733
 20
11.1104378664
 30
0.0
 10
18.3153404567
 20
10.9560390762
 30
0.0
 10
18.2163229046
 20
10.7873547958
 30
0.0
 10
18.1433739062
 20
10.6352677987
 30
0.0
 10
18.0880221207
 20
10.4659405319
 30
0.0
 10
18.0736447568
 20
10.3446470705
 30
0.0
 10
18.0736447568
 20
10.2832507217
 30
0.0
  0
LINE
  5
511
100
AcDbEntity
  8
3_ALL_AXES
100
AcDbLine
 62
7
  6
CONTINUOUS
 10
16.0018757195
 20
9.299004486
 11
16.0072471577
 21
9.3059439158
  0
LINE
  5
512
100
AcDbEntity
  8
3_ALL_AXES
100
AcDbLine
 62
7
  6
CONTINUOUS
 10
16.0072471577
 20
9.3059439158
 11
16.0201465428
 21
9.3226911564
  0
SPLINE
  5
513
100
AcDbEntity
  8
3_ALL_AXES
100
AcDbSpline
 62
7
  6
CONTINUOUS
 70
0
 71
3
 72
13
 73
9
 74
0
 42
0.0000001
 43
0.0000001
 44
0.0000000001
 40
0.0
 40
0.0
 40
0.0
 40
0.0
 40
0.149177047
 40
0.3877147479
 40
0.5284334092
 40
0.6791221198
 40
0.8373128349
 40
1.0
 40
1.0
 40
1.0
 40
1.0
 10
16.0201465428
 20
9.3226911564
 30
0.0
 10
16.0527971895
 20
9.3652295895
 30
0.0
 10
16.1361952595
 20
9.4768999068
 30
0.0
 10
16.2429732357
 20
9.6342603643
 30
0.0
 10
16.3375389154
 20
9.7997855252
 30
0.0
 10
16.4056140669
 20
9.9466942687
 30
0.0
 10
16.4564400378
 20
10.1091120137
 30
0.0
 10
16.4694650142
 20
10.2247697957
 30
0.0
 10
16.4694650142
 20
10.2832507217
 30
0.0
  0
SPLINE
  5
514
100
AcDbEntity
  8
3_ALL_AXES
100
AcDbSpline
 62
7
  6
CONTINUOUS
 70
0
 71
3
 72
12
 73
8
 74
0
 42
0.0000001
 43
0.0000001
 44
0.0000000001
 40
0.0
 40
0.0
 40
0.0
 40
0.0
 40
0.1749275688
 40
0.344017176
 40
0.5036699841
 40
0.6505704025
 40
1.0
 40
1.0
 40
1.0
 40
1.0
 10
16.5009415339
 20
10.273408202
 30
0.0
 10
16.5001219195
 20
10.2092370579
 30
0.0
 10
16.4821160787
 20
10.0828718491
 30
0.0
 10
16.4189220021
 20
9.9084286839
 30
0.0
 10
16.3387975429
 20
9.7530836478
 30
0.0
 10
16.2118350495
 20
9.5484780105
 30
0.0
 10
16.1027769741
 20
9.4022529923
 30
0.0
 10
16.023518388
 20
9.3014936048
 30
0.0
  0
LINE
  5
515
100
AcDbEntity
  8
3_ALL_AXES
100
AcDbLine
 62
7
  6
CONTINUOUS
 10
16.023518388
 20
9.3014936048
 11
16.0215609811
 21
9.2990047102
  0
SPLINE
  5
516
100
AcDbEntity
  8
3_ALL_AXES
100
AcDbSpline
 62
7
  6
CONTINUOUS
 70
0
 71
3
 72
21
 73
17
 74
0
 42
0.0000001
 43
0.0000001
 44
0.0000000001
 40
0.0
 40
0.0
 40
0.0
 40
0.0
 40
0.1821790272
 40
0.3578213306
 40
0.5228572468
 40
0.67343619
 40
0.7417419532
 40
0.8043075969
 40
0.8601560292
 40
0.9081850023
 40
0.9472343129
 40
0.9761594943
 40
0.9865114949
 40
0.9939743685
 40
0.9984851944
 40
1.0
 40
1.0
 40
1.0
 40
1.0
 10
18.0421682371
 20
10.2930932414
 30
0.0
 10
18.0430243207
 20
10.360119719
 30
0.0
 10
18.0626178603
 20
10.491942699
 30
0.0
 10
18.1305497532
 20
10.6727855167
 30
0.0
 10
18.2153658033
 20
10.8327302195
 30
0.0
 10
18.2909945154
 20
10.9521392165
 30
0.0
 10
18.3495690973
 20
11.0375455237
 30
0.0
 10
18.3894819511
 20
11.0934699423
 30
0.0
 10
18.4257859493
 20
11.1427930444
 30
0.0
 10
18.4574346069
 20
11.1847945803
 30
0.0
 10
18.483427827
 20
11.2186491124
 30
0.0
 10
18.5010836694
 20
11.2414303051
 30
0.0
 10
18.5117174307
 20
11.2549432017
 30
0.0
 10
18.516730102
 20
11.2614571018
 30
0.0
 10
18.519901298
 20
11.265267448
 30
0.0
 10
18.521164937
 20
11.2671043383
 30
0.0
 10
18.5215548292
 20
11.2675026357
 30
0.0
  0
SPLINE
  5
517
100
AcDbEntity
  8
3_ALL_AXES
100
AcDbSpline
 62
7
  6
CONTINUOUS
 70
0
 71
3
 72
15
 73
11
 74
0
 42
0.0000001
 43
0.0000001
 44
0.0000000001
 40
0.0
 40
0.0
 40
0.0
 40
0.0
 40
0.0869509381
 40
0.1864332444
 40
0.3038282149
 40
0.4376400651
 40
0.5821341217
 40
0.7294446572
 40
0.8711741236
 40
1.0
 40
1.0
 40
1.0
 40
1.0
 10
33.0545314903
 20
18.0339375337
 30
0.0
 10
33.0545320513
 20
18.0255105079
 30
0.0
 10
33.0494454514
 20
18.007276513
 30
0.0
 10
33.0295753265
 20
17.9846727328
 30
0.0
 10
33.0002433825
 20
17.9667959446
 30
0.0
 10
32.9636252969
 20
17.9545586268
 30
0.0
 10
32.9225763477
 20
17.9487913605
 30
0.0
 10
32.8803733299
 20
17.9499595864
 30
0.0
 10
32.8404750722
 20
17.957943604
 30
0.0
 10
32.8159952801
 20
17.9680472812
 30
0.0
 10
32.8051832971
 20
17.9742912172
 30
0.0
  0
SPLINE
  5
518
100
AcDbEntity
  8
3_ALL_AXES
100
AcDbSpline
 62
7
  6
CONTINUOUS
 70
0
 71
3
 72
11
 73
7
 74
0
 42
0.0000001
 43
0.0000001
 44
0.0000000001
 40
0.0
 40
0.0
 40
0.0
 40
0.0
 40
0.2178044477
 40
0.4509435464
 40
0.7103218077
 40
1.0
 40
1.0
 40
1.0
 40
1.0
 10
32.7624019106
 20
18.0339375337
 30
0.0
 10
32.7624022811
 20
18.0283726147
 30
0.0
 10
32.7644579299
 20
18.0167739526
 30
0.0
 10
32.773248616
 20
18.0006127275
 30
0.0
 10
32.7871457965
 20
17.9860038364
 30
0.0
 10
32.7987740044
 20
17.9779925931
 30
0.0
 10
32.8051832971
 20
17.9742912172
 30
0.0
  0
SPLINE
  5
519
100
AcDbEntity
  8
3_ALL_AXES
100
AcDbSpline
 62
7
  6
CONTINUOUS
 70
0
 71
3
 72
9
 73
5
 74
0
 42
0.0000001
 43
0.0000001
 44
0.0000000001
 40
0.0
 40
0.0
 40
0.0
 40
0.0
 40
0.2641424345
 40
1.0
 40
1.0
 40
1.0
 40
1.0
 10
33.6331727721
 20
19.0381411211
 30
0.0
 10
33.63317174
 20
19.0178621416
 30
0.0
 10
33.6322413374
 20
18.9410917524
 30
0.0
 10
33.62943384
 20
18.8643481819
 30
0.0
 10
33.62943384
 20
18.8078542658
 30
0.0
  0
SPLINE
  5
51A
100
AcDbEntity
  8
3_ALL_AXES
100
AcDbSpline
 62
7
  6
CONTINUOUS
 70
0
 71
3
 72
11
 73
7
 74
0
 42
0.0000001
 43
0.0000001
 44
0.0000000001
 40
0.0
 40
0.0
 40
0.0
 40
0.0
 40
0.2544992576
 40
0.509180283
 40
0.7591111055
 40
1.0
 40
1.0
 40
1.0
 40
1.0
 10
32.7769011446
 20
18.1259869224
 30
0.0
 10
32.8045051631
 20
18.1432903101
 30
0.0
 10
32.8566396999
 20
18.1831278768
 30
0.0
 10
32.9219370251
 20
18.255913066
 30
0.0
 10
32.9691494435
 20
18.3399773054
 30
0.0
 10
32.9819872794
 20
18.403116254
 30
0.0
 10
32.9819872794
 20
18.4339529304
 30
0.0
  0
SPLINE
  5
51B
100
AcDbEntity
  8
3_ALL_AXES
100
AcDbSpline
 62
7
  6
CONTINUOUS
 70
0
 71
3
 72
14
 73
10
 74
0
 42
0.0000001
 43
0.0000001
 44
0.0000000001
 40
0.0
 40
0.0
 40
0.0
 40
0.0
 40
0.2773458997
 40
0.4079073874
 40
0.5307485743
 40
0.6471259206
 40
0.761638609
 40
0.8788171377
 40
1.0
 40
1.0
 40
1.0
 40
1.0
 10
33.6219360774
 20
19.050553398
 30
0.0
 10
33.6219958893
 20
19.141677549
 30
0.0
 10
33.6140485846
 20
19.2773480289
 30
0.0
 10
33.5580264041
 20
19.4438074525
 30
0.0
 10
33.4905022866
 20
19.5470404657
 30
0.0
 10
33.395100429
 20
19.6183879859
 30
0.0
 10
33.2812679993
 20
19.6464920472
 30
0.0
 10
33.1642012219
 20
19.6333723304
 30
0.0
 10
33.0908706338
 20
19.60330043
 30
0.0
 10
33.0559832733
 20
19.5841131301
 30
0.0
  0
SPLINE
  5
51C
100
AcDbEntity
  8
3_ALL_AXES
100
AcDbSpline
 62
7
  6
CONTINUOUS
 70
0
 71
3
 72
13
 73
9
 74
0
 42
0.0000001
 43
0.0000001
 44
0.0000000001
 40
0.0
 40
0.0
 40
0.0
 40
0.0
 40
0.269862886
 40
0.561321616
 40
0.6954689673
 40
0.8131493462
 40
0.9128602239
 40
1.0
 40
1.0
 40
1.0
 40
1.0
 10
31.5539739104
 20
19.2004506411
 30
0.0
 10
31.5539739104
 20
19.1869038479
 30
0.0
 10
31.5614235834
 20
19.1588179505
 30
0.0
 10
31.5807128085
 20
19.1290043614
 30
0.0
 10
31.6012481297
 20
19.1107884094
 30
0.0
 10
31.6169034532
 20
19.102241333
 30
0.0
 10
31.6322230048
 20
19.0991711322
 30
0.0
 10
31.641740722
 20
19.1016188625
 30
0.0
 10
31.6455286328
 20
19.1038066328
 30
0.0
  0
SPLINE
  5
51D
100
AcDbEntity
  8
3_ALL_AXES
100
AcDbSpline
 62
7
  6
CONTINUOUS
 70
0
 71
3
 72
13
 73
9
 74
0
 42
0.0000001
 43
0.0000001
 44
0.0000000001
 40
0.0
 40
0.0
 40
0.0
 40
0.0
 40
0.269862886
 40
0.561321616
 40
0.6954689673
 40
0.8131493462
 40
0.9128602239
 40
1.0
 40
1.0
 40
1.0
 40
1.0
 10
32.4809235382
 20
18.6651358757
 30
0.0
 10
32.4809235382
 20
18.6515890824
 30
0.0
 10
32.4883732113
 20
18.623503185
 30
0.0
 10
32.5076624364
 20
18.5936895959
 30
0.0
 10
32.5281977576
 20
18.5754736439
 30
0.0
 10
32.5438530811
 20
18.5669265676
 30
0.0
 10
32.5591726326
 20
18.5638563667
 30
0.0
 10
32.5686903498
 20
18.566304097
 30
0.0
 10
32.5724782607
 20
18.5684918673
 30
0.0
  0
SPLINE
  5
51E
100
AcDbEntity
  8
3_ALL_AXES
100
AcDbSpline
 62
7
  6
CONTINUOUS
 70
0
 71
3
 72
13
 73
9
 74
0
 42
0.0000001
 43
0.0000001
 44
0.0000000001
 40
0.0
 40
0.0
 40
0.0
 40
0.0
 40
0.269862886
 40
0.561321616
 40
0.6954689673
 40
0.8131493462
 40
0.9128602239
 40
1.0
 40
1.0
 40
1.0
 40
1.0
 10
31.5539739104
 20
18.1302415826
 30
0.0
 10
31.5539739104
 20
18.1166947894
 30
0.0
 10
31.5614235834
 20
18.0886088919
 30
0.0
 10
31.5807128085
 20
18.0587953028
 30
0.0
 10
31.6012481297
 20
18.0405793509
 30
0.0
 10
31.6169034532
 20
18.0320322745
 30
0.0
 10
31.6322230048
 20
18.0289620736
 30
0.0
 10
31.641740722
 20
18.0314098039
 30
0.0
 10
31.6455286328
 20
18.0335975742
 30
0.0
  0
SPLINE
  5
51F
100
AcDbEntity
  8
3_ALL_AXES
100
AcDbSpline
 62
7
  6
CONTINUOUS
 70
0
 71
3
 72
13
 73
9
 74
0
 42
0.0000001
 43
0.0000001
 44
0.0000000001
 40
0.0
 40
0.0
 40
0.0
 40
0.0
 40
0.269862886
 40
0.561321616
 40
0.6954689673
 40
0.8131493462
 40
0.9128602239
 40
1.0
 40
1.0
 40
1.0
 40
1.0
 10
32.4809235382
 20
17.5949268171
 30
0.0
 10
32.4809235382
 20
17.5813800239
 30
0.0
 10
32.4883732113
 20
17.5532941265
 30
0.0
 10
32.5076624364
 20
17.5234805374
 30
0.0
 10
32.5281977576
 20
17.5052645854
 30
0.0
 10
32.5438530811
 20
17.496717509
 30
0.0
 10
32.5591726326
 20
17.4936473082
 30
0.0
 10
32.5686903498
 20
17.4960950385
 30
0.0
 10
32.5724782607
 20
17.4982828088
 30
0.0
  0
SPLINE
  5
520
100
AcDbEntity
  8
3_ALL_AXES
100
AcDbSpline
 62
7
  6
CONTINUOUS
 70
0
 71
3
 72
15
 73
11
 74
0
 42
0.0000001
 43
0.0000001
 44
0.0000000001
 40
0.0
 40
0.0
 40
0.0
 40
0.0
 40
0.1288194867
 40
0.2705539902
 40
0.417876825
 40
0.5623851064
 40
0.6962073102
 40
0.8136031978
 40
0.9130730773
 40
1.0
 40
1.0
 40
1.0
 40
1.0
 10
31.9677932419
 20
18.4263648428
 30
0.0
 10
31.9677932419
 20
18.4138801225
 30
0.0
 10
31.9712863914
 20
18.3876289189
 30
0.0
 10
31.9843250652
 20
18.349084597
 30
0.0
 10
32.0044179346
 20
18.3119502095
 30
0.0
 10
32.0299387071
 20
18.2792817071
 30
0.0
 10
32.0588453513
 20
18.253684757
 30
0.0
 10
32.0889904718
 20
18.2372173071
 30
0.0
 10
32.1184964473
 20
18.2313069421
 30
0.0
 10
32.1368280143
 20
18.2360172743
 30
0.0
 10
32.1441232193
 20
18.2402308964
 30
0.0
  0
SPLINE
  5
521
100
AcDbEntity
  8
3_ALL_AXES
100
AcDbSpline
 62
7
  6
CONTINUOUS
 70
0
 71
3
 72
13
 73
9
 74
0
 42
0.0000001
 43
0.0000001
 44
0.0000000001
 40
0.0
 40
0.0
 40
0.0
 40
0.0
 40
0.2984661787
 40
0.569705911
 40
0.6915291118
 40
0.8032353515
 40
0.9054380655
 40
1.0
 40
1.0
 40
1.0
 40
1.0
 10
33.0144266883
 20
18.4572960542
 30
0.0
 10
33.08390688
 20
18.4634713763
 30
0.0
 10
33.2158138641
 20
18.486900682
 30
0.0
 10
33.3676040654
 20
18.5468937601
 30
0.0
 10
33.4667169858
 20
18.6115751621
 30
0.0
 10
33.525230897
 20
18.6644342357
 30
0.0
 10
33.5691184753
 20
18.7222176402
 30
0.0
 10
33.5882987909
 20
18.7645964393
 30
0.0
 10
33.5946925719
 20
18.7857512574
 30
0.0
  0
SPLINE
  5
522
100
AcDbEntity
  8
3_ALL_AXES
100
AcDbSpline
 62
7
  6
CONTINUOUS
 70
0
 71
3
 72
11
 73
7
 74
0
 42
0.0000001
 43
0.0000001
 44
0.0000000001
 40
0.0
 40
0.0
 40
0.0
 40
0.0
 40
0.2177860673
 40
0.4509155742
 40
0.7102990941
 40
1.0
 40
1.0
 40
1.0
 40
1.0
 10
31.9980300713
 20
18.4932061563
 30
0.0
 10
31.9932142567
 20
18.4904246001
 30
0.0
 10
31.9842038368
 20
18.4828483786
 30
0.0
 10
31.9746114422
 20
18.4671622291
 30
0.0
 10
31.9689146024
 20
18.447831711
 30
0.0
 10
31.9677932419
 20
18.4337626597
 30
0.0
 10
31.9677932419
 20
18.4263648428
 30
0.0
  0
SPLINE
  5
523
100
AcDbEntity
  8
3_ALL_AXES
100
AcDbSpline
 62
7
  6
CONTINUOUS
 70
0
 71
3
 72
15
 73
11
 74
0
 42
0.0000001
 43
0.0000001
 44
0.0000000001
 40
0.0
 40
0.0
 40
0.0
 40
0.0
 40
0.1288258764
 40
0.2705553428
 40
0.4178658783
 40
0.5623599349
 40
0.6961717851
 40
0.8135667556
 40
0.9130490619
 40
1.0
 40
1.0
 40
1.0
 40
1.0
 10
33.0117501039
 20
19.7263337981
 30
0.0
 10
33.0009381208
 20
19.7325777341
 30
0.0
 10
32.9764583287
 20
19.7426814113
 30
0.0
 10
32.9365600711
 20
19.7506654289
 30
0.0
 10
32.8943570532
 20
19.7518336548
 30
0.0
 10
32.8533081041
 20
19.7460663885
 30
0.0
 10
32.8166900184
 20
19.7338290707
 30
0.0
 10
32.7873580745
 20
19.7159522825
 30
0.0
 10
32.7674879496
 20
19.6933485023
 30
0.0
 10
32.7624013497
 20
19.6751145074
 30
0.0
 10
32.7624019106
 20
19.6666874816
 30
0.0
  0
SPLINE
  5
524
100
AcDbEntity
  8
3_ALL_AXES
100
AcDbSpline
 62
7
  6
CONTINUOUS
 70
0
 71
3
 72
11
 73
7
 74
0
 42
0.0000001
 43
0.0000001
 44
0.0000000001
 40
0.0
 40
0.0
 40
0.0
 40
0.0
 40
0.2896781923
 40
0.5490564536
 40
0.7821955523
 40
1.0
 40
1.0
 40
1.0
 40
1.0
 10
33.0117501039
 20
19.7263337981
 30
0.0
 10
33.0181593966
 20
19.7226324222
 30
0.0
 10
33.0297876045
 20
19.7146211789
 30
0.0
 10
33.043684785
 20
19.7000122878
 30
0.0
 10
33.0524754711
 20
19.6838510627
 30
0.0
 10
33.0545311199
 20
19.6722524006
 30
0.0
 10
33.0545314903
 20
19.6666874816
 30
0.0
  0
SPLINE
  5
525
100
AcDbEntity
  8
3_ALL_AXES
100
AcDbSpline
 62
7
  6
CONTINUOUS
 70
0
 71
3
 72
9
 73
5
 74
0
 42
0.0000001
 43
0.0000001
 44
0.0000000001
 40
0.0
 40
0.0
 40
0.0
 40
0.0
 40
0.4491735343
 40
1.0
 40
1.0
 40
1.0
 40
1.0
 10
32.4966246577
 20
17.6296304199
 30
0.0
 10
32.4915118256
 20
17.6266774195
 30
0.0
 10
32.4826783427
 20
17.6156218929
 30
0.0
 10
32.4809235382
 20
17.602167378
 30
0.0
 10
32.4809235382
 20
17.5949268171
 30
0.0
  0
SPLINE
  5
526
100
AcDbEntity
  8
3_ALL_AXES
100
AcDbSpline
 62
7
  6
CONTINUOUS
 70
0
 71
3
 72
9
 73
5
 74
0
 42
0.0000001
 43
0.0000001
 44
0.0000000001
 40
0.0
 40
0.0
 40
0.0
 40
0.0
 40
0.4491735343
 40
1.0
 40
1.0
 40
1.0
 40
1.0
 10
31.5696750299
 20
19.2351542439
 30
0.0
 10
31.5645621977
 20
19.2322012435
 30
0.0
 10
31.5557287148
 20
19.2211457169
 30
0.0
 10
31.5539739104
 20
19.207691202
 30
0.0
 10
31.5539739104
 20
19.2004506411
 30
0.0
  0
SPLINE
  5
527
100
AcDbEntity
  8
3_ALL_AXES
100
AcDbSpline
 62
7
  6
CONTINUOUS
 70
0
 71
3
 72
9
 73
5
 74
0
 42
0.0000001
 43
0.0000001
 44
0.0000000001
 40
0.0
 40
0.0
 40
0.0
 40
0.0
 40
0.4491735343
 40
1.0
 40
1.0
 40
1.0
 40
1.0
 10
32.4966246577
 20
18.6998394785
 30
0.0
 10
32.4915118256
 20
18.696886478
 30
0.0
 10
32.4826783427
 20
18.6858309515
 30
0.0
 10
32.4809235382
 20
18.6723764365
 30
0.0
 10
32.4809235382
 20
18.6651358757
 30
0.0
  0
SPLINE
  5
528
100
AcDbEntity
  8
3_ALL_AXES
100
AcDbSpline
 62
7
  6
CONTINUOUS
 70
0
 71
3
 72
9
 73
5
 74
0
 42
0.0000001
 43
0.0000001
 44
0.0000000001
 40
0.0
 40
0.0
 40
0.0
 40
0.0
 40
0.4491735343
 40
1.0
 40
1.0
 40
1.0
 40
1.0
 10
31.5696750299
 20
18.1649451854
 30
0.0
 10
31.5645621977
 20
18.1619921849
 30
0.0
 10
31.5557287148
 20
18.1509366584
 30
0.0
 10
31.5539739104
 20
18.1374821434
 30
0.0
 10
31.5539739104
 20
18.1302415826
 30
0.0
  0
SPLINE
  5
529
100
AcDbEntity
  8
3_ALL_AXES
100
AcDbSpline
 62
7
  6
CONTINUOUS
 70
0
 71
3
 72
13
 73
9
 74
0
 42
0.0000001
 43
0.0000001
 44
0.0000000001
 40
0.0
 40
0.0
 40
0.0
 40
0.0
 40
0.269862886
 40
0.561321616
 40
0.6954689673
 40
0.8131493462
 40
0.9128602239
 40
1.0
 40
1.0
 40
1.0
 40
1.0
 10
32.5881793802
 20
17.5329864116
 30
0.0
 10
32.5881793802
 20
17.5465332048
 30
0.0
 10
32.5807297072
 20
17.5746191022
 30
0.0
 10
32.5614404821
 20
17.6044326913
 30
0.0
 10
32.5409051608
 20
17.6226486433
 30
0.0
 10
32.5252498373
 20
17.6311957197
 30
0.0
 10
32.5099302858
 20
17.6342659205
 30
0.0
 10
32.5004125686
 20
17.6318181902
 30
0.0
 10
32.4966246577
 20
17.6296304199
 30
0.0
  0
SPLINE
  5
52A
100
AcDbEntity
  8
3_ALL_AXES
100
AcDbSpline
 62
7
  6
CONTINUOUS
 70
0
 71
3
 72
15
 73
11
 74
0
 42
0.0000001
 43
0.0000001
 44
0.0000000001
 40
0.0
 40
0.0
 40
0.0
 40
0.0
 40
0.1288194867
 40
0.2705539902
 40
0.417876825
 40
0.5623851064
 40
0.6962073102
 40
0.8136031978
 40
0.9130730773
 40
1.0
 40
1.0
 40
1.0
 40
1.0
 10
32.1743600487
 20
18.3070722099
 30
0.0
 10
32.1743600487
 20
18.3195569302
 30
0.0
 10
32.1708668991
 20
18.3458081338
 30
0.0
 10
32.1578282254
 20
18.3843524557
 30
0.0
 10
32.137735356
 20
18.4214868432
 30
0.0
 10
32.1122145835
 20
18.4541553456
 30
0.0
 10
32.0833079393
 20
18.4797522957
 30
0.0
 10
32.0531628187
 20
18.4962197456
 30
0.0
 10
32.0236568432
 20
18.5021301106
 30
0.0
 10
32.0053252762
 20
18.4974197784
 30
0.0
 10
31.9980300713
 20
18.4932061563
 30
0.0
  0
SPLINE
  5
52B
100
AcDbEntity
  8
3_ALL_AXES
100
AcDbSpline
 62
7
  6
CONTINUOUS
 70
0
 71
3
 72
11
 73
7
 74
0
 42
0.0000001
 43
0.0000001
 44
0.0000000001
 40
0.0
 40
0.0
 40
0.0
 40
0.0
 40
0.218326664
 40
0.4517425481
 40
0.7107714578
 40
1.0
 40
1.0
 40
1.0
 40
1.0
 10
32.8981513
 20
18.1956173792
 30
0.0
 10
32.916434816
 20
18.206173956
 30
0.0
 10
32.9506743538
 20
18.2348149912
 30
0.0
 10
32.9873548007
 20
18.2940306394
 30
0.0
 10
33.0095044766
 20
18.3669959058
 30
0.0
 10
33.0141832213
 20
18.4201558431
 30
0.0
 10
33.0144266883
 20
18.4481233017
 30
0.0
  0
SPLINE
  5
52C
100
AcDbEntity
  8
3_ALL_AXES
100
AcDbSpline
 62
7
  6
CONTINUOUS
 70
0
 71
3
 72
9
 73
5
 74
0
 42
0.0000001
 43
0.0000001
 44
0.0000000001
 40
0.0
 40
0.0
 40
0.0
 40
0.0
 40
0.2421298714
 40
1.0
 40
1.0
 40
1.0
 40
1.0
 10
33.0144266883
 20
18.4572960542
 30
0.0
 10
33.0143652762
 20
18.4644214975
 30
0.0
 10
33.0135227761
 20
18.4938432956
 30
0.0
 10
33.0104320092
 20
18.5231871822
 30
0.0
 10
33.0070242683
 20
18.5452288849
 30
0.0
  0
SPLINE
  5
52D
100
AcDbEntity
  8
3_ALL_AXES
100
AcDbSpline
 62
7
  6
CONTINUOUS
 70
0
 71
3
 72
11
 73
7
 74
0
 42
0.0000001
 43
0.0000001
 44
0.0000000001
 40
0.0
 40
0.0
 40
0.0
 40
0.0
 40
0.299647688
 40
0.5633486352
 40
0.7926815055
 40
1.0
 40
1.0
 40
1.0
 40
1.0
 10
32.6957129971
 20
19.0863570562
 30
0.0
 10
32.6654621183
 20
19.1108678454
 30
0.0
 10
32.6045421085
 20
19.1523982415
 30
0.0
 10
32.5079290416
 20
19.1909739296
 30
0.0
 10
32.4156440835
 20
19.1994295066
 30
0.0
 10
32.3595825519
 20
19.1820662967
 30
0.0
 10
32.3362540836
 20
19.1685968543
 30
0.0
  0
SPLINE
  5
52E
100
AcDbEntity
  8
3_ALL_AXES
100
AcDbSpline
 62
7
  6
CONTINUOUS
 70
0
 71
3
 72
9
 73
5
 74
0
 42
0.0000001
 43
0.0000001
 44
0.0000000001
 40
0.0
 40
0.0
 40
0.0
 40
0.0
 40
0.2618825692
 40
1.0
 40
1.0
 40
1.0
 40
1.0
 10
33.5969547057
 20
18.7845340835
 30
0.0
 10
33.5968796641
 20
18.7759139298
 30
0.0
 10
33.5957730454
 20
18.7430182948
 30
0.0
 10
33.5912751655
 20
18.7101740321
 30
0.0
 10
33.5855632626
 20
18.686558104
 30
0.0
  0
SPLINE
  5
52F
100
AcDbEntity
  8
3_ALL_AXES
100
AcDbSpline
 62
7
  6
CONTINUOUS
 70
0
 71
3
 72
15
 73
11
 74
0
 42
0.0000001
 43
0.0000001
 44
0.0000000001
 40
0.0
 40
0.0
 40
0.0
 40
0.0
 40
0.0869509381
 40
0.1864332444
 40
0.3038282149
 40
0.4376400651
 40
0.5821341217
 40
0.7294446572
 40
0.8711741236
 40
1.0
 40
1.0
 40
1.0
 40
1.0
 10
33.0545314903
 20
19.6666874816
 30
0.0
 10
33.0545320513
 20
19.6582604558
 30
0.0
 10
33.0494454514
 20
19.6400264608
 30
0.0
 10
33.0295753265
 20
19.6174226807
 30
0.0
 10
33.0002433825
 20
19.5995458924
 30
0.0
 10
32.9636252969
 20
19.5873085747
 30
0.0
 10
32.9225763477
 20
19.5815413084
 30
0.0
 10
32.8803733299
 20
19.5827095343
 30
0.0
 10
32.8404750722
 20
19.5906935519
 30
0.0
 10
32.8159952801
 20
19.6007972291
 30
0.0
 10
32.8051832971
 20
19.6070411651
 30
0.0
  0
SPLINE
  5
530
100
AcDbEntity
  8
3_ALL_AXES
100
AcDbSpline
 62
7
  6
CONTINUOUS
 70
0
 71
3
 72
15
 73
11
 74
0
 42
0.0000001
 43
0.0000001
 44
0.0000000001
 40
0.0
 40
0.0
 40
0.0
 40
0.0
 40
0.1288225296
 40
0.2705559202
 40
0.4178582348
 40
0.5623600247
 40
0.6961785789
 40
0.8135646465
 40
0.9130510744
 40
1.0
 40
1.0
 40
1.0
 40
1.0
 10
32.8051832971
 20
19.3467347603
 30
0.0
 10
32.8159951773
 20
19.3404908837
 30
0.0
 10
32.8404755113
 20
19.3303872291
 30
0.0
 10
32.8803736827
 20
19.3224032299
 30
0.0
 10
32.9225776899
 20
19.3212346434
 30
0.0
 10
32.9636279754
 20
19.327001545
 30
0.0
 10
33.0002472783
 20
19.3392397131
 30
0.0
 10
33.0295784289
 20
19.3571188791
 30
0.0
 10
33.0494473613
 20
19.3797244595
 30
0.0
 10
33.0545305732
 20
19.3979591812
 30
0.0
 10
33.0545309878
 20
19.4063861508
 30
0.0
  0
SPLINE
  5
531
100
AcDbEntity
  8
3_ALL_AXES
100
AcDbSpline
 62
7
  6
CONTINUOUS
 70
0
 71
3
 72
13
 73
9
 74
0
 42
0.0000001
 43
0.0000001
 44
0.0000000001
 40
0.0
 40
0.0
 40
0.0
 40
0.0
 40
0.269862886
 40
0.561321616
 40
0.6954689673
 40
0.8131493462
 40
0.9128602239
 40
1.0
 40
1.0
 40
1.0
 40
1.0
 10
32.5881793802
 20
18.6031954701
 30
0.0
 10
32.5881793802
 20
18.6167422633
 30
0.0
 10
32.5807297072
 20
18.6448281608
 30
0.0
 10
32.5614404821
 20
18.6746417499
 30
0.0
 10
32.5409051608
 20
18.6928577018
 30
0.0
 10
32.5252498373
 20
18.7014047782
 30
0.0
 10
32.5099302858
 20
18.7044749791
 30
0.0
 10
32.5004125686
 20
18.7020272488
 30
0.0
 10
32.4966246577
 20
18.6998394785
 30
0.0
  0
SPLINE
  5
532
100
AcDbEntity
  8
3_AXES_OTHER
100
AcDbSpline
 62
7
  6
CONTINUOUS
 70
0
 71
3
 72
9
 73
5
 74
0
 42
0.0000001
 43
0.0000001
 44
0.0000000001
 40
0.0
 40
0.0
 40
0.0
 40
0.0
 40
0.2314278508
 40
1.0
 40
1.0
 40
1.0
 40
1.0
 10
32.1934950931
 20
18.9784882728
 30
0.0
 10
32.2069173062
 20
18.973897364
 30
0.0
 10
32.2638061192
 20
18.9508230113
 30
0.0
 10
32.3157031483
 20
18.9165202595
 30
0.0
 10
32.3522579585
 20
18.8868024859
 30
0.0
  0
SPLINE
  5
533
100
AcDbEntity
  8
3_ALL_AXES
100
AcDbSpline
 62
7
  6
CONTINUOUS
 70
0
 71
3
 72
11
 73
7
 74
0
 42
0.0000001
 43
0.0000001
 44
0.0000000001
 40
0.0
 40
0.0
 40
0.0
 40
0.0
 40
0.2178044477
 40
0.4509435464
 40
0.7103218077
 40
1.0
 40
1.0
 40
1.0
 40
1.0
 10
32.7624019106
 20
19.6666874816
 30
0.0
 10
32.7624022811
 20
19.6611225626
 30
0.0
 10
32.7644579299
 20
19.6495239005
 30
0.0
 10
32.773248616
 20
19.6333626753
 30
0.0
 10
32.7871457965
 20
19.6187537843
 30
0.0
 10
32.7987740044
 20
19.610742541
 30
0.0
 10
32.8051832971
 20
19.6070411651
 30
0.0
  0
SPLINE
  5
534
100
AcDbEntity
  8
3_ALL_AXES
100
AcDbSpline
 62
7
  6
CONTINUOUS
 70
0
 71
3
 72
11
 73
7
 74
0
 42
0.0000001
 43
0.0000001
 44
0.0000000001
 40
0.0
 40
0.0
 40
0.0
 40
0.0
 40
0.2177943097
 40
0.4509562926
 40
0.7102842056
 40
1.0
 40
1.0
 40
1.0
 40
1.0
 10
32.7624024054
 20
19.4063768923
 30
0.0
 10
32.7624020306
 20
19.4008125254
 30
0.0
 10
32.7644596112
 20
19.3892141686
 30
0.0
 10
32.7732500401
 20
19.3730555565
 30
0.0
 10
32.7871449107
 20
19.3584454454
 30
0.0
 10
32.7987735101
 20
19.3504364217
 30
0.0
 10
32.8051832971
 20
19.3467347603
 30
0.0
  0
SPLINE
  5
535
100
AcDbEntity
  8
3_ALL_AXES
100
AcDbSpline
 62
7
  6
CONTINUOUS
 70
0
 71
3
 72
11
 73
7
 74
0
 42
0.0000001
 43
0.0000001
 44
0.0000000001
 40
0.0
 40
0.0
 40
0.0
 40
0.0
 40
0.2177860673
 40
0.4509155742
 40
0.7102990941
 40
1.0
 40
1.0
 40
1.0
 40
1.0
 10
32.1441232193
 20
18.2402308964
 30
0.0
 10
32.1489390339
 20
18.2430124526
 30
0.0
 10
32.1579494538
 20
18.2505886741
 30
0.0
 10
32.1675418483
 20
18.2662748236
 30
0.0
 10
32.1732386881
 20
18.2856053417
 30
0.0
 10
32.1743600487
 20
18.299674393
 30
0.0
 10
32.1743600487
 20
18.3070722099
 30
0.0
  0
SPLINE
  5
536
100
AcDbEntity
  8
3_ALL_AXES
100
AcDbSpline
 62
7
  6
CONTINUOUS
 70
0
 71
3
 72
9
 73
5
 74
0
 42
0.0000001
 43
0.0000001
 44
0.0000000001
 40
0.0
 40
0.0
 40
0.0
 40
0.0
 40
0.2300478109
 40
1.0
 40
1.0
 40
1.0
 40
1.0
 10
33.6167100615
 20
18.8051155829
 30
0.0
 10
33.6167547475
 20
18.8239407406
 30
0.0
 10
33.6181537903
 20
18.9057646924
 30
0.0
 10
33.6218947213
 20
18.9875468906
 30
0.0
 10
33.6219360774
 20
19.050553398
 30
0.0
  0
SPLINE
  5
537
100
AcDbEntity
  8
3_ALL_AXES
100
AcDbSpline
 62
7
  6
CONTINUOUS
 70
0
 71
3
 72
13
 73
9
 74
0
 42
0.0000001
 43
0.0000001
 44
0.0000000001
 40
0.0
 40
0.0
 40
0.0
 40
0.0
 40
0.2698362492
 40
0.5612888739
 40
0.6954414832
 40
0.8131329391
 40
0.9128565862
 40
1.0
 40
1.0
 40
1.0
 40
1.0
 10
31.7565682785
 20
19.1935683738
 30
0.0
 10
31.7565682785
 20
19.2071125523
 30
0.0
 10
31.7491205063
 20
19.2351940427
 30
0.0
 10
31.729836819
 20
19.2650053589
 30
0.0
 10
31.7093059381
 20
19.2832227472
 30
0.0
 10
31.6936525378
 20
19.2917736161
 30
0.0
 10
31.6783351752
 20
19.2948474897
 30
0.0
 10
31.6688149144
 20
19.2924085479
 30
0.0
 10
31.6650266349
 20
19.290221876
 30
0.0
  0
SPLINE
  5
538
100
AcDbEntity
  8
3_ALL_AXES
100
AcDbSpline
 62
7
  6
CONTINUOUS
 70
0
 71
3
 72
11
 73
7
 74
0
 42
0.0000001
 43
0.0000001
 44
0.0000000001
 40
0.0
 40
0.0
 40
0.0
 40
0.0
 40
0.2177826302
 40
0.4509315614
 40
0.7102628563
 40
1.0
 40
1.0
 40
1.0
 40
1.0
 10
32.2394778065
 20
18.2952989546
 30
0.0
 10
32.2442919813
 20
18.2980804779
 30
0.0
 10
32.2532972191
 20
18.3056593884
 30
0.0
 10
32.262883438
 20
18.3213421806
 30
0.0
 10
32.2685794495
 20
18.3406679614
 30
0.0
 10
32.2696985749
 20
18.3547334
 30
0.0
 10
32.2696985749
 20
18.3621303482
 30
0.0
  0
SPLINE
  5
539
100
AcDbEntity
  8
3_ALL_AXES
100
AcDbSpline
 62
7
  6
CONTINUOUS
 70
0
 71
3
 72
12
 73
8
 74
0
 42
0.0000001
 43
0.0000001
 44
0.0000000001
 40
0.0
 40
0.0
 40
0.0
 40
0.0
 40
0.1797246061
 40
0.3653733504
 40
0.5551290985
 40
0.7463753614
 40
1.0
 40
1.0
 40
1.0
 40
1.0
 10
32.9946713325
 20
18.4367145548
 30
0.0
 10
32.9941973795
 20
18.412652504
 30
0.0
 10
32.9854240825
 20
18.3636977094
 30
0.0
 10
32.9538421267
 20
18.2957806269
 30
0.0
 10
32.9090316136
 20
18.2340672869
 30
0.0
 10
32.8487613148
 20
18.1737855321
 30
0.0
 10
32.7999238454
 20
18.1389017784
 30
0.0
 10
32.7705185394
 20
18.121908093
 30
0.0
  0
SPLINE
  5
53A
100
AcDbEntity
  8
0
100
AcDbSpline
 62
7
  6
CONTINUOUS
 70
0
 71
3
 72
11
 73
7
 74
0
 42
0.0000001
 43
0.0000001
 44
0.0000000001
 40
0.0
 40
0.0
 40
0.0
 40
0.0
 40
0.2898091582
 40
0.5490445512
 40
0.7822267047
 40
1.0
 40
1.0
 40
1.0
 40
1.0
 10
34.2590958218
 20
19.171484981
 30
0.0
 10
34.2590958218
 20
19.1430209114
 30
0.0
 10
34.2547987146
 20
19.0889091058
 30
0.0
 10
34.2328601236
 20
19.0145689291
 30
0.0
 10
34.1959892628
 20
18.9542352415
 30
0.0
 10
34.1613228181
 20
18.9250997456
 30
0.0
 10
34.1428006449
 20
18.9144031864
 30
0.0
  0
SPLINE
  5
53B
100
AcDbEntity
  8
3_ALL_AXES
100
AcDbSpline
 62
7
  6
CONTINUOUS
 70
0
 71
3
 72
13
 73
9
 74
0
 42
0.0000001
 43
0.0000001
 44
0.0000000001
 40
0.0
 40
0.0
 40
0.0
 40
0.0
 40
0.2698362492
 40
0.5612888739
 40
0.6954414832
 40
0.8131329391
 40
0.9128565862
 40
1.0
 40
1.0
 40
1.0
 40
1.0
 10
32.6835179064
 20
18.6582536084
 30
0.0
 10
32.6835179064
 20
18.6717977869
 30
0.0
 10
32.6760701342
 20
18.6998792773
 30
0.0
 10
32.6567864469
 20
18.7296905934
 30
0.0
 10
32.636255566
 20
18.7479079817
 30
0.0
 10
32.6206021657
 20
18.7564588507
 30
0.0
 10
32.605284803
 20
18.7595327243
 30
0.0
 10
32.5957645422
 20
18.7570937825
 30
0.0
 10
32.5919762628
 20
18.7549071105
 30
0.0
  0
SPLINE
  5
53C
100
AcDbEntity
  8
3_ALL_AXES
100
AcDbSpline
 62
7
  6
CONTINUOUS
 70
0
 71
3
 72
13
 73
9
 74
0
 42
0.0000001
 43
0.0000001
 44
0.0000000001
 40
0.0
 40
0.0
 40
0.0
 40
0.0
 40
0.2698362492
 40
0.5612888739
 40
0.6954414832
 40
0.8131329391
 40
0.9128565862
 40
1.0
 40
1.0
 40
1.0
 40
1.0
 10
31.7565682785
 20
18.1233593153
 30
0.0
 10
31.7565682785
 20
18.1369034938
 30
0.0
 10
31.7491205063
 20
18.1649849842
 30
0.0
 10
31.729836819
 20
18.1947963003
 30
0.0
 10
31.7093059381
 20
18.2130136886
 30
0.0
 10
31.6936525378
 20
18.2215645576
 30
0.0
 10
31.6783351752
 20
18.2246384312
 30
0.0
 10
31.6688149144
 20
18.2221994894
 30
0.0
 10
31.6650266349
 20
18.2200128174
 30
0.0
  0
SPLINE
  5
53D
100
AcDbEntity
  8
3_ALL_AXES
100
AcDbSpline
 62
7
  6
CONTINUOUS
 70
0
 71
3
 72
13
 73
9
 74
0
 42
0.0000001
 43
0.0000001
 44
0.0000000001
 40
0.0
 40
0.0
 40
0.0
 40
0.0
 40
0.2698362492
 40
0.5612888739
 40
0.6954414832
 40
0.8131329391
 40
0.9128565862
 40
1.0
 40
1.0
 40
1.0
 40
1.0
 10
32.6835179064
 20
17.5880445498
 30
0.0
 10
32.6835179064
 20
17.6015887283
 30
0.0
 10
32.6760701342
 20
17.6296702187
 30
0.0
 10
32.6567864469
 20
17.6594815349
 30
0.0
 10
32.636255566
 20
17.6776989232
 30
0.0
 10
32.6206021657
 20
17.6862497921
 30
0.0
 10
32.605284803
 20
17.6893236657
 30
0.0
 10
32.5957645422
 20
17.6868847239
 30
0.0
 10
32.5919762628
 20
17.684698052
 30
0.0
  0
SPLINE
  5
53E
100
AcDbEntity
  8
3_AXES_OTHER
100
AcDbSpline
 62
7
  6
CONTINUOUS
 70
0
 71
3
 72
9
 73
5
 74
0
 42
0.0000001
 43
0.0000001
 44
0.0000000001
 40
0.0
 40
0.0
 40
0.0
 40
0.0
 40
0.2583303505
 40
1.0
 40
1.0
 40
1.0
 40
1.0
 10
32.6621081686
 20
18.3501261883
 30
0.0
 10
32.6634256001
 20
18.3419072433
 30
0.0
 10
32.6679503581
 20
18.3100048381
 30
0.0
 10
32.670120385
 20
18.2777472548
 30
0.0
 10
32.670120385
 20
18.2538493429
 30
0.0
  0
SPLINE
  5
53F
100
AcDbEntity
  8
3_ALL_AXES
100
AcDbSpline
 62
7
  6
CONTINUOUS
 70
0
 71
3
 72
13
 73
9
 74
0
 42
0.0000001
 43
0.0000001
 44
0.0000000001
 40
0.0
 40
0.0
 40
0.0
 40
0.0
 40
0.0942464136
 40
0.1959948086
 40
0.3072978727
 40
0.4289033823
 40
0.7004210503
 40
1.0
 40
1.0
 40
1.0
 40
1.0
 10
33.5969547057
 20
18.7845340835
 30
0.0
 10
33.5912265055
 20
18.7630396624
 30
0.0
 10
33.5731801
 20
18.7198283318
 30
0.0
 10
33.5302869926
 20
18.6607157168
 30
0.0
 10
33.4722006899
 20
18.6065742576
 30
0.0
 10
33.3728754662
 20
18.5401918897
 30
0.0
 10
33.2196026528
 20
18.4785914501
 30
0.0
 10
33.0860934658
 20
18.4545691128
 30
0.0
 10
33.0156693752
 20
18.4482344162
 30
0.0
  0
LINE
  5
540
100
AcDbEntity
  8
3_ALL_AXES
100
AcDbLine
 62
7
  6
CONTINUOUS
 10
33.0156693752
 20
18.4482344162
 11
33.0144266883
 21
18.4481233017
  0
SPLINE
  5
541
100
AcDbEntity
  8
3_ALL_AXES
100
AcDbSpline
 62
7
  6
CONTINUOUS
 70
0
 71
3
 72
15
 73
11
 74
0
 42
0.0000001
 43
0.0000001
 44
0.0000000001
 40
0.0
 40
0.0
 40
0.0
 40
0.0
 40
0.128825621
 40
0.2705653796
 40
0.4178926308
 40
0.5624048402
 40
0.6962255737
 40
0.8136141535
 40
0.9130756508
 40
1.0
 40
1.0
 40
1.0
 40
1.0
 10
32.2696985749
 20
18.3621303482
 30
0.0
 10
32.2696985749
 20
18.3746164531
 30
0.0
 10
32.2662045521
 20
18.4008704096
 30
0.0
 10
32.2531634811
 20
18.4394182735
 30
0.0
 10
32.233067398
 20
18.4765554672
 30
0.0
 10
32.2075435467
 20
18.5092257606
 30
0.0
 10
32.1786330491
 20
18.5348217845
 30
0.0
 10
32.1484848417
 20
18.5512844134
 30
0.0
 10
32.1189762493
 20
18.5571882341
 30
0.0
 10
32.1006473871
 20
18.5524691773
 30
0.0
 10
32.0933525365
 20
18.5482543746
 30
0.0
  0
SPLINE
  5
542
100
AcDbEntity
  8
0
100
AcDbSpline
 62
7
  6
CONTINUOUS
 70
0
 71
3
 72
11
 73
7
 74
0
 42
0.0000001
 43
0.0000001
 44
0.0000000001
 40
0.0
 40
0.0
 40
0.0
 40
0.0
 40
0.217751624
 40
0.4509247357
 40
0.7101685027
 40
1.0
 40
1.0
 40
1.0
 40
1.0
 10
33.5809032802
 20
19.8873845946
 30
0.0
 10
33.5994348244
 20
19.8980865656
 30
0.0
 10
33.6420219073
 20
19.9135549802
 30
0.0
 10
33.7127490984
 20
19.9153194854
 30
0.0
 10
33.788145403
 20
19.8971312787
 30
0.0
 10
33.8371861427
 20
19.8737760634
 30
0.0
 10
33.8618519626
 20
19.8595315163
 30
0.0
  0
SPLINE
  5
543
100
AcDbEntity
  8
3_ALL_AXES
100
AcDbSpline
 62
7
  6
CONTINUOUS
 70
0
 71
3
 72
9
 73
5
 74
0
 42
0.0000001
 43
0.0000001
 44
0.0000000001
 40
0.0
 40
0.0
 40
0.0
 40
0.0
 40
0.4491735343
 40
1.0
 40
1.0
 40
1.0
 40
1.0
 10
32.5724782607
 20
17.4982828088
 30
0.0
 10
32.5775910929
 20
17.5012358092
 30
0.0
 10
32.5864245758
 20
17.5122913358
 30
0.0
 10
32.5881793802
 20
17.5257458507
 30
0.0
 10
32.5881793802
 20
17.5329864116
 30
0.0
  0
SPLINE
  5
544
100
AcDbEntity
  8
3_ALL_AXES
100
AcDbSpline
 62
7
  6
CONTINUOUS
 70
0
 71
3
 72
14
 73
10
 74
0
 42
0.0000001
 43
0.0000001
 44
0.0000000001
 40
0.0
 40
0.0
 40
0.0
 40
0.0
 40
0.1207385325
 40
0.2375601147
 40
0.3517756127
 40
0.4680594296
 40
0.5911168399
 40
0.7221020291
 40
1.0
 40
1.0
 40
1.0
 40
1.0
 10
33.055898941
 20
19.5841947889
 30
0.0
 10
33.0911835167
 20
19.6045900389
 30
0.0
 10
33.1657426275
 20
19.6367402134
 30
0.0
 10
33.285518571
 20
19.6517494834
 30
0.0
 10
33.4025144976
 20
19.6236423141
 30
0.0
 10
33.5004140299
 20
19.5501085202
 30
0.0
 10
33.5691847596
 20
19.4434055174
 30
0.0
 10
33.6256400374
 20
19.2716045414
 30
0.0
 10
33.6331775462
 20
19.1319448385
 30
0.0
 10
33.6331727721
 20
19.0381411211
 30
0.0
  0
SPLINE
  5
545
100
AcDbEntity
  8
3_ALL_AXES
100
AcDbSpline
 62
7
  6
CONTINUOUS
 70
0
 71
3
 72
9
 73
5
 74
0
 42
0.0000001
 43
0.0000001
 44
0.0000000001
 40
0.0
 40
0.0
 40
0.0
 40
0.0
 40
0.4491849428
 40
1.0
 40
1.0
 40
1.0
 40
1.0
 10
32.6678037081
 20
17.5533314533
 30
0.0
 10
32.6729194751
 20
17.5562843781
 30
0.0
 10
32.6817614495
 20
17.5673404634
 30
0.0
 10
32.6835179064
 20
17.5808012526
 30
0.0
 10
32.6835179064
 20
17.5880445498
 30
0.0
  0
SPLINE
  5
546
100
AcDbEntity
  8
3_AXES_OTHER
100
AcDbSpline
 62
7
  6
CONTINUOUS
 70
0
 71
3
 72
9
 73
5
 74
0
 42
0.0000001
 43
0.0000001
 44
0.0000000001
 40
0.0
 40
0.0
 40
0.0
 40
0.0
 40
0.2603293234
 40
1.0
 40
1.0
 40
1.0
 40
1.0
 10
32.670120385
 20
18.2538493429
 30
0.0
 10
32.670120385
 20
18.2462593891
 30
0.0
 10
32.6694934366
 20
18.2171119998
 30
0.0
 10
32.6662705148
 20
18.1879863747
 30
0.0
 10
32.6621081686
 20
18.1668266307
 30
0.0
  0
SPLINE
  5
547
100
AcDbEntity
  8
0
100
AcDbSpline
 62
7
  6
CONTINUOUS
 70
0
 71
3
 72
11
 73
7
 74
0
 42
0.0000001
 43
0.0000001
 44
0.0000000001
 40
0.0
 40
0.0
 40
0.0
 40
0.0
 40
0.2372337975
 40
0.500024726
 40
0.7628022012
 40
1.0
 40
1.0
 40
1.0
 40
1.0
 10
33.8618519626
 20
19.8595315163
 30
0.0
 10
33.9182437009
 20
19.826965205
 30
0.0
 10
34.0249668647
 20
19.7371340475
 30
0.0
 10
34.1495360944
 20
19.5669078541
 30
0.0
 10
34.2346689392
 20
19.3739242821
 30
0.0
 10
34.2590958218
 20
19.2365949335
 30
0.0
 10
34.2590958218
 20
19.171484981
 30
0.0
  0
SPLINE
  5
548
100
AcDbEntity
  8
3_ALL_AXES
100
AcDbSpline
 62
7
  6
CONTINUOUS
 70
0
 71
3
 72
14
 73
10
 74
0
 42
0.0000001
 43
0.0000001
 44
0.0000000001
 40
0.0
 40
0.0
 40
0.0
 40
0.0
 40
0.104331116
 40
0.2212351866
 40
0.3485452524
 40
0.4827173028
 40
0.7535293743
 40
0.8817925324
 40
1.0
 40
1.0
 40
1.0
 40
1.0
 10
33.1050481316
 20
19.5186162154
 30
0.0
 10
33.1358523864
 20
19.5095532927
 30
0.0
 10
33.198685688
 20
19.4815947818
 30
0.0
 10
33.2868075144
 20
19.4196055811
 30
0.0
 10
33.370619836
 20
19.3380809378
 30
0.0
 10
33.4712720714
 20
19.2084087484
 30
0.0
 10
33.5465936874
 20
19.0600020289
 30
0.0
 10
33.5883815101
 20
18.9059703604
 30
0.0
 10
33.5966411645
 20
18.8300859745
 30
0.0
 10
33.5969547057
 20
18.793706836
 30
0.0
  0
SPLINE
  5
549
100
AcDbEntity
  8
3_ALL_AXES
100
AcDbSpline
 62
7
  6
CONTINUOUS
 70
0
 71
3
 72
9
 73
5
 74
0
 42
0.0000001
 43
0.0000001
 44
0.0000000001
 40
0.0
 40
0.0
 40
0.0
 40
0.0
 40
0.4491849428
 40
1.0
 40
1.0
 40
1.0
 40
1.0
 10
31.7408540802
 20
19.1588552773
 30
0.0
 10
31.7459698472
 20
19.1618082021
 30
0.0
 10
31.7548118217
 20
19.1728642874
 30
0.0
 10
31.7565682785
 20
19.1863250766
 30
0.0
 10
31.7565682785
 20
19.1935683738
 30
0.0
  0
SPLINE
  5
54A
100
AcDbEntity
  8
3_ALL_AXES
100
AcDbSpline
 62
7
  6
CONTINUOUS
 70
0
 71
3
 72
9
 73
5
 74
0
 42
0.0000001
 43
0.0000001
 44
0.0000000001
 40
0.0
 40
0.0
 40
0.0
 40
0.0
 40
0.4491735343
 40
1.0
 40
1.0
 40
1.0
 40
1.0
 10
31.6455286328
 20
19.1038066328
 30
0.0
 10
31.650641465
 20
19.1067596332
 30
0.0
 10
31.6594749479
 20
19.1178151598
 30
0.0
 10
31.6612297523
 20
19.1312696747
 30
0.0
 10
31.6612297523
 20
19.1385102356
 30
0.0
  0
SPLINE
  5
54B
100
AcDbEntity
  8
3_ALL_AXES
100
AcDbSpline
 62
7
  6
CONTINUOUS
 70
0
 71
3
 72
13
 73
9
 74
0
 42
0.0000001
 43
0.0000001
 44
0.0000000001
 40
0.0
 40
0.0
 40
0.0
 40
0.0
 40
0.269862886
 40
0.561321616
 40
0.6954689673
 40
0.8131493462
 40
0.9128602239
 40
1.0
 40
1.0
 40
1.0
 40
1.0
 10
31.6612297523
 20
19.1385102356
 30
0.0
 10
31.6612297523
 20
19.1520570288
 30
0.0
 10
31.6537800793
 20
19.1801429262
 30
0.0
 10
31.6344908542
 20
19.2099565153
 30
0.0
 10
31.613955533
 20
19.2281724673
 30
0.0
 10
31.5983002095
 20
19.2367195437
 30
0.0
 10
31.5829806579
 20
19.2397897445
 30
0.0
 10
31.5734629407
 20
19.2373420142
 30
0.0
 10
31.5696750299
 20
19.2351542439
 30
0.0
  0
SPLINE
  5
54C
100
AcDbEntity
  8
3_ALL_AXES
100
AcDbSpline
 62
7
  6
CONTINUOUS
 70
0
 71
3
 72
9
 73
5
 74
0
 42
0.0000001
 43
0.0000001
 44
0.0000000001
 40
0.0
 40
0.0
 40
0.0
 40
0.0
 40
0.4491849428
 40
1.0
 40
1.0
 40
1.0
 40
1.0
 10
32.6678037081
 20
18.6235405118
 30
0.0
 10
32.6729194751
 20
18.6264934366
 30
0.0
 10
32.6817614495
 20
18.6375495219
 30
0.0
 10
32.6835179064
 20
18.6510103112
 30
0.0
 10
32.6835179064
 20
18.6582536084
 30
0.0
  0
SPLINE
  5
54D
100
AcDbEntity
  8
3_ALL_AXES
100
AcDbSpline
 62
7
  6
CONTINUOUS
 70
0
 71
3
 72
9
 73
5
 74
0
 42
0.0000001
 43
0.0000001
 44
0.0000000001
 40
0.0
 40
0.0
 40
0.0
 40
0.0
 40
0.4491735343
 40
1.0
 40
1.0
 40
1.0
 40
1.0
 10
32.5724782607
 20
18.5684918673
 30
0.0
 10
32.5775910929
 20
18.5714448677
 30
0.0
 10
32.5864245758
 20
18.5825003943
 30
0.0
 10
32.5881793802
 20
18.5959549093
 30
0.0
 10
32.5881793802
 20
18.6031954701
 30
0.0
  0
SPLINE
  5
54E
100
AcDbEntity
  8
3_ALL_AXES
100
AcDbSpline
 62
7
  6
CONTINUOUS
 70
0
 71
3
 72
9
 73
5
 74
0
 42
0.0000001
 43
0.0000001
 44
0.0000000001
 40
0.0
 40
0.0
 40
0.0
 40
0.0
 40
0.4491735343
 40
1.0
 40
1.0
 40
1.0
 40
1.0
 10
31.6455286328
 20
18.0335975742
 30
0.0
 10
31.650641465
 20
18.0365505747
 30
0.0
 10
31.6594749479
 20
18.0476061012
 30
0.0
 10
31.6612297523
 20
18.0610606162
 30
0.0
 10
31.6612297523
 20
18.068301177
 30
0.0
  0
SPLINE
  5
54F
100
AcDbEntity
  8
3_ALL_AXES
100
AcDbSpline
 62
7
  6
CONTINUOUS
 70
0
 71
3
 72
13
 73
9
 74
0
 42
0.0000001
 43
0.0000001
 44
0.0000000001
 40
0.0
 40
0.0
 40
0.0
 40
0.0
 40
0.269862886
 40
0.561321616
 40
0.6954689673
 40
0.8131493462
 40
0.9128602239
 40
1.0
 40
1.0
 40
1.0
 40
1.0
 10
31.6612297523
 20
18.068301177
 30
0.0
 10
31.6612297523
 20
18.0818479703
 30
0.0
 10
31.6537800793
 20
18.1099338677
 30
0.0
 10
31.6344908542
 20
18.1397474568
 30
0.0
 10
31.613955533
 20
18.1579634088
 30
0.0
 10
31.5983002095
 20
18.1665104851
 30
0.0
 10
31.5829806579
 20
18.169580686
 30
0.0
 10
31.5734629407
 20
18.1671329557
 30
0.0
 10
31.5696750299
 20
18.1649451854
 30
0.0
  0
SPLINE
  5
550
100
AcDbEntity
  8
3_ALL_AXES
100
AcDbSpline
 62
7
  6
CONTINUOUS
 70
0
 71
3
 72
9
 73
5
 74
0
 42
0.0000001
 43
0.0000001
 44
0.0000000001
 40
0.0
 40
0.0
 40
0.0
 40
0.0
 40
0.4491849428
 40
1.0
 40
1.0
 40
1.0
 40
1.0
 10
31.7408540802
 20
18.0886462188
 30
0.0
 10
31.7459698472
 20
18.0915991436
 30
0.0
 10
31.7548118217
 20
18.1026552288
 30
0.0
 10
31.7565682785
 20
18.1161160181
 30
0.0
 10
31.7565682785
 20
18.1233593153
 30
0.0
  0
ELLIPSE
  5
551
100
AcDbEntity
  8
0
100
AcDbEllipse
 62
7
  6
CONTINUOUS
 10
5.6356810205
 20
21.3341577014
 30
0.0
 11
0.1377952756
 21
0.0
 31
0.0
 40
0.2952380952
 41
0.0
 42
6.2831853072
  0
ELLIPSE
  5
552
100
AcDbEntity
  8
0
100
AcDbEllipse
 62
7
  6
CONTINUOUS
 10
19.947663325
 20
10.2832507217
 30
0.0
 11
0.0
 21
0.1377952756
 31
0.0
 40
0.4026845638
 41
0.0
 42
6.2831853072
  0
ELLIPSE
  5
553
100
AcDbEntity
  8
0
100
AcDbEllipse
 62
7
  6
CONTINUOUS
 10
34.7035823735
 20
19.0611223593
 30
0.0
 11
0.0716501841
 21
-0.0430122628
 31
0.0
 40
0.7172176064
 41
0.0
 42
6.2831853072
  0
ELLIPSE
  5
554
100
AcDbEntity
  8
0
100
AcDbEllipse
 62
7
  6
CONTINUOUS
 10
34.014317939
 20
18.4340766755
 30
0.0
 11
-0.0529825377
 21
0.0599383791
 31
0.0
 40
0.3931789758
 41
0.0
 42
6.2831853072
  0
ELLIPSE
  5
555
100
AcDbEntity
  8
0
100
AcDbEllipse
 62
7
  6
CONTINUOUS
 10
33.2735044804
 20
19.8869944336
 30
0.0
 11
-0.0214175507
 21
0.0781275137
 31
0.0
 40
0.3250195111
 41
0.0
 42
6.2831853072
  0
ELLIPSE
  5
556
100
AcDbEntity
  8
0
100
AcDbEllipse
 62
7
  6
CONTINUOUS
 10
34.014317939
 20
20.5438097542
 30
0.0
 11
-0.014345937
 21
0.079748368
 31
0.0
 40
0.7045251301
 41
0.0
 42
6.2831853072
  0
ENDSEC
  0
SECTION
  2
OBJECTS
  0
DICTIONARY
  5
C
100
AcDbDictionary
280
0
281
1
  3
ACAD_GROUP
350
D
  3
ACAD_MLINESTYLE
350
17
  3
ACAD_LAYOUT
350
1A
  3
ACAD_PLOTSETTINGS
350
19
  3
ACAD_PLOTSTYLENAME
350
E
  0
DICTIONARY
  5
D
102
{ACAD_REACTORS
330
C
102
}
100
AcDbDictionary
280
0
281
1
  0
ACDBDICTIONARYWDFLT
  5
E
102
{ACAD_REACTORS
330
C
102
}
100
AcDbDictionary
281
1
  3
Normal
350
F
100
AcDbDictionaryWithDefault
340
F
  0
DICTIONARY
  5
17
102
{ACAD_REACTORS
330
C
102
}
100
AcDbDictionary
280
0
281
1
  3
Standard
350
18
  0
DICTIONARY
  5
19
102
{ACAD_REACTORS
330
C
102
}
100
AcDbDictionary
281
1
  0
DICTIONARY
  5
1A
102
{ACAD_REACTORS
330
C
102
}
100
AcDbDictionary
281
1
  3
Model
350
557
  3
Layout1
350
558
  0
ACDBPLACEHOLDER
  5
F
102
{ACAD_REACTORS
330
E
102
}
  0
MLINESTYLE
  5
18
102
{ACAD_REACTORS
330
17
102
}
100
AcDbMlineStyle
  2
STANDARD
 70
0
  3

 62
256
 51
90.0
 52
90.0
 71
2
 49
0.5
 62
256
  6
BYLAYER
 49
-0.5
 62
256
  6
BYLAYER
  0
LAYOUT
  5
557
102
{ACAD_REACTORS
330
1A
102
}
100
AcDbPlotSettings
  1

  2
none_device
  4
ANSI_B_(17.00_x_11.00_Inches)
  6

 40
0.0
 41
0.0
 42
0.0
 43
0.0
 44
431.8
 45
279.4
 46
0.0
 47
0.0
 48
0.0
 49
0.0
140
0.0
141
0.0
142
1.0
143
1.0
 70
1024
 72
0
 73
0
 74
0
  7

 75
0
147
1.0
148
0.0
149
0.0
100
AcDbLayout
  1
Model
 70
0
 71
0
 10
0.0
 20
0.0
 11
17.0
 21
11.0
 12
0.0
 22
0.0
 32
0.0
 14
0.0
 24
0.0
 34
0.0
 15
0.0
 25
0.0
 35
0.0
146
0.0
 13
0.0
 23
0.0
 33
0.0
 16
1.0
 26
0.0
 36
0.0
 17
0.0
 27
1.0
 37
0.0
 76
0
330
211
345
0
346
0
  0
LAYOUT
  5
558
102
{ACAD_REACTORS
330
1A
102
}
100
AcDbPlotSettings
  1

  2
none_device
  4
ANSI_B_(17.00_x_11.00_Inches)
  6

 40
0.0
 41
0.0
 42
0.0
 43
0.0
 44
431.8
 45
279.4
 46
0.0
 47
0.0
 48
0.0
 49
0.0
140
0.0
141
0.0
142
1.0
143
1.0
 70
0
 72
0
 73
0
 74
0
  7

 75
0
147
1.0
148
0.0
149
0.0
100
AcDbLayout
  1
Layout1
 70
0
 71
1
 10
0.0
 20
0.0
 11
17.0
 21
11.0
 12
0.0
 22
0.0
 32
0.0
 14
0.0
 24
0.0
 34
0.0
 15
0.0
 25
0.0
 35
0.0
146
0.0
 13
0.0
 23
0.0
 33
0.0
 16
1.0
 26
0.0
 36
0.0
 17
0.0
 27
1.0
 37
0.0
 76
0
330
212
345
0
346
0
  0
ENDSEC
  0
EOF
