999
DXF file: fg-020010-2d.dxf
999
Pro/ENGINEER 2010370 by Parametric Technology Corporation
  0
SECTION
  2
HEADER
  9
$ACADVER
  1
AC1015
  9
$DWGCODEPAGE
  3
ANSI_1252
  9
$EXTMAX
 10
212.5
 20
137.5
 30
0.0
  9
$EXTMIN
 10
0.0
 20
0.0
 30
0.0
  9
$LIMMIN
 10
0.0
 20
0.0
  9
$LIMMAX
 10
212.5
 20
137.5
  9
$VIEWCTR
 10
106.25
 20
68.75
  9
$VIEWSIZE
 40
137.5
  9
$CLAYER
  8
0
  9
$LTSCALE
 40
11.6875
  9
$CELTYPE
  6
BYLAYER
  9
$DIMSCALE
 40
1.0
  9
$DIMASZ
 40
2.34375
  9
$DIMEXO
 40
1.328125
  9
$DIMDLI
 40
8.075
  9
$DIMEXE
 40
3.825
  9
$DIMCEN
 40
1.9125
  9
$DIMLFAC
 40
1.0
  9
$DIMBLK
  1
_FILLED
  9
$DIMTXT
 40
1.953125
  9
$DIMTOL
 70
1
  9
$DIMLIM
 70
0
  9
$DIMTFAC
 40
1.0
  9
$DIMTP
 40
0.01
  9
$DIMTM
 40
0.01
  9
$PDMODE
 70
3
  9
$PDSIZE
 40
0.3125
  9
$HANDSEED
  5
580
  9
$TILEMODE
 70
1
  9
$MEASUREMENT
 70
0
  9
$INSUNITS
 70
1
  0
ENDSEC
  0
SECTION
  2
CLASSES
  0
CLASS
  1
ACDBDICTIONARYWDFLT
  2
AcDbDictionaryWithDefault
  3
AutoCAD 2000
 90
0
280
0
281
0
  0
CLASS
  1
ACDBPLACEHOLDER
  2
AcDbPlaceHolder
  3
AutoCAD 2000
 90
0
280
0
281
0
  0
CLASS
  1
LAYOUT
  2
AcDbLayout
  3
AutoCAD 2000
 90
0
280
0
281
0
  0
ENDSEC
  0
SECTION
  2
TABLES
  0
TABLE
  2
VPORT
  5
8
100
AcDbSymbolTable
 70
2
  0
VPORT
  5
1F4
100
AcDbSymbolTableRecord
100
AcDbViewportTableRecord
  2
*ACTIVE
 70
0
 10
0.0
 20
0.0
 11
1.0
 21
1.0
 12
106.25
 22
68.75
 13
0.0
 23
0.0
 14
1.0
 24
1.0
 15
0.0
 25
0.0
 16
0.0
 26
0.0
 36
1.0
 17
0.0
 27
0.0
 37
0.0
 40
137.5
 41
1.5454545455
 42
50.0
 43
0.0
 44
0.0
 50
0.0
 51
0.0
 71
0
 72
100
 73
1
 74
1
 75
0
 76
0
 77
0
 78
0
  0
ENDTAB
  0
TABLE
  2
LTYPE
  5
5
100
AcDbSymbolTable
 70
6
  0
LTYPE
  5
14
100
AcDbSymbolTableRecord
100
AcDbLinetypeTableRecord
  2
BYBLOCK
 70
0
  3

 72
65
 73
0
 40
0.0
  0
LTYPE
  5
15
100
AcDbSymbolTableRecord
100
AcDbLinetypeTableRecord
  2
BYLAYER
 70
0
  3

 72
65
 73
0
 40
0.0
  0
LTYPE
  5
16
100
AcDbSymbolTableRecord
100
AcDbLinetypeTableRecord
  2
CONTINUOUS
 70
64
  3
Solid line
 72
65
 73
0
 40
0.0
  0
LTYPE
  5
1F5
100
AcDbSymbolTableRecord
100
AcDbLinetypeTableRecord
  2
CENTER
 70
64
  3
____ _ ____ _ ____ _ ____ _ ____ _ ____ _ ____
 72
65
 73
4
 40
0.6
 49
0.375
 74
0
 49
-0.075
 74
0
 49
0.075
 74
0
 49
-0.075
 74
0
  0
LTYPE
  5
1F6
100
AcDbSymbolTableRecord
100
AcDbLinetypeTableRecord
  2
HIDDEN
 70
64
  3
- - - - - - - - - - - - - - - - - - - -
 72
65
 73
2
 40
0.2
 49
0.1
 74
0
 49
-0.1
 74
0
  0
LTYPE
  5
1F7
100
AcDbSymbolTableRecord
100
AcDbLinetypeTableRecord
  2
PHANTOM
 70
64
  3
_____ _ _ _____ _ _ _____ _ _ _____
 72
65
 73
6
 40
0.8
 49
0.45
 74
0
 49
-0.05
 74
0
 49
0.1
 74
0
 49
-0.05
 74
0
 49
0.1
 74
0
 49
-0.05
 74
0
  0
LTYPE
  5
1F8
100
AcDbSymbolTableRecord
100
AcDbLinetypeTableRecord
  2
DOT
 70
64
  3
. . . . . . . . . . . . . . . . . . . .
 72
65
 73
2
 40
0.2
 49
0.1
 74
0
 49
-0.1
 74
0
  0
LTYPE
  5
1F9
100
AcDbSymbolTableRecord
100
AcDbLinetypeTableRecord
  2
DASHED
 70
64
  3
- - - - - - - - - - - - - - - - - - - -
 72
65
 73
2
 40
0.2
 49
0.1
 74
0
 49
-0.1
 74
0
  0
ENDTAB
  0
TABLE
  2
LAYER
  5
2
100
AcDbSymbolTable
 70
36
  0
LAYER
  5
10
100
AcDbSymbolTableRecord
100
AcDbLayerTableRecord
  2
0
 70
0
 62
7
  6
CONTINUOUS
370
-3
390
F
  0
LAYER
  5
1FA
100
AcDbSymbolTableRecord
100
AcDbLayerTableRecord
  2
DEFAULT_1
 70
0
 62
7
  6
CENTER
370
-3
390
F
  0
LAYER
  5
1FB
100
AcDbSymbolTableRecord
100
AcDbLayerTableRecord
  2
DEFAULT_2
 70
0
 62
8
  6
HIDDEN
370
-3
390
F
  0
LAYER
  5
1FC
100
AcDbSymbolTableRecord
100
AcDbLayerTableRecord
  2
DEFAULT_3
 70
0
 62
7
  6
PHANTOM
370
-3
390
F
  0
LAYER
  5
1FD
100
AcDbSymbolTableRecord
100
AcDbLayerTableRecord
  2
0_SNAPLINES
 70
0
 62
7
  6
CONTINUOUS
370
-3
390
F
  0
LAYER
  5
1FE
100
AcDbSymbolTableRecord
100
AcDbLayerTableRecord
  2
1_ALL_PLANES
 70
0
 62
7
  6
CONTINUOUS
370
-3
390
F
  0
LAYER
  5
1FF
100
AcDbSymbolTableRecord
100
AcDbLayerTableRecord
  2
1__DEF_PLANES
 70
0
 62
7
  6
CONTINUOUS
370
-3
390
F
  0
LAYER
  5
200
100
AcDbSymbolTableRecord
100
AcDbLayerTableRecord
  2
2_ALL_CSYS
 70
0
 62
7
  6
CONTINUOUS
370
-3
390
F
  0
LAYER
  5
201
100
AcDbSymbolTableRecord
100
AcDbLayerTableRecord
  2
2__DEF_CSYS
 70
0
 62
7
  6
CONTINUOUS
370
-3
390
F
  0
LAYER
  5
202
100
AcDbSymbolTableRecord
100
AcDbLayerTableRecord
  2
3_ALL_AXES
 70
0
 62
7
  6
CONTINUOUS
370
-3
390
F
  0
LAYER
  5
203
100
AcDbSymbolTableRecord
100
AcDbLayerTableRecord
  2
3_AXES_OTHER
 70
0
 62
7
  6
CONTINUOUS
370
-3
390
F
  0
LAYER
  5
204
100
AcDbSymbolTableRecord
100
AcDbLayerTableRecord
  2
3_HOLES
 70
0
 62
7
  6
CONTINUOUS
370
-3
390
F
  0
LAYER
  5
205
100
AcDbSymbolTableRecord
100
AcDbLayerTableRecord
  2
4_ALL_POINTS
 70
0
 62
7
  6
CONTINUOUS
370
-3
390
F
  0
LAYER
  5
206
100
AcDbSymbolTableRecord
100
AcDbLayerTableRecord
  2
5_ALL_CURVES
 70
0
 62
7
  6
CONTINUOUS
370
-3
390
F
  0
LAYER
  5
207
100
AcDbSymbolTableRecord
100
AcDbLayerTableRecord
  2
6_ALL_SURFS
 70
0
 62
7
  6
CONTINUOUS
370
-3
390
F
  0
LAYER
  5
208
100
AcDbSymbolTableRecord
100
AcDbLayerTableRecord
  2
6_COPYGEOM
 70
0
 62
7
  6
CONTINUOUS
370
-3
390
F
  0
LAYER
  5
209
100
AcDbSymbolTableRecord
100
AcDbLayerTableRecord
  2
7_ALL_ROUNDS
 70
0
 62
7
  6
CONTINUOUS
370
-3
390
F
  0
LAYER
  5
20A
100
AcDbSymbolTableRecord
100
AcDbLayerTableRecord
  2
7_MERGES
 70
0
 62
7
  6
CONTINUOUS
370
-3
390
F
  0
LAYER
  5
20B
100
AcDbSymbolTableRecord
100
AcDbLayerTableRecord
  2
8_GDT
 70
0
 62
7
  6
CONTINUOUS
370
-3
390
F
  0
LAYER
  5
20C
100
AcDbSymbolTableRecord
100
AcDbLayerTableRecord
  2
8_SET_DATUMS
 70
0
 62
7
  6
CONTINUOUS
370
-3
390
F
  0
LAYER
  5
20D
100
AcDbSymbolTableRecord
100
AcDbLayerTableRecord
  2
9_COSMETICS
 70
0
 62
7
  6
CONTINUOUS
370
-3
390
F
  0
LAYER
  5
20E
100
AcDbSymbolTableRecord
100
AcDbLayerTableRecord
  2
9_THREADS
 70
0
 62
7
  6
CONTINUOUS
370
-3
390
F
  0
ENDTAB
  0
TABLE
  2
STYLE
  5
3
100
AcDbSymbolTable
 70
1
  0
STYLE
  5
11
100
AcDbSymbolTableRecord
100
AcDbTextStyleTableRecord
  2
STANDARD
 70
0
 40
0.0
 41
0.8
 50
0.0
 71
0
 42
0.2
  3
txt
  4

  0
STYLE
  5
20F
100
AcDbSymbolTableRecord
100
AcDbTextStyleTableRecord
  2
TEXTSTYLE_1
 70
0
 40
0.0
 41
0.8
 50
0.0
 71
0
 42
0.2
  3
gdt
  4

  0
ENDTAB
  0
TABLE
  2
VIEW
  5
6
100
AcDbSymbolTable
 70
0
  0
ENDTAB
  0
TABLE
  2
UCS
  5
7
100
AcDbSymbolTable
 70
0
  0
ENDTAB
  0
TABLE
  2
APPID
  5
9
100
AcDbSymbolTable
 70
1
  0
APPID
  5
210
100
AcDbSymbolTableRecord
100
AcDbRegAppTableRecord
  2
ACAD
 70
0
  0
ENDTAB
  0
TABLE
  2
BLOCK_RECORD
  5
1
100
AcDbSymbolTable
 70
0
  0
BLOCK_RECORD
  5
211
100
AcDbSymbolTableRecord
100
AcDbBlockTableRecord
  2
*Model_Space
  0
BLOCK_RECORD
  5
212
100
AcDbSymbolTableRecord
100
AcDbBlockTableRecord
  2
*Paper_Space
  0
BLOCK_RECORD
  5
213
100
AcDbSymbolTableRecord
100
AcDbBlockTableRecord
  2
_FILLED
  0
BLOCK_RECORD
  5
214
100
AcDbSymbolTableRecord
100
AcDbBlockTableRecord
  2
*D0
  0
BLOCK_RECORD
  5
215
100
AcDbSymbolTableRecord
100
AcDbBlockTableRecord
  2
*D1
  0
BLOCK_RECORD
  5
216
100
AcDbSymbolTableRecord
100
AcDbBlockTableRecord
  2
*D2
  0
BLOCK_RECORD
  5
217
100
AcDbSymbolTableRecord
100
AcDbBlockTableRecord
  2
*D3
  0
BLOCK_RECORD
  5
218
100
AcDbSymbolTableRecord
100
AcDbBlockTableRecord
  2
*D4
  0
BLOCK_RECORD
  5
219
100
AcDbSymbolTableRecord
100
AcDbBlockTableRecord
  2
*D5
  0
BLOCK_RECORD
  5
21A
100
AcDbSymbolTableRecord
100
AcDbBlockTableRecord
  2
*D6
  0
BLOCK_RECORD
  5
21B
100
AcDbSymbolTableRecord
100
AcDbBlockTableRecord
  2
*D7
  0
BLOCK_RECORD
  5
21C
100
AcDbSymbolTableRecord
100
AcDbBlockTableRecord
  2
*D8
  0
BLOCK_RECORD
  5
21D
100
AcDbSymbolTableRecord
100
AcDbBlockTableRecord
  2
*D9
  0
BLOCK_RECORD
  5
21E
100
AcDbSymbolTableRecord
100
AcDbBlockTableRecord
  2
*D10
  0
BLOCK_RECORD
  5
21F
100
AcDbSymbolTableRecord
100
AcDbBlockTableRecord
  2
*D11
  0
BLOCK_RECORD
  5
220
100
AcDbSymbolTableRecord
100
AcDbBlockTableRecord
  2
*D12
  0
BLOCK_RECORD
  5
221
100
AcDbSymbolTableRecord
100
AcDbBlockTableRecord
  2
*D13
  0
BLOCK_RECORD
  5
222
100
AcDbSymbolTableRecord
100
AcDbBlockTableRecord
  2
*D14
  0
BLOCK_RECORD
  5
223
100
AcDbSymbolTableRecord
100
AcDbBlockTableRecord
  2
*D15
  0
BLOCK_RECORD
  5
224
100
AcDbSymbolTableRecord
100
AcDbBlockTableRecord
  2
*D16
  0
BLOCK_RECORD
  5
225
100
AcDbSymbolTableRecord
100
AcDbBlockTableRecord
  2
*D17
  0
BLOCK_RECORD
  5
226
100
AcDbSymbolTableRecord
100
AcDbBlockTableRecord
  2
*D18
  0
BLOCK_RECORD
  5
227
100
AcDbSymbolTableRecord
100
AcDbBlockTableRecord
  2
*D19
  0
BLOCK_RECORD
  5
228
100
AcDbSymbolTableRecord
100
AcDbBlockTableRecord
  2
SYMBOL_12_BL4
  0
BLOCK_RECORD
  5
229
100
AcDbSymbolTableRecord
100
AcDbBlockTableRecord
  2
SYMBOL_10_BL3
  0
BLOCK_RECORD
  5
22A
100
AcDbSymbolTableRecord
100
AcDbBlockTableRecord
  2
SYMBOL_11_BL2
  0
BLOCK_RECORD
  5
22B
100
AcDbSymbolTableRecord
100
AcDbBlockTableRecord
  2
SYMBOL_6_BL1
  0
BLOCK_RECORD
  5
22C
100
AcDbSymbolTableRecord
100
AcDbBlockTableRecord
  2
SYMBOL_0_BL0
  0
ENDTAB
  0
TABLE
  2
DIMSTYLE
  5
A
100
AcDbSymbolTable
 70
1
100
AcDbDimStyleTable
 71
0
  0
DIMSTYLE
105
22D
100
AcDbSymbolTableRecord
100
AcDbDimStyleTableRecord
  2
STANDARD
 70
0
  3

  4

 40
1.0
 41
2.34375
 42
0.0625
 43
0.38
 44
0.18
 45
0.0
 46
0.0
 47
0.01
 48
0.01
140
1.953125
141
0.09
142
0.0
143
25.4
144
1.0
145
0.0
146
1.0
147
0.09
 71
1.0
 72
0.0
 73
1
 74
1
 75
0
 76
0
 77
0
 78
4
170
0
171
2
172
0
173
0
174
0
175
0
176
0
177
0
178
0
270
2
271
3
272
3
273
2
274
2
275
0
280
0
281
0
282
0
283
1
284
4
285
0
286
0
287
3
288
0
340
11
341
213
342
213
343
213
344
213
  0
DIMSTYLE
105
22E
100
AcDbSymbolTableRecord
100
AcDbDimStyleTableRecord
  2
DIMSTYLE_1
 70
0
  3

  4

 40
1.0
 41
2.34375
 42
0.0625
 43
0.38
 44
0.18
 45
0.0
 46
0.0
 47
0.01
 48
0.01
140
1.953125
141
0.09
142
0.0
143
25.4
144
1.0
145
0.0
146
1.0
147
0.09
 71
0.0
 72
0.0
 73
1
 74
1
 75
0
 76
0
 77
0
 78
4
170
0
171
2
172
0
173
0
174
0
175
0
176
0
177
0
178
0
270
2
271
0
272
0
273
2
274
2
275
0
280
0
281
0
282
0
283
1
284
4
285
0
286
0
287
3
288
0
340
11
341
213
342
213
343
213
344
213
  0
ENDTAB
  0
ENDSEC
  0
SECTION
  2
BLOCKS
  0
BLOCK
  5
20
100
AcDbEntity
  8
0
100
AcDbBlockBegin
  2
*Model_Space
 70
0
 10
0.0
 20
0.0
 30
0.0
  3
*Model_Space
  1

  0
ENDBLK
  5
21
100
AcDbEntity
  8
0
100
AcDbBlockEnd
  0
BLOCK
  5
1C
100
AcDbEntity
  8
0
100
AcDbBlockBegin
  2
*Paper_Space
 70
0
 10
0.0
 20
0.0
 30
0.0
  3
*Paper_Space
  1

  0
ENDBLK
  5
1D
100
AcDbEntity
  8
0
100
AcDbBlockEnd
  0
BLOCK
  5
22F
100
AcDbEntity
  8
0
100
AcDbBlockBegin
 62
2
  6
CONTINUOUS
  2
SYMBOL_12_BL4
 70
64
 10
135.0033763172
 20
83.3318306783
  3
SYMBOL_12_BL4
  1

  0
ARC
  5
230
100
AcDbEntity
  8
0
100
AcDbCircle
 62
7
  6
CONTINUOUS
 10
135.0033763172
 20
83.3318306783
 40
1.175
100
AcDbArc
 50
90.0
 51
180.0
  0
ARC
  5
231
100
AcDbEntity
  8
0
100
AcDbCircle
 62
7
  6
CONTINUOUS
 10
135.0033763172
 20
83.3318306783
 40
1.175
100
AcDbArc
 50
180.0
 51
270.0
  0
ARC
  5
232
100
AcDbEntity
  8
0
100
AcDbCircle
 62
7
  6
CONTINUOUS
 10
135.0033763172
 20
83.3318306783
 40
1.175
100
AcDbArc
 50
270.0
 51
360.0
  0
ARC
  5
233
100
AcDbEntity
  8
0
100
AcDbCircle
 62
7
  6
CONTINUOUS
 10
135.0033763172
 20
83.3318306783
 40
1.175
100
AcDbArc
 50
0.0
 51
90.0
  0
LINE
  5
234
100
AcDbEntity
  8
0
100
AcDbLine
 62
7
  6
CONTINUOUS
 10
135.0033763172
 20
83.3318306783
 11
136.1783763172
 21
83.3318306783
  0
LINE
  5
235
100
AcDbEntity
  8
0
100
AcDbLine
 62
7
  6
CONTINUOUS
 10
135.0033763172
 20
83.3318306783
 11
135.0033763172
 21
82.1568306783
  0
LINE
  5
236
100
AcDbEntity
  8
0
100
AcDbLine
 62
7
  6
CONTINUOUS
 10
133.8283763172
 20
83.3318306783
 11
135.0033763172
 21
83.3318306783
  0
LINE
  5
237
100
AcDbEntity
  8
0
100
AcDbLine
 62
7
  6
CONTINUOUS
 10
135.0033763172
 20
84.5068306783
 11
135.0033763172
 21
83.3318306783
  0
LINE
  5
238
100
AcDbEntity
  8
0
100
AcDbLine
 62
2
  6
CONTINUOUS
 10
135.0033763172
 20
83.3240866535
 11
135.011120342
 21
83.3318306783
  0
LWPOLYLINE
  5
239
100
AcDbEntity
  8
0
100
AcDbPolyline
 62
7
  6
CONTINUOUS
 90
8
 70
0
 10
135.0033763172
 20
83.3318306783
 10
135.0033763172
 20
82.1568306783
 10
135.3664712856
 20
82.2143392716
 10
135.6940239886
 20
82.3812357099
 10
135.9539712856
 20
82.6411830068
 10
136.1208677238
 20
82.9687357099
 10
136.1783763172
 20
83.3318306783
 10
135.0033763172
 20
83.3318306783
  0
HATCH
  5
23A
100
AcDbEntity
  8
0
100
AcDbHatch
 62
7
  6
CONTINUOUS
 10
0.0
 20
0.0
 30
0.0
210
0.0
220
0.0
230
1.0
  2
SOLID
 70
1
 71
1
 91
1
 92
1
 93
7
 72
1
 10
135.0033763172
 20
83.3318306783
 11
135.0033763172
 21
82.1568306783
 72
1
 10
135.0033763172
 20
82.1568306783
 11
135.3664712856
 21
82.2143392716
 72
1
 10
135.3664712856
 20
82.2143392716
 11
135.6940239886
 21
82.3812357099
 72
1
 10
135.6940239886
 20
82.3812357099
 11
135.9539712856
 21
82.6411830068
 72
1
 10
135.9539712856
 20
82.6411830068
 11
136.1208677238
 21
82.9687357099
 72
1
 10
136.1208677238
 20
82.9687357099
 11
136.1783763172
 21
83.3318306783
 72
1
 10
136.1783763172
 20
83.3318306783
 11
135.0033763172
 21
83.3318306783
 97
1
330
239
 75
0
 76
1
 98
1
 10
0.0
 20
0.0
  0
LWPOLYLINE
  5
23B
100
AcDbEntity
  8
0
100
AcDbPolyline
 62
7
  6
CONTINUOUS
 90
8
 70
0
 10
135.0033763172
 20
83.3318306783
 10
133.8283763172
 20
83.3318306783
 10
133.8858849106
 20
83.6949256467
 10
134.0527813488
 20
84.0224783497
 10
134.3127286458
 20
84.2824256467
 10
134.6402813488
 20
84.4493220849
 10
135.0033763172
 20
84.5068306783
 10
135.0033763172
 20
83.3318306783
  0
HATCH
  5
23C
100
AcDbEntity
  8
0
100
AcDbHatch
 62
7
  6
CONTINUOUS
 10
0.0
 20
0.0
 30
0.0
210
0.0
220
0.0
230
1.0
  2
SOLID
 70
1
 71
1
 91
1
 92
1
 93
7
 72
1
 10
135.0033763172
 20
83.3318306783
 11
133.8283763172
 21
83.3318306783
 72
1
 10
133.8283763172
 20
83.3318306783
 11
133.8858849106
 21
83.6949256467
 72
1
 10
133.8858849106
 20
83.6949256467
 11
134.0527813488
 21
84.0224783497
 72
1
 10
134.0527813488
 20
84.0224783497
 11
134.3127286458
 21
84.2824256467
 72
1
 10
134.3127286458
 20
84.2824256467
 11
134.6402813488
 21
84.4493220849
 72
1
 10
134.6402813488
 20
84.4493220849
 11
135.0033763172
 21
84.5068306783
 72
1
 10
135.0033763172
 20
84.5068306783
 11
135.0033763172
 21
83.3318306783
 97
1
330
23B
 75
0
 76
1
 98
1
 10
0.0
 20
0.0
  0
ENDBLK
  5
23D
100
AcDbEntity
  8
0
  6
BYBLOCK
 62
0
100
AcDbBlockEnd
  0
BLOCK
  5
23E
100
AcDbEntity
  8
0
100
AcDbBlockBegin
 62
2
  6
CONTINUOUS
  2
SYMBOL_10_BL3
 70
64
 10
83.9654921871
 20
83.3271250101
  3
SYMBOL_10_BL3
  1

  0
ARC
  5
23F
100
AcDbEntity
  8
0
100
AcDbCircle
 62
7
  6
CONTINUOUS
 10
83.9654921871
 20
83.3271250101
 40
1.175
100
AcDbArc
 50
90.0
 51
180.0
  0
ARC
  5
240
100
AcDbEntity
  8
0
100
AcDbCircle
 62
7
  6
CONTINUOUS
 10
83.9654921871
 20
83.3271250101
 40
1.175
100
AcDbArc
 50
180.0
 51
270.0
  0
ARC
  5
241
100
AcDbEntity
  8
0
100
AcDbCircle
 62
7
  6
CONTINUOUS
 10
83.9654921871
 20
83.3271250101
 40
1.175
100
AcDbArc
 50
270.0
 51
360.0
  0
ARC
  5
242
100
AcDbEntity
  8
0
100
AcDbCircle
 62
7
  6
CONTINUOUS
 10
83.9654921871
 20
83.3271250101
 40
1.175
100
AcDbArc
 50
0.0
 51
90.0
  0
LINE
  5
243
100
AcDbEntity
  8
0
100
AcDbLine
 62
7
  6
CONTINUOUS
 10
83.9654921871
 20
83.3271250101
 11
85.1404921871
 21
83.3271250101
  0
LINE
  5
244
100
AcDbEntity
  8
0
100
AcDbLine
 62
7
  6
CONTINUOUS
 10
83.9654921871
 20
83.3271250101
 11
83.9654921871
 21
82.1521250101
  0
LINE
  5
245
100
AcDbEntity
  8
0
100
AcDbLine
 62
7
  6
CONTINUOUS
 10
82.7904921871
 20
83.3271250101
 11
83.9654921871
 21
83.3271250101
  0
LINE
  5
246
100
AcDbEntity
  8
0
100
AcDbLine
 62
7
  6
CONTINUOUS
 10
83.9654921871
 20
84.5021250101
 11
83.9654921871
 21
83.3271250101
  0
LINE
  5
247
100
AcDbEntity
  8
0
100
AcDbLine
 62
2
  6
CONTINUOUS
 10
83.9654921871
 20
83.3193809853
 11
83.9732362118
 21
83.3271250101
  0
LWPOLYLINE
  5
248
100
AcDbEntity
  8
0
100
AcDbPolyline
 62
7
  6
CONTINUOUS
 90
8
 70
0
 10
83.9654921871
 20
83.3271250101
 10
83.9654921871
 20
82.1521250101
 10
84.3285871555
 20
82.2096336035
 10
84.6561398585
 20
82.3765300417
 10
84.9160871555
 20
82.6364773387
 10
85.0829835937
 20
82.9640300417
 10
85.1404921871
 20
83.3271250101
 10
83.9654921871
 20
83.3271250101
  0
HATCH
  5
249
100
AcDbEntity
  8
0
100
AcDbHatch
 62
7
  6
CONTINUOUS
 10
0.0
 20
0.0
 30
0.0
210
0.0
220
0.0
230
1.0
  2
SOLID
 70
1
 71
1
 91
1
 92
1
 93
7
 72
1
 10
83.9654921871
 20
83.3271250101
 11
83.9654921871
 21
82.1521250101
 72
1
 10
83.9654921871
 20
82.1521250101
 11
84.3285871555
 21
82.2096336035
 72
1
 10
84.3285871555
 20
82.2096336035
 11
84.6561398585
 21
82.3765300417
 72
1
 10
84.6561398585
 20
82.3765300417
 11
84.9160871555
 21
82.6364773387
 72
1
 10
84.9160871555
 20
82.6364773387
 11
85.0829835937
 21
82.9640300417
 72
1
 10
85.0829835937
 20
82.9640300417
 11
85.1404921871
 21
83.3271250101
 72
1
 10
85.1404921871
 20
83.3271250101
 11
83.9654921871
 21
83.3271250101
 97
1
330
248
 75
0
 76
1
 98
1
 10
0.0
 20
0.0
  0
LWPOLYLINE
  5
24A
100
AcDbEntity
  8
0
100
AcDbPolyline
 62
7
  6
CONTINUOUS
 90
8
 70
0
 10
83.9654921871
 20
83.3271250101
 10
82.7904921871
 20
83.3271250101
 10
82.8480007804
 20
83.6902199785
 10
83.0148972187
 20
84.0177726815
 10
83.2748445157
 20
84.2777199785
 10
83.6023972187
 20
84.4446164167
 10
83.9654921871
 20
84.5021250101
 10
83.9654921871
 20
83.3271250101
  0
HATCH
  5
24B
100
AcDbEntity
  8
0
100
AcDbHatch
 62
7
  6
CONTINUOUS
 10
0.0
 20
0.0
 30
0.0
210
0.0
220
0.0
230
1.0
  2
SOLID
 70
1
 71
1
 91
1
 92
1
 93
7
 72
1
 10
83.9654921871
 20
83.3271250101
 11
82.7904921871
 21
83.3271250101
 72
1
 10
82.7904921871
 20
83.3271250101
 11
82.8480007804
 21
83.6902199785
 72
1
 10
82.8480007804
 20
83.6902199785
 11
83.0148972187
 21
84.0177726815
 72
1
 10
83.0148972187
 20
84.0177726815
 11
83.2748445157
 21
84.2777199785
 72
1
 10
83.2748445157
 20
84.2777199785
 11
83.6023972187
 21
84.4446164167
 72
1
 10
83.6023972187
 20
84.4446164167
 11
83.9654921871
 21
84.5021250101
 72
1
 10
83.9654921871
 20
84.5021250101
 11
83.9654921871
 21
83.3271250101
 97
1
330
24A
 75
0
 76
1
 98
1
 10
0.0
 20
0.0
  0
ENDBLK
  5
24C
100
AcDbEntity
  8
0
  6
BYBLOCK
 62
0
100
AcDbBlockEnd
  0
BLOCK
  5
24D
100
AcDbEntity
  8
0
100
AcDbBlockBegin
 62
2
  6
CONTINUOUS
  2
SYMBOL_11_BL2
 70
64
 10
38.8614227618
 20
83.3359561799
  3
SYMBOL_11_BL2
  1

  0
ARC
  5
24E
100
AcDbEntity
  8
0
100
AcDbCircle
 62
7
  6
CONTINUOUS
 10
38.8614227618
 20
83.3359561799
 40
1.175
100
AcDbArc
 50
90.0
 51
180.0
  0
ARC
  5
24F
100
AcDbEntity
  8
0
100
AcDbCircle
 62
7
  6
CONTINUOUS
 10
38.8614227618
 20
83.3359561799
 40
1.175
100
AcDbArc
 50
180.0
 51
270.0
  0
ARC
  5
250
100
AcDbEntity
  8
0
100
AcDbCircle
 62
7
  6
CONTINUOUS
 10
38.8614227618
 20
83.3359561799
 40
1.175
100
AcDbArc
 50
270.0
 51
360.0
  0
ARC
  5
251
100
AcDbEntity
  8
0
100
AcDbCircle
 62
7
  6
CONTINUOUS
 10
38.8614227618
 20
83.3359561799
 40
1.175
100
AcDbArc
 50
0.0
 51
90.0
  0
LINE
  5
252
100
AcDbEntity
  8
0
100
AcDbLine
 62
7
  6
CONTINUOUS
 10
38.8614227618
 20
83.3359561799
 11
40.0364227618
 21
83.3359561799
  0
LINE
  5
253
100
AcDbEntity
  8
0
100
AcDbLine
 62
7
  6
CONTINUOUS
 10
38.8614227618
 20
83.3359561799
 11
38.8614227618
 21
82.1609561799
  0
LINE
  5
254
100
AcDbEntity
  8
0
100
AcDbLine
 62
7
  6
CONTINUOUS
 10
37.6864227618
 20
83.3359561799
 11
38.8614227618
 21
83.3359561799
  0
LINE
  5
255
100
AcDbEntity
  8
0
100
AcDbLine
 62
7
  6
CONTINUOUS
 10
38.8614227618
 20
84.5109561799
 11
38.8614227618
 21
83.3359561799
  0
LINE
  5
256
100
AcDbEntity
  8
0
100
AcDbLine
 62
2
  6
CONTINUOUS
 10
38.8614227618
 20
83.3282121552
 11
38.8691667866
 21
83.3359561799
  0
LWPOLYLINE
  5
257
100
AcDbEntity
  8
0
100
AcDbPolyline
 62
7
  6
CONTINUOUS
 90
8
 70
0
 10
38.8614227618
 20
83.3359561799
 10
38.8614227618
 20
82.1609561799
 10
39.2245177302
 20
82.2184647733
 10
39.5520704333
 20
82.3853612115
 10
39.8120177302
 20
82.6453085085
 10
39.9789141685
 20
82.9728612115
 10
40.0364227618
 20
83.3359561799
 10
38.8614227618
 20
83.3359561799
  0
HATCH
  5
258
100
AcDbEntity
  8
0
100
AcDbHatch
 62
7
  6
CONTINUOUS
 10
0.0
 20
0.0
 30
0.0
210
0.0
220
0.0
230
1.0
  2
SOLID
 70
1
 71
1
 91
1
 92
1
 93
7
 72
1
 10
38.8614227618
 20
83.3359561799
 11
38.8614227618
 21
82.1609561799
 72
1
 10
38.8614227618
 20
82.1609561799
 11
39.2245177302
 21
82.2184647733
 72
1
 10
39.2245177302
 20
82.2184647733
 11
39.5520704333
 21
82.3853612115
 72
1
 10
39.5520704333
 20
82.3853612115
 11
39.8120177302
 21
82.6453085085
 72
1
 10
39.8120177302
 20
82.6453085085
 11
39.9789141685
 21
82.9728612115
 72
1
 10
39.9789141685
 20
82.9728612115
 11
40.0364227618
 21
83.3359561799
 72
1
 10
40.0364227618
 20
83.3359561799
 11
38.8614227618
 21
83.3359561799
 97
1
330
257
 75
0
 76
1
 98
1
 10
0.0
 20
0.0
  0
LWPOLYLINE
  5
259
100
AcDbEntity
  8
0
100
AcDbPolyline
 62
7
  6
CONTINUOUS
 90
8
 70
0
 10
38.8614227618
 20
83.3359561799
 10
37.6864227618
 20
83.3359561799
 10
37.7439313552
 20
83.6990511483
 10
37.9108277934
 20
84.0266038514
 10
38.1707750904
 20
84.2865511483
 10
38.4983277934
 20
84.4534475866
 10
38.8614227618
 20
84.5109561799
 10
38.8614227618
 20
83.3359561799
  0
HATCH
  5
25A
100
AcDbEntity
  8
0
100
AcDbHatch
 62
7
  6
CONTINUOUS
 10
0.0
 20
0.0
 30
0.0
210
0.0
220
0.0
230
1.0
  2
SOLID
 70
1
 71
1
 91
1
 92
1
 93
7
 72
1
 10
38.8614227618
 20
83.3359561799
 11
37.6864227618
 21
83.3359561799
 72
1
 10
37.6864227618
 20
83.3359561799
 11
37.7439313552
 21
83.6990511483
 72
1
 10
37.7439313552
 20
83.6990511483
 11
37.9108277934
 21
84.0266038514
 72
1
 10
37.9108277934
 20
84.0266038514
 11
38.1707750904
 21
84.2865511483
 72
1
 10
38.1707750904
 20
84.2865511483
 11
38.4983277934
 21
84.4534475866
 72
1
 10
38.4983277934
 20
84.4534475866
 11
38.8614227618
 21
84.5109561799
 72
1
 10
38.8614227618
 20
84.5109561799
 11
38.8614227618
 21
83.3359561799
 97
1
330
259
 75
0
 76
1
 98
1
 10
0.0
 20
0.0
  0
ENDBLK
  5
25B
100
AcDbEntity
  8
0
  6
BYBLOCK
 62
0
100
AcDbBlockEnd
  0
BLOCK
  5
25C
100
AcDbEntity
  8
0
100
AcDbBlockBegin
 62
2
  6
CONTINUOUS
  2
SYMBOL_6_BL1
 70
64
 10
25.3276197121
 20
28.2699383809
  3
SYMBOL_6_BL1
  1

  0
ARC
  5
25D
100
AcDbEntity
  8
0
100
AcDbCircle
 62
7
  6
CONTINUOUS
 10
25.3276197121
 20
28.2699383809
 40
1.175
100
AcDbArc
 50
90.0
 51
180.0
  0
ARC
  5
25E
100
AcDbEntity
  8
0
100
AcDbCircle
 62
7
  6
CONTINUOUS
 10
25.3276197121
 20
28.2699383809
 40
1.175
100
AcDbArc
 50
180.0
 51
270.0
  0
ARC
  5
25F
100
AcDbEntity
  8
0
100
AcDbCircle
 62
7
  6
CONTINUOUS
 10
25.3276197121
 20
28.2699383809
 40
1.175
100
AcDbArc
 50
270.0
 51
360.0
  0
ARC
  5
260
100
AcDbEntity
  8
0
100
AcDbCircle
 62
7
  6
CONTINUOUS
 10
25.3276197121
 20
28.2699383809
 40
1.175
100
AcDbArc
 50
0.0
 51
90.0
  0
LINE
  5
261
100
AcDbEntity
  8
0
100
AcDbLine
 62
7
  6
CONTINUOUS
 10
25.3276197121
 20
28.2699383809
 11
26.5026197121
 21
28.2699383809
  0
LINE
  5
262
100
AcDbEntity
  8
0
100
AcDbLine
 62
7
  6
CONTINUOUS
 10
25.3276197121
 20
28.2699383809
 11
25.3276197121
 21
27.0949383809
  0
LINE
  5
263
100
AcDbEntity
  8
0
100
AcDbLine
 62
7
  6
CONTINUOUS
 10
24.1526197121
 20
28.2699383809
 11
25.3276197121
 21
28.2699383809
  0
LINE
  5
264
100
AcDbEntity
  8
0
100
AcDbLine
 62
7
  6
CONTINUOUS
 10
25.3276197121
 20
29.4449383809
 11
25.3276197121
 21
28.2699383809
  0
LINE
  5
265
100
AcDbEntity
  8
0
100
AcDbLine
 62
2
  6
CONTINUOUS
 10
25.3276197121
 20
28.2621943562
 11
25.3353637368
 21
28.2699383809
  0
LWPOLYLINE
  5
266
100
AcDbEntity
  8
0
100
AcDbPolyline
 62
7
  6
CONTINUOUS
 90
8
 70
0
 10
25.3276197121
 20
28.2699383809
 10
25.3276197121
 20
27.0949383809
 10
25.6907146805
 20
27.1524469743
 10
26.0182673835
 20
27.3193434125
 10
26.2782146805
 20
27.5792907095
 10
26.4451111187
 20
27.9068434125
 10
26.5026197121
 20
28.2699383809
 10
25.3276197121
 20
28.2699383809
  0
HATCH
  5
267
100
AcDbEntity
  8
0
100
AcDbHatch
 62
7
  6
CONTINUOUS
 10
0.0
 20
0.0
 30
0.0
210
0.0
220
0.0
230
1.0
  2
SOLID
 70
1
 71
1
 91
1
 92
1
 93
7
 72
1
 10
25.3276197121
 20
28.2699383809
 11
25.3276197121
 21
27.0949383809
 72
1
 10
25.3276197121
 20
27.0949383809
 11
25.6907146805
 21
27.1524469743
 72
1
 10
25.6907146805
 20
27.1524469743
 11
26.0182673835
 21
27.3193434125
 72
1
 10
26.0182673835
 20
27.3193434125
 11
26.2782146805
 21
27.5792907095
 72
1
 10
26.2782146805
 20
27.5792907095
 11
26.4451111187
 21
27.9068434125
 72
1
 10
26.4451111187
 20
27.9068434125
 11
26.5026197121
 21
28.2699383809
 72
1
 10
26.5026197121
 20
28.2699383809
 11
25.3276197121
 21
28.2699383809
 97
1
330
266
 75
0
 76
1
 98
1
 10
0.0
 20
0.0
  0
LWPOLYLINE
  5
268
100
AcDbEntity
  8
0
100
AcDbPolyline
 62
7
  6
CONTINUOUS
 90
8
 70
0
 10
25.3276197121
 20
28.2699383809
 10
24.1526197121
 20
28.2699383809
 10
24.2101283054
 20
28.6330333493
 10
24.3770247437
 20
28.9605860523
 10
24.6369720406
 20
29.2205333493
 10
24.9645247437
 20
29.3874297876
 10
25.3276197121
 20
29.4449383809
 10
25.3276197121
 20
28.2699383809
  0
HATCH
  5
269
100
AcDbEntity
  8
0
100
AcDbHatch
 62
7
  6
CONTINUOUS
 10
0.0
 20
0.0
 30
0.0
210
0.0
220
0.0
230
1.0
  2
SOLID
 70
1
 71
1
 91
1
 92
1
 93
7
 72
1
 10
25.3276197121
 20
28.2699383809
 11
24.1526197121
 21
28.2699383809
 72
1
 10
24.1526197121
 20
28.2699383809
 11
24.2101283054
 21
28.6330333493
 72
1
 10
24.2101283054
 20
28.6330333493
 11
24.3770247437
 21
28.9605860523
 72
1
 10
24.3770247437
 20
28.9605860523
 11
24.6369720406
 21
29.2205333493
 72
1
 10
24.6369720406
 20
29.2205333493
 11
24.9645247437
 21
29.3874297876
 72
1
 10
24.9645247437
 20
29.3874297876
 11
25.3276197121
 21
29.4449383809
 72
1
 10
25.3276197121
 20
29.4449383809
 11
25.3276197121
 21
28.2699383809
 97
1
330
268
 75
0
 76
1
 98
1
 10
0.0
 20
0.0
  0
ENDBLK
  5
26A
100
AcDbEntity
  8
0
  6
BYBLOCK
 62
0
100
AcDbBlockEnd
  0
BLOCK
  5
26B
100
AcDbEntity
  8
0
100
AcDbBlockBegin
 62
7
  6
CONTINUOUS
  2
SYMBOL_0_BL0
 70
64
 10
148.6102537351
 20
33.7638833147
  3
SYMBOL_0_BL0
  1

  0
ARC
  5
26C
100
AcDbEntity
  8
0
100
AcDbCircle
 62
7
  6
CONTINUOUS
 10
156.7622733556
 20
35.0185952839
 40
0.1546439159
100
AcDbArc
 50
270.0
 51
360.0
  0
LINE
  5
26D
100
AcDbEntity
  8
0
100
AcDbLine
 62
7
  6
CONTINUOUS
 10
156.9169172715
 20
35.0185952839
 11
156.9169172715
 21
35.3279893988
  0
ARC
  5
26E
100
AcDbEntity
  8
0
100
AcDbCircle
 62
7
  6
CONTINUOUS
 10
156.7622733556
 20
35.3279893988
 40
0.1546439159
100
AcDbArc
 50
0.0
 51
90.0
  0
LINE
  5
26F
100
AcDbEntity
  8
0
100
AcDbLine
 62
7
  6
CONTINUOUS
 10
156.7622733556
 20
35.4826333147
 11
152.6048567029
 21
35.4826333147
  0
SPLINE
  5
270
100
AcDbEntity
  8
0
100
AcDbSpline
 62
7
  6
CONTINUOUS
 70
0
 71
3
 72
13
 73
9
 74
0
 42
0.0000001
 43
0.0000001
 44
0.0000000001
 40
0.0
 40
0.0
 40
0.0
 40
0.0
 40
0.1310616762
 40
0.2699656353
 40
0.4157607805
 40
0.5899807757
 40
0.76586761
 40
0.9948829976
 40
0.9948829976
 40
0.9948829976
 40
0.9948829976
 10
152.6048567029
 20
35.4826333147
 30
0.0
 10
152.5174640214
 20
35.4761242499
 30
0.0
 10
152.3374493818
 20
35.4627166415
 30
0.0
 10
152.0934936963
 20
35.3115477933
 30
0.0
 10
151.9183626258
 20
35.0577625242
 30
0.0
 10
151.8044833553
 20
34.7474390041
 30
0.0
 10
151.7403395976
 20
34.3680946568
 30
0.0
 10
151.7344336917
 20
34.1000432795
 30
0.0
 10
151.7313727985
 20
33.9484117248
 30
0.0
  0
LINE
  5
271
100
AcDbEntity
  8
0
100
AcDbLine
 62
7
  6
CONTINUOUS
 10
151.7313727985
 20
33.9484117248
 11
151.7316442152
 21
33.9248813635
  0
SPLINE
  5
272
100
AcDbEntity
  8
0
100
AcDbSpline
 62
7
  6
CONTINUOUS
 70
0
 71
3
 72
13
 73
9
 74
0
 42
0.0000001
 43
0.0000001
 44
0.0000000001
 40
0.0
 40
0.0
 40
0.0
 40
0.0
 40
0.2222860645
 40
0.3981728988
 40
0.572392894
 40
0.7181880393
 40
0.8570919984
 40
0.9881536746
 40
0.9881536746
 40
0.9881536746
 40
0.9881536746
 10
151.7316442152
 20
33.9248813635
 30
0.0
 10
151.734644783
 20
33.7777072555
 30
0.0
 10
151.7410836204
 20
33.5141597561
 30
0.0
 10
151.804483303
 20
33.1392126967
 30
0.0
 10
151.9183639367
 20
32.8289238834
 30
0.0
 10
152.0934895447
 20
32.5750309084
 30
0.0
 10
152.3374638493
 20
32.4242234178
 30
0.0
 10
152.517434601
 20
32.4099649276
 30
0.0
 10
152.6048567029
 20
32.4034536741
 30
0.0
  0
LINE
  5
273
100
AcDbEntity
  8
0
100
AcDbLine
 62
7
  6
CONTINUOUS
 10
152.6048567029
 20
32.4034536741
 11
156.7626108814
 21
32.4125283956
  0
ARC
  5
274
100
AcDbEntity
  8
0
100
AcDbCircle
 62
7
  6
CONTINUOUS
 10
156.7622733556
 20
32.5671719427
 40
0.1546439154
100
AcDbArc
 50
270.125053868
 51
360.0
  0
LINE
  5
275
100
AcDbEntity
  8
0
100
AcDbLine
 62
7
  6
CONTINUOUS
 10
156.9169172715
 20
32.5671719427
 11
156.9169172715
 21
32.8644866834
  0
ARC
  5
276
100
AcDbEntity
  8
0
100
AcDbCircle
 62
7
  6
CONTINUOUS
 10
156.7622733556
 20
32.8644866834
 40
0.1546439159
100
AcDbArc
 50
0.0
 51
90.0
  0
LINE
  5
277
100
AcDbEntity
  8
0
100
AcDbLine
 62
7
  6
CONTINUOUS
 10
156.7622733556
 20
33.0191305992
 11
153.1987990656
 21
33.0191305992
  0
LINE
  5
278
100
AcDbEntity
  8
0
100
AcDbLine
 62
7
  6
CONTINUOUS
 10
153.0441551497
 20
33.1737745151
 11
153.0441551497
 21
34.7093074521
  0
ARC
  5
279
100
AcDbEntity
  8
0
100
AcDbCircle
 62
7
  6
CONTINUOUS
 10
153.198799067
 20
34.7093074521
 40
0.1546439159
100
AcDbArc
 50
90.0
 51
180.0
  0
LINE
  5
27A
100
AcDbEntity
  8
0
100
AcDbLine
 62
7
  6
CONTINUOUS
 10
153.1987990656
 20
34.863951368
 11
156.7622733556
 21
34.863951368
  0
LINE
  5
27B
100
AcDbEntity
  8
0
100
AcDbLine
 62
7
  6
CONTINUOUS
 10
146.8448079127
 20
33.6307887572
 11
149.8149570904
 21
33.6307887572
  0
ARC
  5
27C
100
AcDbEntity
  8
0
100
AcDbCircle
 62
7
  6
CONTINUOUS
 10
149.81495709
 20
33.4761448417
 40
0.1546439159
100
AcDbArc
 50
0.0
 51
90.0
  0
LINE
  5
27D
100
AcDbEntity
  8
0
100
AcDbLine
 62
7
  6
CONTINUOUS
 10
149.9696010062
 20
33.4761448414
 11
149.9696010062
 21
33.1603779387
  0
LINE
  5
27E
100
AcDbEntity
  8
0
100
AcDbLine
 62
7
  6
CONTINUOUS
 10
149.8149570904
 20
33.0057340228
 11
146.3527053419
 21
33.0057340228
  0
ARC
  5
27F
100
AcDbEntity
  8
0
100
AcDbCircle
 62
7
  6
CONTINUOUS
 10
146.3527053419
 20
32.8510901069
 40
0.1546439159
100
AcDbArc
 50
90.0
 51
180.0
  0
LINE
  5
280
100
AcDbEntity
  8
0
100
AcDbLine
 62
7
  6
CONTINUOUS
 10
146.198061426
 20
32.8510901069
 11
146.198061426
 21
32.5580960292
  0
ARC
  5
281
100
AcDbEntity
  8
0
100
AcDbCircle
 62
7
  6
CONTINUOUS
 10
146.3527053419
 20
32.5580960292
 40
0.1546439159
100
AcDbArc
 50
180.0
 51
270.0
  0
LINE
  5
282
100
AcDbEntity
  8
0
100
AcDbLine
 62
7
  6
CONTINUOUS
 10
146.3527053419
 20
32.4034521134
 11
150.6509143051
 21
32.4034521134
  0
SPLINE
  5
283
100
AcDbEntity
  8
0
100
AcDbSpline
 62
7
  6
CONTINUOUS
 70
0
 71
3
 72
13
 73
9
 74
0
 42
0.0000001
 43
0.0000001
 44
0.0000000001
 40
0.0
 40
0.0
 40
0.0
 40
0.0
 40
0.1604571392
 40
0.3334692485
 40
0.4767982758
 40
0.6242014838
 40
0.7505998515
 40
1.0
 40
1.0
 40
1.0
 40
1.0
 10
150.6509143051
 20
32.4034521134
 30
0.0
 10
150.7233826448
 20
32.4069413345
 30
0.0
 10
150.8739896074
 20
32.4141927876
 30
0.0
 10
151.0765133114
 20
32.5021192927
 30
0.0
 10
151.2291215947
 20
32.6499164086
 30
0.0
 10
151.3151223643
 20
32.8193600922
 30
0.0
 10
151.3810578716
 20
33.0466705299
 30
0.0
 10
151.3837335373
 20
33.2167788778
 30
0.0
 10
151.3855092515
 20
33.3296719436
 30
0.0
  0
SPLINE
  5
284
100
AcDbEntity
  8
0
100
AcDbSpline
 62
7
  6
CONTINUOUS
 70
0
 71
3
 72
13
 73
9
 74
0
 42
0.0000001
 43
0.0000001
 44
0.0000000001
 40
0.0
 40
0.0
 40
0.0
 40
0.0
 40
0.2494001485
 40
0.3757985162
 40
0.5232017242
 40
0.6665307515
 40
0.8395428608
 40
1.0
 40
1.0
 40
1.0
 40
1.0
 10
151.3855092515
 20
33.3296719436
 30
0.0
 10
151.3837335373
 20
33.4425650118
 30
0.0
 10
151.3810578716
 20
33.6126733574
 30
0.0
 10
151.3151223643
 20
33.8399837974
 30
0.0
 10
151.2291215947
 20
34.009427481
 30
0.0
 10
151.0765133114
 20
34.1572245946
 30
0.0
 10
150.8739896074
 20
34.2451510997
 30
0.0
 10
150.7233826448
 20
34.2524025551
 30
0.0
 10
150.6509143051
 20
34.2558917739
 30
0.0
  0
LINE
  5
285
100
AcDbEntity
  8
0
100
AcDbLine
 62
7
  6
CONTINUOUS
 10
150.6509143051
 20
34.2558917739
 11
147.7203552498
 21
34.2558917739
  0
LINE
  5
286
100
AcDbEntity
  8
0
100
AcDbLine
 62
7
  6
CONTINUOUS
 10
147.5657113339
 20
34.4105356898
 11
147.5657113339
 21
34.7031374929
  0
ARC
  5
287
100
AcDbEntity
  8
0
100
AcDbCircle
 62
7
  6
CONTINUOUS
 10
147.7203552485
 20
34.7031374929
 40
0.1546439159
100
AcDbArc
 50
90.0
 51
180.0
  0
LINE
  5
288
100
AcDbEntity
  8
0
100
AcDbLine
 62
7
  6
CONTINUOUS
 10
147.7203552498
 20
34.8577814088
 11
151.187306496
 21
34.8577814088
  0
ARC
  5
289
100
AcDbEntity
  8
0
100
AcDbCircle
 62
7
  6
CONTINUOUS
 10
151.187306496
 20
35.0124253247
 40
0.1546439159
100
AcDbArc
 50
270.0
 51
360.0
  0
LINE
  5
28A
100
AcDbEntity
  8
0
100
AcDbLine
 62
7
  6
CONTINUOUS
 10
151.3419504119
 20
35.0124253247
 11
151.3419504119
 21
35.3279893988
  0
ARC
  5
28B
100
AcDbEntity
  8
0
100
AcDbCircle
 62
7
  6
CONTINUOUS
 10
151.187306496
 20
35.3279893988
 40
0.1546439159
100
AcDbArc
 50
0.0
 51
90.0
  0
LINE
  5
28C
100
AcDbEntity
  8
0
100
AcDbLine
 62
7
  6
CONTINUOUS
 10
151.187306496
 20
35.4826333147
 11
146.8448079127
 21
35.4826333147
  0
SPLINE
  5
28D
100
AcDbEntity
  8
0
100
AcDbSpline
 62
7
  6
CONTINUOUS
 70
0
 71
3
 72
13
 73
9
 74
0
 42
0.0000001
 43
0.0000001
 44
0.0000000001
 40
0.0
 40
0.0
 40
0.0
 40
0.0
 40
0.1133740464
 40
0.2392044088
 40
0.3655787964
 40
0.4912154373
 40
0.7445390876
 40
1.0
 40
1.0
 40
1.0
 40
1.0
 10
146.8448079127
 20
35.4826333147
 30
0.0
 10
146.7952000858
 20
35.480189898
 30
0.0
 10
146.690534062
 20
35.4750346051
 30
0.0
 10
146.5350630368
 20
35.4285845071
 30
0.0
 10
146.3959790539
 20
35.3347872931
 30
0.0
 10
146.2539035249
 20
35.1620092464
 30
0.0
 10
146.1645005891
 20
34.8907707008
 30
0.0
 10
146.1548048272
 20
34.6683756652
 30
0.0
 10
146.1499365844
 20
34.556711036
 30
0.0
  0
SPLINE
  5
28E
100
AcDbEntity
  8
0
100
AcDbSpline
 62
7
  6
CONTINUOUS
 70
0
 71
3
 72
13
 73
9
 74
0
 42
0.0000001
 43
0.0000001
 44
0.0000000001
 40
0.0
 40
0.0
 40
0.0
 40
0.0
 40
0.2554609124
 40
0.5087845627
 40
0.6344212036
 40
0.7607955912
 40
0.8866259536
 40
1.0
 40
1.0
 40
1.0
 40
1.0
 10
146.1499365844
 20
34.556711036
 30
0.0
 10
146.1548048272
 20
34.4450464067
 30
0.0
 10
146.1645005891
 20
34.2226513687
 30
0.0
 10
146.2539035249
 20
33.9514128255
 30
0.0
 10
146.3959790539
 20
33.7786347788
 30
0.0
 10
146.5350630368
 20
33.6848375648
 30
0.0
 10
146.690534062
 20
33.6383874668
 30
0.0
 10
146.7952000858
 20
33.6332321739
 30
0.0
 10
146.8448079127
 20
33.6307887572
 30
0.0
  0
LINE
  5
28F
100
AcDbEntity
  8
0
100
AcDbLine
 62
7
  6
CONTINUOUS
 10
141.1308850725
 20
32.4034521134
 11
143.5337287833
 21
32.4034521134
  0
LINE
  5
290
100
AcDbEntity
  8
0
100
AcDbLine
 62
7
  6
CONTINUOUS
 10
143.5337287833
 20
32.4034521134
 11
143.5337287833
 21
32.1046117438
  0
ARC
  5
291
100
AcDbEntity
  8
0
100
AcDbCircle
 62
7
  6
CONTINUOUS
 10
143.5932072125
 20
32.1046117438
 40
0.0594784292
100
AcDbArc
 50
180.0
 51
270.0
  0
LINE
  5
292
100
AcDbEntity
  8
0
100
AcDbLine
 62
7
  6
CONTINUOUS
 10
143.5932072125
 20
32.0451333147
 11
144.5193468492
 21
32.0451333147
  0
ARC
  5
293
100
AcDbEntity
  8
0
100
AcDbCircle
 62
7
  6
CONTINUOUS
 10
144.5193468492
 20
32.1046117438
 40
0.0594784292
100
AcDbArc
 50
270.0
 51
360.0
  0
LINE
  5
294
100
AcDbEntity
  8
0
100
AcDbLine
 62
7
  6
CONTINUOUS
 10
144.5788252784
 20
32.1046117438
 11
144.5788252784
 21
32.4034521134
  0
LINE
  5
295
100
AcDbEntity
  8
0
100
AcDbLine
 62
7
  6
CONTINUOUS
 10
144.5788252784
 20
32.4034521134
 11
145.0513142828
 21
32.4034521134
  0
SPLINE
  5
296
100
AcDbEntity
  8
0
100
AcDbSpline
 62
7
  6
CONTINUOUS
 70
0
 71
3
 72
12
 73
8
 74
0
 42
0.0000001
 43
0.0000001
 44
0.0000000001
 40
0.0
 40
0.0
 40
0.0
 40
0.0
 40
0.2415790084
 40
0.4893269843
 40
0.7378634303
 40
0.8656387112
 40
1.0
 40
1.0
 40
1.0
 40
1.0
 10
145.0513142828
 20
32.4034521134
 30
0.0
 10
145.1360362162
 20
32.4060860228
 30
0.0
 10
145.3076435466
 20
32.4114211023
 30
0.0
 10
145.5587729682
 20
32.5009805329
 30
0.0
 10
145.7112888101
 20
32.6700450368
 30
0.0
 10
145.7784822268
 20
32.8389717505
 30
0.0
 10
145.7796931505
 20
32.9315094469
 30
0.0
 10
145.7803138246
 20
32.9789407677
 30
0.0
  0
LINE
  5
297
100
AcDbEntity
  8
0
100
AcDbLine
 62
7
  6
CONTINUOUS
 10
145.7803138246
 20
32.9789407677
 11
145.7803138246
 21
34.9035331492
  0
SPLINE
  5
298
100
AcDbEntity
  8
0
100
AcDbSpline
 62
7
  6
CONTINUOUS
 70
0
 71
3
 72
12
 73
8
 74
0
 42
0.0000001
 43
0.0000001
 44
0.0000000001
 40
0.0
 40
0.0
 40
0.0
 40
0.0
 40
0.1343612888
 40
0.2621365697
 40
0.5106730157
 40
0.7584209916
 40
1.0
 40
1.0
 40
1.0
 40
1.0
 10
145.7803138246
 20
34.9035331492
 30
0.0
 10
145.7796931505
 20
34.9509644723
 30
0.0
 10
145.7784822268
 20
35.0435021687
 30
0.0
 10
145.7112888101
 20
35.2124288825
 30
0.0
 10
145.5587729682
 20
35.3814933863
 30
0.0
 10
145.3076435466
 20
35.4710528145
 30
0.0
 10
145.1360362162
 20
35.476387894
 30
0.0
 10
145.0513142828
 20
35.4790218035
 30
0.0
  0
LINE
  5
299
100
AcDbEntity
  8
0
100
AcDbLine
 62
7
  6
CONTINUOUS
 10
145.0513142828
 20
35.4790218035
 11
141.1308850725
 21
35.4790218035
  0
SPLINE
  5
29A
100
AcDbEntity
  8
0
100
AcDbSpline
 62
7
  6
CONTINUOUS
 70
0
 71
3
 72
12
 73
8
 74
0
 42
0.0000001
 43
0.0000001
 44
0.0000000001
 40
0.0
 40
0.0
 40
0.0
 40
0.0
 40
0.1341799809
 40
0.290831959
 40
0.5815217441
 40
0.760783857
 40
1.0
 40
1.0
 40
1.0
 40
1.0
 10
141.1308850725
 20
35.4790218035
 30
0.0
 10
141.0453735511
 20
35.4644070731
 30
0.0
 10
140.8600293372
 20
35.4327299847
 30
0.0
 10
140.5480320989
 20
35.1996375728
 30
0.0
 10
140.4002543729
 20
34.807482997
 30
0.0
 10
140.3137909468
 20
34.3629396423
 30
0.0
 10
140.3073004084
 20
34.0940595591
 30
0.0
 10
140.3035901987
 20
33.9403587261
 30
0.0
  0
SPLINE
  5
29B
100
AcDbEntity
  8
0
100
AcDbSpline
 62
7
  6
CONTINUOUS
 70
0
 71
3
 72
12
 73
8
 74
0
 42
0.0000001
 43
0.0000001
 44
0.0000000001
 40
0.0
 40
0.0
 40
0.0
 40
0.0
 40
0.2392679579
 40
0.4185688994
 40
0.7093216488
 40
0.8660075581
 40
1.0
 40
1.0
 40
1.0
 40
1.0
 10
140.3035901987
 20
33.9403587261
 30
0.0
 10
140.3073018906
 20
33.7866638837
 30
0.0
 10
140.3137950198
 20
33.5177942807
 30
0.0
 10
140.4002397888
 20
33.0731754883
 30
0.0
 10
140.548107803
 20
32.681386003
 30
0.0
 10
140.8597802083
 20
32.4475366924
 30
0.0
 10
141.0453458651
 20
32.4173617127
 30
0.0
 10
141.1308850725
 20
32.4034521134
 30
0.0
  0
LINE
  5
29C
100
AcDbEntity
  8
0
100
AcDbLine
 62
7
  6
CONTINUOUS
 10
144.988389395
 20
33.1952807303
 11
144.988389395
 21
34.7373182093
  0
ARC
  5
29D
100
AcDbEntity
  8
0
100
AcDbCircle
 62
7
  6
CONTINUOUS
 10
141.7440151837
 20
33.1952807303
 40
0.1546439159
100
AcDbArc
 50
180.0
 51
270.0
  0
LINE
  5
29E
100
AcDbEntity
  8
0
100
AcDbLine
 62
7
  6
CONTINUOUS
 10
141.7440151837
 20
33.0406368144
 11
143.5202013472
 21
33.0406368144
  0
LINE
  5
29F
100
AcDbEntity
  8
0
100
AcDbLine
 62
7
  6
CONTINUOUS
 10
143.5202013472
 20
33.0406368144
 11
143.5202013472
 21
33.3385512452
  0
ARC
  5
2A0
100
AcDbEntity
  8
0
100
AcDbCircle
 62
7
  6
CONTINUOUS
 10
143.5796797775
 20
33.3385512452
 40
0.0594784292
100
AcDbArc
 50
90.0
 51
180.0
  0
LINE
  5
2A1
100
AcDbEntity
  8
0
100
AcDbLine
 62
7
  6
CONTINUOUS
 10
143.5796797764
 20
33.3980296744
 11
144.5010995975
 21
33.3980296744
  0
ARC
  5
2A2
100
AcDbEntity
  8
0
100
AcDbCircle
 62
7
  6
CONTINUOUS
 10
144.5010995953
 20
33.3385512474
 40
0.0594784292
100
AcDbArc
 50
0.0
 51
90.0
  0
LINE
  5
2A3
100
AcDbEntity
  8
0
100
AcDbLine
 62
7
  6
CONTINUOUS
 10
144.5605780267
 20
33.0406368144
 11
144.8337454792
 21
33.0406368144
  0
ARC
  5
2A4
100
AcDbEntity
  8
0
100
AcDbCircle
 62
7
  6
CONTINUOUS
 10
144.8337454792
 20
33.1952807303
 40
0.1546439159
100
AcDbArc
 50
270.0
 51
360.0
  0
LINE
  5
2A5
100
AcDbEntity
  8
0
100
AcDbLine
 62
7
  6
CONTINUOUS
 10
144.5605780267
 20
33.0406368144
 11
144.5605780267
 21
33.3385512452
  0
LINE
  5
2A6
100
AcDbEntity
  8
0
100
AcDbLine
 62
7
  6
CONTINUOUS
 10
141.5893712678
 20
33.1952807303
 11
141.5893712678
 21
34.7373182093
  0
ARC
  5
2A7
100
AcDbEntity
  8
0
100
AcDbCircle
 62
7
  6
CONTINUOUS
 10
141.7440151858
 20
34.7373182093
 40
0.1546439159
100
AcDbArc
 50
90.0
 51
180.0
  0
LINE
  5
2A8
100
AcDbEntity
  8
0
100
AcDbLine
 62
7
  6
CONTINUOUS
 10
141.7440151837
 20
34.8919621251
 11
144.8337454792
 21
34.8919621251
  0
ARC
  5
2A9
100
AcDbEntity
  8
0
100
AcDbCircle
 62
7
  6
CONTINUOUS
 10
144.8337454805
 20
34.7373182079
 40
0.1546439159
100
AcDbArc
 50
0.0000000277
 51
90.0000000277
  0
ARC
  5
2AA
100
AcDbEntity
  8
0
100
AcDbCircle
 62
7
  6
CONTINUOUS
 10
147.7203552498
 20
34.4105356898
 40
0.1546439159
100
AcDbArc
 50
180.0
 51
270.0
  0
ARC
  5
2AB
100
AcDbEntity
  8
0
100
AcDbCircle
 62
7
  6
CONTINUOUS
 10
149.8149570904
 20
33.1603779387
 40
0.1546439159
100
AcDbArc
 50
270.0
 51
360.0
  0
ARC
  5
2AC
100
AcDbEntity
  8
0
100
AcDbCircle
 62
7
  6
CONTINUOUS
 10
153.1987990656
 20
33.1737745151
 40
0.1546439159
100
AcDbArc
 50
180.0
 51
270.0
  0
ENDBLK
  5
2AD
100
AcDbEntity
  8
0
  6
BYBLOCK
 62
0
100
AcDbBlockEnd
  0
BLOCK
  5
2AE
100
AcDbEntity
  8
0
100
AcDbBlockBegin
  2
_FILLED
 70
64
 10
0.0
 20
0.0
  3
_FILLED
  1

  0
SOLID
  5
2AF
100
AcDbEntity
  8
0
  6
BYBLOCK
 62
0
100
AcDbTrace
 10
0.0
 20
0.0
 11
-1.0
 21
0.1666666667
 12
-1.0
 22
-0.1666666667
 13
-1.0
 23
-0.1666666667
  0
ENDBLK
  5
2B0
100
AcDbEntity
  8
0
  6
BYBLOCK
 62
0
100
AcDbBlockEnd
  0
BLOCK
  5
2B1
100
AcDbEntity
  8
0
100
AcDbBlockBegin
 62
2
  6
CONTINUOUS
  2
*D0
 70
65
 10
0.0
 20
0.0
  3
*D0
  1

  0
MTEXT
  5
2B2
100
AcDbEntity
  8
0
100
AcDbMText
 62
2
  6
CONTINUOUS
  7
STANDARD
 71
3
 72
1
 10
23.2861616323
 20
112.6564723628
 30
0.0
 11
1.0
 21
0.0
 31
0.0
 44
0.9
  1
144\P[5.7]
 40
1.953125
 41
5.7198660714
  0
LINE
  5
2B3
100
AcDbEntity
  8
0
100
AcDbLine
 62
2
  6
CONTINUOUS
 10
34.2544296757
 20
119.2071213569
 11
26.3760755148
 21
119.2071213569
  0
LINE
  5
2B4
100
AcDbEntity
  8
0
100
AcDbLine
 62
2
  6
CONTINUOUS
 10
38.0784651088
 20
113.5378300183
 11
26.3760755148
 21
113.5378300183
  0
LINE
  5
2B5
100
AcDbEntity
  8
0
100
AcDbLine
 62
2
  6
CONTINUOUS
 10
27.9385755148
 20
119.2071213569
 11
27.9385755148
 21
116.3724756876
  0
LINE
  5
2B6
100
AcDbEntity
  8
0
100
AcDbLine
 62
2
  6
CONTINUOUS
 10
27.9385755148
 20
113.5378300183
 11
27.9385755148
 21
116.3724756876
  0
LINE
  5
2B7
100
AcDbEntity
  8
0
100
AcDbLine
 62
2
  6
CONTINUOUS
 10
27.9385755148
 20
116.3724756876
 11
27.9385755148
 21
111.6799098628
  0
LINE
  5
2B8
100
AcDbEntity
  8
0
100
AcDbLine
 62
2
  6
CONTINUOUS
 10
27.9385755148
 20
111.6799098628
 11
25.7973223466
 21
111.6799098628
  0
INSERT
  5
2B9
100
AcDbEntity
  8
0
100
AcDbBlockReference
 62
2
  6
CONTINUOUS
  2
_FILLED
 10
27.9385755148
 20
119.2071213569
 41
2.34375
 42
2.34375
 43
2.34375
 50
90.0
  0
INSERT
  5
2BA
100
AcDbEntity
  8
0
100
AcDbBlockReference
 62
2
  6
CONTINUOUS
  2
_FILLED
 10
27.9385755148
 20
113.5378300183
 41
2.34375
 42
2.34375
 43
2.34375
 50
270.0
  0
ENDBLK
  5
2BB
100
AcDbEntity
  8
0
  6
BYBLOCK
 62
0
100
AcDbBlockEnd
  0
BLOCK
  5
2BC
100
AcDbEntity
  8
0
100
AcDbBlockBegin
 62
2
  6
CONTINUOUS
  2
*D1
 70
65
 10
0.0
 20
0.0
  3
*D1
  1

  0
MTEXT
  5
2BD
100
AcDbEntity
  8
0
100
AcDbMText
 62
2
  6
CONTINUOUS
  7
STANDARD
 71
2
 72
1
 10
39.2818201235
 20
106.0808005988
 30
0.0
 11
1.0
 21
0.0
 31
0.0
 44
0.9
  1
321\P[12.6]
 40
1.953125
 41
6.9754464286
  0
LINE
  5
2BE
100
AcDbEntity
  8
0
100
AcDbLine
 62
2
  6
CONTINUOUS
 10
32.5271633462
 20
108.8040668953
 11
32.5271633462
 21
103.5417380988
  0
LINE
  5
2BF
100
AcDbEntity
  8
0
100
AcDbLine
 62
2
  6
CONTINUOUS
 10
45.1673425083
 20
109.7747883037
 11
45.1673425083
 21
103.5417380988
  0
LINE
  5
2C0
100
AcDbEntity
  8
0
100
AcDbLine
 62
2
  6
CONTINUOUS
 10
32.5271633462
 20
105.1042380988
 11
26.2771633462
 21
105.1042380988
  0
LINE
  5
2C1
100
AcDbEntity
  8
0
100
AcDbLine
 62
2
  6
CONTINUOUS
 10
45.1673425083
 20
105.1042380988
 11
51.4173425083
 21
105.1042380988
  0
INSERT
  5
2C2
100
AcDbEntity
  8
0
100
AcDbBlockReference
 62
2
  6
CONTINUOUS
  2
_FILLED
 10
32.5271633462
 20
105.1042380988
 41
2.34375
 42
2.34375
 43
2.34375
  0
INSERT
  5
2C3
100
AcDbEntity
  8
0
100
AcDbBlockReference
 62
2
  6
CONTINUOUS
  2
_FILLED
 10
45.1673425083
 20
105.1042380988
 41
2.34375
 42
2.34375
 43
2.34375
 50
180.0
  0
ENDBLK
  5
2C4
100
AcDbEntity
  8
0
  6
BYBLOCK
 62
0
100
AcDbBlockEnd
  0
BLOCK
  5
2C5
100
AcDbEntity
  8
0
100
AcDbBlockBegin
 62
2
  6
CONTINUOUS
  2
*D2
 70
65
 10
0.0
 20
0.0
  3
*D2
  1

  0
MTEXT
  5
2C6
100
AcDbEntity
  8
0
100
AcDbMText
 62
2
  6
CONTINUOUS
  7
STANDARD
 71
2
 72
1
 10
50.0510340322
 20
86.9256923028
 30
0.0
 11
1.0
 21
0.0
 31
0.0
 44
0.9
  1
516\P[20.3]
 40
1.953125
 41
7.2544642857
  0
LINE
  5
2C7
100
AcDbEntity
  8
0
100
AcDbLine
 62
2
  6
CONTINUOUS
 10
43.6151973922
 20
94.2734303943
 11
53.2178867108
 21
94.2734303943
  0
LINE
  5
2C8
100
AcDbEntity
  8
0
100
AcDbLine
 62
2
  6
CONTINUOUS
 10
43.6151973922
 20
73.9584697643
 11
53.2178867108
 21
73.9584697643
  0
LINE
  5
2C9
100
AcDbEntity
  8
0
100
AcDbLine
 62
2
  6
CONTINUOUS
 10
51.6553867108
 20
94.2734303943
 11
51.6553867108
 21
87.9022548028
  0
LINE
  5
2CA
100
AcDbEntity
  8
0
100
AcDbLine
 62
2
  6
CONTINUOUS
 10
51.6553867108
 20
73.9584697643
 11
51.6553867108
 21
81.0663173028
  0
INSERT
  5
2CB
100
AcDbEntity
  8
0
100
AcDbBlockReference
 62
2
  6
CONTINUOUS
  2
_FILLED
 10
51.6553867108
 20
94.2734303943
 41
2.34375
 42
2.34375
 43
2.34375
 50
90.0
  0
INSERT
  5
2CC
100
AcDbEntity
  8
0
100
AcDbBlockReference
 62
2
  6
CONTINUOUS
  2
_FILLED
 10
51.6553867108
 20
73.9584697643
 41
2.34375
 42
2.34375
 43
2.34375
 50
270.0
  0
ENDBLK
  5
2CD
100
AcDbEntity
  8
0
  6
BYBLOCK
 62
0
100
AcDbBlockEnd
  0
BLOCK
  5
2CE
100
AcDbEntity
  8
0
100
AcDbBlockBegin
 62
2
  6
CONTINUOUS
  2
*D3
 70
65
 10
0.0
 20
0.0
  3
*D3
  1

  0
MTEXT
  5
2CF
100
AcDbEntity
  8
0
100
AcDbMText
 62
2
  6
CONTINUOUS
  7
STANDARD
 71
3
 72
1
 10
30.8723679421
 20
68.4914160092
 30
0.0
 11
1.0
 21
0.0
 31
0.0
 44
0.9
  1
229\P[9.0]
 40
1.953125
 41
5.859375
  0
LINE
  5
2D0
100
AcDbEntity
  8
0
100
AcDbLine
 62
2
  6
CONTINUOUS
 10
34.351841093
 20
59.3680792428
 11
34.351841093
 21
69.0773535092
  0
LINE
  5
2D1
100
AcDbEntity
  8
0
100
AcDbLine
 62
2
  6
CONTINUOUS
 10
43.3675891245
 20
59.3680792428
 11
43.3675891245
 21
69.0773535092
  0
LINE
  5
2D2
100
AcDbEntity
  8
0
100
AcDbLine
 62
2
  6
CONTINUOUS
 10
34.351841093
 20
67.5148535092
 11
38.8597151088
 21
67.5148535092
  0
LINE
  5
2D3
100
AcDbEntity
  8
0
100
AcDbLine
 62
2
  6
CONTINUOUS
 10
38.8597151088
 20
67.5148535092
 11
33.1045107992
 21
67.5148535092
  0
LINE
  5
2D4
100
AcDbEntity
  8
0
100
AcDbLine
 62
2
  6
CONTINUOUS
 10
43.3675891245
 20
67.5148535092
 11
38.8597151088
 21
67.5148535092
  0
INSERT
  5
2D5
100
AcDbEntity
  8
0
100
AcDbBlockReference
 62
2
  6
CONTINUOUS
  2
_FILLED
 10
34.351841093
 20
67.5148535092
 41
2.34375
 42
2.34375
 43
2.34375
 50
180.0
  0
INSERT
  5
2D6
100
AcDbEntity
  8
0
100
AcDbBlockReference
 62
2
  6
CONTINUOUS
  2
_FILLED
 10
43.3675891245
 20
67.5148535092
 41
2.34375
 42
2.34375
 43
2.34375
  0
ENDBLK
  5
2D7
100
AcDbEntity
  8
0
  6
BYBLOCK
 62
0
100
AcDbBlockEnd
  0
BLOCK
  5
2D8
100
AcDbEntity
  8
0
100
AcDbBlockBegin
 62
2
  6
CONTINUOUS
  2
*D4
 70
65
 10
0.0
 20
0.0
  3
*D4
  1

  0
MTEXT
  5
2D9
100
AcDbEntity
  8
0
100
AcDbMText
 62
2
  6
CONTINUOUS
  7
STANDARD
 71
1
 72
1
 10
29.73180626
 20
46.8551091649
 30
0.0
 11
1.0
 21
0.0
 31
0.0
 44
0.9
  1
144\P[5.7]
 40
1.953125
 41
5.7198660714
  0
LINE
  5
2DA
100
AcDbEntity
  8
0
100
AcDbLine
 62
2
  6
CONTINUOUS
 10
34.2544296757
 20
50.5553331798
 11
25.04430626
 21
50.5553331798
  0
LINE
  5
2DB
100
AcDbEntity
  8
0
100
AcDbLine
 62
2
  6
CONTINUOUS
 10
38.0784651088
 20
56.2246245184
 11
25.04430626
 21
56.2246245184
  0
LINE
  5
2DC
100
AcDbEntity
  8
0
100
AcDbLine
 62
2
  6
CONTINUOUS
 10
26.60680626
 20
50.5553331798
 11
26.60680626
 21
53.3899788491
  0
LINE
  5
2DD
100
AcDbEntity
  8
0
100
AcDbLine
 62
2
  6
CONTINUOUS
 10
26.60680626
 20
53.3899788491
 11
26.60680626
 21
45.8785466649
  0
LINE
  5
2DE
100
AcDbEntity
  8
0
100
AcDbLine
 62
2
  6
CONTINUOUS
 10
26.60680626
 20
45.8785466649
 11
28.75524376
 21
45.8785466649
  0
LINE
  5
2DF
100
AcDbEntity
  8
0
100
AcDbLine
 62
2
  6
CONTINUOUS
 10
26.60680626
 20
56.2246245184
 11
26.60680626
 21
53.3899788491
  0
INSERT
  5
2E0
100
AcDbEntity
  8
0
100
AcDbBlockReference
 62
2
  6
CONTINUOUS
  2
_FILLED
 10
26.60680626
 20
50.5553331798
 41
2.34375
 42
2.34375
 43
2.34375
 50
270.0
  0
INSERT
  5
2E1
100
AcDbEntity
  8
0
100
AcDbBlockReference
 62
2
  6
CONTINUOUS
  2
_FILLED
 10
26.60680626
 20
56.2246245184
 41
2.34375
 42
2.34375
 43
2.34375
 50
90.0
  0
ENDBLK
  5
2E2
100
AcDbEntity
  8
0
  6
BYBLOCK
 62
0
100
AcDbBlockEnd
  0
BLOCK
  5
2E3
100
AcDbEntity
  8
0
100
AcDbBlockBegin
 62
2
  6
CONTINUOUS
  2
*D5
 70
65
 10
0.0
 20
0.0
  3
*D5
  1

  0
MTEXT
  5
2E4
100
AcDbEntity
  8
0
100
AcDbMText
 62
2
  6
CONTINUOUS
  7
STANDARD
 71
2
 72
1
 10
19.6742315653
 20
57.2623718219
 30
0.0
 11
1.0
 21
0.0
 31
0.0
 44
0.9
  1
204\P[8.0]
 40
1.953125
 41
5.859375
  0
LINE
  5
2E5
100
AcDbEntity
  8
0
100
AcDbLine
 62
2
  6
CONTINUOUS
 10
34.2544296757
 20
50.5553331798
 11
18.7395217439
 21
50.5553331798
  0
LINE
  5
2E6
100
AcDbEntity
  8
0
100
AcDbLine
 62
2
  6
CONTINUOUS
 10
33.570591093
 20
58.5868292428
 11
18.7395217439
 21
58.5868292428
  0
LINE
  5
2E7
100
AcDbEntity
  8
0
100
AcDbLine
 62
2
  6
CONTINUOUS
 10
20.3020217439
 20
50.5553331798
 11
20.3020217439
 21
44.3053331798
  0
LINE
  5
2E8
100
AcDbEntity
  8
0
100
AcDbLine
 62
2
  6
CONTINUOUS
 10
20.3020217439
 20
58.5868292428
 11
20.3020217439
 21
64.8368292428
  0
INSERT
  5
2E9
100
AcDbEntity
  8
0
100
AcDbBlockReference
 62
2
  6
CONTINUOUS
  2
_FILLED
 10
20.3020217439
 20
50.5553331798
 41
2.34375
 42
2.34375
 43
2.34375
 50
90.0
  0
INSERT
  5
2EA
100
AcDbEntity
  8
0
100
AcDbBlockReference
 62
2
  6
CONTINUOUS
  2
_FILLED
 10
20.3020217439
 20
58.5868292428
 41
2.34375
 42
2.34375
 43
2.34375
 50
270.0
  0
ENDBLK
  5
2EB
100
AcDbEntity
  8
0
  6
BYBLOCK
 62
0
100
AcDbBlockEnd
  0
BLOCK
  5
2EC
100
AcDbEntity
  8
0
100
AcDbBlockBegin
 62
2
  6
CONTINUOUS
  2
*D6
 70
65
 10
0.0
 20
0.0
  3
*D6
  1

  0
MTEXT
  5
2ED
100
AcDbEntity
  8
0
100
AcDbMText
 62
2
  6
CONTINUOUS
  7
STANDARD
 71
2
 72
1
 10
71.269577245
 20
81.5273325759
 30
0.0
 11
1.0
 21
0.0
 31
0.0
 44
0.9
  1
246\P[9.7]
 40
1.953125
 41
5.859375
  0
LINE
  5
2EE
100
AcDbEntity
  8
0
100
AcDbLine
 62
2
  6
CONTINUOUS
 10
77.0839083129
 20
73.9584697643
 11
70.3348674236
 21
73.9584697643
  0
LINE
  5
2EF
100
AcDbEntity
  8
0
100
AcDbLine
 62
2
  6
CONTINUOUS
 10
83.1862705176
 20
83.6435091344
 11
70.3348674236
 21
83.6435091344
  0
LINE
  5
2F0
100
AcDbEntity
  8
0
100
AcDbLine
 62
2
  6
CONTINUOUS
 10
71.8973674236
 20
73.9584697643
 11
71.8973674236
 21
67.7084697643
  0
LINE
  5
2F1
100
AcDbEntity
  8
0
100
AcDbLine
 62
2
  6
CONTINUOUS
 10
71.8973674236
 20
83.6435091344
 11
71.8973674236
 21
89.8935091344
  0
INSERT
  5
2F2
100
AcDbEntity
  8
0
100
AcDbBlockReference
 62
2
  6
CONTINUOUS
  2
_FILLED
 10
71.8973674236
 20
73.9584697643
 41
2.34375
 42
2.34375
 43
2.34375
 50
90.0
  0
INSERT
  5
2F3
100
AcDbEntity
  8
0
100
AcDbBlockReference
 62
2
  6
CONTINUOUS
  2
_FILLED
 10
71.8973674236
 20
83.6435091344
 41
2.34375
 42
2.34375
 43
2.34375
 50
270.0
  0
ENDBLK
  5
2F4
100
AcDbEntity
  8
0
  6
BYBLOCK
 62
0
100
AcDbBlockEnd
  0
BLOCK
  5
2F5
100
AcDbEntity
  8
0
100
AcDbBlockBegin
 62
2
  6
CONTINUOUS
  2
*D7
 70
65
 10
0.0
 20
0.0
  3
*D7
  1

  0
MTEXT
  5
2F6
100
AcDbEntity
  8
0
100
AcDbMText
 62
2
  6
CONTINUOUS
  7
STANDARD
 71
1
 72
1
 10
99.3369144541
 20
72.5715273631
 30
0.0
 11
1.0
 21
0.0
 31
0.0
 44
0.9
  1
107\P[4.2]
 40
1.953125
 41
5.859375
  0
LINE
  5
2F7
100
AcDbEntity
  8
0
100
AcDbLine
 62
2
  6
CONTINUOUS
 10
89.6368118562
 20
74.2645032289
 11
89.6368118562
 21
70.0324648631
  0
LINE
  5
2F8
100
AcDbEntity
  8
0
100
AcDbLine
 62
2
  6
CONTINUOUS
 10
93.8494102814
 20
79.905566221
 11
93.8494102814
 21
70.0324648631
  0
LINE
  5
2F9
100
AcDbEntity
  8
0
100
AcDbLine
 62
2
  6
CONTINUOUS
 10
89.6368118562
 20
71.5949648631
 11
83.3868118562
 21
71.5949648631
  0
LINE
  5
2FA
100
AcDbEntity
  8
0
100
AcDbLine
 62
2
  6
CONTINUOUS
 10
93.8494102814
 20
71.5949648631
 11
98.3603519541
 21
71.5949648631
  0
INSERT
  5
2FB
100
AcDbEntity
  8
0
100
AcDbBlockReference
 62
2
  6
CONTINUOUS
  2
_FILLED
 10
89.6368118562
 20
71.5949648631
 41
2.34375
 42
2.34375
 43
2.34375
  0
INSERT
  5
2FC
100
AcDbEntity
  8
0
100
AcDbBlockReference
 62
2
  6
CONTINUOUS
  2
_FILLED
 10
93.8494102814
 20
71.5949648631
 41
2.34375
 42
2.34375
 43
2.34375
 50
180.0
  0
ENDBLK
  5
2FD
100
AcDbEntity
  8
0
  6
BYBLOCK
 62
0
100
AcDbBlockEnd
  0
BLOCK
  5
2FE
100
AcDbEntity
  8
0
100
AcDbBlockBegin
 62
2
  6
CONTINUOUS
  2
*D8
 70
65
 10
0.0
 20
0.0
  3
*D8
  1

  0
MTEXT
  5
2FF
100
AcDbEntity
  8
0
100
AcDbMText
 62
2
  6
CONTINUOUS
  7
STANDARD
 71
1
 72
1
 10
107.7917014565
 20
66.2450831234
 30
0.0
 11
1.0
 21
0.0
 31
0.0
 44
0.9
  1
251\P[9.9]
 40
1.953125
 41
5.859375
  0
LINE
  5
300
100
AcDbEntity
  8
0
100
AcDbLine
 62
2
  6
CONTINUOUS
 10
93.8494102814
 20
79.905566221
 11
93.8494102814
 21
63.7060206234
  0
LINE
  5
301
100
AcDbEntity
  8
0
100
AcDbLine
 62
2
  6
CONTINUOUS
 10
83.9675205176
 20
82.8622591344
 11
83.9675205176
 21
63.7060206234
  0
LINE
  5
302
100
AcDbEntity
  8
0
100
AcDbLine
 62
2
  6
CONTINUOUS
 10
93.8494102814
 20
65.2685206234
 11
88.9084653995
 21
65.2685206234
  0
LINE
  5
303
100
AcDbEntity
  8
0
100
AcDbLine
 62
2
  6
CONTINUOUS
 10
88.9084653995
 20
65.2685206234
 11
106.8151389565
 21
65.2685206234
  0
LINE
  5
304
100
AcDbEntity
  8
0
100
AcDbLine
 62
2
  6
CONTINUOUS
 10
83.9675205176
 20
65.2685206234
 11
88.9084653995
 21
65.2685206234
  0
INSERT
  5
305
100
AcDbEntity
  8
0
100
AcDbBlockReference
 62
2
  6
CONTINUOUS
  2
_FILLED
 10
93.8494102814
 20
65.2685206234
 41
2.34375
 42
2.34375
 43
2.34375
  0
INSERT
  5
306
100
AcDbEntity
  8
0
100
AcDbBlockReference
 62
2
  6
CONTINUOUS
  2
_FILLED
 10
83.9675205176
 20
65.2685206234
 41
2.34375
 42
2.34375
 43
2.34375
 50
180.0
  0
ENDBLK
  5
307
100
AcDbEntity
  8
0
  6
BYBLOCK
 62
0
100
AcDbBlockEnd
  0
BLOCK
  5
308
100
AcDbEntity
  8
0
100
AcDbBlockBegin
 62
2
  6
CONTINUOUS
  2
*D9
 70
65
 10
0.0
 20
0.0
  3
*D9
  1

  0
MTEXT
  5
309
100
AcDbEntity
  8
0
100
AcDbMText
 62
2
  6
CONTINUOUS
  7
STANDARD
 71
2
 72
1
 10
84.6714584043
 20
61.4707238789
 30
0.0
 11
1.0
 21
0.0
 31
0.0
 44
0.9
  1
406\P[16.0]
 40
1.953125
 41
6.9754464286
  0
LINE
  5
30A
100
AcDbEntity
  8
0
100
AcDbLine
 62
2
  6
CONTINUOUS
 10
93.8494102814
 20
79.905566221
 11
93.8494102814
 21
58.9316613789
  0
LINE
  5
30B
100
AcDbEntity
  8
0
100
AcDbLine
 62
2
  6
CONTINUOUS
 10
77.8651583129
 20
73.1772197643
 11
77.8651583129
 21
58.9316613789
  0
LINE
  5
30C
100
AcDbEntity
  8
0
100
AcDbLine
 62
2
  6
CONTINUOUS
 10
93.8494102814
 20
60.4941613789
 11
90.3215700114
 21
60.4941613789
  0
LINE
  5
30D
100
AcDbEntity
  8
0
100
AcDbLine
 62
2
  6
CONTINUOUS
 10
77.8651583129
 20
60.4941613789
 11
81.3929985828
 21
60.4941613789
  0
INSERT
  5
30E
100
AcDbEntity
  8
0
100
AcDbBlockReference
 62
2
  6
CONTINUOUS
  2
_FILLED
 10
93.8494102814
 20
60.4941613789
 41
2.34375
 42
2.34375
 43
2.34375
  0
INSERT
  5
30F
100
AcDbEntity
  8
0
100
AcDbBlockReference
 62
2
  6
CONTINUOUS
  2
_FILLED
 10
77.8651583129
 20
60.4941613789
 41
2.34375
 42
2.34375
 43
2.34375
 50
180.0
  0
ENDBLK
  5
310
100
AcDbEntity
  8
0
  6
BYBLOCK
 62
0
100
AcDbBlockEnd
  0
BLOCK
  5
311
100
AcDbEntity
  8
0
100
AcDbBlockBegin
 62
2
  6
CONTINUOUS
  2
*D10
 70
65
 10
0.0
 20
0.0
  3
*D10
  1

  0
MTEXT
  5
312
100
AcDbEntity
  8
0
100
AcDbMText
 62
2
  6
CONTINUOUS
  7
STANDARD
 71
1
 72
1
 10
93.4940277238
 20
99.93615916
 30
0.0
 11
1.0
 21
0.0
 31
0.0
 44
0.9
  1
144\P[5.7]
 40
1.953125
 41
5.7198660714
  0
LINE
  5
313
100
AcDbEntity
  8
0
100
AcDbLine
 62
2
  6
CONTINUOUS
 10
89.6368118562
 20
93.9673969297
 11
89.6368118562
 21
100.52209666
  0
LINE
  5
314
100
AcDbEntity
  8
0
100
AcDbLine
 62
2
  6
CONTINUOUS
 10
83.9675205176
 20
84.4247591344
 11
83.9675205176
 21
100.52209666
  0
LINE
  5
315
100
AcDbEntity
  8
0
100
AcDbLine
 62
2
  6
CONTINUOUS
 10
89.6368118562
 20
98.95959666
 11
86.8021661869
 21
98.95959666
  0
LINE
  5
316
100
AcDbEntity
  8
0
100
AcDbLine
 62
2
  6
CONTINUOUS
 10
86.8021661869
 20
98.95959666
 11
92.5174652238
 21
98.95959666
  0
LINE
  5
317
100
AcDbEntity
  8
0
100
AcDbLine
 62
2
  6
CONTINUOUS
 10
83.9675205176
 20
98.95959666
 11
86.8021661869
 21
98.95959666
  0
INSERT
  5
318
100
AcDbEntity
  8
0
100
AcDbBlockReference
 62
2
  6
CONTINUOUS
  2
_FILLED
 10
89.6368118562
 20
98.95959666
 41
2.34375
 42
2.34375
 43
2.34375
  0
INSERT
  5
319
100
AcDbEntity
  8
0
100
AcDbBlockReference
 62
2
  6
CONTINUOUS
  2
_FILLED
 10
83.9675205176
 20
98.95959666
 41
2.34375
 42
2.34375
 43
2.34375
 50
180.0
  0
ENDBLK
  5
31A
100
AcDbEntity
  8
0
  6
BYBLOCK
 62
0
100
AcDbBlockEnd
  0
BLOCK
  5
31B
100
AcDbEntity
  8
0
100
AcDbBlockBegin
 62
2
  6
CONTINUOUS
  2
*D11
 70
65
 10
0.0
 20
0.0
  3
*D11
  1

  0
MTEXT
  5
31C
100
AcDbEntity
  8
0
100
AcDbMText
 62
2
  6
CONTINUOUS
  7
STANDARD
 71
2
 72
1
 10
109.2975617717
 20
84.6729389727
 30
0.0
 11
1.0
 21
0.0
 31
0.0
 44
0.9
  1
400\P[15.8]
 40
1.953125
 41
6.8359375
  0
LINE
  5
31D
100
AcDbEntity
  8
0
100
AcDbLine
 62
2
  6
CONTINUOUS
 10
128.894580353
 20
73.9584697643
 11
108.8511332002
 21
73.9584697643
  0
LINE
  5
31E
100
AcDbEntity
  8
0
100
AcDbLine
 62
2
  6
CONTINUOUS
 10
133.768278801
 20
89.7143752762
 11
108.8511332002
 21
89.7143752762
  0
LINE
  5
31F
100
AcDbEntity
  8
0
100
AcDbLine
 62
2
  6
CONTINUOUS
 10
110.4136332002
 20
73.9584697643
 11
110.4136332002
 21
78.8135639727
  0
LINE
  5
320
100
AcDbEntity
  8
0
100
AcDbLine
 62
2
  6
CONTINUOUS
 10
110.4136332002
 20
89.7143752762
 11
110.4136332002
 21
85.6495014727
  0
INSERT
  5
321
100
AcDbEntity
  8
0
100
AcDbBlockReference
 62
2
  6
CONTINUOUS
  2
_FILLED
 10
110.4136332002
 20
73.9584697643
 41
2.34375
 42
2.34375
 43
2.34375
 50
270.0
  0
INSERT
  5
322
100
AcDbEntity
  8
0
100
AcDbBlockReference
 62
2
  6
CONTINUOUS
  2
_FILLED
 10
110.4136332002
 20
89.7143752762
 41
2.34375
 42
2.34375
 43
2.34375
 50
90.0
  0
ENDBLK
  5
323
100
AcDbEntity
  8
0
  6
BYBLOCK
 62
0
100
AcDbBlockEnd
  0
BLOCK
  5
324
100
AcDbEntity
  8
0
100
AcDbBlockBegin
 62
2
  6
CONTINUOUS
  2
*D12
 70
65
 10
0.0
 20
0.0
  3
*D12
  1

  0
MTEXT
  5
325
100
AcDbEntity
  8
0
100
AcDbMText
 62
2
  6
CONTINUOUS
  7
STANDARD
 71
3
 72
1
 10
120.6297548818
 20
70.8893483341
 30
0.0
 11
1.0
 21
0.0
 31
0.0
 44
0.9
  1
115\P[4.5]
 40
1.953125
 41
5.7198660714
  0
LINE
  5
326
100
AcDbEntity
  8
0
100
AcDbLine
 62
2
  6
CONTINUOUS
 10
134.2210347065
 20
85.5883910242
 11
123.8924939672
 21
85.5883910242
  0
LINE
  5
327
100
AcDbEntity
  8
0
100
AcDbLine
 62
2
  6
CONTINUOUS
 10
134.2210347065
 20
81.0608319691
 11
123.8924939672
 21
81.0608319691
  0
LINE
  5
328
100
AcDbEntity
  8
0
100
AcDbLine
 62
2
  6
CONTINUOUS
 10
125.4549939672
 20
85.5883910242
 11
125.4549939672
 21
91.8383910242
  0
LINE
  5
329
100
AcDbEntity
  8
0
100
AcDbLine
 62
2
  6
CONTINUOUS
 10
125.4549939672
 20
81.0608319691
 11
125.4549939672
 21
69.9127858341
  0
LINE
  5
32A
100
AcDbEntity
  8
0
100
AcDbLine
 62
2
  6
CONTINUOUS
 10
125.4549939672
 20
69.9127858341
 11
123.6989513104
 21
69.9127858341
  0
INSERT
  5
32B
100
AcDbEntity
  8
0
100
AcDbBlockReference
 62
2
  6
CONTINUOUS
  2
_FILLED
 10
125.4549939672
 20
85.5883910242
 41
2.34375
 42
2.34375
 43
2.34375
 50
270.0
  0
INSERT
  5
32C
100
AcDbEntity
  8
0
100
AcDbBlockReference
 62
2
  6
CONTINUOUS
  2
_FILLED
 10
125.4549939672
 20
81.0608319691
 41
2.34375
 42
2.34375
 43
2.34375
 50
90.0
  0
ENDBLK
  5
32D
100
AcDbEntity
  8
0
  6
BYBLOCK
 62
0
100
AcDbBlockEnd
  0
BLOCK
  5
32E
100
AcDbEntity
  8
0
100
AcDbBlockBegin
 62
2
  6
CONTINUOUS
  2
*D13
 70
65
 10
0.0
 20
0.0
  3
*D13
  1

  0
MTEXT
  5
32F
100
AcDbEntity
  8
0
100
AcDbMText
 62
2
  6
CONTINUOUS
  7
STANDARD
 71
3
 72
1
 10
125.7541352588
 20
101.6881133777
 30
0.0
 11
1.0
 21
0.0
 31
0.0
 44
0.9
  1
90\P[3.5]
 40
1.953125
 41
5.5803571429
  0
LINE
  5
330
100
AcDbEntity
  8
0
100
AcDbLine
 62
2
  6
CONTINUOUS
 10
133.2306311632
 20
84.1058614966
 11
133.2306311632
 21
102.2740508777
  0
LINE
  5
331
100
AcDbEntity
  8
0
100
AcDbLine
 62
2
  6
CONTINUOUS
 10
136.7739382498
 20
84.1058614966
 11
136.7739382498
 21
102.2740508777
  0
LINE
  5
332
100
AcDbEntity
  8
0
100
AcDbLine
 62
2
  6
CONTINUOUS
 10
133.2306311632
 20
100.7115508777
 11
129.2418584731
 21
100.7115508777
  0
LINE
  5
333
100
AcDbEntity
  8
0
100
AcDbLine
 62
2
  6
CONTINUOUS
 10
136.7739382498
 20
100.7115508777
 11
143.0239382498
 21
100.7115508777
  0
INSERT
  5
334
100
AcDbEntity
  8
0
100
AcDbBlockReference
 62
2
  6
CONTINUOUS
  2
_FILLED
 10
133.2306311632
 20
100.7115508777
 41
2.34375
 42
2.34375
 43
2.34375
  0
INSERT
  5
335
100
AcDbEntity
  8
0
100
AcDbBlockReference
 62
2
  6
CONTINUOUS
  2
_FILLED
 10
136.7739382498
 20
100.7115508777
 41
2.34375
 42
2.34375
 43
2.34375
 50
180.0
  0
ENDBLK
  5
336
100
AcDbEntity
  8
0
  6
BYBLOCK
 62
0
100
AcDbBlockEnd
  0
BLOCK
  5
337
100
AcDbEntity
  8
0
100
AcDbBlockBegin
 62
2
  6
CONTINUOUS
  2
*D14
 70
65
 10
0.0
 20
0.0
  3
*D14
  1

  0
MTEXT
  5
338
100
AcDbEntity
  8
0
100
AcDbMText
 62
2
  6
CONTINUOUS
  7
STANDARD
 71
1
 72
1
 10
144.0582196097
 20
64.2489922256
 30
0.0
 11
1.0
 21
0.0
 31
0.0
 44
0.9
  1
110\P[4.3]
 40
1.953125
 41
5.7198660714
  0
LINE
  5
339
100
AcDbEntity
  8
0
100
AcDbLine
 62
2
  6
CONTINUOUS
 10
132.8369303758
 20
79.905566221
 11
132.8369303758
 21
61.7099297256
  0
LINE
  5
33A
100
AcDbEntity
  8
0
100
AcDbLine
 62
2
  6
CONTINUOUS
 10
137.1676390372
 20
79.905566221
 11
137.1676390372
 21
61.7099297256
  0
LINE
  5
33B
100
AcDbEntity
  8
0
100
AcDbLine
 62
2
  6
CONTINUOUS
 10
132.8369303758
 20
63.2724297256
 11
126.5869303758
 21
63.2724297256
  0
LINE
  5
33C
100
AcDbEntity
  8
0
100
AcDbLine
 62
2
  6
CONTINUOUS
 10
137.1676390372
 20
63.2724297256
 11
143.0816571097
 21
63.2724297256
  0
INSERT
  5
33D
100
AcDbEntity
  8
0
100
AcDbBlockReference
 62
2
  6
CONTINUOUS
  2
_FILLED
 10
132.8369303758
 20
63.2724297256
 41
2.34375
 42
2.34375
 43
2.34375
  0
INSERT
  5
33E
100
AcDbEntity
  8
0
100
AcDbBlockReference
 62
2
  6
CONTINUOUS
  2
_FILLED
 10
137.1676390372
 20
63.2724297256
 41
2.34375
 42
2.34375
 43
2.34375
 50
180.0
  0
ENDBLK
  5
33F
100
AcDbEntity
  8
0
  6
BYBLOCK
 62
0
100
AcDbBlockEnd
  0
BLOCK
  5
340
100
AcDbEntity
  8
0
100
AcDbBlockBegin
 62
2
  6
CONTINUOUS
  2
*D15
 70
65
 10
0.0
 20
0.0
  3
*D15
  1

  0
MTEXT
  5
341
100
AcDbEntity
  8
0
100
AcDbMText
 62
2
  6
CONTINUOUS
  7
STANDARD
 71
1
 72
1
 10
159.2517497698
 20
78.3488758929
 30
0.0
 11
1.0
 21
0.0
 31
0.0
 44
0.9
  1
134\P[5.3]
 40
1.953125
 41
5.5803571429
  0
LINE
  5
342
100
AcDbEntity
  8
0
100
AcDbLine
 62
2
  6
CONTINUOUS
 10
137.9488890372
 20
80.686816221
 11
157.6892497698
 21
80.686816221
  0
LINE
  5
343
100
AcDbEntity
  8
0
100
AcDbLine
 62
2
  6
CONTINUOUS
 10
137.9488890372
 20
85.9624067722
 11
157.6892497698
 21
85.9624067722
  0
LINE
  5
344
100
AcDbEntity
  8
0
100
AcDbLine
 62
2
  6
CONTINUOUS
 10
156.1267497698
 20
80.686816221
 11
156.1267497698
 21
77.3723133929
  0
LINE
  5
345
100
AcDbEntity
  8
0
100
AcDbLine
 62
2
  6
CONTINUOUS
 10
156.1267497698
 20
77.3723133929
 11
158.2751872698
 21
77.3723133929
  0
LINE
  5
346
100
AcDbEntity
  8
0
100
AcDbLine
 62
2
  6
CONTINUOUS
 10
156.1267497698
 20
85.9624067722
 11
156.1267497698
 21
92.2124067722
  0
INSERT
  5
347
100
AcDbEntity
  8
0
100
AcDbBlockReference
 62
2
  6
CONTINUOUS
  2
_FILLED
 10
156.1267497698
 20
80.686816221
 41
2.34375
 42
2.34375
 43
2.34375
 50
90.0
  0
INSERT
  5
348
100
AcDbEntity
  8
0
100
AcDbBlockReference
 62
2
  6
CONTINUOUS
  2
_FILLED
 10
156.1267497698
 20
85.9624067722
 41
2.34375
 42
2.34375
 43
2.34375
 50
270.0
  0
ENDBLK
  5
349
100
AcDbEntity
  8
0
  6
BYBLOCK
 62
0
100
AcDbBlockEnd
  0
BLOCK
  5
34A
100
AcDbEntity
  8
0
100
AcDbBlockBegin
 62
2
  6
CONTINUOUS
  2
*D16
 70
65
 10
0.0
 20
0.0
  3
*D16
  1

  0
MTEXT
  5
34B
100
AcDbEntity
  8
0
100
AcDbMText
 62
2
  6
CONTINUOUS
  7
STANDARD
 71
2
 72
1
 10
53.6211984781
 20
115.7407304544
 30
0.0
 11
1.0
 21
0.0
 31
0.0
 44
0.9
  1
299\P[11.8]
 40
1.953125
 41
6.5569196429
  0
LINE
  5
34C
100
AcDbEntity
  8
0
100
AcDbLine
 62
2
  6
CONTINUOUS
 10
43.6151973922
 20
107.4354678136
 11
56.1602609781
 21
107.4354678136
  0
LINE
  5
34D
100
AcDbEntity
  8
0
100
AcDbLine
 62
2
  6
CONTINUOUS
 10
43.4650005418
 20
119.2071213569
 11
56.1602609781
 21
119.2071213569
  0
LINE
  5
34E
100
AcDbEntity
  8
0
100
AcDbLine
 62
2
  6
CONTINUOUS
 10
54.5977609781
 20
107.4354678136
 11
54.5977609781
 21
101.1854678136
  0
LINE
  5
34F
100
AcDbEntity
  8
0
100
AcDbLine
 62
2
  6
CONTINUOUS
 10
54.5977609781
 20
119.2071213569
 11
54.5977609781
 21
125.4571213569
  0
INSERT
  5
350
100
AcDbEntity
  8
0
100
AcDbBlockReference
 62
2
  6
CONTINUOUS
  2
_FILLED
 10
54.5977609781
 20
107.4354678136
 41
2.34375
 42
2.34375
 43
2.34375
 50
90.0
  0
INSERT
  5
351
100
AcDbEntity
  8
0
100
AcDbBlockReference
 62
2
  6
CONTINUOUS
  2
_FILLED
 10
54.5977609781
 20
119.2071213569
 41
2.34375
 42
2.34375
 43
2.34375
 50
270.0
  0
ENDBLK
  5
352
100
AcDbEntity
  8
0
  6
BYBLOCK
 62
0
100
AcDbBlockEnd
  0
BLOCK
  5
353
100
AcDbEntity
  8
0
100
AcDbBlockBegin
 62
2
  6
CONTINUOUS
  2
*D17
 70
65
 10
0.0
 20
0.0
  3
*D17
  1

  0
MTEXT
  5
354
100
AcDbEntity
  8
0
100
AcDbMText
 62
2
  6
CONTINUOUS
  7
STANDARD
 71
2
 72
1
 10
117.6847532203
 20
83.8279310261
 30
0.0
 11
1.0
 21
0.0
 31
0.0
 44
0.9
  1
363\P[14.3]
 40
1.953125
 41
6.8359375
  0
LINE
  5
355
100
AcDbEntity
  8
0
100
AcDbLine
 62
2
  6
CONTINUOUS
 10
128.894580353
 20
73.9584697643
 11
117.3778335774
 21
73.9584697643
  0
LINE
  5
356
100
AcDbEntity
  8
0
100
AcDbLine
 62
2
  6
CONTINUOUS
 10
133.1580425805
 20
88.249808347
 11
117.3778335774
 21
88.249808347
  0
LINE
  5
357
100
AcDbEntity
  8
0
100
AcDbLine
 62
2
  6
CONTINUOUS
 10
118.9403335774
 20
73.9584697643
 11
118.9403335774
 21
77.9685560261
  0
LINE
  5
358
100
AcDbEntity
  8
0
100
AcDbLine
 62
2
  6
CONTINUOUS
 10
118.9403335774
 20
88.249808347
 11
118.9403335774
 21
84.8044935261
  0
INSERT
  5
359
100
AcDbEntity
  8
0
100
AcDbBlockReference
 62
2
  6
CONTINUOUS
  2
_FILLED
 10
118.9403335774
 20
73.9584697643
 41
2.34375
 42
2.34375
 43
2.34375
 50
270.0
  0
INSERT
  5
35A
100
AcDbEntity
  8
0
100
AcDbBlockReference
 62
2
  6
CONTINUOUS
  2
_FILLED
 10
118.9403335774
 20
88.249808347
 41
2.34375
 42
2.34375
 43
2.34375
 50
90.0
  0
ENDBLK
  5
35B
100
AcDbEntity
  8
0
  6
BYBLOCK
 62
0
100
AcDbBlockEnd
  0
BLOCK
  5
35C
100
AcDbEntity
  8
0
100
AcDbBlockBegin
 62
2
  6
CONTINUOUS
  2
*D18
 70
65
 10
0.0
 20
0.0
  3
*D18
  1

  0
MTEXT
  5
35D
100
AcDbEntity
  8
0
100
AcDbMText
 62
2
  6
CONTINUOUS
  7
STANDARD
 71
1
 72
1
 10
149.7284264573
 20
98.610224344
 30
0.0
 11
1.0
 21
0.0
 31
0.0
 44
0.9
  1
54\P[2.1]
 40
1.953125
 41
5.4408482143
  0
LINE
  5
35E
100
AcDbEntity
  8
0
100
AcDbLine
 62
2
  6
CONTINUOUS
 10
136.8465268325
 20
88.249808347
 11
148.1659264573
 21
88.249808347
  0
LINE
  5
35F
100
AcDbEntity
  8
0
100
AcDbLine
 62
2
  6
CONTINUOUS
 10
136.8465268325
 20
90.375792599
 11
148.1659264573
 21
90.375792599
  0
LINE
  5
360
100
AcDbEntity
  8
0
100
AcDbLine
 62
2
  6
CONTINUOUS
 10
146.6034264573
 20
88.249808347
 11
146.6034264573
 21
81.999808347
  0
LINE
  5
361
100
AcDbEntity
  8
0
100
AcDbLine
 62
2
  6
CONTINUOUS
 10
146.6034264573
 20
90.375792599
 11
146.6034264573
 21
97.633661844
  0
LINE
  5
362
100
AcDbEntity
  8
0
100
AcDbLine
 62
2
  6
CONTINUOUS
 10
146.6034264573
 20
97.633661844
 11
148.7518639573
 21
97.633661844
  0
INSERT
  5
363
100
AcDbEntity
  8
0
100
AcDbBlockReference
 62
2
  6
CONTINUOUS
  2
_FILLED
 10
146.6034264573
 20
88.249808347
 41
2.34375
 42
2.34375
 43
2.34375
 50
90.0
  0
INSERT
  5
364
100
AcDbEntity
  8
0
100
AcDbBlockReference
 62
2
  6
CONTINUOUS
  2
_FILLED
 10
146.6034264573
 20
90.375792599
 41
2.34375
 42
2.34375
 43
2.34375
 50
270.0
  0
ENDBLK
  5
365
100
AcDbEntity
  8
0
  6
BYBLOCK
 62
0
100
AcDbBlockEnd
  0
BLOCK
  5
366
100
AcDbEntity
  8
0
100
AcDbBlockBegin
 62
2
  6
CONTINUOUS
  2
*D19
 70
65
 10
0.0
 20
0.0
  3
*D19
  1

  0
MTEXT
  5
367
100
AcDbEntity
  8
0
100
AcDbMText
 62
2
  6
CONTINUOUS
  7
STANDARD
 71
1
 72
1
 10
141.0870608415
 20
109.9052608319
 30
0.0
 11
1.0
 21
0.0
 31
0.0
 44
0.9
  1
54\P[2.1]
 40
1.953125
 41
5.4408482143
  0
LINE
  5
368
100
AcDbEntity
  8
0
100
AcDbLine
 62
2
  6
CONTINUOUS
 10
136.0652768325
 20
91.157042599
 11
136.0652768325
 21
110.4911983319
  0
LINE
  5
369
100
AcDbEntity
  8
0
100
AcDbLine
 62
2
  6
CONTINUOUS
 10
133.9392925805
 20
91.157042599
 11
133.9392925805
 21
110.4911983319
  0
LINE
  5
36A
100
AcDbEntity
  8
0
100
AcDbLine
 62
2
  6
CONTINUOUS
 10
136.0652768325
 20
108.9286983319
 11
140.1104983415
 21
108.9286983319
  0
LINE
  5
36B
100
AcDbEntity
  8
0
100
AcDbLine
 62
2
  6
CONTINUOUS
 10
133.9392925805
 20
108.9286983319
 11
127.6892925805
 21
108.9286983319
  0
INSERT
  5
36C
100
AcDbEntity
  8
0
100
AcDbBlockReference
 62
2
  6
CONTINUOUS
  2
_FILLED
 10
136.0652768325
 20
108.9286983319
 41
2.34375
 42
2.34375
 43
2.34375
 50
180.0
  0
INSERT
  5
36D
100
AcDbEntity
  8
0
100
AcDbBlockReference
 62
2
  6
CONTINUOUS
  2
_FILLED
 10
133.9392925805
 20
108.9286983319
 41
2.34375
 42
2.34375
 43
2.34375
  0
ENDBLK
  5
36E
100
AcDbEntity
  8
0
  6
BYBLOCK
 62
0
100
AcDbBlockEnd
  0
ENDSEC
  0
SECTION
  2
ENTITIES
  0
MTEXT
  5
36F
100
AcDbEntity
  8
0
100
AcDbMText
 62
2
  6
CONTINUOUS
  7
STANDARD
 71
1
 72
1
 10
30.888038886
 20
5.0390478303
 30
0.0
 11
1.0
 21
0.0
 31
0.0
 44
0.9
  1
4
 40
1.953125
 41
1.5345982143
  0
MTEXT
  5
370
100
AcDbEntity
  8
0
100
AcDbMText
 62
2
  6
CONTINUOUS
  7
STANDARD
 71
1
 72
1
 10
79.3019347615
 20
5.02991051
 30
0.0
 11
1.0
 21
0.0
 31
0.0
 44
0.9
  1
3
 40
1.953125
 41
1.3950892857
  0
MTEXT
  5
371
100
AcDbEntity
  8
0
100
AcDbMText
 62
2
  6
CONTINUOUS
  7
STANDARD
 71
1
 72
1
 10
127.6037107944
 20
5.0340675122
 30
0.0
 11
1.0
 21
0.0
 31
0.0
 44
0.9
  1
2
 40
1.953125
 41
1.5345982143
  0
MTEXT
  5
372
100
AcDbEntity
  8
0
100
AcDbMText
 62
2
  6
CONTINUOUS
  7
STANDARD
 71
1
 72
1
 10
175.996228656
 20
5.0342770788
 30
0.0
 11
1.0
 21
0.0
 31
0.0
 44
0.9
  1
1
 40
1.953125
 41
1.1160714286
  0
MTEXT
  5
373
100
AcDbEntity
  8
0
100
AcDbMText
 62
2
  6
CONTINUOUS
  7
STANDARD
 71
1
 72
1
 10
30.8949608921
 20
135.8694811929
 30
0.0
 11
1.0
 21
0.0
 31
0.0
 44
0.9
  1
4
 40
1.953125
 41
1.5345982143
  0
MTEXT
  5
374
100
AcDbEntity
  8
0
100
AcDbMText
 62
2
  6
CONTINUOUS
  7
STANDARD
 71
1
 72
1
 10
79.2828191668
 20
135.8549628959
 30
0.0
 11
1.0
 21
0.0
 31
0.0
 44
0.9
  1
3
 40
1.953125
 41
1.3950892857
  0
MTEXT
  5
375
100
AcDbEntity
  8
0
100
AcDbMText
 62
2
  6
CONTINUOUS
  7
STANDARD
 71
1
 72
1
 10
127.6266483605
 20
135.8525080597
 30
0.0
 11
1.0
 21
0.0
 31
0.0
 44
0.9
  1
2
 40
1.953125
 41
1.5345982143
  0
MTEXT
  5
376
100
AcDbEntity
  8
0
100
AcDbMText
 62
2
  6
CONTINUOUS
  7
STANDARD
 71
1
 72
1
 10
175.998400312
 20
135.854268419
 30
0.0
 11
1.0
 21
0.0
 31
0.0
 44
0.9
  1
1
 40
1.953125
 41
1.1160714286
  0
MTEXT
  5
377
100
AcDbEntity
  8
0
100
AcDbMText
 62
2
  6
CONTINUOUS
  7
STANDARD
 71
1
 72
1
 10
3.178352082
 20
23.2412038652
 30
0.0
 11
1.0
 21
0.0
 31
0.0
 44
0.9
  1
A
 40
1.953125
 41
1.6741071429
  0
MTEXT
  5
378
100
AcDbEntity
  8
0
100
AcDbMText
 62
2
  6
CONTINUOUS
  7
STANDARD
 71
1
 72
1
 10
3.2468403836
 20
54.5033826534
 30
0.0
 11
1.0
 21
0.0
 31
0.0
 44
0.9
  1
B
 40
1.953125
 41
1.5345982143
  0
MTEXT
  5
379
100
AcDbEntity
  8
0
100
AcDbMText
 62
2
  6
CONTINUOUS
  7
STANDARD
 71
1
 72
1
 10
3.2287382073
 20
85.7237507931
 30
0.0
 11
1.0
 21
0.0
 31
0.0
 44
0.9
  1
C
 40
1.953125
 41
1.6276041667
  0
MTEXT
  5
37A
100
AcDbEntity
  8
0
100
AcDbMText
 62
2
  6
CONTINUOUS
  7
STANDARD
 71
1
 72
1
 10
3.2548970568
 20
117.0263462447
 30
0.0
 11
1.0
 21
0.0
 31
0.0
 44
0.9
  1
D
 40
1.953125
 41
1.7671130952
  0
MTEXT
  5
37B
100
AcDbEntity
  8
0
100
AcDbMText
 62
2
  6
CONTINUOUS
  7
STANDARD
 71
1
 72
1
 10
203.1299852552
 20
23.2374398703
 30
0.0
 11
1.0
 21
0.0
 31
0.0
 44
0.9
  1
A
 40
1.953125
 41
1.6741071429
  0
MTEXT
  5
37C
100
AcDbEntity
  8
0
100
AcDbMText
 62
2
  6
CONTINUOUS
  7
STANDARD
 71
1
 72
1
 10
203.1183357624
 20
54.4991642729
 30
0.0
 11
1.0
 21
0.0
 31
0.0
 44
0.9
  1
B
 40
1.953125
 41
1.5345982143
  0
MTEXT
  5
37D
100
AcDbEntity
  8
0
100
AcDbMText
 62
2
  6
CONTINUOUS
  7
STANDARD
 71
1
 72
1
 10
203.1131626032
 20
85.7168970021
 30
0.0
 11
1.0
 21
0.0
 31
0.0
 44
0.9
  1
C
 40
1.953125
 41
1.6276041667
  0
MTEXT
  5
37E
100
AcDbEntity
  8
0
100
AcDbMText
 62
2
  6
CONTINUOUS
  7
STANDARD
 71
1
 72
1
 10
203.1179347973
 20
117.0227351345
 30
0.0
 11
1.0
 21
0.0
 31
0.0
 44
0.9
  1
D
 40
1.953125
 41
1.7671130952
  0
MTEXT
  5
37F
100
AcDbEntity
  8
0
100
AcDbMText
 62
5
  6
CONTINUOUS
  7
STANDARD
 71
1
 72
1
 10
6.8030669516
 20
130.7809027514
 30
0.0
 11
1.0
 21
0.0
 31
0.0
 44
0.9
  1
THIS DOCUMENT CONTAINS PROPRIETARY INFORMATION\PWHICH IS THE PROPERTY OF QSC AUDIO PRODUCTS, THAT\PMAY NOT BE DISCLOSED, REPRODUCED OR USED WITHOUT\PEXPRESS WRITTEN CONSENT FROM QSC AUDIO PRODUCTS.
 40
0.9375
 41
36.7857142857
  0
MTEXT
  5
380
100
AcDbEntity
  8
0
100
AcDbMText
 62
2
  6
CONTINUOUS
  7
STANDARD
 71
2
 72
1
 10
90.4368409897
 20
32.3998187327
 30
0.0
 11
1.0
 21
0.0
 31
0.0
 44
0.9
  1
TOLERANCES ARE:
 40
1.125
 41
12.8839285714
  0
MTEXT
  5
381
100
AcDbEntity
  8
0
100
AcDbMText
 62
2
  6
CONTINUOUS
  7
STANDARD
 71
2
 72
1
 10
101.6162124298
 20
29.5312586829
 30
0.0
 11
1.0
 21
0.0
 31
0.0
 44
0.9
  1
ANGLES\P\Fgdt;{\Fgdt;`}\Ftxt; 1/2
 40
1.125
 41
5.3571428571
  0
MTEXT
  5
382
100
AcDbEntity
  8
0
100
AcDbMText
 62
2
  6
CONTINUOUS
  7
STANDARD
 71
2
 72
1
 10
80.7365560101
 20
21.0777489696
 30
0.0
 11
1.0
 21
0.0
 31
0.0
 44
0.9
  1
MATERIAL
 40
1.125
 41
7.2053571429
  0
MTEXT
  5
383
100
AcDbEntity
  8
0
100
AcDbMText
 62
2
  6
CONTINUOUS
  7
STANDARD
 71
2
 72
1
 10
79.5392464504
 20
13.4643328368
 30
0.0
 11
1.0
 21
0.0
 31
0.0
 44
0.9
  1
FINISH
 40
1.125
 41
5.1160714286
  0
MTEXT
  5
384
100
AcDbEntity
  8
0
100
AcDbMText
 62
2
  6
CONTINUOUS
  7
STANDARD
 71
2
 72
1
 10
165.8724039349
 20
8.5112820217
 30
0.0
 11
1.0
 21
0.0
 31
0.0
 44
0.9
  1
DO NOT SCALE DRAWING
 40
1.5625
 41
25.9672619048
  0
MTEXT
  5
385
100
AcDbEntity
  8
0
100
AcDbMText
 62
2
  6
CONTINUOUS
  7
STANDARD
 71
2
 72
1
 10
107.7993349302
 20
33.9708321072
 30
0.0
 11
1.0
 21
0.0
 31
0.0
 44
0.9
  1
DRAWN
 40
1.125
 41
5.4910714286
  0
MTEXT
  5
386
100
AcDbEntity
  8
0
100
AcDbMText
 62
2
  6
CONTINUOUS
  7
STANDARD
 71
2
 72
1
 10
108.2383859815
 20
28.4300686801
 30
0.0
 11
1.0
 21
0.0
 31
0.0
 44
0.9
  1
CHECKED
 40
1.125
 41
6.4821428571
  0
MTEXT
  5
387
100
AcDbEntity
  8
0
100
AcDbMText
 62
2
  6
CONTINUOUS
  7
STANDARD
 71
2
 72
1
 10
108.160814079
 20
22.9763655565
 30
0.0
 11
1.0
 21
0.0
 31
0.0
 44
0.9
  1
MFG ENG
 40
1.125
 41
6.3214285714
  0
MTEXT
  5
388
100
AcDbEntity
  8
0
100
AcDbMText
 62
2
  6
CONTINUOUS
  7
STANDARD
 71
2
 72
1
 10
108.7247835317
 20
17.4848043349
 30
0.0
 11
1.0
 21
0.0
 31
0.0
 44
0.9
  1
QA CHECK
 40
1.125
 41
7.4732142857
  0
MTEXT
  5
389
100
AcDbEntity
  8
0
100
AcDbMText
 62
2
  6
CONTINUOUS
  7
STANDARD
 71
2
 72
1
 10
111.9565437546
 20
8.4500308607
 30
0.0
 11
1.0
 21
0.0
 31
0.0
 44
0.9
  1
MODEL INFO:
 40
1.125
 41
9.1875
  0
MTEXT
  5
38A
100
AcDbEntity
  8
0
100
AcDbMText
 62
2
  6
CONTINUOUS
  7
STANDARD
 71
2
 72
1
 10
110.7981361661
 20
11.4795130188
 30
0.0
 11
1.0
 21
0.0
 31
0.0
 44
0.9
  1
DRAWING INFO:
 40
1.125
 41
11.6785714286
  0
MTEXT
  5
38B
100
AcDbEntity
  8
0
100
AcDbMText
 62
2
  6
CONTINUOUS
  7
STANDARD
 71
2
 72
1
 10
115.5165405697
 20
36.953165809
 30
0.0
 11
1.0
 21
0.0
 31
0.0
 44
0.9
  1
APPROVALS
 40
1.125
 41
8.2232142857
  0
MTEXT
  5
38C
100
AcDbEntity
  8
0
100
AcDbMText
 62
2
  6
CONTINUOUS
  7
STANDARD
 71
2
 72
1
 10
131.8007830567
 20
37.9394688141
 30
0.0
 11
1.0
 21
0.0
 31
0.0
 44
0.9
  1
DATE\P(DD-MMM-YY)
 40
1.125
 41
9.4285714286
  0
MTEXT
  5
38D
100
AcDbEntity
  8
0
100
AcDbMText
 62
2
  6
CONTINUOUS
  7
STANDARD
 71
2
 72
1
 10
140.4920572673
 20
8.3377541278
 30
0.0
 11
1.0
 21
0.0
 31
0.0
 44
0.9
  1
SCALE:
 40
1.125
 41
4.9285714286
  0
MTEXT
  5
38E
100
AcDbEntity
  8
0
100
AcDbMText
 62
2
  6
CONTINUOUS
  7
STANDARD
 71
2
 72
1
 10
182.7030341786
 20
8.3585110814
 30
0.0
 11
1.0
 21
0.0
 31
0.0
 44
0.9
  1
SHEET
 40
1.125
 41
4.5535714286
  0
MTEXT
  5
38F
100
AcDbEntity
  8
0
100
AcDbMText
 62
2
  6
CONTINUOUS
  7
STANDARD
 71
2
 72
1
 10
140.5247431347
 20
15.1291208415
 30
0.0
 11
1.0
 21
0.0
 31
0.0
 44
0.9
  1
SIZE
 40
1.125
 41
3.5089285714
  0
MTEXT
  5
390
100
AcDbEntity
  8
0
100
AcDbMText
 62
2
  6
CONTINUOUS
  7
STANDARD
 71
2
 72
1
 10
149.7962201084
 20
15.1427055389
 30
0.0
 11
1.0
 21
0.0
 31
0.0
 44
0.9
  1
CAGE CODE
 40
1.125
 41
8.3303571429
  0
MTEXT
  5
391
100
AcDbEntity
  8
0
100
AcDbMText
 62
2
  6
CONTINUOUS
  7
STANDARD
 71
2
 72
1
 10
161.7618718504
 20
15.1166620715
 30
0.0
 11
1.0
 21
0.0
 31
0.0
 44
0.9
  1
DRAWING NO.
 40
1.125
 41
10.3928571429
  0
MTEXT
  5
392
100
AcDbEntity
  8
0
100
AcDbMText
 62
2
  6
CONTINUOUS
  7
STANDARD
 71
2
 72
1
 10
197.026658243
 20
15.1334238335
 30
0.0
 11
1.0
 21
0.0
 31
0.0
 44
0.9
  1
REV
 40
1.125
 41
2.8392857143
  0
MTEXT
  5
393
100
AcDbEntity
  8
0
100
AcDbMText
 62
2
  6
CONTINUOUS
  7
STANDARD
 71
2
 72
1
 10
179.1762020397
 20
37.3412304273
 30
0.0
 11
1.0
 21
0.0
 31
0.0
 44
0.9
  1
QSC AUDIO PRODUCTS, LLC
 40
1.953125
 41
35.5747767857
  0
MTEXT
  5
394
100
AcDbEntity
  8
0
100
AcDbMText
 62
2
  6
CONTINUOUS
  7
STANDARD
 71
1
 72
1
 10
161.4016551726
 20
34.4286270486
 30
0.0
 11
1.0
 21
0.0
 31
0.0
 44
0.9
  1
1675  MACARTHUR BOULEVARD\PCOSTA MESA, CA  92626
 40
1.5625
 41
31.1011904762
  0
MTEXT
  5
395
100
AcDbEntity
  8
0
100
AcDbMText
 62
2
  6
CONTINUOUS
  7
STANDARD
 71
1
 72
1
 10
145.3763561114
 20
12.4534561472
 30
0.0
 11
1.0
 21
0.0
 31
0.0
 44
0.9
  1
00PW4
 40
1.953125
 41
9.1610863095
  0
MTEXT
  5
396
100
AcDbEntity
  8
0
100
AcDbMText
 62
2
  6
CONTINUOUS
  7
STANDARD
 71
2
 72
1
 10
90.6883609643
 20
37.1472804356
 30
0.0
 11
1.0
 21
0.0
 31
0.0
 44
0.9
  1
UNLESS OTHERWISE SPECIFIED\PDIMENSIONS IN MILLIMETERS [IN]
 40
1.25
 41
27.380952381
  0
MTEXT
  5
397
100
AcDbEntity
  8
0
100
AcDbMText
 62
2
  6
CONTINUOUS
  7
STANDARD
 71
2
 72
1
 10
81.605347058
 20
29.5489401787
 30
0.0
 11
1.0
 21
0.0
 31
0.0
 44
0.9
  1
DECIMALS\P.X\Fgdt;{\Fgdt;`}\Ftxt;.5[.02]
 40
1.125
 41
7.7410714286
  0
MTEXT
  5
398
100
AcDbEntity
  8
0
100
AcDbMText
 62
2
  6
CONTINUOUS
  7
STANDARD
 71
2
 72
1
 10
92.5101098472
 20
29.5549289194
 30
0.0
 11
1.0
 21
0.0
 31
0.0
 44
0.9
  1
DECIMALS\P.XX\Fgdt;{\Fgdt;`}\Ftxt;.25[.010]
 40
1.125
 41
10.2321428571
  0
MTEXT
  5
399
100
AcDbEntity
  8
0
100
AcDbMText
 62
2
  6
CONTINUOUS
  7
STANDARD
 71
2
 72
1
 10
90.5071406127
 20
24.6445477075
 30
0.0
 11
1.0
 21
0.0
 31
0.0
 44
0.9
  1
DEBURR EDGES .25 [.010] R MAX
 40
1.125
 41
24.5089285714
  0
INSERT
  5
39A
100
AcDbEntity
  8
0
100
AcDbBlockReference
 62
7
  6
CONTINUOUS
  2
SYMBOL_0_BL0
 10
148.6102537351
 20
33.7638833147
  0
DIMENSION
  5
39B
100
AcDbEntity
  8
0
100
AcDbDimension
 62
2
  6
CONTINUOUS
  2
*D0
 10
27.9385755148
 20
113.5378300183
 11
19.4496660966
 21
110.2150661128
 70
160
 71
3
 42
144.0
  3
DIMSTYLE_1
100
AcDbAlignedDimension
 13
34.2544296757
 23
119.2071213569
 14
38.0784651088
 24
113.5378300183
 50
270.0
100
AcDbRotatedDimension
  0
DIMENSION
  5
39C
100
AcDbEntity
  8
0
100
AcDbDimension
 62
2
  6
CONTINUOUS
  2
*D1
 10
45.1673425083
 20
105.1042380988
 11
39.5259607485
 21
103.6393943488
 70
160
 71
2
 42
321.0605507177
  3
DIMSTYLE_1
100
AcDbAlignedDimension
 13
32.5271633462
 23
108.8040668953
 14
45.1673425083
 24
109.7747883037
100
AcDbRotatedDimension
  0
DIMENSION
  5
39D
100
AcDbEntity
  8
0
100
AcDbDimension
 62
2
  6
CONTINUOUS
  2
*D2
 10
51.6553867108
 20
73.9584697643
 11
50.4346835858
 21
84.4842860528
 70
160
 71
2
 42
516.0
  3
DIMSTYLE_1
100
AcDbAlignedDimension
 13
43.6151973922
 23
94.2734303943
 14
43.6151973922
 24
73.9584697643
 50
270.0
100
AcDbRotatedDimension
  0
DIMENSION
  5
39E
100
AcDbEntity
  8
0
100
AcDbDimension
 62
2
  6
CONTINUOUS
  2
*D3
 10
43.3675891245
 20
67.5148535092
 11
26.4778366921
 21
66.0500097592
 70
160
 71
3
 42
229.0
  3
DIMSTYLE_1
100
AcDbAlignedDimension
 13
34.351841093
 23
59.3680792428
 14
43.3675891245
 24
59.3680792428
100
AcDbRotatedDimension
  0
DIMENSION
  5
39F
100
AcDbEntity
  8
0
100
AcDbDimension
 62
2
  6
CONTINUOUS
  2
*D4
 10
26.60680626
 20
56.2246245184
 11
32.5917392957
 21
44.4137029149
 70
160
 71
1
 42
144.0
  3
DIMSTYLE_1
100
AcDbAlignedDimension
 13
34.2544296757
 23
50.5553331798
 14
38.0784651088
 24
56.2246245184
 50
90.0
100
AcDbRotatedDimension
  0
DIMENSION
  5
3A0
100
AcDbEntity
  8
0
100
AcDbDimension
 62
2
  6
CONTINUOUS
  2
*D5
 10
20.3020217439
 20
58.5868292428
 11
18.9418096903
 21
54.8209655719
 70
160
 71
2
 42
204.0
  3
DIMSTYLE_1
100
AcDbAlignedDimension
 13
34.2544296757
 23
50.5553331798
 14
33.570591093
 24
58.5868292428
 50
90.0
100
AcDbRotatedDimension
  0
DIMENSION
  5
3A1
100
AcDbEntity
  8
0
100
AcDbDimension
 62
2
  6
CONTINUOUS
  2
*D6
 10
71.8973674236
 20
83.6435091344
 11
70.53715537
 21
79.0859263259
 70
160
 71
2
 42
246.0
  3
DIMSTYLE_1
100
AcDbAlignedDimension
 13
77.0839083129
 23
73.9584697643
 14
83.1862705176
 24
83.6435091344
 50
90.0
100
AcDbRotatedDimension
  0
DIMENSION
  5
3A2
100
AcDbEntity
  8
0
100
AcDbDimension
 62
2
  6
CONTINUOUS
  2
*D7
 10
93.8494102814
 20
71.5949648631
 11
102.2666019541
 21
70.1301211131
 70
160
 71
1
 42
107.0
  3
DIMSTYLE_1
100
AcDbAlignedDimension
 13
89.6368118562
 23
74.2645032289
 14
93.8494102814
 24
79.905566221
100
AcDbRotatedDimension
  0
DIMENSION
  5
3A3
100
AcDbEntity
  8
0
100
AcDbDimension
 62
2
  6
CONTINUOUS
  2
*D8
 10
83.9675205176
 20
65.2685206234
 11
110.7213889565
 21
63.8036768734
 70
160
 71
1
 42
251.0
  3
DIMSTYLE_1
100
AcDbAlignedDimension
 13
93.8494102814
 23
79.905566221
 14
83.9675205176
 24
82.8622591344
 50
180.0
100
AcDbRotatedDimension
  0
DIMENSION
  5
3A4
100
AcDbEntity
  8
0
100
AcDbDimension
 62
2
  6
CONTINUOUS
  2
*D9
 10
77.8651583129
 20
60.4941613789
 11
84.4970722436
 21
59.0293176289
 70
160
 71
2
 42
406.0
  3
DIMSTYLE_1
100
AcDbAlignedDimension
 13
93.8494102814
 23
79.905566221
 14
77.8651583129
 24
73.1772197643
 50
180.0
100
AcDbRotatedDimension
  0
DIMENSION
  5
3A5
100
AcDbEntity
  8
0
100
AcDbDimension
 62
2
  6
CONTINUOUS
  2
*D10
 10
83.9675205176
 20
98.95959666
 11
96.3539607595
 21
97.49475291
 70
160
 71
1
 42
144.0
  3
DIMSTYLE_1
100
AcDbAlignedDimension
 13
89.6368118562
 23
93.9673969297
 14
83.9675205176
 24
84.4247591344
 50
180.0
100
AcDbRotatedDimension
  0
DIMENSION
  5
3A6
100
AcDbEntity
  8
0
100
AcDbDimension
 62
2
  6
CONTINUOUS
  2
*D11
 10
110.4136332002
 20
89.7143752762
 11
109.0534211467
 21
82.2315327227
 70
160
 71
2
 42
400.2
  3
DIMSTYLE_1
100
AcDbAlignedDimension
 13
128.894580353
 23
73.9584697643
 14
133.768278801
 24
89.7143752762
 50
90.0
100
AcDbRotatedDimension
  0
DIMENSION
  5
3A7
100
AcDbEntity
  8
0
100
AcDbDimension
 62
2
  6
CONTINUOUS
  2
*D12
 10
125.4549939672
 20
81.0608319691
 11
117.6303129175
 21
68.4479420841
 70
160
 71
3
 42
115.0
  3
DIMSTYLE_1
100
AcDbAlignedDimension
 13
134.2210347065
 23
85.5883910242
 14
134.2210347065
 24
81.0608319691
 50
270.0
100
AcDbRotatedDimension
  0
DIMENSION
  5
3A8
100
AcDbEntity
  8
0
100
AcDbDimension
 62
2
  6
CONTINUOUS
  2
*D13
 10
136.7739382498
 20
100.7115508777
 11
123.5219924017
 21
99.2467071277
 70
160
 71
3
 42
90.0
  3
DIMSTYLE_1
100
AcDbAlignedDimension
 13
133.2306311632
 23
84.1058614966
 14
136.7739382498
 24
84.1058614966
100
AcDbRotatedDimension
  0
DIMENSION
  5
3A9
100
AcDbEntity
  8
0
100
AcDbDimension
 62
2
  6
CONTINUOUS
  2
*D14
 10
137.1676390372
 20
63.2724297256
 11
146.9181526454
 21
61.8075859756
 70
160
 71
1
 42
110.0
  3
DIMSTYLE_1
100
AcDbAlignedDimension
 13
132.8369303758
 23
79.905566221
 14
137.1676390372
 24
79.905566221
100
AcDbRotatedDimension
  0
DIMENSION
  5
3AA
100
AcDbEntity
  8
0
100
AcDbDimension
 62
2
  6
CONTINUOUS
  2
*D15
 10
156.1267497698
 20
85.9624067722
 11
162.0419283412
 21
75.9074696429
 70
160
 71
1
 42
134.0
  3
DIMSTYLE_1
100
AcDbAlignedDimension
 13
137.9488890372
 23
80.686816221
 14
137.9488890372
 24
85.9624067722
 50
90.0
100
AcDbRotatedDimension
  0
DIMENSION
  5
3AB
100
AcDbEntity
  8
0
100
AcDbDimension
 62
2
  6
CONTINUOUS
  2
*D16
 10
54.5977609781
 20
119.2071213569
 11
53.2375489245
 21
113.2993242044
 70
160
 71
2
 42
299.0
  3
DIMSTYLE_1
100
AcDbAlignedDimension
 13
43.6151973922
 23
107.4354678136
 14
43.4650005418
 24
119.2071213569
 50
90.0
100
AcDbRotatedDimension
  0
DIMENSION
  5
3AC
100
AcDbEntity
  8
0
100
AcDbDimension
 62
2
  6
CONTINUOUS
  2
*D17
 10
118.9403335774
 20
88.249808347
 11
117.6498759882
 21
81.3865247761
 70
160
 71
2
 42
363.0
  3
DIMSTYLE_1
100
AcDbAlignedDimension
 13
128.894580353
 23
73.9584697643
 14
133.1580425805
 24
88.249808347
 50
90.0
100
AcDbRotatedDimension
  0
DIMENSION
  5
3AD
100
AcDbEntity
  8
0
100
AcDbDimension
 62
2
  6
CONTINUOUS
  2
*D18
 10
146.6034264573
 20
90.375792599
 11
152.4488505644
 21
96.168818094
 70
160
 71
1
 42
54.0
  3
DIMSTYLE_1
100
AcDbAlignedDimension
 13
136.8465268325
 23
88.249808347
 14
136.8465268325
 24
90.375792599
 50
90.0
100
AcDbRotatedDimension
  0
DIMENSION
  5
3AE
100
AcDbEntity
  8
0
100
AcDbDimension
 62
2
  6
CONTINUOUS
  2
*D19
 10
133.9392925805
 20
108.9286983319
 11
143.8074849486
 21
107.4638545819
 70
160
 71
1
 42
54.0
  3
DIMSTYLE_1
100
AcDbAlignedDimension
 13
136.0652768325
 23
91.157042599
 14
133.9392925805
 24
91.157042599
 50
180.0
100
AcDbRotatedDimension
  0
LINE
  5
3AF
100
AcDbEntity
  8
0
100
AcDbLine
 62
2
  6
CONTINUOUS
 10
76.5625
 20
21.875
 11
104.6875
 21
21.875
  0
LINE
  5
3B0
100
AcDbEntity
  8
0
100
AcDbLine
 62
2
  6
CONTINUOUS
 10
76.5625
 20
21.875
 11
76.5625
 21
14.0625
  0
LINE
  5
3B1
100
AcDbEntity
  8
0
100
AcDbLine
 62
2
  6
CONTINUOUS
 10
76.5625
 20
14.0625
 11
104.6875
 21
14.0625
  0
LINE
  5
3B2
100
AcDbEntity
  8
0
100
AcDbLine
 62
2
  6
CONTINUOUS
 10
104.6875
 20
21.875
 11
104.6875
 21
14.0625
  0
LINE
  5
3B3
100
AcDbEntity
  8
0
100
AcDbLine
 62
2
  6
CONTINUOUS
 10
76.5625
 20
14.0625
 11
104.6875
 21
14.0625
  0
LINE
  5
3B4
100
AcDbEntity
  8
0
100
AcDbLine
 62
2
  6
CONTINUOUS
 10
76.5625
 20
14.0625
 11
76.5625
 21
6.25
  0
LINE
  5
3B5
100
AcDbEntity
  8
0
100
AcDbLine
 62
2
  6
CONTINUOUS
 10
76.5625
 20
6.25
 11
104.6875
 21
6.25
  0
LINE
  5
3B6
100
AcDbEntity
  8
0
100
AcDbLine
 62
2
  6
CONTINUOUS
 10
104.6875
 20
14.0625
 11
104.6875
 21
6.25
  0
LINE
  5
3B7
100
AcDbEntity
  8
0
100
AcDbLine
 62
2
  6
CONTINUOUS
 10
104.6875
 20
34.375
 11
126.5625
 21
34.375
  0
LINE
  5
3B8
100
AcDbEntity
  8
0
100
AcDbLine
 62
2
  6
CONTINUOUS
 10
104.6875
 20
34.375
 11
104.6875
 21
29.00390625
  0
LINE
  5
3B9
100
AcDbEntity
  8
0
100
AcDbLine
 62
2
  6
CONTINUOUS
 10
104.6875
 20
29.00390625
 11
126.5625
 21
29.00390625
  0
LINE
  5
3BA
100
AcDbEntity
  8
0
100
AcDbLine
 62
2
  6
CONTINUOUS
 10
126.5625
 20
34.375
 11
126.5625
 21
29.00390625
  0
MTEXT
  5
3BB
100
AcDbEntity
  8
0
100
AcDbMText
 62
2
  6
CONTINUOUS
  7
STANDARD
 71
1
 72
1
 10
105.46875
 20
31.93359375
 30
0.0
 11
1.0
 21
0.0
 31
0.0
 44
0.9
  1
D. SIMPSON 
 40
1.953125
 41
16.5550595238
  0
LINE
  5
3BC
100
AcDbEntity
  8
0
100
AcDbLine
 62
2
  6
CONTINUOUS
 10
104.6875
 20
28.90625
 11
126.5625
 21
28.90625
  0
LINE
  5
3BD
100
AcDbEntity
  8
0
100
AcDbLine
 62
2
  6
CONTINUOUS
 10
104.6875
 20
28.90625
 11
104.6875
 21
23.40625
  0
LINE
  5
3BE
100
AcDbEntity
  8
0
100
AcDbLine
 62
2
  6
CONTINUOUS
 10
104.6875
 20
23.40625
 11
126.5625
 21
23.40625
  0
LINE
  5
3BF
100
AcDbEntity
  8
0
100
AcDbLine
 62
2
  6
CONTINUOUS
 10
126.5625
 20
28.90625
 11
126.5625
 21
23.40625
  0
MTEXT
  5
3C0
100
AcDbEntity
  8
0
100
AcDbMText
 62
2
  6
CONTINUOUS
  7
STANDARD
 71
1
 72
1
 10
105.46875
 20
26.3359375
 30
0.0
 11
1.0
 21
0.0
 31
0.0
 44
0.9
  1
- 
 40
1.953125
 41
2.9296875
  0
LINE
  5
3C1
100
AcDbEntity
  8
0
100
AcDbLine
 62
2
  6
CONTINUOUS
 10
104.6875
 20
23.4375
 11
126.5625
 21
23.4375
  0
LINE
  5
3C2
100
AcDbEntity
  8
0
100
AcDbLine
 62
2
  6
CONTINUOUS
 10
104.6875
 20
23.4375
 11
104.6875
 21
18.06640625
  0
LINE
  5
3C3
100
AcDbEntity
  8
0
100
AcDbLine
 62
2
  6
CONTINUOUS
 10
104.6875
 20
18.06640625
 11
126.5625
 21
18.06640625
  0
LINE
  5
3C4
100
AcDbEntity
  8
0
100
AcDbLine
 62
2
  6
CONTINUOUS
 10
126.5625
 20
23.4375
 11
126.5625
 21
18.06640625
  0
MTEXT
  5
3C5
100
AcDbEntity
  8
0
100
AcDbMText
 62
2
  6
CONTINUOUS
  7
STANDARD
 71
1
 72
1
 10
105.46875
 20
20.99609375
 30
0.0
 11
1.0
 21
0.0
 31
0.0
 44
0.9
  1
N/A
 40
1.953125
 41
4.6968005952
  0
LINE
  5
3C6
100
AcDbEntity
  8
0
100
AcDbLine
 62
2
  6
CONTINUOUS
 10
104.6875
 20
17.96875
 11
126.5625
 21
17.96875
  0
LINE
  5
3C7
100
AcDbEntity
  8
0
100
AcDbLine
 62
2
  6
CONTINUOUS
 10
104.6875
 20
17.96875
 11
104.6875
 21
12.46875
  0
LINE
  5
3C8
100
AcDbEntity
  8
0
100
AcDbLine
 62
2
  6
CONTINUOUS
 10
104.6875
 20
12.46875
 11
126.5625
 21
12.46875
  0
LINE
  5
3C9
100
AcDbEntity
  8
0
100
AcDbLine
 62
2
  6
CONTINUOUS
 10
126.5625
 20
17.96875
 11
126.5625
 21
12.46875
  0
MTEXT
  5
3CA
100
AcDbEntity
  8
0
100
AcDbMText
 62
2
  6
CONTINUOUS
  7
STANDARD
 71
1
 72
1
 10
105.46875
 20
15.3984375
 30
0.0
 11
1.0
 21
0.0
 31
0.0
 44
0.9
  1
N/A
 40
1.953125
 41
4.6968005952
  0
LINE
  5
3CB
100
AcDbEntity
  8
0
100
AcDbLine
 62
2
  6
CONTINUOUS
 10
126.5625
 20
34.375
 11
137.5
 21
34.375
  0
LINE
  5
3CC
100
AcDbEntity
  8
0
100
AcDbLine
 62
2
  6
CONTINUOUS
 10
126.5625
 20
34.375
 11
126.5625
 21
28.875
  0
LINE
  5
3CD
100
AcDbEntity
  8
0
100
AcDbLine
 62
2
  6
CONTINUOUS
 10
126.5625
 20
28.875
 11
137.5
 21
28.875
  0
LINE
  5
3CE
100
AcDbEntity
  8
0
100
AcDbLine
 62
2
  6
CONTINUOUS
 10
137.5
 20
34.375
 11
137.5
 21
28.875
  0
MTEXT
  5
3CF
100
AcDbEntity
  8
0
100
AcDbMText
 62
2
  6
CONTINUOUS
  7
STANDARD
 71
2
 72
1
 10
132.03125
 20
31.3515625
 30
0.0
 11
1.0
 21
0.0
 31
0.0
 44
0.9
  1
06-FEB-13
 40
1.5
 41
9.75
  0
LINE
  5
3D0
100
AcDbEntity
  8
0
100
AcDbLine
 62
2
  6
CONTINUOUS
 10
126.5625
 20
28.90625
 11
137.5
 21
28.90625
  0
LINE
  5
3D1
100
AcDbEntity
  8
0
100
AcDbLine
 62
2
  6
CONTINUOUS
 10
126.5625
 20
28.90625
 11
126.5625
 21
23.40625
  0
LINE
  5
3D2
100
AcDbEntity
  8
0
100
AcDbLine
 62
2
  6
CONTINUOUS
 10
126.5625
 20
23.40625
 11
137.5
 21
23.40625
  0
LINE
  5
3D3
100
AcDbEntity
  8
0
100
AcDbLine
 62
2
  6
CONTINUOUS
 10
137.5
 20
28.90625
 11
137.5
 21
23.40625
  0
MTEXT
  5
3D4
100
AcDbEntity
  8
0
100
AcDbMText
 62
2
  6
CONTINUOUS
  7
STANDARD
 71
2
 72
1
 10
132.03125
 20
25.8828125
 30
0.0
 11
1.0
 21
0.0
 31
0.0
 44
0.9
  1
-
 40
1.5
 41
1.0714285714
  0
LINE
  5
3D5
100
AcDbEntity
  8
0
100
AcDbLine
 62
2
  6
CONTINUOUS
 10
126.5625
 20
23.4375
 11
137.5
 21
23.4375
  0
LINE
  5
3D6
100
AcDbEntity
  8
0
100
AcDbLine
 62
2
  6
CONTINUOUS
 10
126.5625
 20
23.4375
 11
126.5625
 21
17.9375
  0
LINE
  5
3D7
100
AcDbEntity
  8
0
100
AcDbLine
 62
2
  6
CONTINUOUS
 10
126.5625
 20
17.9375
 11
137.5
 21
17.9375
  0
LINE
  5
3D8
100
AcDbEntity
  8
0
100
AcDbLine
 62
2
  6
CONTINUOUS
 10
137.5
 20
23.4375
 11
137.5
 21
17.9375
  0
MTEXT
  5
3D9
100
AcDbEntity
  8
0
100
AcDbMText
 62
2
  6
CONTINUOUS
  7
STANDARD
 71
2
 72
1
 10
132.03125
 20
20.4140625
 30
0.0
 11
1.0
 21
0.0
 31
0.0
 44
0.9
  1
-
 40
1.5
 41
1.0714285714
  0
LINE
  5
3DA
100
AcDbEntity
  8
0
100
AcDbLine
 62
2
  6
CONTINUOUS
 10
126.5625
 20
17.96875
 11
137.5
 21
17.96875
  0
LINE
  5
3DB
100
AcDbEntity
  8
0
100
AcDbLine
 62
2
  6
CONTINUOUS
 10
126.5625
 20
17.96875
 11
126.5625
 21
12.59765625
  0
LINE
  5
3DC
100
AcDbEntity
  8
0
100
AcDbLine
 62
2
  6
CONTINUOUS
 10
126.5625
 20
12.59765625
 11
137.5
 21
12.59765625
  0
LINE
  5
3DD
100
AcDbEntity
  8
0
100
AcDbLine
 62
2
  6
CONTINUOUS
 10
137.5
 20
17.96875
 11
137.5
 21
12.59765625
  0
MTEXT
  5
3DE
100
AcDbEntity
  8
0
100
AcDbMText
 62
2
  6
CONTINUOUS
  7
STANDARD
 71
2
 72
1
 10
132.03125
 20
15.07421875
 30
0.0
 11
1.0
 21
0.0
 31
0.0
 44
0.9
  1
-
 40
1.5
 41
1.0714285714
  0
LINE
  5
3DF
100
AcDbEntity
  8
0
100
AcDbLine
 62
2
  6
CONTINUOUS
 10
104.6875
 20
12.5
 11
137.5
 21
12.5
  0
LINE
  5
3E0
100
AcDbEntity
  8
0
100
AcDbLine
 62
2
  6
CONTINUOUS
 10
104.6875
 20
12.5
 11
104.6875
 21
9.375
  0
LINE
  5
3E1
100
AcDbEntity
  8
0
100
AcDbLine
 62
2
  6
CONTINUOUS
 10
104.6875
 20
9.375
 11
137.5
 21
9.375
  0
LINE
  5
3E2
100
AcDbEntity
  8
0
100
AcDbLine
 62
2
  6
CONTINUOUS
 10
137.5
 20
12.5
 11
137.5
 21
9.375
  0
MTEXT
  5
3E3
100
AcDbEntity
  8
0
100
AcDbMText
 62
2
  6
CONTINUOUS
  7
STANDARD
 71
3
 72
1
 10
136.71875
 20
11.7265625
 30
0.0
 11
1.0
 21
0.0
 31
0.0
 44
0.9
  1
FG-020010-2D.A.1
 40
1.375
 41
16.0744047619
  0
LINE
  5
3E4
100
AcDbEntity
  8
0
100
AcDbLine
 62
2
  6
CONTINUOUS
 10
104.6875
 20
9.375
 11
137.5
 21
9.375
  0
LINE
  5
3E5
100
AcDbEntity
  8
0
100
AcDbLine
 62
2
  6
CONTINUOUS
 10
104.6875
 20
9.375
 11
104.6875
 21
6.25
  0
LINE
  5
3E6
100
AcDbEntity
  8
0
100
AcDbLine
 62
2
  6
CONTINUOUS
 10
104.6875
 20
6.25
 11
137.5
 21
6.25
  0
LINE
  5
3E7
100
AcDbEntity
  8
0
100
AcDbLine
 62
2
  6
CONTINUOUS
 10
137.5
 20
9.375
 11
137.5
 21
6.25
  0
MTEXT
  5
3E8
100
AcDbEntity
  8
0
100
AcDbMText
 62
2
  6
CONTINUOUS
  7
STANDARD
 71
3
 72
1
 10
136.71875
 20
8.6015625
 30
0.0
 11
1.0
 21
0.0
 31
0.0
 44
0.9
  1
FG-020012-3D.1.4
 40
1.375
 41
15.8779761905
  0
LINE
  5
3E9
100
AcDbEntity
  8
0
100
AcDbLine
 62
2
  6
CONTINUOUS
 10
137.5
 20
29.6875
 11
200.0
 21
29.6875
  0
LINE
  5
3EA
100
AcDbEntity
  8
0
100
AcDbLine
 62
2
  6
CONTINUOUS
 10
137.5
 20
29.6875
 11
137.5
 21
15.625
  0
LINE
  5
3EB
100
AcDbEntity
  8
0
100
AcDbLine
 62
2
  6
CONTINUOUS
 10
137.5
 20
15.625
 11
200.0
 21
15.625
  0
LINE
  5
3EC
100
AcDbEntity
  8
0
100
AcDbLine
 62
2
  6
CONTINUOUS
 10
200.0
 20
29.6875
 11
200.0
 21
15.625
  0
MTEXT
  5
3ED
100
AcDbEntity
  8
0
100
AcDbMText
 62
2
  6
CONTINUOUS
  7
STANDARD
 71
2
 72
1
 10
168.75
 20
24.34375
 30
0.0
 11
1.0
 21
0.0
 31
0.0
 44
1.02
  1
SPEAKER FINISHED, S10T
 40
2.5
 41
41.369047619
  0
LINE
  5
3EE
100
AcDbEntity
  8
0
100
AcDbLine
 62
2
  6
CONTINUOUS
 10
137.5136537868
 20
15.5992558437
 11
143.7636537868
 21
15.5992558437
  0
LINE
  5
3EF
100
AcDbEntity
  8
0
100
AcDbLine
 62
2
  6
CONTINUOUS
 10
137.5136537868
 20
15.5992558437
 11
137.5136537868
 21
9.3492558437
  0
LINE
  5
3F0
100
AcDbEntity
  8
0
100
AcDbLine
 62
2
  6
CONTINUOUS
 10
137.5136537868
 20
9.3492558437
 11
143.7636537868
 21
9.3492558437
  0
LINE
  5
3F1
100
AcDbEntity
  8
0
100
AcDbLine
 62
2
  6
CONTINUOUS
 10
143.7636537868
 20
15.5992558437
 11
143.7636537868
 21
9.3492558437
  0
MTEXT
  5
3F2
100
AcDbEntity
  8
0
100
AcDbMText
 62
2
  6
CONTINUOUS
  7
STANDARD
 71
2
 72
1
 10
140.6386537868
 20
12.8258183437
 30
0.0
 11
1.0
 21
0.0
 31
0.0
 44
0.9
  1
B
 40
2.5
 41
1.9642857143
  0
LINE
  5
3F3
100
AcDbEntity
  8
0
100
AcDbLine
 62
2
  6
CONTINUOUS
 10
156.2564687199
 20
15.562182364
 11
193.7564687199
 21
15.562182364
  0
LINE
  5
3F4
100
AcDbEntity
  8
0
100
AcDbLine
 62
2
  6
CONTINUOUS
 10
156.2564687199
 20
15.562182364
 11
156.2564687199
 21
9.312182364
  0
LINE
  5
3F5
100
AcDbEntity
  8
0
100
AcDbLine
 62
2
  6
CONTINUOUS
 10
156.2564687199
 20
9.312182364
 11
193.7564687199
 21
9.312182364
  0
LINE
  5
3F6
100
AcDbEntity
  8
0
100
AcDbLine
 62
2
  6
CONTINUOUS
 10
193.7564687199
 20
15.562182364
 11
193.7564687199
 21
9.312182364
  0
MTEXT
  5
3F7
100
AcDbEntity
  8
0
100
AcDbMText
 62
2
  6
CONTINUOUS
  7
STANDARD
 71
2
 72
1
 10
175.0064687199
 20
13.163744864
 30
0.0
 11
1.0
 21
0.0
 31
0.0
 44
0.9
  1
FG-020010-2D
 40
2.875
 41
26.2172619048
  0
LINE
  5
3F8
100
AcDbEntity
  8
0
100
AcDbLine
 62
2
  6
CONTINUOUS
 10
193.7337487033
 20
15.6035977827
 11
199.9837487033
 21
15.6035977827
  0
LINE
  5
3F9
100
AcDbEntity
  8
0
100
AcDbLine
 62
2
  6
CONTINUOUS
 10
193.7337487033
 20
15.6035977827
 11
193.7337487033
 21
9.3535977827
  0
LINE
  5
3FA
100
AcDbEntity
  8
0
100
AcDbLine
 62
2
  6
CONTINUOUS
 10
193.7337487033
 20
9.3535977827
 11
199.9837487033
 21
9.3535977827
  0
LINE
  5
3FB
100
AcDbEntity
  8
0
100
AcDbLine
 62
2
  6
CONTINUOUS
 10
199.9837487033
 20
15.6035977827
 11
199.9837487033
 21
9.3535977827
  0
MTEXT
  5
3FC
100
AcDbEntity
  8
0
100
AcDbMText
 62
2
  6
CONTINUOUS
  7
STANDARD
 71
2
 72
1
 10
196.8587487033
 20
12.5801602827
 30
0.0
 11
1.0
 21
0.0
 31
0.0
 44
0.9
  1
A
 40
2.25
 41
1.9285714286
  0
LINE
  5
3FD
100
AcDbEntity
  8
0
100
AcDbLine
 62
2
  6
CONTINUOUS
 10
179.6952577421
 20
9.2866110454
 11
200.0077577421
 21
9.2866110454
  0
LINE
  5
3FE
100
AcDbEntity
  8
0
100
AcDbLine
 62
2
  6
CONTINUOUS
 10
179.6952577421
 20
9.2866110454
 11
179.6952577421
 21
6.1616110454
  0
LINE
  5
3FF
100
AcDbEntity
  8
0
100
AcDbLine
 62
2
  6
CONTINUOUS
 10
179.6952577421
 20
6.1616110454
 11
200.0077577421
 21
6.1616110454
  0
LINE
  5
400
100
AcDbEntity
  8
0
100
AcDbLine
 62
2
  6
CONTINUOUS
 10
200.0077577421
 20
9.2866110454
 11
200.0077577421
 21
6.1616110454
  0
MTEXT
  5
401
100
AcDbEntity
  8
0
100
AcDbMText
 62
2
  6
CONTINUOUS
  7
STANDARD
 71
3
 72
1
 10
199.2265077421
 20
8.8881735454
 30
0.0
 11
1.0
 21
0.0
 31
0.0
 44
0.9
  1
1 OF 1
 40
1.75
 41
7.375
  0
LINE
  5
402
100
AcDbEntity
  8
0
100
AcDbLine
 62
2
  6
CONTINUOUS
 10
137.4782476513
 20
9.3602902114
 11
152.3282476513
 21
9.3602902114
  0
LINE
  5
403
100
AcDbEntity
  8
0
100
AcDbLine
 62
2
  6
CONTINUOUS
 10
137.4782476513
 20
9.3602902114
 11
137.4782476513
 21
6.1864620864
  0
LINE
  5
404
100
AcDbEntity
  8
0
100
AcDbLine
 62
2
  6
CONTINUOUS
 10
137.4782476513
 20
6.1864620864
 11
152.3282476513
 21
6.1864620864
  0
LINE
  5
405
100
AcDbEntity
  8
0
100
AcDbLine
 62
2
  6
CONTINUOUS
 10
152.3282476513
 20
9.3602902114
 11
152.3282476513
 21
6.1864620864
  0
MTEXT
  5
406
100
AcDbEntity
  8
0
100
AcDbMText
 62
2
  6
CONTINUOUS
  7
STANDARD
 71
3
 72
1
 10
151.5469976513
 20
8.6630245864
 30
0.0
 11
1.0
 21
0.0
 31
0.0
 44
0.9
  1
0.080
 40
1.5
 41
5.5714285714
  0
LWPOLYLINE
  5
407
100
AcDbEntity
  8
0
100
AcDbPolyline
 62
2
  6
CONTINUOUS
 90
2
 70
0
 43
0.25
 10
200.0463502762
 20
131.2584014409
 10
74.0151002762
 20
131.2584014409
  0
LWPOLYLINE
  5
408
100
AcDbEntity
  8
0
100
AcDbPolyline
 62
2
  6
CONTINUOUS
 90
2
 70
0
 43
0.25
 10
199.9213502762
 20
131.2584014409
 10
199.9213502762
 20
119.5396514409
  0
LWPOLYLINE
  5
409
100
AcDbEntity
  8
0
100
AcDbPolyline
 62
2
  6
CONTINUOUS
 90
2
 70
0
 43
0.25
 10
199.9213502762
 20
127.3521514409
 10
74.1401002762
 20
127.3521514409
  0
LWPOLYLINE
  5
40A
100
AcDbEntity
  8
0
100
AcDbPolyline
 62
2
  6
CONTINUOUS
 90
2
 70
0
 43
0.25
 10
199.9213502762
 20
123.4459014409
 10
74.1401002762
 20
123.4459014409
  0
LWPOLYLINE
  5
40B
100
AcDbEntity
  8
0
100
AcDbPolyline
 62
2
  6
CONTINUOUS
 90
2
 70
0
 43
0.25
 10
200.0463502762
 20
119.5396514409
 10
74.0151002762
 20
119.5396514409
  0
LWPOLYLINE
  5
40C
100
AcDbEntity
  8
0
100
AcDbPolyline
 62
2
  6
CONTINUOUS
 90
2
 70
0
 43
0.25
 10
190.5463502762
 20
127.3521514409
 10
190.5463502762
 20
119.5396514409
  0
LWPOLYLINE
  5
40D
100
AcDbEntity
  8
0
100
AcDbPolyline
 62
2
  6
CONTINUOUS
 90
2
 70
0
 43
0.25
 10
176.4838502762
 20
127.3521514409
 10
176.4838502762
 20
119.5396514409
  0
LWPOLYLINE
  5
40E
100
AcDbEntity
  8
0
100
AcDbPolyline
 62
2
  6
CONTINUOUS
 90
2
 70
0
 43
0.25
 10
170.2338502762
 20
127.3521514409
 10
170.2338502762
 20
119.5396514409
  0
LWPOLYLINE
  5
40F
100
AcDbEntity
  8
0
100
AcDbPolyline
 62
2
  6
CONTINUOUS
 90
2
 70
0
 43
0.25
 10
90.5463502762
 20
127.3521514409
 10
90.5463502762
 20
119.5396514409
  0
LWPOLYLINE
  5
410
100
AcDbEntity
  8
0
100
AcDbPolyline
 62
2
  6
CONTINUOUS
 90
2
 70
0
 43
0.25
 10
80.3901002762
 20
127.3521514409
 10
80.3901002762
 20
119.5396514409
  0
LWPOLYLINE
  5
411
100
AcDbEntity
  8
0
100
AcDbPolyline
 62
2
  6
CONTINUOUS
 90
2
 70
0
 43
0.25
 10
74.1401002762
 20
131.2584014409
 10
74.1401002762
 20
119.5396514409
  0
MTEXT
  5
412
100
AcDbEntity
  8
0
100
AcDbMText
 62
2
  6
CONTINUOUS
  7
STANDARD
 71
2
 72
1
 10
137.0307252762
 20
130.2818389409
 30
0.0
 11
1.0
 21
0.0
 31
0.0
 44
0.9
  1
REVISIONS
 40
1.953125
 41
13.2068452381
  0
MTEXT
  5
413
100
AcDbEntity
  8
0
100
AcDbMText
 62
2
  6
CONTINUOUS
  7
STANDARD
 71
2
 72
1
 10
195.2338502762
 20
126.3740264409
 30
0.0
 11
1.0
 21
0.0
 31
0.0
 44
0.9
  1
ISSUED
 40
1.95
 41
9.0071428571
  0
MTEXT
  5
414
100
AcDbEntity
  8
0
100
AcDbMText
 62
2
  6
CONTINUOUS
  7
STANDARD
 71
2
 72
1
 10
183.5151002762
 20
126.3740264409
 30
0.0
 11
1.0
 21
0.0
 31
0.0
 44
0.9
  1
EFF DATE
 40
1.95
 41
12.2107142857
  0
MTEXT
  5
415
100
AcDbEntity
  8
0
100
AcDbMText
 62
2
  6
CONTINUOUS
  7
STANDARD
 71
2
 72
1
 10
173.3588502762
 20
126.3755889409
 30
0.0
 11
1.0
 21
0.0
 31
0.0
 44
0.9
  1
BY
 40
1.953125
 41
3.2087053571
  0
MTEXT
  5
416
100
AcDbEntity
  8
0
100
AcDbMText
 62
2
  6
CONTINUOUS
  7
STANDARD
 71
2
 72
1
 10
130.3901002762
 20
126.3740264409
 30
0.0
 11
1.0
 21
0.0
 31
0.0
 44
0.9
  1
DESCRIPTION
 40
1.95
 41
16.6214285714
  0
MTEXT
  5
417
100
AcDbEntity
  8
0
100
AcDbMText
 62
2
  6
CONTINUOUS
  7
STANDARD
 71
2
 72
1
 10
85.4682252762
 20
126.3755889409
 30
0.0
 11
1.0
 21
0.0
 31
0.0
 44
0.9
  1
ECO
 40
1.953125
 41
4.5572916667
  0
MTEXT
  5
418
100
AcDbEntity
  8
0
100
AcDbMText
 62
2
  6
CONTINUOUS
  7
STANDARD
 71
2
 72
1
 10
77.2651002762
 20
126.3740264409
 30
0.0
 11
1.0
 21
0.0
 31
0.0
 44
0.9
  1
REV
 40
1.95
 41
4.55
  0
MTEXT
  5
419
100
AcDbEntity
  8
0
100
AcDbMText
 62
2
  6
CONTINUOUS
  7
STANDARD
 71
2
 72
1
 10
195.2338502762
 20
122.4693389409
 30
0.0
 11
1.0
 21
0.0
 31
0.0
 44
0.9
  1
-
 40
1.953125
 41
1.3950892857
  0
MTEXT
  5
41A
100
AcDbEntity
  8
0
100
AcDbMText
 62
2
  6
CONTINUOUS
  7
STANDARD
 71
2
 72
1
 10
183.5151002762
 20
122.4693389409
 30
0.0
 11
1.0
 21
0.0
 31
0.0
 44
0.9
  1
-
 40
1.953125
 41
1.3950892857
  0
MTEXT
  5
41B
100
AcDbEntity
  8
0
100
AcDbMText
 62
2
  6
CONTINUOUS
  7
STANDARD
 71
2
 72
1
 10
173.3588502762
 20
122.4693389409
 30
0.0
 11
1.0
 21
0.0
 31
0.0
 44
0.9
  1
DNS
 40
1.953125
 41
5.2083333333
  0
MTEXT
  5
41C
100
AcDbEntity
  8
0
100
AcDbMText
 62
2
  6
CONTINUOUS
  7
STANDARD
 71
1
 72
1
 10
91.3276002762
 20
122.4693389409
 30
0.0
 11
1.0
 21
0.0
 31
0.0
 44
0.9
  1
RELEASE
 40
1.953125
 41
10.5561755952
  0
MTEXT
  5
41D
100
AcDbEntity
  8
0
100
AcDbMText
 62
2
  6
CONTINUOUS
  7
STANDARD
 71
2
 72
1
 10
85.4682252762
 20
122.4693389409
 30
0.0
 11
1.0
 21
0.0
 31
0.0
 44
0.9
  1
-
 40
1.953125
 41
1.3950892857
  0
MTEXT
  5
41E
100
AcDbEntity
  8
0
100
AcDbMText
 62
2
  6
CONTINUOUS
  7
STANDARD
 71
2
 72
1
 10
77.2651002762
 20
122.4693389409
 30
0.0
 11
1.0
 21
0.0
 31
0.0
 44
0.9
  1
A
 40
1.953125
 41
2.0461309524
  0
MTEXT
  5
41F
100
AcDbEntity
  8
0
100
AcDbMText
 62
2
  6
CONTINUOUS
  7
STANDARD
 71
1
 72
1
 10
8.5947936546
 20
37.0151479008
 30
0.0
 11
1.0
 21
0.0
 31
0.0
 44
1.2
  3
5. PARTS ARE SYMMETRICAL ABOUT CENTER LINES \P   UNLESS OTHERWISE NOTED.\P4. SYMBOL    INDICATES CENTER OF BALANCE.\P3. SYMBOL \Fgdt;{\Fgdt;r}\Ftxt; INDICATES SUSPENSION POINT, \P   4 TOTAL:  M10-1.5 THD. \P2. TOLERANCES (MM): X \Fgdt;{\Fgdt;`}\Ftxt;
  1
 5, ANGLES: \Fgdt;{\Fgdt;`}\Ftxt; 1\Fgdt;{\Fgdt;~}\Ftxt;.\P1. NET WEIGHT APPROX. 14.2 KG (31 LBS)\PNOTE:  UNLESS OTHERWISE SPECIFIED
 40
1.953125
 41
67.2433035714
  0
MTEXT
  5
420
100
AcDbEntity
  8
0
100
AcDbMText
 62
2
  6
CONTINUOUS
  7
TEXTSTYLE_1
 71
1
 72
1
 10
37.0830457424
 20
114.5127752119
 30
0.0
 11
1.0
 21
0.0
 31
0.0
 44
0.9
  1
{\Fgdt;r}
 40
1.953125
 41
3.90625
  0
MTEXT
  5
421
100
AcDbEntity
  8
0
100
AcDbMText
 62
2
  6
CONTINUOUS
  7
TEXTSTYLE_1
 71
1
 72
1
 10
32.5577617423
 20
59.5889441611
 30
0.0
 11
1.0
 21
0.0
 31
0.0
 44
0.9
  1
{\Fgdt;r}
 40
1.953125
 41
3.90625
  0
MTEXT
  5
422
100
AcDbEntity
  8
0
100
AcDbMText
 62
2
  6
CONTINUOUS
  7
TEXTSTYLE_1
 71
1
 72
1
 10
41.5762672906
 20
59.5713769981
 30
0.0
 11
1.0
 21
0.0
 31
0.0
 44
0.9
  1
{\Fgdt;r}
 40
1.953125
 41
3.90625
  0
MTEXT
  5
423
100
AcDbEntity
  8
0
100
AcDbMText
 62
2
  6
CONTINUOUS
  7
TEXTSTYLE_1
 71
1
 72
1
 10
37.0534897573
 20
57.1711342963
 30
0.0
 11
1.0
 21
0.0
 31
0.0
 44
0.9
  1
{\Fgdt;r}
 40
1.953125
 41
3.90625
  0
MTEXT
  5
424
100
AcDbEntity
  8
0
100
AcDbMText
 62
2
  6
CONTINUOUS
  7
STANDARD
 71
3
 72
1
 10
190.9091908725
 20
75.9912294352
 30
0.0
 11
1.0
 21
0.0
 31
0.0
 44
0.9
  1
SCALE  0.070
 40
1.953125
 41
17.810639881
  0
INSERT
  5
425
100
AcDbEntity
  8
0
100
AcDbBlockReference
 62
2
  6
CONTINUOUS
  2
SYMBOL_6_BL1
 10
25.3276197121
 20
28.2699383809
  0
INSERT
  5
426
100
AcDbEntity
  8
0
100
AcDbBlockReference
 62
2
  6
CONTINUOUS
  2
SYMBOL_11_BL2
 10
38.8614227618
 20
83.3359561799
  0
INSERT
  5
427
100
AcDbEntity
  8
0
100
AcDbBlockReference
 62
2
  6
CONTINUOUS
  2
SYMBOL_10_BL3
 10
83.9654921871
 20
83.3271250101
  0
INSERT
  5
428
100
AcDbEntity
  8
0
100
AcDbBlockReference
 62
2
  6
CONTINUOUS
  2
SYMBOL_12_BL4
 10
135.0033763172
 20
83.3318306783
  0
LINE
  5
429
100
AcDbEntity
  8
DEFAULT_3
100
AcDbLine
 62
7
  6
PHANTOM
 10
-0.0000242735
 20
-0.0
 11
-0.0000242735
 21
137.4997886578
  0
LWPOLYLINE
  5
42A
100
AcDbEntity
  8
0
100
AcDbPolyline
 62
7
  6
CONTINUOUS
 90
2
 70
0
 43
0.2500000104
 10
3.2813555267
 20
66.6419167337
 10
3.2813555267
 20
70.8582889671
  0
LWPOLYLINE
  5
42B
100
AcDbEntity
  8
0
100
AcDbPolyline
 62
7
  6
CONTINUOUS
 90
2
 70
0
 43
0.375000003
 10
6.2483424588
 20
131.2454273624
 10
6.2483424588
 20
6.25
  0
LINE
  5
42C
100
AcDbEntity
  8
DEFAULT_1
100
AcDbLine
 62
8
  6
CENTER
 10
38.8597151088
 20
123.4197197821
 11
38.8597151088
 21
107.4354678136
  0
LINE
  5
42D
100
AcDbEntity
  8
DEFAULT_1
100
AcDbLine
 62
8
  6
CENTER
 10
38.8597151088
 20
94.2734303943
 11
38.8597151088
 21
73.9584697643
  0
LINE
  5
42E
100
AcDbEntity
  8
DEFAULT_1
100
AcDbLine
 62
8
  6
CENTER
 10
38.8597151088
 20
62.3269867231
 11
38.8597151088
 21
46.3427347546
  0
LINE
  5
42F
100
AcDbEntity
  8
DEFAULT_3
100
AcDbLine
 62
7
  6
PHANTOM
 10
-0.0000242735
 20
-0.0
 11
212.5
 21
-0.0
  0
LWPOLYLINE
  5
430
100
AcDbEntity
  8
0
100
AcDbPolyline
 62
7
  6
CONTINUOUS
 90
2
 70
0
 43
0.375000003
 10
44.3884824385
 20
131.3241710245
 10
44.3884824385
 20
125.0741710245
  0
LWPOLYLINE
  5
431
100
AcDbEntity
  8
0
100
AcDbPolyline
 62
7
  6
CONTINUOUS
 90
2
 70
0
 43
0.2500000104
 10
101.0171982503
 20
3.2867921432
 10
105.2335704837
 20
3.2867921432
  0
LWPOLYLINE
  5
432
100
AcDbEntity
  8
0
100
AcDbPolyline
 62
7
  6
CONTINUOUS
 90
2
 70
0
 43
0.375000003
 10
6.2483424588
 20
6.25
 10
200.0
 20
6.25
  0
LWPOLYLINE
  5
433
100
AcDbEntity
  8
0
100
AcDbPolyline
 62
7
  6
CONTINUOUS
 90
2
 70
0
 43
0.2500000104
 10
104.6875
 20
9.375
 10
200.0
 20
9.375
  0
LWPOLYLINE
  5
434
100
AcDbEntity
  8
0
100
AcDbPolyline
 62
7
  6
CONTINUOUS
 90
2
 70
0
 43
0.2500000104
 10
54.6863491829
 20
6.2491931605
 10
54.6863491829
 20
-0.0008068395
  0
LWPOLYLINE
  5
435
100
AcDbEntity
  8
0
100
AcDbPolyline
 62
7
  6
CONTINUOUS
 90
2
 70
0
 43
0.2500000104
 10
54.6871223014
 20
131.2474033992
 10
54.6871223014
 20
137.4974033992
  0
LWPOLYLINE
  5
436
100
AcDbEntity
  8
0
100
AcDbPolyline
 62
7
  6
CONTINUOUS
 90
2
 70
0
 43
0.2500000104
 10
6.2505715002
 20
68.7501028504
 10
3.2813555267
 20
66.6419167337
  0
LINE
  5
437
100
AcDbEntity
  8
0
100
AcDbLine
 62
7
  6
CONTINUOUS
 10
104.67467302
 20
14.011075104
 11
76.5992898139
 21
6.3419209055
  0
LWPOLYLINE
  5
438
100
AcDbEntity
  8
0
100
AcDbPolyline
 62
7
  6
CONTINUOUS
 90
2
 70
0
 43
0.2500000104
 10
104.6875
 20
12.5
 10
137.5
 20
12.5
  0
LWPOLYLINE
  5
439
100
AcDbEntity
  8
0
100
AcDbPolyline
 62
7
  6
CONTINUOUS
 90
2
 70
0
 43
0.2500000104
 10
104.6875
 20
14.0625
 10
76.5625
 20
14.0625
  0
LWPOLYLINE
  5
43A
100
AcDbEntity
  8
0
100
AcDbPolyline
 62
7
  6
CONTINUOUS
 90
2
 70
0
 43
0.2500000104
 10
137.5
 20
15.625
 10
200.0
 20
15.625
  0
LWPOLYLINE
  5
43B
100
AcDbEntity
  8
0
100
AcDbPolyline
 62
7
  6
CONTINUOUS
 90
2
 70
0
 43
0.2500000104
 10
6.2505715002
 20
68.7501028504
 10
3.2813555267
 20
70.8582889671
  0
LINE
  5
43C
100
AcDbEntity
  8
0
100
AcDbLine
 62
7
  6
CONTINUOUS
 10
104.6389340887
 20
21.8131220658
 11
76.5635508826
 21
14.1439678674
  0
LWPOLYLINE
  5
43D
100
AcDbEntity
  8
0
100
AcDbPolyline
 62
7
  6
CONTINUOUS
 90
2
 70
0
 43
0.2500000104
 10
104.6875
 20
17.96875
 10
137.5
 20
17.96875
  0
LWPOLYLINE
  5
43E
100
AcDbEntity
  8
0
100
AcDbPolyline
 62
7
  6
CONTINUOUS
 90
2
 70
0
 43
0.2500000104
 10
76.5625
 20
21.875
 10
104.6875
 20
21.875
  0
LWPOLYLINE
  5
43F
100
AcDbEntity
  8
0
100
AcDbPolyline
 62
7
  6
CONTINUOUS
 90
2
 70
0
 43
0.2500000104
 10
104.6875
 20
23.4375
 10
137.5
 20
23.4375
  0
LWPOLYLINE
  5
440
100
AcDbEntity
  8
0
100
AcDbPolyline
 62
7
  6
CONTINUOUS
 90
2
 70
0
 43
0.2500000104
 10
103.1211268617
 20
131.2504896084
 10
105.2293129783
 20
134.2197055819
  0
LWPOLYLINE
  5
441
100
AcDbEntity
  8
0
100
AcDbPolyline
 62
7
  6
CONTINUOUS
 90
2
 70
0
 43
0.2500000104
 10
104.6875
 20
28.90625
 10
137.5
 20
28.90625
  0
LWPOLYLINE
  5
442
100
AcDbEntity
  8
0
100
AcDbPolyline
 62
7
  6
CONTINUOUS
 90
2
 70
0
 43
0.2500000104
 10
137.5
 20
29.6875
 10
200.0
 20
29.6875
  0
LINE
  5
443
100
AcDbEntity
  8
0
100
AcDbLine
 62
7
  6
CONTINUOUS
 10
76.5635508826
 20
38.3175006918
 11
104.6389340887
 21
21.8131220658
  0
LWPOLYLINE
  5
444
100
AcDbEntity
  8
0
100
AcDbPolyline
 62
7
  6
CONTINUOUS
 90
2
 70
0
 43
0.2500000104
 10
103.125384367
 20
6.2560081167
 10
105.2335704837
 20
3.2867921432
  0
LWPOLYLINE
  5
445
100
AcDbEntity
  8
0
100
AcDbPolyline
 62
7
  6
CONTINUOUS
 90
2
 70
0
 43
0.2500000104
 10
76.5625
 20
6.25
 10
76.5625
 20
38.28125
  0
LWPOLYLINE
  5
446
100
AcDbEntity
  8
0
100
AcDbPolyline
 62
7
  6
CONTINUOUS
 90
2
 70
0
 43
0.2500000104
 10
104.6875
 20
34.375
 10
137.5
 20
34.375
  0
LWPOLYLINE
  5
447
100
AcDbEntity
  8
0
100
AcDbPolyline
 62
7
  6
CONTINUOUS
 90
2
 70
0
 43
0.2500000104
 10
6.2497081055
 20
37.497961047
 10
-0.0002918945
 20
37.497961047
  0
LWPOLYLINE
  5
448
100
AcDbEntity
  8
0
100
AcDbPolyline
 62
7
  6
CONTINUOUS
 90
2
 70
0
 43
0.2500000104
 10
200.1194765173
 20
37.4980803954
 10
206.3694765173
 20
37.4980803954
  0
LWPOLYLINE
  5
449
100
AcDbEntity
  8
0
100
AcDbPolyline
 62
7
  6
CONTINUOUS
 90
2
 70
0
 43
0.2500000104
 10
76.5625
 20
38.28125
 10
200.0
 20
38.28125
  0
LWPOLYLINE
  5
44A
100
AcDbEntity
  8
0
100
AcDbPolyline
 62
7
  6
CONTINUOUS
 90
2
 70
0
 43
0.2500000104
 10
103.1211268617
 20
131.2504896084
 10
103.1211268617
 20
137.5004896084
  0
LWPOLYLINE
  5
44B
100
AcDbEntity
  8
0
100
AcDbPolyline
 62
7
  6
CONTINUOUS
 90
2
 70
0
 43
0.2500000104
 10
103.125384367
 20
6.2560081167
 10
103.125384367
 20
0.0060081167
  0
LWPOLYLINE
  5
44C
100
AcDbEntity
  8
0
100
AcDbPolyline
 62
7
  6
CONTINUOUS
 90
2
 70
0
 43
0.2500000104
 10
104.6875
 20
6.25
 10
104.6875
 20
38.28125
  0
LWPOLYLINE
  5
44D
100
AcDbEntity
  8
0
100
AcDbPolyline
 62
7
  6
CONTINUOUS
 90
2
 70
0
 43
0.2500000104
 10
200.0429725613
 20
68.7498514772
 10
206.2929725613
 20
68.7498514772
  0
LWPOLYLINE
  5
44E
100
AcDbEntity
  8
0
100
AcDbPolyline
 62
7
  6
CONTINUOUS
 90
2
 70
0
 43
0.2500000104
 10
6.2505715002
 20
68.7501028504
 10
0.0005715002
 20
68.7501028504
  0
LINE
  5
44F
100
AcDbEntity
  8
DEFAULT_1
100
AcDbLine
 62
8
  6
CENTER
 10
79.2431110688
 20
84.1159500793
 11
89.6368118562
 21
84.1159500793
  0
LINE
  5
450
100
AcDbEntity
  8
DEFAULT_1
100
AcDbLine
 62
8
  6
CENTER
 10
128.768769316
 20
84.1159500793
 11
141.3322450924
 21
84.1159500793
  0
LWPOLYLINE
  5
451
100
AcDbEntity
  8
0
100
AcDbPolyline
 62
7
  6
CONTINUOUS
 90
2
 70
0
 43
0.2500000104
 10
126.5625
 20
12.5
 10
126.5625
 20
38.28125
  0
LINE
  5
452
100
AcDbEntity
  8
0
100
AcDbLine
 62
7
  6
CONTINUOUS
 10
104.6389340887
 20
38.2278029819
 11
76.6083997376
 21
21.9476686307
  0
LWPOLYLINE
  5
453
100
AcDbEntity
  8
0
100
AcDbPolyline
 62
7
  6
CONTINUOUS
 90
2
 70
0
 43
0.2500000104
 10
137.5
 20
6.25
 10
137.5
 20
38.28125
  0
LWPOLYLINE
  5
454
100
AcDbEntity
  8
0
100
AcDbPolyline
 62
7
  6
CONTINUOUS
 90
2
 70
0
 43
0.2500000104
 10
143.75
 20
9.375
 10
143.75
 20
15.625
  0
LWPOLYLINE
  5
455
100
AcDbEntity
  8
0
100
AcDbPolyline
 62
7
  6
CONTINUOUS
 90
2
 70
0
 43
0.2500000104
 10
103.125384367
 20
6.2560081167
 10
101.0171982503
 20
3.2867921432
  0
LWPOLYLINE
  5
456
100
AcDbEntity
  8
0
100
AcDbPolyline
 62
7
  6
CONTINUOUS
 90
2
 70
0
 43
0.2500000104
 10
200.0566433459
 20
99.9960822939
 10
206.3066433459
 20
99.9960822939
  0
LWPOLYLINE
  5
457
100
AcDbEntity
  8
0
100
AcDbPolyline
 62
7
  6
CONTINUOUS
 90
2
 70
0
 43
0.2500000104
 10
6.2483408967
 20
99.9964881815
 10
-0.0016591033
 20
99.9964881815
  0
LWPOLYLINE
  5
458
100
AcDbEntity
  8
0
100
AcDbPolyline
 62
7
  6
CONTINUOUS
 90
2
 70
0
 43
0.2500000104
 10
103.1211268617
 20
131.2504896084
 10
101.012940745
 20
134.2197055819
  0
LWPOLYLINE
  5
459
100
AcDbEntity
  8
0
100
AcDbPolyline
 62
7
  6
CONTINUOUS
 90
2
 70
0
 43
0.2500000104
 10
151.5589115025
 20
131.2678975009
 10
151.5589115025
 20
137.5178975009
  0
LWPOLYLINE
  5
45A
100
AcDbEntity
  8
0
100
AcDbPolyline
 62
7
  6
CONTINUOUS
 90
2
 70
0
 43
0.2500000104
 10
151.5623824403
 20
6.2459000518
 10
151.5623824403
 20
-0.0040999482
  0
LWPOLYLINE
  5
45B
100
AcDbEntity
  8
0
100
AcDbPolyline
 62
7
  6
CONTINUOUS
 90
2
 70
0
 43
0.2500000104
 10
152.2953620818
 20
6.3093769444
 10
152.2953620818
 20
9.4343769444
  0
LWPOLYLINE
  5
45C
100
AcDbEntity
  8
0
100
AcDbPolyline
 62
7
  6
CONTINUOUS
 90
2
 70
0
 43
0.2500000104
 10
156.25
 20
9.375
 10
156.25
 20
15.625
  0
LWPOLYLINE
  5
45D
100
AcDbEntity
  8
0
100
AcDbPolyline
 62
7
  6
CONTINUOUS
 90
2
 70
0
 43
0.2500000104
 10
200.0429725613
 20
68.7498514772
 10
203.0121885348
 20
70.8580375939
  0
LWPOLYLINE
  5
45E
100
AcDbEntity
  8
0
100
AcDbPolyline
 62
7
  6
CONTINUOUS
 90
2
 70
0
 43
0.375000003
 10
44.3884824385
 20
125.0741710245
 10
6.1072324385
 20
125.0741710245
  0
LWPOLYLINE
  5
45F
100
AcDbEntity
  8
0
100
AcDbPolyline
 62
7
  6
CONTINUOUS
 90
2
 70
0
 43
0.2500000104
 10
200.0429725613
 20
68.7498514772
 10
203.0121885348
 20
66.6416653605
  0
LWPOLYLINE
  5
460
100
AcDbEntity
  8
0
100
AcDbPolyline
 62
7
  6
CONTINUOUS
 90
2
 70
0
 43
0.375000003
 10
200.0
 20
131.2454273624
 10
6.2483424588
 20
131.2454273624
  0
LWPOLYLINE
  5
461
100
AcDbEntity
  8
0
100
AcDbPolyline
 62
7
  6
CONTINUOUS
 90
2
 70
0
 43
0.2500000104
 10
101.012940745
 20
134.2197055819
 10
105.2293129783
 20
134.2197055819
  0
LWPOLYLINE
  5
462
100
AcDbEntity
  8
0
100
AcDbPolyline
 62
7
  6
CONTINUOUS
 90
2
 70
0
 43
0.2500000104
 10
179.6875
 20
6.25
 10
179.6875
 20
9.375
  0
LINE
  5
463
100
AcDbEntity
  8
DEFAULT_3
100
AcDbLine
 62
7
  6
PHANTOM
 10
-0.0000242735
 20
137.4997886578
 11
212.5001246084
 21
137.4997886578
  0
LWPOLYLINE
  5
464
100
AcDbEntity
  8
0
100
AcDbPolyline
 62
7
  6
CONTINUOUS
 90
2
 70
0
 43
0.2500000104
 10
193.75
 20
9.375
 10
193.75
 20
15.625
  0
LWPOLYLINE
  5
465
100
AcDbEntity
  8
0
100
AcDbPolyline
 62
7
  6
CONTINUOUS
 90
2
 70
0
 43
0.375000003
 10
200.0
 20
131.2454273624
 10
200.0
 20
6.25
  0
LWPOLYLINE
  5
466
100
AcDbEntity
  8
0
100
AcDbPolyline
 62
7
  6
CONTINUOUS
 90
2
 70
0
 43
0.2500000104
 10
203.0121885348
 20
66.6416653605
 10
203.0121885348
 20
70.8580375939
  0
LINE
  5
467
100
AcDbEntity
  8
DEFAULT_3
100
AcDbLine
 62
7
  6
PHANTOM
 10
212.5
 20
-0.0
 11
212.5
 21
137.4954273624
  0
LINE
  5
468
100
AcDbEntity
  8
3_AXES_OTHER
100
AcDbLine
 62
7
  6
CONTINUOUS
 10
33.5332600154
 20
73.9584697643
 11
34.8854828253
 21
73.9584697643
  0
LINE
  5
469
100
AcDbEntity
  8
3_ALL_AXES
100
AcDbLine
 62
7
  6
CONTINUOUS
 10
34.8854828253
 20
73.9584697643
 11
42.8339473922
 21
73.9584697643
  0
LINE
  5
46A
100
AcDbEntity
  8
3_AXES_OTHER
100
AcDbLine
 62
7
  6
CONTINUOUS
 10
42.8339473922
 20
73.9584697643
 11
44.1861694622
 21
73.9584697643
  0
LINE
  5
46B
100
AcDbEntity
  8
3_AXES_OTHER
100
AcDbLine
 62
7
  6
CONTINUOUS
 10
33.08336041
 20
74.2104382683
 11
44.6360656475
 21
74.2104382683
  0
LINE
  5
46C
100
AcDbEntity
  8
3_ALL_AXES
100
AcDbLine
 62
7
  6
CONTINUOUS
 10
32.5725112454
 20
74.1398757292
 11
32.5725112454
 21
94.0920244294
  0
LINE
  5
46D
100
AcDbEntity
  8
3_AXES_OTHER
100
AcDbLine
 62
9
  6
CONTINUOUS
 10
32.6870138496
 20
74.0828049746
 11
32.6870138496
 21
94.149095184
  0
LINE
  5
46E
100
AcDbEntity
  8
3_AXES_OTHER
100
AcDbLine
 62
9
  6
CONTINUOUS
 10
32.8957372036
 20
74.0410645123
 11
32.8957372036
 21
94.1908356463
  0
LINE
  5
46F
100
AcDbEntity
  8
3_AXES_OTHER
100
AcDbLine
 62
7
  6
CONTINUOUS
 10
33.08336041
 20
74.2104382683
 11
33.08336041
 21
94.0214618903
  0
LINE
  5
470
100
AcDbEntity
  8
3_AXES_OTHER
100
AcDbLine
 62
7
  6
CONTINUOUS
 10
33.8597151088
 20
85.4742177958
 11
33.8597151088
 21
93.5450839376
  0
LINE
  5
471
100
AcDbEntity
  8
3_AXES_OTHER
100
AcDbLine
 62
7
  6
CONTINUOUS
 10
34.8854828253
 20
73.9584697643
 11
34.8854828253
 21
74.2104382683
  0
LINE
  5
472
100
AcDbEntity
  8
3_AXES_OTHER
100
AcDbLine
 62
7
  6
CONTINUOUS
 10
34.8854828253
 20
94.0214618903
 11
34.8854828253
 21
94.2734303943
  0
LINE
  5
473
100
AcDbEntity
  8
3_AXES_OTHER
100
AcDbLine
 62
7
  6
CONTINUOUS
 10
39.2026897365
 20
89.8526254944
 11
43.8597151088
 21
93.5450839376
  0
LINE
  5
474
100
AcDbEntity
  8
3_AXES_OTHER
100
AcDbLine
 62
7
  6
CONTINUOUS
 10
38.516740481
 20
89.166676239
 11
33.8597151088
 21
85.4742177958
  0
LINE
  5
475
100
AcDbEntity
  8
3_AXES_OTHER
100
AcDbLine
 62
7
  6
CONTINUOUS
 10
43.8597151088
 20
85.4742177958
 11
33.8597151088
 21
85.4742177958
  0
LINE
  5
476
100
AcDbEntity
  8
3_AXES_OTHER
100
AcDbLine
 62
7
  6
CONTINUOUS
 10
42.8339473922
 20
73.9584697643
 11
42.8339473922
 21
74.2104382683
  0
LINE
  5
477
100
AcDbEntity
  8
3_AXES_OTHER
100
AcDbLine
 62
7
  6
CONTINUOUS
 10
42.8339473922
 20
94.0214618903
 11
42.8339473922
 21
94.2734303943
  0
LINE
  5
478
100
AcDbEntity
  8
3_AXES_OTHER
100
AcDbLine
 62
7
  6
CONTINUOUS
 10
39.2026897365
 20
89.166676239
 11
43.8597151088
 21
85.4742177958
  0
LINE
  5
479
100
AcDbEntity
  8
3_AXES_OTHER
100
AcDbLine
 62
7
  6
CONTINUOUS
 10
38.516740481
 20
89.8526254944
 11
33.8597151088
 21
93.5450839376
  0
LINE
  5
47A
100
AcDbEntity
  8
3_AXES_OTHER
100
AcDbLine
 62
7
  6
CONTINUOUS
 10
43.8597151088
 20
93.5450839376
 11
43.8597151088
 21
85.4742177958
  0
LINE
  5
47B
100
AcDbEntity
  8
3_AXES_OTHER
100
AcDbLine
 62
7
  6
CONTINUOUS
 10
44.6360656475
 20
74.2104382683
 11
44.6360656475
 21
94.0214618903
  0
LINE
  5
47C
100
AcDbEntity
  8
3_AXES_OTHER
100
AcDbLine
 62
9
  6
CONTINUOUS
 10
44.8236930139
 20
74.0410645123
 11
44.8236930139
 21
94.1908356463
  0
LINE
  5
47D
100
AcDbEntity
  8
3_AXES_OTHER
100
AcDbLine
 62
9
  6
CONTINUOUS
 10
45.0324163679
 20
74.0828049746
 11
45.0324163679
 21
94.149095184
  0
LINE
  5
47E
100
AcDbEntity
  8
3_ALL_AXES
100
AcDbLine
 62
7
  6
CONTINUOUS
 10
45.1469189721
 20
74.1398757292
 11
45.1469189721
 21
94.0920244294
  0
LINE
  5
47F
100
AcDbEntity
  8
3_AXES_OTHER
100
AcDbLine
 62
7
  6
CONTINUOUS
 10
33.8597151088
 20
93.5450839376
 11
43.8597151088
 21
93.5450839376
  0
LINE
  5
480
100
AcDbEntity
  8
3_AXES_OTHER
100
AcDbLine
 62
7
  6
CONTINUOUS
 10
33.08336041
 20
94.0214618903
 11
44.6360656475
 21
94.0214618903
  0
LINE
  5
481
100
AcDbEntity
  8
3_AXES_OTHER
100
AcDbLine
 62
7
  6
CONTINUOUS
 10
33.5332600154
 20
94.2734303943
 11
34.8854828253
 21
94.2734303943
  0
LINE
  5
482
100
AcDbEntity
  8
3_ALL_AXES
100
AcDbLine
 62
7
  6
CONTINUOUS
 10
34.8854828253
 20
94.2734303943
 11
42.8339473922
 21
94.2734303943
  0
LINE
  5
483
100
AcDbEntity
  8
3_AXES_OTHER
100
AcDbLine
 62
7
  6
CONTINUOUS
 10
42.8339473922
 20
94.2734303943
 11
44.1861694622
 21
94.2734303943
  0
LINE
  5
484
100
AcDbEntity
  8
3_ALL_AXES
100
AcDbLine
 62
7
  6
CONTINUOUS
 10
34.8854828253
 20
107.4354678136
 11
42.8339473922
 21
107.4354678136
  0
LINE
  5
485
100
AcDbEntity
  8
3_AXES_OTHER
100
AcDbLine
 62
7
  6
CONTINUOUS
 10
33.5332600154
 20
108.2747197821
 11
44.1861694622
 21
108.2747197821
  0
LINE
  5
486
100
AcDbEntity
  8
3_AXES_OTHER
100
AcDbLine
 62
7
  6
CONTINUOUS
 10
36.694360778
 20
123.4197197821
 11
36.694360778
 21
122.4354678136
  0
LINE
  5
487
100
AcDbEntity
  8
3_ALL_AXES
100
AcDbLine
 62
7
  6
CONTINUOUS
 10
37.4817623528
 20
122.4354678136
 11
37.4817623528
 21
119.2071213569
  0
LINE
  5
488
100
AcDbEntity
  8
3_ALL_AXES
100
AcDbLine
 62
7
  6
CENTER
 10
38.8597151088
 20
113.5378300183
 11
37.412864715
 21
113.5378300183
  0
LINE
  5
489
100
AcDbEntity
  8
3_ALL_AXES
100
AcDbLine
 62
7
  6
CENTER
 10
38.8597151088
 20
113.5378300183
 11
40.3065655025
 21
113.5378300183
  0
LINE
  5
48A
100
AcDbEntity
  8
3_ALL_AXES
100
AcDbLine
 62
7
  6
CENTER
 10
38.8597151088
 20
113.5378300183
 11
38.8597151088
 21
112.0909796246
  0
LINE
  5
48B
100
AcDbEntity
  8
3_ALL_AXES
100
AcDbLine
 62
7
  6
CENTER
 10
38.8597151088
 20
113.5378300183
 11
38.8597151088
 21
114.984680412
  0
LINE
  5
48C
100
AcDbEntity
  8
3_ALL_AXES
100
AcDbLine
 62
7
  6
CONTINUOUS
 10
40.2376678647
 20
122.4354678136
 11
40.2376678647
 21
119.2071213569
  0
LINE
  5
48D
100
AcDbEntity
  8
3_AXES_OTHER
100
AcDbLine
 62
7
  6
CONTINUOUS
 10
41.0250694395
 20
123.4197197821
 11
41.0250694395
 21
122.4354678136
  0
LINE
  5
48E
100
AcDbEntity
  8
3_AXES_OTHER
100
AcDbLine
 62
7
  6
CONTINUOUS
 10
42.6837505418
 20
119.2071213569
 11
35.0356796757
 21
119.2071213569
  0
LINE
  5
48F
100
AcDbEntity
  8
3_AXES_OTHER
100
AcDbLine
 62
7
  6
CONTINUOUS
 10
36.694360778
 20
122.4354678136
 11
41.0250694395
 21
122.4354678136
  0
LINE
  5
490
100
AcDbEntity
  8
3_AXES_OTHER
100
AcDbLine
 62
7
  6
CONTINUOUS
 10
36.694360778
 20
123.4197197821
 11
41.0250694395
 21
123.4197197821
  0
LINE
  5
491
100
AcDbEntity
  8
3_AXES_OTHER
100
AcDbLine
 62
7
  6
CONTINUOUS
 10
41.0250694395
 20
46.3427347546
 11
36.694360778
 21
46.3427347546
  0
LINE
  5
492
100
AcDbEntity
  8
3_AXES_OTHER
100
AcDbLine
 62
7
  6
CONTINUOUS
 10
41.0250694395
 20
47.3269867231
 11
36.694360778
 21
47.3269867231
  0
LINE
  5
493
100
AcDbEntity
  8
3_ALL_AXES
100
AcDbLine
 62
7
  6
CENTER
 10
34.351841093
 20
58.5868292428
 11
34.351841093
 21
57.1399788491
  0
LINE
  5
494
100
AcDbEntity
  8
3_ALL_AXES
100
AcDbLine
 62
7
  6
CENTER
 10
34.351841093
 20
58.5868292428
 11
34.351841093
 21
60.0336796365
  0
LINE
  5
495
100
AcDbEntity
  8
3_AXES_OTHER
100
AcDbLine
 62
7
  6
CONTINUOUS
 10
42.6837505418
 20
50.5553331798
 11
35.0356796757
 21
50.5553331798
  0
LINE
  5
496
100
AcDbEntity
  8
3_AXES_OTHER
100
AcDbLine
 62
7
  6
CONTINUOUS
 10
36.694360778
 20
46.3427347546
 11
36.694360778
 21
47.3269867231
  0
LINE
  5
497
100
AcDbEntity
  8
3_ALL_AXES
100
AcDbLine
 62
7
  6
CONTINUOUS
 10
37.4817623528
 20
50.5553331798
 11
37.4817623528
 21
47.3269867231
  0
LINE
  5
498
100
AcDbEntity
  8
3_ALL_AXES
100
AcDbLine
 62
7
  6
CENTER
 10
38.8597151088
 20
56.2246245184
 11
38.8597151088
 21
54.7777741247
  0
LINE
  5
499
100
AcDbEntity
  8
3_ALL_AXES
100
AcDbLine
 62
7
  6
CENTER
 10
38.8597151088
 20
56.2246245184
 11
38.8597151088
 21
57.6714749121
  0
LINE
  5
49A
100
AcDbEntity
  8
3_ALL_AXES
100
AcDbLine
 62
7
  6
CONTINUOUS
 10
40.2376678647
 20
50.5553331798
 11
40.2376678647
 21
47.3269867231
  0
LINE
  5
49B
100
AcDbEntity
  8
3_ALL_AXES
100
AcDbLine
 62
7
  6
CENTER
 10
38.8597151088
 20
56.2246245184
 11
37.412864715
 21
56.2246245184
  0
LINE
  5
49C
100
AcDbEntity
  8
3_ALL_AXES
100
AcDbLine
 62
7
  6
CENTER
 10
38.8597151088
 20
56.2246245184
 11
40.3065655025
 21
56.2246245184
  0
LINE
  5
49D
100
AcDbEntity
  8
3_AXES_OTHER
100
AcDbLine
 62
7
  6
CONTINUOUS
 10
41.0250694395
 20
46.3427347546
 11
41.0250694395
 21
47.3269867231
  0
LINE
  5
49E
100
AcDbEntity
  8
3_ALL_AXES
100
AcDbLine
 62
7
  6
CENTER
 10
43.3675891245
 20
58.5868292428
 11
43.3675891245
 21
57.1399788491
  0
LINE
  5
49F
100
AcDbEntity
  8
3_ALL_AXES
100
AcDbLine
 62
7
  6
CENTER
 10
43.3675891245
 20
58.5868292428
 11
43.3675891245
 21
60.0336796365
  0
LINE
  5
4A0
100
AcDbEntity
  8
3_ALL_AXES
100
AcDbLine
 62
7
  6
CENTER
 10
43.3675891245
 20
58.5868292428
 11
35.8014639167
 21
58.5868292428
  0
LINE
  5
4A1
100
AcDbEntity
  8
3_ALL_AXES
100
AcDbLine
 62
7
  6
CENTER
 10
34.351841093
 20
58.5868292428
 11
32.9049906993
 21
58.5868292428
  0
LINE
  5
4A2
100
AcDbEntity
  8
3_ALL_AXES
100
AcDbLine
 62
7
  6
CENTER
 10
34.351841093
 20
58.5868292428
 11
35.7986914867
 21
58.5868292428
  0
LINE
  5
4A3
100
AcDbEntity
  8
3_ALL_AXES
100
AcDbLine
 62
7
  6
CENTER
 10
43.3675891245
 20
58.5868292428
 11
44.8144395182
 21
58.5868292428
  0
LINE
  5
4A4
100
AcDbEntity
  8
3_AXES_OTHER
100
AcDbLine
 62
7
  6
CONTINUOUS
 10
33.5332600154
 20
61.4877347546
 11
44.1861694622
 21
61.4877347546
  0
LINE
  5
4A5
100
AcDbEntity
  8
3_ALL_AXES
100
AcDbLine
 62
7
  6
CONTINUOUS
 10
34.8854828253
 20
62.3269867231
 11
42.8339473922
 21
62.3269867231
  0
LINE
  5
4A6
100
AcDbEntity
  8
3_AXES_OTHER
100
AcDbLine
 62
7
  6
CONTINUOUS
 10
78.7044102814
 20
73.9584697643
 11
89.6368118562
 21
75.0457532289
  0
LINE
  5
4A7
100
AcDbEntity
  8
3_AXES_OTHER
100
AcDbLine
 62
7
  6
CONTINUOUS
 10
77.8651583129
 20
73.9584697643
 11
78.7044102814
 21
73.9584697643
  0
LINE
  5
4A8
100
AcDbEntity
  8
3_AXES_OTHER
100
AcDbLine
 62
7
  6
CONTINUOUS
 10
77.8651583129
 20
74.2104382683
 11
79.2431110688
 21
74.2104382683
  0
LINE
  5
4A9
100
AcDbEntity
  8
3_AXES_OTHER
100
AcDbLine
 62
7
  6
CONTINUOUS
 10
77.8651583129
 20
73.9584697643
 11
77.8651583129
 21
74.2104382683
  0
LINE
  5
4AA
100
AcDbEntity
  8
3_AXES_OTHER
100
AcDbLine
 62
7
  6
CONTINUOUS
 10
77.8651583129
 20
94.0214618903
 11
77.8651583129
 21
94.2734303943
  0
LINE
  5
4AB
100
AcDbEntity
  8
3_AXES_OTHER
100
AcDbLine
 62
7
  6
CONTINUOUS
 10
79.2431110688
 20
74.2104382683
 11
79.2431110688
 21
94.0214618903
  0
LINE
  5
4AC
100
AcDbEntity
  8
3_AXES_OTHER
100
AcDbLine
 62
9
  6
CONTINUOUS
 10
79.5348827223
 20
74.0410645123
 11
79.5348827223
 21
94.1908356463
  0
LINE
  5
4AD
100
AcDbEntity
  8
3_AXES_OTHER
100
AcDbLine
 62
9
  6
CONTINUOUS
 10
79.9545741009
 20
74.0828049746
 11
79.9545741009
 21
94.149095184
  0
LINE
  5
4AE
100
AcDbEntity
  8
3_AXES_OTHER
100
AcDbLine
 62
9
  6
CONTINUOUS
 10
80.6561600152
 20
74.1525812958
 11
80.6561600152
 21
94.0793188628
  0
LINE
  5
4AF
100
AcDbEntity
  8
3_AXES_OTHER
100
AcDbLine
 62
7
  6
CONTINUOUS
 10
93.8494102814
 20
80.686816221
 11
92.8651583129
 21
80.686816221
  0
LINE
  5
4B0
100
AcDbEntity
  8
3_ALL_AXES
100
AcDbLine
 62
7
  6
CONTINUOUS
 10
89.6368118562
 20
81.9466587407
 11
92.8651583129
 21
81.9466587407
  0
LINE
  5
4B1
100
AcDbEntity
  8
3_ALL_AXES
100
AcDbLine
 62
7
  6
CONTINUOUS
 10
89.6368118562
 20
84.7025642525
 11
92.8651583129
 21
84.7025642525
  0
LINE
  5
4B2
100
AcDbEntity
  8
3_AXES_OTHER
100
AcDbLine
 62
7
  6
CONTINUOUS
 10
93.8494102814
 20
85.9624067722
 11
92.8651583129
 21
85.9624067722
  0
LINE
  5
4B3
100
AcDbEntity
  8
3_AXES_OTHER
100
AcDbLine
 62
9
  6
CONTINUOUS
 10
88.7755126436
 20
74.9600926002
 11
88.7755126436
 21
93.2718075584
  0
LINE
  5
4B4
100
AcDbEntity
  8
3_AXES_OTHER
100
AcDbLine
 62
7
  6
CONTINUOUS
 10
89.6368118562
 20
75.0457532289
 11
89.6368118562
 21
93.1861469297
  0
LINE
  5
4B5
100
AcDbEntity
  8
3_ALL_AXES
100
AcDbLine
 62
7
  6
CONTINUOUS
 10
89.6373680527
 20
75.0458085455
 11
89.6373680527
 21
81.9466587407
  0
LINE
  5
4B6
100
AcDbEntity
  8
3_ALL_AXES
100
AcDbLine
 62
7
  6
CONTINUOUS
 10
89.6373680527
 20
84.7025642525
 11
89.6373680527
 21
88.249808347
  0
LINE
  5
4B7
100
AcDbEntity
  8
3_ALL_AXES
100
AcDbLine
 62
7
  6
CONTINUOUS
 10
89.6373680527
 20
90.375792599
 11
89.6373680527
 21
93.1860916131
  0
LINE
  5
4B8
100
AcDbEntity
  8
3_AXES_OTHER
100
AcDbLine
 62
7
  6
CONTINUOUS
 10
92.8651583129
 20
85.9624067722
 11
92.8651583129
 21
80.686816221
  0
LINE
  5
4B9
100
AcDbEntity
  8
3_AXES_OTHER
100
AcDbLine
 62
7
  6
CONTINUOUS
 10
93.8494102814
 20
85.9624067722
 11
93.8494102814
 21
80.686816221
  0
LINE
  5
4BA
100
AcDbEntity
  8
3_AXES_OTHER
100
AcDbLine
 62
7
  6
CONTINUOUS
 10
78.7044102814
 20
94.2734303943
 11
89.6375873212
 21
93.1860698057
  0
LINE
  5
4BB
100
AcDbEntity
  8
3_AXES_OTHER
100
AcDbLine
 62
7
  6
CONTINUOUS
 10
77.8651583129
 20
94.0214618903
 11
79.2431110688
 21
94.0214618903
  0
LINE
  5
4BC
100
AcDbEntity
  8
3_AXES_OTHER
100
AcDbLine
 62
7
  6
CONTINUOUS
 10
77.8651583129
 20
94.2734303943
 11
78.7044102814
 21
94.2734303943
  0
LINE
  5
4BD
100
AcDbEntity
  8
3_AXES_OTHER
100
AcDbLine
 62
7
  6
CONTINUOUS
 10
140.3287397999
 20
73.9584697643
 11
129.675830353
 21
73.9584697643
  0
LINE
  5
4BE
100
AcDbEntity
  8
3_AXES_OTHER
100
AcDbLine
 62
7
  6
CONTINUOUS
 10
131.1782492734
 20
75.0457532289
 11
138.8263201396
 21
75.0457532289
  0
LINE
  5
4BF
100
AcDbEntity
  8
3_ALL_AXES
100
AcDbLine
 62
7
  6
CONTINUOUS
 10
128.7150808432
 20
74.1525812958
 11
128.7150808432
 21
94.0793188628
  0
LINE
  5
4C0
100
AcDbEntity
  8
3_AXES_OTHER
100
AcDbLine
 62
9
  6
CONTINUOUS
 10
128.7205468183
 20
74.1525812958
 11
128.7205468183
 21
94.0793188628
  0
LINE
  5
4C1
100
AcDbEntity
  8
3_AXES_OTHER
100
AcDbLine
 62
9
  6
CONTINUOUS
 10
130.0986133077
 20
74.9600926002
 11
130.0986133077
 21
93.2718075584
  0
LINE
  5
4C2
100
AcDbEntity
  8
3_AXES_OTHER
100
AcDbLine
 62
9
  6
CONTINUOUS
 10
131.1782492734
 20
75.0457532289
 11
131.1782492734
 21
93.1861469297
  0
LINE
  5
4C3
100
AcDbEntity
  8
3_AXES_OTHER
100
AcDbLine
 62
7
  6
CONTINUOUS
 10
132.8369303758
 20
80.686816221
 11
137.1676390372
 21
80.686816221
  0
LINE
  5
4C4
100
AcDbEntity
  8
3_ALL_AXES
100
AcDbLine
 62
7
  6
CENTER
 10
135.0022847065
 20
81.0608319691
 11
133.6144894309
 21
81.0608319691
  0
LINE
  5
4C5
100
AcDbEntity
  8
3_ALL_AXES
100
AcDbLine
 62
7
  6
CENTER
 10
135.0022847065
 20
81.0608319691
 11
136.3900799821
 21
81.0608319691
  0
LINE
  5
4C6
100
AcDbEntity
  8
3_AXES_OTHER
100
AcDbLine
 62
7
  6
CONTINUOUS
 10
132.8369303758
 20
85.9624067722
 11
132.8369303758
 21
80.686816221
  0
LINE
  5
4C7
100
AcDbEntity
  8
3_ALL_AXES
100
AcDbLine
 62
7
  6
CENTER
 10
133.2306311632
 20
83.3246114966
 11
133.2306311632
 21
81.936816221
  0
LINE
  5
4C8
100
AcDbEntity
  8
3_ALL_AXES
100
AcDbLine
 62
7
  6
CENTER
 10
133.2306311632
 20
83.3246114966
 11
133.2306311632
 21
84.7124067722
  0
LINE
  5
4C9
100
AcDbEntity
  8
3_AXES_OTHER
100
AcDbLine
 62
7
  6
CONTINUOUS
 10
128.7151024509
 20
74.1398403067
 11
128.7205468183
 21
74.1525812958
  0
LINE
  5
4CA
100
AcDbEntity
  8
3_AXES_OTHER
100
AcDbLine
 62
7
  6
CONTINUOUS
 10
128.7151024509
 20
94.0920598519
 11
128.7205468183
 21
94.0793188628
  0
LINE
  5
4CB
100
AcDbEntity
  8
3_AXES_OTHER
100
AcDbLine
 62
7
  6
CONTINUOUS
 10
133.9392925805
 20
90.375792599
 11
133.9392925805
 21
88.249808347
  0
LINE
  5
4CC
100
AcDbEntity
  8
3_ALL_AXES
100
AcDbLine
 62
7
  6
CENTER
 10
136.7739382498
 20
83.3246114966
 11
133.8166555338
 21
83.3246114966
  0
LINE
  5
4CD
100
AcDbEntity
  8
3_ALL_AXES
100
AcDbLine
 62
7
  6
CENTER
 10
133.2306311632
 20
83.3246114966
 11
131.8428358876
 21
83.3246114966
  0
LINE
  5
4CE
100
AcDbEntity
  8
3_ALL_AXES
100
AcDbLine
 62
7
  6
CENTER
 10
133.2306311632
 20
83.3246114966
 11
133.8166555338
 21
83.3246114966
  0
LINE
  5
4CF
100
AcDbEntity
  8
3_ALL_AXES
100
AcDbLine
 62
7
  6
CENTER
 10
136.7739382498
 20
83.3246114966
 11
138.1617335254
 21
83.3246114966
  0
LINE
  5
4D0
100
AcDbEntity
  8
3_AXES_OTHER
100
AcDbLine
 62
7
  6
CONTINUOUS
 10
134.549528801
 20
89.8915406305
 11
134.549528801
 21
89.5372099218
  0
LINE
  5
4D1
100
AcDbEntity
  8
3_ALL_AXES
100
AcDbLine
 62
7
  6
CENTER
 10
135.0022847065
 20
85.5883910242
 11
135.0022847065
 21
84.2005957486
  0
LINE
  5
4D2
100
AcDbEntity
  8
3_ALL_AXES
100
AcDbLine
 62
7
  6
CENTER
 10
135.0022847065
 20
81.0608319691
 11
135.0022847065
 21
73.7078729807
  0
LINE
  5
4D3
100
AcDbEntity
  8
3_ALL_AXES
100
AcDbLine
 62
7
  6
CENTER
 10
135.0022847065
 20
81.0608319691
 11
135.0022847065
 21
84.2005957486
  0
LINE
  5
4D4
100
AcDbEntity
  8
3_ALL_AXES
100
AcDbLine
 62
7
  6
CENTER
 10
135.0022847065
 20
85.5883910242
 11
135.0022847065
 21
94.5718218985
  0
LINE
  5
4D5
100
AcDbEntity
  8
3_AXES_OTHER
100
AcDbLine
 62
7
  6
CONTINUOUS
 10
135.455040612
 20
89.5372099218
 11
135.455040612
 21
89.8915406305
  0
LINE
  5
4D6
100
AcDbEntity
  8
3_AXES_OTHER
100
AcDbLine
 62
7
  6
CONTINUOUS
 10
136.0652768325
 20
88.249808347
 11
136.0652768325
 21
90.375792599
  0
LINE
  5
4D7
100
AcDbEntity
  8
3_ALL_AXES
100
AcDbLine
 62
7
  6
CENTER
 10
135.0022847065
 20
85.5883910242
 11
133.6144894309
 21
85.5883910242
  0
LINE
  5
4D8
100
AcDbEntity
  8
3_ALL_AXES
100
AcDbLine
 62
7
  6
CENTER
 10
135.0022847065
 20
85.5883910242
 11
136.3900799821
 21
85.5883910242
  0
LINE
  5
4D9
100
AcDbEntity
  8
3_ALL_AXES
100
AcDbLine
 62
7
  6
CENTER
 10
136.7739382498
 20
83.3246114966
 11
136.7739382498
 21
81.936816221
  0
LINE
  5
4DA
100
AcDbEntity
  8
3_ALL_AXES
100
AcDbLine
 62
7
  6
CENTER
 10
136.7739382498
 20
83.3246114966
 11
136.7739382498
 21
84.7124067722
  0
LINE
  5
4DB
100
AcDbEntity
  8
3_AXES_OTHER
100
AcDbLine
 62
7
  6
CONTINUOUS
 10
137.1676390372
 20
80.686816221
 11
137.1676390372
 21
85.9624067722
  0
LINE
  5
4DC
100
AcDbEntity
  8
3_AXES_OTHER
100
AcDbLine
 62
7
  6
CONTINUOUS
 10
141.2840225947
 20
94.0793188628
 11
141.2894669648
 21
94.0920598508
  0
LINE
  5
4DD
100
AcDbEntity
  8
3_AXES_OTHER
100
AcDbLine
 62
7
  6
CONTINUOUS
 10
137.1676390372
 20
85.9624067722
 11
132.8369303758
 21
85.9624067722
  0
LINE
  5
4DE
100
AcDbEntity
  8
3_AXES_OTHER
100
AcDbLine
 62
7
  6
CONTINUOUS
 10
141.2840225947
 20
74.1525812958
 11
141.2894669648
 21
74.1398403078
  0
LINE
  5
4DF
100
AcDbEntity
  8
3_AXES_OTHER
100
AcDbLine
 62
7
  6
CONTINUOUS
 10
138.8263201396
 20
75.0457532289
 11
138.8263201396
 21
93.1861469297
  0
LINE
  5
4E0
100
AcDbEntity
  8
3_AXES_OTHER
100
AcDbLine
 62
7
  6
CONTINUOUS
 10
133.9392925805
 20
88.249808347
 11
136.0652768325
 21
88.249808347
  0
LINE
  5
4E1
100
AcDbEntity
  8
3_AXES_OTHER
100
AcDbLine
 62
9
  6
CONTINUOUS
 10
139.9059561053
 20
74.9600926002
 11
139.9059561053
 21
93.2718075584
  0
LINE
  5
4E2
100
AcDbEntity
  8
3_AXES_OTHER
100
AcDbLine
 62
7
  6
CONTINUOUS
 10
134.549528801
 20
89.5372099218
 11
135.455040612
 21
89.5372099218
  0
LINE
  5
4E3
100
AcDbEntity
  8
3_AXES_OTHER
100
AcDbLine
 62
9
  6
CONTINUOUS
 10
141.2840225947
 20
74.1525812958
 11
141.2840225947
 21
94.0793188628
  0
LINE
  5
4E4
100
AcDbEntity
  8
3_ALL_AXES
100
AcDbLine
 62
7
  6
CONTINUOUS
 10
141.2894885698
 20
74.1525812958
 11
141.2894885698
 21
94.0793188628
  0
LINE
  5
4E5
100
AcDbEntity
  8
3_AXES_OTHER
100
AcDbLine
 62
7
  6
CONTINUOUS
 10
135.455040612
 20
89.8915406305
 11
134.549528801
 21
89.8915406305
  0
LINE
  5
4E6
100
AcDbEntity
  8
3_AXES_OTHER
100
AcDbLine
 62
7
  6
CONTINUOUS
 10
136.0652768325
 20
90.375792599
 11
133.9392925805
 21
90.375792599
  0
LINE
  5
4E7
100
AcDbEntity
  8
3_AXES_OTHER
100
AcDbLine
 62
7
  6
CONTINUOUS
 10
131.1782492734
 20
93.1861469297
 11
138.8263201396
 21
93.1861469297
  0
LINE
  5
4E8
100
AcDbEntity
  8
3_AXES_OTHER
100
AcDbLine
 62
7
  6
CONTINUOUS
 10
140.3287397999
 20
94.2734303943
 11
129.675830353
 21
94.2734303943
  0
LINE
  5
4E9
100
AcDbEntity
  8
3_ALL_AXES
100
AcDbLine
 62
7
  6
CONTINUOUS
 10
175.8551939246
 20
85.8776427962
 11
180.7730554705
 21
83.0375705626
  0
LINE
  5
4EA
100
AcDbEntity
  8
3_AXES_OTHER
100
AcDbLine
 62
7
  6
CONTINUOUS
 10
175.8551939246
 20
86.0576342151
 11
180.7730554705
 21
83.2175619816
  0
LINE
  5
4EB
100
AcDbEntity
  8
3_AXES_OTHER
100
AcDbLine
 62
7
  6
CONTINUOUS
 10
175.5927523374
 20
87.1939094188
 11
182.7406240251
 21
83.0660030676
  0
LINE
  5
4EC
100
AcDbEntity
  8
3_AXES_OTHER
100
AcDbLine
 62
7
  6
CONTINUOUS
 10
175.5378094092
 20
101.1724885571
 11
175.5378474024
 21
101.1600685318
  0
LINE
  5
4ED
100
AcDbEntity
  8
3_ALL_AXES
100
AcDbLine
 62
7
  6
CONTINUOUS
 10
175.537744531
 20
101.1600682771
 11
175.537744531
 21
100.9800768581
  0
LINE
  5
4EE
100
AcDbEntity
  8
3_ALL_AXES
100
AcDbLine
 62
7
  6
CONTINUOUS
 10
175.537744531
 20
86.8282515415
 11
175.537744531
 21
86.6482601225
  0
LINE
  5
4EF
100
AcDbEntity
  8
3_AXES_OTHER
100
AcDbLine
 62
7
  6
CONTINUOUS
 10
175.5927523374
 20
87.1939094188
 11
175.5927523374
 21
100.6386759142
  0
LINE
  5
4F0
100
AcDbEntity
  8
3_AXES_OTHER
100
AcDbLine
 62
7
  6
CONTINUOUS
 10
175.8551939246
 20
85.8776427962
 11
175.8551939246
 21
86.0576342151
  0
LINE
  5
4F1
100
AcDbEntity
  8
3_AXES_OTHER
100
AcDbLine
 62
7
  6
CONTINUOUS
 10
175.8551939246
 20
100.2094595318
 11
175.8551939246
 21
100.3894509507
  0
LINE
  5
4F2
100
AcDbEntity
  8
3_AXES_OTHER
100
AcDbLine
 62
7
  6
CONTINUOUS
 10
176.0730973005
 20
94.9626884014
 11
176.0730973005
 21
100.0836200136
  0
LINE
  5
4F3
100
AcDbEntity
  8
3_AXES_OTHER
100
AcDbLine
 62
7
  6
CONTINUOUS
 10
181.0249991867
 20
97.1320823082
 11
176.0730973005
 21
94.9626884014
  0
LINE
  5
4F4
100
AcDbEntity
  8
3_AXES_OTHER
100
AcDbLine
 62
7
  6
CONTINUOUS
 10
179.5037247839
 20
92.0404203828
 11
179.1666894682
 21
92.2621154767
  0
LINE
  5
4F5
100
AcDbEntity
  8
3_AXES_OTHER
100
AcDbLine
 62
7
  6
CONTINUOUS
 10
180.7730554705
 20
83.0375705626
 11
180.7730554705
 21
83.2175619816
  0
LINE
  5
4F6
100
AcDbEntity
  8
3_AXES_OTHER
100
AcDbLine
 62
7
  6
CONTINUOUS
 10
180.7730554705
 20
97.3693872982
 11
180.7730554705
 21
97.5493787172
  0
LINE
  5
4F7
100
AcDbEntity
  8
3_AXES_OTHER
100
AcDbLine
 62
7
  6
CONTINUOUS
 10
182.2602816359
 20
91.389580401
 11
176.0730973005
 21
94.9626884014
  0
LINE
  5
4F8
100
AcDbEntity
  8
3_AXES_OTHER
100
AcDbLine
 62
7
  6
CONTINUOUS
 10
182.2602816359
 20
97.1549305399
 11
182.2602816359
 21
91.389580401
  0
LINE
  5
4F9
100
AcDbEntity
  8
3_AXES_OTHER
100
AcDbLine
 62
7
  6
CONTINUOUS
 10
189.5436206763
 20
97.9701517446
 11
188.9346458402
 21
97.6184678862
  0
LINE
  5
4FA
100
AcDbEntity
  8
3_AXES_OTHER
100
AcDbLine
 62
7
  6
CONTINUOUS
 10
181.4494086355
 20
96.886985231
 11
182.2602816359
 21
91.389580401
  0
LINE
  5
4FB
100
AcDbEntity
  8
3_AXES_OTHER
100
AcDbLine
 62
7
  6
CONTINUOUS
 10
182.7406240251
 20
83.0660030676
 11
182.7406240251
 21
97.2178283842
  0
LINE
  5
4FC
100
AcDbEntity
  8
3_AXES_OTHER
100
AcDbLine
 62
9
  6
CONTINUOUS
 10
183.0372370357
 20
82.9822243374
 11
183.0372370357
 21
97.3760308716
  0
LINE
  5
4FD
100
AcDbEntity
  8
3_AXES_OTHER
100
AcDbLine
 62
9
  6
CONTINUOUS
 10
183.4260488147
 20
83.0874224124
 11
183.4260488147
 21
97.4215951039
  0
LINE
  5
4FE
100
AcDbEntity
  8
3_AXES_OTHER
100
AcDbLine
 62
9
  6
CONTINUOUS
 10
183.9275959249
 20
83.3489907547
 11
183.9275959249
 21
97.58347528
  0
LINE
  5
4FF
100
AcDbEntity
  8
3_AXES_OTHER
100
AcDbLine
 62
7
  6
CONTINUOUS
 10
175.8551939246
 20
100.2094595318
 11
180.7730554705
 21
97.3693872982
  0
LINE
  5
500
100
AcDbEntity
  8
3_AXES_OTHER
100
AcDbLine
 62
7
  6
CONTINUOUS
 10
189.5436206763
 20
94.2015814098
 11
188.9346458402
 21
93.8498975515
  0
LINE
  5
501
100
AcDbEntity
  8
3_ALL_AXES
100
AcDbLine
 62
7
  6
CONTINUOUS
 10
175.8551939246
 20
100.3894509507
 11
180.7730554705
 21
97.5493787172
  0
LINE
  5
502
100
AcDbEntity
  8
3_AXES_OTHER
100
AcDbLine
 62
7
  6
CONTINUOUS
 10
182.2003389688
 20
97.1895475178
 11
182.2602816359
 21
97.1549305399
  0
LINE
  5
503
100
AcDbEntity
  8
3_AXES_OTHER
100
AcDbLine
 62
7
  6
CONTINUOUS
 10
175.5378094092
 20
101.1724885571
 11
182.1289608547
 21
97.3660889598
  0
LINE
  5
504
100
AcDbEntity
  8
3_AXES_OTHER
100
AcDbLine
 62
7
  6
CONTINUOUS
 10
182.135147322
 20
97.1891983802
 11
182.2602816359
 21
97.1549305399
  0
LINE
  5
505
100
AcDbEntity
  8
3_AXES_OTHER
100
AcDbLine
 62
7
  6
CONTINUOUS
 10
188.9346458402
 20
93.8498975515
 11
188.2237645051
 21
94.260432562
  0
LINE
  5
506
100
AcDbEntity
  8
3_AXES_OTHER
100
AcDbLine
 62
9
  6
CONTINUOUS
 10
188.0985539248
 20
87.3193595656
 11
188.0985539248
 21
100.4001673158
  0
LINE
  5
507
100
AcDbEntity
  8
3_ALL_AXES
100
AcDbLine
 62
7
  6
CONTINUOUS
 10
188.2237645051
 20
87.6389884975
 11
188.2237645051
 21
100.6489132386
  0
LINE
  5
508
100
AcDbEntity
  8
3_AXES_OTHER
100
AcDbLine
 62
7
  6
CONTINUOUS
 10
188.9346458402
 20
97.6184678862
 11
188.9346458402
 21
93.8498975515
  0
LINE
  5
509
100
AcDbEntity
  8
3_AXES_OTHER
100
AcDbLine
 62
7
  6
CONTINUOUS
 10
188.2237645051
 20
98.0290028967
 11
188.9346458402
 21
97.6184678862
  0
LINE
  5
50A
100
AcDbEntity
  8
3_AXES_OTHER
100
AcDbLine
 62
7
  6
CONTINUOUS
 10
189.5436206763
 20
97.9701517446
 11
189.5436206763
 21
94.2015814098
  0
LINE
  5
50B
100
AcDbEntity
  8
3_AXES_OTHER
100
AcDbLine
 62
7
  6
CONTINUOUS
 10
188.2237645051
 20
98.7323706133
 11
189.5436206763
 21
97.9701517446
  0
LINE
  5
50C
100
AcDbEntity
  8
3_AXES_OTHER
100
AcDbLine
 62
7
  6
CONTINUOUS
 10
187.963464951
 20
101.0324935229
 11
183.2314625251
 21
103.7652318429
  0
CIRCLE
  5
50D
100
AcDbEntity
  8
3_AXES_OTHER
100
AcDbCircle
 62
7
  6
CONTINUOUS
 10
38.8597151088
 20
80.2576823628
 40
3.937007874
  0
CIRCLE
  5
50E
100
AcDbEntity
  8
3_AXES_OTHER
100
AcDbCircle
 62
7
  6
CONTINUOUS
 10
38.8597151088
 20
80.2576823628
 40
2.5590551181
  0
CIRCLE
  5
50F
100
AcDbEntity
  8
3_AXES_OTHER
100
AcDbCircle
 62
7
  6
CONTINUOUS
 10
38.8597151088
 20
89.5096508667
 40
0.4850393701
  0
ARC
  5
510
100
AcDbEntity
  8
3_AXES_OTHER
100
AcDbCircle
 62
7
  6
CONTINUOUS
 10
-4.5888814112
 20
105.9625544278
 40
49.9127952756
100
AcDbArc
 50
4.9005964462
 51
14.3649937172
  0
ARC
  5
511
100
AcDbEntity
  8
3_AXES_OTHER
100
AcDbCircle
 62
7
  6
CONTINUOUS
 10
82.3083116287
 20
105.9625544278
 40
49.9127952756
100
AcDbArc
 50
165.6350062828
 51
175.0994035538
  0
ARC
  5
512
100
AcDbEntity
  8
3_AXES_OTHER
100
AcDbCircle
 62
7
  6
CONTINUOUS
 10
36.5422299554
 20
111.2445302336
 40
4.2277304388
100
AcDbArc
 50
210.3994555207
 51
224.6247326056
  0
ARC
  5
513
100
AcDbEntity
  8
3_AXES_OTHER
100
AcDbCircle
 62
7
  6
CONTINUOUS
 10
41.8291245576
 20
110.8562158451
 40
3.4689370079
100
AcDbArc
 50
329.6837557706
 51
337.4315558699
  0
ARC
  5
514
100
AcDbEntity
  8
3_AXES_OTHER
100
AcDbCircle
 62
7
  6
CONTINUOUS
 10
35.8903056599
 20
110.8562158451
 40
3.4689370079
100
AcDbArc
 50
202.5684441301
 51
210.3162442294
  0
ARC
  5
515
100
AcDbEntity
  8
3_AXES_OTHER
100
AcDbCircle
 62
7
  6
CONTINUOUS
 10
43.6516827516
 20
110.0987355301
 40
1.4952362205
100
AcDbArc
 50
337.4315558699
 51
4.9005964462
  0
ARC
  5
516
100
AcDbEntity
  8
3_AXES_OTHER
100
AcDbCircle
 62
7
  6
CONTINUOUS
 10
34.0677474659
 20
110.0987355301
 40
1.4952362205
100
AcDbArc
 50
175.0994035538
 51
202.5684441301
  0
CIRCLE
  5
517
100
AcDbEntity
  8
3_ALL_AXES
100
AcDbCircle
 62
7
  6
CONTINUOUS
 10
38.8597151088
 20
113.5378300183
 40
0.1968503937
  0
ARC
  5
518
100
AcDbEntity
  8
3_AXES_OTHER
100
AcDbCircle
 62
7
  6
CONTINUOUS
 10
-4.5888814112
 20
63.799900109
 40
49.9127952756
100
AcDbArc
 50
345.6350062828
 51
355.0994035538
  0
ARC
  5
519
100
AcDbEntity
  8
3_AXES_OTHER
100
AcDbCircle
 62
7
  6
CONTINUOUS
 10
82.3083116287
 20
63.799900109
 40
49.9127952756
100
AcDbArc
 50
184.9005964462
 51
194.3649937172
  0
ARC
  5
51A
100
AcDbEntity
  8
3_AXES_OTHER
100
AcDbCircle
 62
7
  6
CONTINUOUS
 10
36.542229879
 20
58.5179242014
 40
4.2277304388
100
AcDbArc
 50
135.3752656855
 51
149.6005427654
  0
ARC
  5
51B
100
AcDbEntity
  8
3_AXES_OTHER
100
AcDbCircle
 62
7
  6
CONTINUOUS
 10
41.8291245576
 20
58.9062386917
 40
3.4689370079
100
AcDbArc
 50
22.5684441301
 51
30.3162442294
  0
ARC
  5
51C
100
AcDbEntity
  8
3_AXES_OTHER
100
AcDbCircle
 62
7
  6
CONTINUOUS
 10
35.8903056599
 20
58.9062386917
 40
3.4689370079
100
AcDbArc
 50
149.6837557706
 51
157.4315558699
  0
ARC
  5
51D
100
AcDbEntity
  8
3_AXES_OTHER
100
AcDbCircle
 62
7
  6
CONTINUOUS
 10
43.6516827516
 20
59.6637190066
 40
1.4952362205
100
AcDbArc
 50
355.0994035538
 51
22.5684441301
  0
ARC
  5
51E
100
AcDbEntity
  8
3_AXES_OTHER
100
AcDbCircle
 62
7
  6
CONTINUOUS
 10
34.0677474659
 20
59.6637190066
 40
1.4952362205
100
AcDbArc
 50
157.4315558699
 51
184.9005964462
  0
CIRCLE
  5
51F
100
AcDbEntity
  8
3_ALL_AXES
100
AcDbCircle
 62
7
  6
CONTINUOUS
 10
34.351841093
 20
58.5868292428
 40
0.1968503937
  0
CIRCLE
  5
520
100
AcDbEntity
  8
3_ALL_AXES
100
AcDbCircle
 62
7
  6
CONTINUOUS
 10
43.3675891245
 20
58.5868292428
 40
0.1968503937
  0
CIRCLE
  5
521
100
AcDbEntity
  8
3_ALL_AXES
100
AcDbCircle
 62
7
  6
CONTINUOUS
 10
38.8597151088
 20
56.2246245184
 40
0.1968503937
  0
CIRCLE
  5
522
100
AcDbEntity
  8
3_ALL_AXES
100
AcDbCircle
 62
7
  6
CONTINUOUS
 10
133.2306311632
 20
83.3246114966
 40
0.1377952756
  0
CIRCLE
  5
523
100
AcDbEntity
  8
3_ALL_AXES
100
AcDbCircle
 62
7
  6
CONTINUOUS
 10
136.7739382498
 20
83.3246114966
 40
0.1377952756
  0
CIRCLE
  5
524
100
AcDbEntity
  8
3_ALL_AXES
100
AcDbCircle
 62
7
  6
CONTINUOUS
 10
135.0022847065
 20
81.0608319691
 40
0.1377952756
  0
CIRCLE
  5
525
100
AcDbEntity
  8
3_ALL_AXES
100
AcDbCircle
 62
7
  6
CONTINUOUS
 10
135.0022847065
 20
85.5883910242
 40
0.1377952756
  0
ARC
  5
526
100
AcDbEntity
  8
3_AXES_OTHER
100
AcDbCircle
 62
7
  6
CONTINUOUS
 10
182.5084730517
 20
104.18875487
 40
6.83321298
100
AcDbArc
 50
266.8161914961
 51
274.4380676106
  0
ARC
  5
527
100
AcDbEntity
  8
3_AXES_OTHER
100
AcDbCircle
 62
7
  6
CONTINUOUS
 10
181.7788215068
 20
88.6278498244
 40
5.7841764135
100
AcDbArc
 50
273.4704645577
 51
282.5658629446
  0
ARC
  5
528
100
AcDbEntity
  8
3_AXES_OTHER
100
AcDbCircle
 62
7
  6
CONTINUOUS
 10
176.6974173351
 20
101.1594577988
 40
1.1596729649
100
AcDbArc
 50
179.9698256098
 51
188.7317935638
  0
ARC
  5
529
100
AcDbEntity
  8
3_AXES_OTHER
100
AcDbCircle
 62
7
  6
CONTINUOUS
 10
176.6973468198
 20
86.8276375266
 40
1.1596024513
100
AcDbArc
 50
179.9696637445
 51
188.7505153151
  0
SPLINE
  5
52A
100
AcDbEntity
  8
3_AXES_OTHER
100
AcDbSpline
 62
7
  6
CONTINUOUS
 70
0
 71
3
 72
9
 73
5
 74
0
 42
0.0000001
 43
0.0000001
 44
0.0000000001
 40
0.0
 40
0.0
 40
0.0
 40
0.0
 40
0.2198144731
 40
1.0
 40
1.0
 40
1.0
 40
1.0
 10
44.8236930139
 20
94.1908356463
 30
0.0
 10
44.7772520659
 20
94.1987346174
 30
0.0
 10
44.5655115696
 20
94.231915768
 30
0.0
 10
44.3525284372
 20
94.2566844348
 30
0.0
 10
44.1861694622
 20
94.2734303943
 30
0.0
  0
SPLINE
  5
52B
100
AcDbEntity
  8
3_AXES_OTHER
100
AcDbSpline
 62
7
  6
CONTINUOUS
 70
0
 71
3
 72
9
 73
5
 74
0
 42
0.0000001
 43
0.0000001
 44
0.0000000001
 40
0.0
 40
0.0
 40
0.0
 40
0.0
 40
0.2792431018
 40
1.0
 40
1.0
 40
1.0
 40
1.0
 10
44.1861694622
 20
73.9584697643
 30
0.0
 10
44.2457114697
 20
73.9644633577
 30
0.0
 10
44.4587826559
 20
73.987303881
 30
0.0
 10
44.6714188325
 20
74.0151647534
 30
0.0
 10
44.8236930139
 20
74.0410645123
 30
0.0
  0
SPLINE
  5
52C
100
AcDbEntity
  8
3_AXES_OTHER
100
AcDbSpline
 62
7
  6
CONTINUOUS
 70
0
 71
3
 72
9
 73
5
 74
0
 42
0.0000001
 43
0.0000001
 44
0.0000000001
 40
0.0
 40
0.0
 40
0.0
 40
0.0
 40
0.2198256571
 40
1.0
 40
1.0
 40
1.0
 40
1.0
 10
32.8957372036
 20
74.0410645123
 30
0.0
 10
32.9421810657
 20
74.0331687089
 30
0.0
 10
33.1539198817
 20
73.9999792886
 30
0.0
 10
33.366903619
 20
73.9752154616
 30
0.0
 10
33.5332600154
 20
73.9584697643
 30
0.0
  0
SPLINE
  5
52D
100
AcDbEntity
  8
3_AXES_OTHER
100
AcDbSpline
 62
7
  6
CONTINUOUS
 70
0
 71
3
 72
9
 73
5
 74
0
 42
0.0000001
 43
0.0000001
 44
0.0000000001
 40
0.0
 40
0.0
 40
0.0
 40
0.0
 40
0.2792189089
 40
1.0
 40
1.0
 40
1.0
 40
1.0
 10
33.5332600154
 20
94.2734303943
 30
0.0
 10
33.473723235
 20
94.267437328
 30
0.0
 10
33.2606519297
 20
94.2445989166
 30
0.0
 10
33.0480183058
 20
94.2167245709
 30
0.0
 10
32.8957372036
 20
94.1908356463
 30
0.0
  0
SPLINE
  5
52E
100
AcDbEntity
  8
3_AXES_OTHER
100
AcDbSpline
 62
7
  6
CONTINUOUS
 70
0
 71
3
 72
13
 73
9
 74
0
 42
0.0000001
 43
0.0000001
 44
0.0000000001
 40
0.0
 40
0.0
 40
0.0
 40
0.0
 40
0.0107658939
 40
0.1386538704
 40
0.2773077407
 40
0.5546154815
 40
0.8319232222
 40
1.0
 40
1.0
 40
1.0
 40
1.0
 10
42.8339473922
 20
107.4354678136
 30
0.0
 10
42.8402223049
 20
107.4370321944
 30
0.0
 10
42.9206863132
 20
107.457536577
 30
0.0
 10
43.0728060171
 20
107.5075090968
 30
0.0
 10
43.3478333348
 20
107.6292317217
 30
0.0
 10
43.6633155517
 20
107.8201238593
 30
0.0
 10
43.9578283695
 20
108.0540829179
 30
0.0
 10
44.1250220951
 20
108.2128306555
 30
0.0
 10
44.1861694622
 20
108.2747197821
 30
0.0
  0
SPLINE
  5
52F
100
AcDbEntity
  8
3_AXES_OTHER
100
AcDbSpline
 62
7
  6
CONTINUOUS
 70
0
 71
3
 72
13
 73
9
 74
0
 42
0.0000001
 43
0.0000001
 44
0.0000000001
 40
0.0
 40
0.0
 40
0.0
 40
0.0
 40
0.1680769843
 40
0.4453846562
 40
0.7226923281
 40
0.8613461641
 40
0.9892341088
 40
1.0
 40
1.0
 40
1.0
 40
1.0
 10
33.5332600154
 20
108.2747197821
 30
0.0
 10
33.5944074804
 20
108.212830566
 30
0.0
 10
33.7616021031
 20
108.0540832067
 30
0.0
 10
34.0561145485
 20
107.8201237907
 30
0.0
 10
34.3715968974
 20
107.6292317303
 30
0.0
 10
34.6466241978
 20
107.5075090952
 30
0.0
 10
34.7987439043
 20
107.457536577
 30
0.0
 10
34.8792079126
 20
107.4370321944
 30
0.0
 10
34.8854828253
 20
107.4354678136
 30
0.0
  0
SPLINE
  5
530
100
AcDbEntity
  8
3_AXES_OTHER
100
AcDbSpline
 62
7
  6
CONTINUOUS
 70
0
 71
3
 72
11
 73
7
 74
0
 42
0.0000001
 43
0.0000001
 44
0.0000000001
 40
0.0
 40
0.0
 40
0.0
 40
0.0
 40
0.0058155153
 40
0.4211149504
 40
0.8364143854
 40
1.0
 40
1.0
 40
1.0
 40
1.0
 10
44.8236930139
 20
109.1051922231
 30
0.0
 10
44.8226418562
 20
109.1033945524
 30
0.0
 10
44.7464037363
 20
108.973328385
 30
0.0
 10
44.5829833865
 20
108.7272193897
 30
0.0
 10
44.363623115
 20
108.4602337258
 30
0.0
 10
44.2259083594
 20
108.3149407394
 30
0.0
 10
44.1861694622
 20
108.2747197821
 30
0.0
  0
SPLINE
  5
531
100
AcDbEntity
  8
3_AXES_OTHER
100
AcDbSpline
 62
7
  6
CONTINUOUS
 70
0
 71
3
 72
8
 73
4
 74
0
 42
0.0000001
 43
0.0000001
 44
0.0000000001
 40
0.0
 40
0.0
 40
0.0
 40
0.0
 40
1.0
 40
1.0
 40
1.0
 40
1.0
 10
42.6837505418
 20
119.2071213569
 30
0.0
 10
43.1441187703
 20
119.2071213569
 30
0.0
 10
43.6553128066
 20
118.7933251957
 30
0.0
 10
43.7633865075
 20
118.3458221443
 30
0.0
  0
SPLINE
  5
532
100
AcDbEntity
  8
3_AXES_OTHER
100
AcDbSpline
 62
7
  6
CONTINUOUS
 70
0
 71
3
 72
8
 73
4
 74
0
 42
0.0000001
 43
0.0000001
 44
0.0000000001
 40
0.0
 40
0.0
 40
0.0
 40
0.0
 40
1.0
 40
1.0
 40
1.0
 40
1.0
 10
33.95604371
 20
118.3458221443
 30
0.0
 10
34.0641174109
 20
118.7933251957
 30
0.0
 10
34.5756718327
 20
119.2253337192
 30
0.0
 10
35.0356796757
 20
119.2071213569
 30
0.0
  0
SPLINE
  5
533
100
AcDbEntity
  8
3_AXES_OTHER
100
AcDbSpline
 62
7
  6
CONTINUOUS
 70
0
 71
3
 72
13
 73
9
 74
0
 42
0.0000001
 43
0.0000001
 44
0.0000000001
 40
0.0
 40
0.0
 40
0.0
 40
0.0
 40
0.1680769843
 40
0.4453846562
 40
0.7226923281
 40
0.8613461641
 40
0.9892341088
 40
1.0
 40
1.0
 40
1.0
 40
1.0
 10
33.5332600154
 20
61.4877347546
 30
0.0
 10
33.5944074804
 20
61.5496239707
 30
0.0
 10
33.7616021031
 20
61.7083713301
 30
0.0
 10
34.0561145485
 20
61.9423307461
 30
0.0
 10
34.3715968974
 20
62.1332228064
 30
0.0
 10
34.6466241978
 20
62.2549454415
 30
0.0
 10
34.7987439043
 20
62.3049179597
 30
0.0
 10
34.8792079126
 20
62.3254223424
 30
0.0
 10
34.8854828253
 20
62.3269867231
 30
0.0
  0
SPLINE
  5
534
100
AcDbEntity
  8
3_AXES_OTHER
100
AcDbSpline
 62
7
  6
CONTINUOUS
 70
0
 71
3
 72
13
 73
9
 74
0
 42
0.0000001
 43
0.0000001
 44
0.0000000001
 40
0.0
 40
0.0
 40
0.0
 40
0.0
 40
0.0107658939
 40
0.1386538704
 40
0.2773077407
 40
0.5546154815
 40
0.8319232222
 40
1.0
 40
1.0
 40
1.0
 40
1.0
 10
42.8339473922
 20
62.3269867231
 30
0.0
 10
42.8402223049
 20
62.3254223424
 30
0.0
 10
42.9206863132
 20
62.3049179598
 30
0.0
 10
43.0728060171
 20
62.2549454399
 30
0.0
 10
43.3478333348
 20
62.133222815
 30
0.0
 10
43.6633155517
 20
61.9423306775
 30
0.0
 10
43.9578283695
 20
61.7083716189
 30
0.0
 10
44.1250220951
 20
61.5496238812
 30
0.0
 10
44.1861694622
 20
61.4877347546
 30
0.0
  0
SPLINE
  5
535
100
AcDbEntity
  8
3_AXES_OTHER
100
AcDbSpline
 62
7
  6
CONTINUOUS
 70
0
 71
3
 72
11
 73
7
 74
0
 42
0.0000001
 43
0.0000001
 44
0.0000000001
 40
0.0
 40
0.0
 40
0.0
 40
0.0
 40
0.1635856146
 40
0.5788850496
 40
0.9941844847
 40
1.0
 40
1.0
 40
1.0
 40
1.0
 10
44.1861694622
 20
61.4877347546
 30
0.0
 10
44.2259083594
 20
61.4475137974
 30
0.0
 10
44.363623115
 20
61.302220811
 30
0.0
 10
44.5829833865
 20
61.035235147
 30
0.0
 10
44.7464037363
 20
60.7891261517
 30
0.0
 10
44.8226418562
 20
60.6590599843
 30
0.0
 10
44.8236930139
 20
60.6572623137
 30
0.0
  0
SPLINE
  5
536
100
AcDbEntity
  8
3_AXES_OTHER
100
AcDbSpline
 62
7
  6
CONTINUOUS
 70
0
 71
3
 72
8
 73
4
 74
0
 42
0.0000001
 43
0.0000001
 44
0.0000000001
 40
0.0
 40
0.0
 40
0.0
 40
0.0
 40
1.0
 40
1.0
 40
1.0
 40
1.0
 10
43.7633865075
 20
51.4166323924
 30
0.0
 10
43.6553128066
 20
50.9691293411
 30
0.0
 10
43.1441187703
 20
50.5553331798
 30
0.0
 10
42.6837505418
 20
50.5553331798
 30
0.0
  0
SPLINE
  5
537
100
AcDbEntity
  8
3_AXES_OTHER
100
AcDbSpline
 62
7
  6
CONTINUOUS
 70
0
 71
3
 72
8
 73
4
 74
0
 42
0.0000001
 43
0.0000001
 44
0.0000000001
 40
0.0
 40
0.0
 40
0.0
 40
0.0
 40
1.0
 40
1.0
 40
1.0
 40
1.0
 10
35.0356796757
 20
50.5553331798
 30
0.0
 10
34.5756718327
 20
50.5371208176
 30
0.0
 10
34.0641174109
 20
50.9691293411
 30
0.0
 10
33.95604371
 20
51.4166323924
 30
0.0
  0
SPLINE
  5
538
100
AcDbEntity
  8
3_AXES_OTHER
100
AcDbSpline
 62
7
  6
CONTINUOUS
 70
0
 71
3
 72
9
 73
5
 74
0
 42
0.0000001
 43
0.0000001
 44
0.0000000001
 40
0.0
 40
0.0
 40
0.0
 40
0.0
 40
0.2198144731
 40
1.0
 40
1.0
 40
1.0
 40
1.0
 10
129.0383068014
 20
94.1908356463
 30
0.0
 10
129.0847477494
 20
94.1987346174
 30
0.0
 10
129.2964882456
 20
94.231915768
 30
0.0
 10
129.509471378
 20
94.2566844348
 30
0.0
 10
129.675830353
 20
94.2734303943
 30
0.0
  0
SPLINE
  5
539
100
AcDbEntity
  8
3_AXES_OTHER
100
AcDbSpline
 62
7
  6
CONTINUOUS
 70
0
 71
3
 72
9
 73
5
 74
0
 42
0.0000001
 43
0.0000001
 44
0.0000000001
 40
0.0
 40
0.0
 40
0.0
 40
0.0
 40
0.2792431018
 40
1.0
 40
1.0
 40
1.0
 40
1.0
 10
129.675830353
 20
73.9584697643
 30
0.0
 10
129.6162883456
 20
73.9644633577
 30
0.0
 10
129.4032171593
 20
73.987303881
 30
0.0
 10
129.1905809827
 20
74.0151647534
 30
0.0
 10
129.0383068014
 20
74.0410645123
 30
0.0
  0
SPLINE
  5
53A
100
AcDbEntity
  8
3_AXES_OTHER
100
AcDbSpline
 62
7
  6
CONTINUOUS
 70
0
 71
3
 72
9
 73
5
 74
0
 42
0.0000001
 43
0.0000001
 44
0.0000000001
 40
0.0
 40
0.0
 40
0.0
 40
0.0
 40
0.2198256571
 40
1.0
 40
1.0
 40
1.0
 40
1.0
 10
140.9662626117
 20
74.0410645123
 30
0.0
 10
140.9198187495
 20
74.0331687089
 30
0.0
 10
140.7080799335
 20
73.9999792886
 30
0.0
 10
140.4950961962
 20
73.9752154616
 30
0.0
 10
140.3287397999
 20
73.9584697643
 30
0.0
  0
SPLINE
  5
53B
100
AcDbEntity
  8
3_AXES_OTHER
100
AcDbSpline
 62
7
  6
CONTINUOUS
 70
0
 71
3
 72
9
 73
5
 74
0
 42
0.0000001
 43
0.0000001
 44
0.0000000001
 40
0.0
 40
0.0
 40
0.0
 40
0.0
 40
0.2792189089
 40
1.0
 40
1.0
 40
1.0
 40
1.0
 10
140.3287397999
 20
94.2734303943
 30
0.0
 10
140.3882765803
 20
94.267437328
 30
0.0
 10
140.6013478856
 20
94.2445989166
 30
0.0
 10
140.8139815094
 20
94.2167245709
 30
0.0
 10
140.9662626117
 20
94.1908356463
 30
0.0
  0
SPLINE
  5
53C
100
AcDbEntity
  8
3_AXES_OTHER
100
AcDbSpline
 62
7
  6
CONTINUOUS
 70
0
 71
3
 72
12
 73
8
 74
0
 42
0.0000001
 43
0.0000001
 44
0.0000000001
 40
0.0
 40
0.0
 40
0.0
 40
0.0
 40
0.0591332199
 40
0.1458982584
 40
0.3789373791
 40
0.6697315777
 40
1.0
 40
1.0
 40
1.0
 40
1.0
 10
130.0986133077
 20
74.9600926002
 30
0.0
 10
130.1183944857
 20
74.9682388052
 30
0.0
 10
130.1702508512
 20
74.9800249965
 30
0.0
 10
130.3053493765
 20
75.0020648581
 30
0.0
 10
130.5256350735
 20
75.0227793142
 30
0.0
 10
130.8340255587
 20
75.040829045
 30
0.0
 10
131.0587665971
 20
75.0457532289
 30
0.0
 10
131.1782492734
 20
75.0457532289
 30
0.0
  0
SPLINE
  5
53D
100
AcDbEntity
  8
3_AXES_OTHER
100
AcDbSpline
 62
7
  6
CONTINUOUS
 70
0
 71
3
 72
12
 73
8
 74
0
 42
0.0000001
 43
0.0000001
 44
0.0000000001
 40
0.0
 40
0.0
 40
0.0
 40
0.0
 40
0.3302685846
 40
0.6210624448
 40
0.8541014116
 40
0.9408666578
 40
1.0
 40
1.0
 40
1.0
 40
1.0
 10
131.1782492734
 20
93.1861469297
 30
0.0
 10
131.0587665383
 20
93.1861469297
 30
0.0
 10
130.8340255638
 20
93.1910711166
 30
0.0
 10
130.5256351965
 20
93.2091208336
 30
0.0
 10
130.3053496044
 20
93.2298352856
 30
0.0
 10
130.1702510105
 20
93.2518751213
 30
0.0
 10
130.1183945266
 20
93.2636613365
 30
0.0
 10
130.0986133077
 20
93.2718075584
 30
0.0
  0
SPLINE
  5
53E
100
AcDbEntity
  8
3_AXES_OTHER
100
AcDbSpline
 62
7
  6
CONTINUOUS
 70
0
 71
3
 72
12
 73
8
 74
0
 42
0.0000001
 43
0.0000001
 44
0.0000000001
 40
0.0
 40
0.0
 40
0.0
 40
0.0
 40
0.3322361101
 40
0.6231028786
 40
0.8546551433
 40
0.9409021035
 40
1.0
 40
1.0
 40
1.0
 40
1.0
 10
138.8263201396
 20
75.0457532289
 30
0.0
 10
138.9465231374
 20
75.0462265366
 30
0.0
 10
139.1720418231
 20
75.0416670387
 30
0.0
 10
139.4806506128
 20
75.0234000246
 30
0.0
 10
139.7002125857
 20
75.0022935919
 30
0.0
 10
139.8345488972
 20
74.980063567
 30
0.0
 10
139.8861851985
 20
74.9682345754
 30
0.0
 10
139.9059561053
 20
74.9600926002
 30
0.0
  0
SPLINE
  5
53F
100
AcDbEntity
  8
3_AXES_OTHER
100
AcDbSpline
 62
7
  6
CONTINUOUS
 70
0
 71
3
 72
12
 73
8
 74
0
 42
0.0000001
 43
0.0000001
 44
0.0000000001
 40
0.0
 40
0.0
 40
0.0
 40
0.0
 40
0.0590978964
 40
0.145344856
 40
0.3768971402
 40
0.6677638871
 40
1.0
 40
1.0
 40
1.0
 40
1.0
 10
139.9059561053
 20
93.2718075584
 30
0.0
 10
139.8861851986
 20
93.2636655832
 30
0.0
 10
139.8345488974
 20
93.2518365917
 30
0.0
 10
139.7002125793
 20
93.2296065657
 30
0.0
 10
139.4806506071
 20
93.208500135
 30
0.0
 10
139.1720418174
 20
93.1902331193
 30
0.0
 10
138.9465231384
 20
93.185673622
 30
0.0
 10
138.8263201396
 20
93.1861469297
 30
0.0
  0
SPLINE
  5
540
100
AcDbEntity
  8
3_AXES_OTHER
100
AcDbSpline
 62
7
  6
CONTINUOUS
 70
0
 71
3
 72
9
 73
5
 74
0
 42
0.0000001
 43
0.0000001
 44
0.0000000001
 40
0.0
 40
0.0
 40
0.0
 40
0.0
 40
0.5046849283
 40
1.0
 40
1.0
 40
1.0
 40
1.0
 10
180.7730554705
 20
83.0375705626
 30
0.0
 10
180.9911835715
 20
82.9618772107
 30
0.0
 10
181.4450641496
 20
82.8767363293
 30
0.0
 10
181.9023606608
 20
82.8534918678
 30
0.0
 10
182.1289608547
 20
82.8542808052
 30
0.0
  0
SPLINE
  5
541
100
AcDbEntity
  8
3_AXES_OTHER
100
AcDbSpline
 62
7
  6
CONTINUOUS
 70
0
 71
3
 72
10
 73
6
 74
0
 42
0.0000001
 43
0.0000001
 44
0.0000000001
 40
0.0
 40
0.0
 40
0.0
 40
0.0
 40
0.2544015571
 40
0.5035433172
 40
1.0
 40
1.0
 40
1.0
 40
1.0
 10
180.7730554705
 20
97.3693872982
 30
0.0
 10
180.9320854706
 20
97.3142017733
 30
0.0
 10
181.259135467
 20
97.2406466002
 30
0.0
 10
181.917658504
 20
97.1724450607
 30
0.0
 10
182.4137735198
 20
97.1849849152
 30
0.0
 10
182.7406240251
 20
97.2178283842
 30
0.0
  0
SPLINE
  5
542
100
AcDbEntity
  8
3_AXES_OTHER
100
AcDbSpline
 62
7
  6
CONTINUOUS
 70
0
 71
3
 72
9
 73
5
 74
0
 42
0.0000001
 43
0.0000001
 44
0.0000000001
 40
0.0
 40
0.0
 40
0.0
 40
0.0
 40
0.2736809349
 40
1.0
 40
1.0
 40
1.0
 40
1.0
 10
188.0985539248
 20
87.3193595656
 30
0.0
 10
188.1199451974
 20
87.3428180596
 30
0.0
 10
188.1902555204
 20
87.4355857522
 30
0.0
 10
188.2237675382
 20
87.554734826
 30
0.0
 10
188.2237648305
 20
87.638988515
 30
0.0
  0
SPLINE
  5
543
100
AcDbEntity
  8
3_AXES_OTHER
100
AcDbSpline
 62
7
  6
CONTINUOUS
 70
0
 71
3
 72
9
 73
5
 74
0
 42
0.0000001
 43
0.0000001
 44
0.0000000001
 40
0.0
 40
0.0
 40
0.0
 40
0.0
 40
0.5609418286
 40
1.0
 40
1.0
 40
1.0
 40
1.0
 10
187.963464951
 20
101.0324935229
 30
0.0
 10
188.0411272545
 20
100.9876434291
 30
0.0
 10
188.1680894817
 20
100.8796876928
 30
0.0
 10
188.2237621015
 20
100.7191092092
 30
0.0
 10
188.2237648379
 20
100.6489132184
 30
0.0
  0
SPLINE
  5
544
100
AcDbEntity
  8
3_ALL_AXES
100
AcDbSpline
 62
7
  6
CONTINUOUS
 70
0
 71
3
 72
10
 73
6
 74
0
 42
0.0000001
 43
0.0000001
 44
0.0000000001
 40
0.0
 40
0.0
 40
0.0
 40
0.0
 40
0.184808043
 40
0.5806887405
 40
1.0
 40
1.0
 40
1.0
 40
1.0
 10
188.6307589313
 20
95.9792670394
 30
0.0
 10
188.6433737087
 20
95.9865427653
 30
0.0
 10
188.6951916628
 20
95.9829922424
 30
0.0
 10
188.7513703778
 20
95.9210806166
 30
0.0
 10
188.7763123828
 20
95.8586615874
 30
0.0
 10
188.7763123828
 20
95.8256205221
 30
0.0
  0
SPLINE
  5
545
100
AcDbEntity
  8
3_AXES_OTHER
100
AcDbSpline
 62
7
  6
CONTINUOUS
 70
0
 71
3
 72
11
 73
7
 74
0
 42
0.0000001
 43
0.0000001
 44
0.0000000001
 40
0.0
 40
0.0
 40
0.0
 40
0.0
 40
0.2467468791
 40
0.5081647599
 40
0.7664982024
 40
1.0
 40
1.0
 40
1.0
 40
1.0
 10
182.030570152
 20
103.9044368172
 30
0.0
 10
182.1285242716
 20
103.9299376943
 30
0.0
 10
182.3376875932
 20
103.9525116566
 30
0.0
 10
182.6526494293
 20
103.9398271843
 30
0.0
 10
182.9572067119
 20
103.8855218002
 30
0.0
 10
183.1500678414
 20
103.8157275757
 30
0.0
 10
183.2314625251
 20
103.7652318429
 30
0.0
  0
SPLINE
  5
546
100
AcDbEntity
  8
3_AXES_OTHER
100
AcDbSpline
 62
7
  6
CONTINUOUS
 70
0
 71
3
 72
9
 73
5
 74
0
 42
0.0000001
 43
0.0000001
 44
0.0000000001
 40
0.0
 40
0.0
 40
0.0
 40
0.0
 40
0.25526217
 40
1.0
 40
1.0
 40
1.0
 40
1.0
 10
175.5927523374
 20
87.1939094188
 30
0.0
 10
175.5836594025
 20
87.1637234985
 30
0.0
 10
175.5521720972
 20
87.0442757536
 30
0.0
 10
175.5377445277
 20
86.9202290875
 30
0.0
 10
175.537744531
 20
86.8282514984
 30
0.0
  0
SPLINE
  5
547
100
AcDbEntity
  8
3_AXES_OTHER
100
AcDbSpline
 62
7
  6
CONTINUOUS
 70
0
 71
3
 72
9
 73
5
 74
0
 42
0.0000001
 43
0.0000001
 44
0.0000000001
 40
0.0
 40
0.0
 40
0.0
 40
0.0
 40
0.7425312191
 40
1.0
 40
1.0
 40
1.0
 40
1.0
 10
175.5378094092
 20
101.1724885571
 30
0.0
 10
175.5391961236
 20
101.2920391172
 30
0.0
 10
175.571793567
 20
101.4544032422
 30
0.0
 10
175.6381110067
 20
101.6012136367
 30
0.0
 10
175.6571909015
 20
101.6380183051
 30
0.0
  0
SPLINE
  5
548
100
AcDbEntity
  8
3_AXES_OTHER
100
AcDbSpline
 62
7
  6
CONTINUOUS
 70
0
 71
3
 72
11
 73
7
 74
0
 42
0.0000001
 43
0.0000001
 44
0.0000000001
 40
0.0
 40
0.0
 40
0.0
 40
0.0
 40
0.2413040852
 40
0.4999871251
 40
0.7586758133
 40
1.0
 40
1.0
 40
1.0
 40
1.0
 10
181.5790813471
 20
88.4463287916
 30
0.0
 10
181.5406111702
 20
88.7858943767
 30
0.0
 10
181.3711678432
 20
89.4803108112
 30
0.0
 10
180.9177505133
 20
90.460637719
 30
0.0
 10
180.2953400108
 20
91.3434047304
 30
0.0
 10
179.7786214241
 20
91.8373547381
 30
0.0
 10
179.5037249316
 20
92.0404215192
 30
0.0
  0
SPLINE
  5
549
100
AcDbEntity
  8
3_AXES_OTHER
100
AcDbSpline
 62
7
  6
CONTINUOUS
 70
0
 71
3
 72
9
 73
5
 74
0
 42
0.0000001
 43
0.0000001
 44
0.0000000001
 40
0.0
 40
0.0
 40
0.0
 40
0.0
 40
0.4603041733
 40
1.0
 40
1.0
 40
1.0
 40
1.0
 10
175.537744531
 20
86.6482603772
 30
0.0
 10
175.537744503
 20
86.5177383924
 30
0.0
 10
175.5845004173
 20
86.2317467637
 30
0.0
 10
175.7448567791
 20
85.9836857464
 30
0.0
 10
175.8551939246
 20
85.8776427962
 30
0.0
  0
SPLINE
  5
54A
100
AcDbEntity
  8
3_AXES_OTHER
100
AcDbSpline
 62
7
  6
CONTINUOUS
 70
0
 71
3
 72
9
 73
5
 74
0
 42
0.0000001
 43
0.0000001
 44
0.0000000001
 40
0.0
 40
0.0
 40
0.0
 40
0.0
 40
0.4603041694
 40
1.0
 40
1.0
 40
1.0
 40
1.0
 10
175.537744531
 20
100.980076815
 30
0.0
 10
175.5377445358
 20
100.8495548761
 30
0.0
 10
175.5845004933
 20
100.5635633589
 30
0.0
 10
175.7448568162
 20
100.3155024464
 30
0.0
 10
175.8551939246
 20
100.2094595318
 30
0.0
  0
SPLINE
  5
54B
100
AcDbEntity
  8
3_ALL_AXES
100
AcDbSpline
 62
7
  6
CONTINUOUS
 70
0
 71
3
 72
9
 73
5
 74
0
 42
0.0000001
 43
0.0000001
 44
0.0000000001
 40
0.0
 40
0.0
 40
0.0
 40
0.0
 40
0.2949613449
 40
1.0
 40
1.0
 40
1.0
 40
1.0
 10
188.7763123828
 20
95.8256205221
 30
0.0
 10
188.7763123828
 20
95.819525785
 30
0.0
 10
188.7749439379
 20
95.7991403475
 30
0.0
 10
188.763972434
 20
95.7777239658
 30
0.0
 10
188.7513528802
 20
95.770445485
 30
0.0
  0
SPLINE
  5
54C
100
AcDbEntity
  8
3_AXES_OTHER
100
AcDbSpline
 62
7
  6
CONTINUOUS
 70
0
 71
3
 72
19
 73
15
 74
0
 42
0.0000001
 43
0.0000001
 44
0.0000000001
 40
0.0
 40
0.0
 40
0.0
 40
0.0
 40
0.0604617828
 40
0.1145439887
 40
0.1631884873
 40
0.2086144469
 40
0.2540370592
 40
0.3026717717
 40
0.3567448324
 40
0.417191752
 40
0.5554327605
 40
0.7085812589
 40
0.8617382307
 40
1.0
 40
1.0
 40
1.0
 40
1.0
 10
179.1666894682
 20
92.2621154767
 30
0.0
 10
179.0154740561
 20
92.3494425983
 30
0.0
 10
178.7148039559
 20
92.4926174402
 30
0.0
 10
178.2526749908
 20
92.6042114992
 30
0.0
 10
177.8187766996
 20
92.5933004256
 30
0.0
 10
177.4325717898
 20
92.4533634499
 30
0.0
 10
177.1181683517
 20
92.1890286484
 30
0.0
 10
176.8916773964
 20
91.8188834099
 30
0.0
 10
176.7571266732
 20
91.3628516734
 30
0.0
 10
176.6993123774
 20
90.63112372
 30
0.0
 10
176.8807287487
 20
89.6154342481
 30
0.0
 10
177.4025711087
 20
88.4316657161
 30
0.0
 10
178.1664800795
 20
87.3879472643
 30
0.0
 10
178.820895655
 20
86.8370800666
 30
0.0
 10
179.1666894682
 20
86.6373836339
 30
0.0
  0
SPLINE
  5
54D
100
AcDbEntity
  8
3_AXES_OTHER
100
AcDbSpline
 62
7
  6
CONTINUOUS
 70
0
 71
3
 72
15
 73
11
 74
0
 42
0.0000001
 43
0.0000001
 44
0.0000000001
 40
0.0
 40
0.0
 40
0.0
 40
0.0
 40
0.1412594472
 40
0.2663277888
 40
0.3782909973
 40
0.4840597124
 40
0.5928774788
 40
0.7127953992
 40
0.848247748
 40
1.0
 40
1.0
 40
1.0
 40
1.0
 10
179.1666894682
 20
86.6373836339
 30
0.0
 10
179.3304628304
 20
86.5428042777
 30
0.0
 10
179.6559314396
 20
86.390334755
 30
0.0
 10
180.1568811714
 20
86.2844702232
 30
0.0
 10
180.6226094202
 20
86.3260105375
 30
0.0
 10
181.0247697607
 20
86.5230390843
 30
0.0
 10
181.3314475194
 20
86.86242435
 30
0.0
 10
181.5288233649
 20
87.3155345546
 30
0.0
 10
181.6161540801
 20
87.8578788282
 30
0.0
 10
181.601952594
 20
88.2444506364
 30
0.0
 10
181.5790813471
 20
88.4463287916
 30
0.0
  0
SPLINE
  5
54E
100
AcDbEntity
  8
3_AXES_OTHER
100
AcDbSpline
 62
7
  6
CONTINUOUS
 70
0
 71
3
 72
9
 73
5
 74
0
 42
0.0000001
 43
0.0000001
 44
0.0000000001
 40
0.0
 40
0.0
 40
0.0
 40
0.0
 40
0.4231058402
 40
1.0
 40
1.0
 40
1.0
 40
1.0
 10
181.4494086355
 20
96.886985231
 30
0.0
 10
181.492814854
 20
96.9120326962
 30
0.0
 10
181.5549769028
 20
97.0316032931
 30
0.0
 10
181.5355487224
 20
97.1521259139
 30
0.0
 10
181.5170901475
 20
97.217915528
 30
0.0
  0
SPLINE
  5
54F
100
AcDbEntity
  8
3_AXES_OTHER
100
AcDbSpline
 62
7
  6
CONTINUOUS
 70
0
 71
3
 72
11
 73
7
 74
0
 42
0.0000001
 43
0.0000001
 44
0.0000000001
 40
0.0
 40
0.0
 40
0.0
 40
0.0
 40
0.3073957821
 40
0.5848981071
 40
0.8135262498
 40
1.0
 40
1.0
 40
1.0
 40
1.0
 10
181.0249991867
 20
97.1320823082
 30
0.0
 10
181.0522468366
 20
97.084887995
 30
0.0
 10
181.1141142587
 20
97.0002896647
 30
0.0
 10
181.2257625586
 20
96.9067057992
 30
0.0
 10
181.3423646673
 20
96.8587493169
 30
0.0
 10
181.4207756696
 20
96.8704626394
 30
0.0
 10
181.4494086355
 20
96.886985231
 30
0.0
  0
SPLINE
  5
550
100
AcDbEntity
  8
3_AXES_OTHER
100
AcDbSpline
 62
7
  6
CONTINUOUS
 70
0
 71
3
 72
9
 73
5
 74
0
 42
0.0000001
 43
0.0000001
 44
0.0000000001
 40
0.0
 40
0.0
 40
0.0
 40
0.0
 40
0.2417610965
 40
1.0
 40
1.0
 40
1.0
 40
1.0
 10
180.9504805372
 20
97.3178555724
 30
0.0
 10
180.9541244487
 20
97.3021079997
 30
0.0
 10
180.971929052
 20
97.2376200212
 30
0.0
 10
180.9996520123
 20
97.1759849014
 30
0.0
 10
181.0249991867
 20
97.1320823082
 30
0.0
  0
SPLINE
  5
551
100
AcDbEntity
  8
3_AXES_OTHER
100
AcDbSpline
 62
7
  6
CONTINUOUS
 70
0
 71
3
 72
17
 73
13
 74
0
 42
0.0000001
 43
0.0000001
 44
0.0000000001
 40
0.0
 40
0.0
 40
0.0
 40
0.0
 40
0.1113205653
 40
0.1591886045
 40
0.2044353202
 40
0.2986411026
 40
0.353679939
 40
0.4150458524
 40
0.5546322454
 40
0.7083565874
 40
0.8616282296
 40
1.0
 40
1.0
 40
1.0
 40
1.0
 10
179.8482743849
 20
91.7543663188
 30
0.0
 10
179.6661997063
 20
91.8497125646
 30
0.0
 10
179.3758023331
 20
91.9504853806
 30
0.0
 10
178.994572507
 20
91.9176114031
 30
0.0
 10
178.6708991886
 20
91.7771858603
 30
0.0
 10
178.4457278855
 20
91.4646585847
 30
0.0
 10
178.3493510024
 20
91.0868390569
 30
0.0
 10
178.3218485678
 20
90.6120957999
 30
0.0
 10
178.4476614511
 20
89.9600219102
 30
0.0
 10
178.7886136721
 20
89.2025551404
 30
0.0
 10
179.2811905129
 20
88.5367749009
 30
0.0
 10
179.7005867378
 20
88.1855612211
 30
0.0
 10
179.921818265
 20
88.0577996907
 30
0.0
  0
SPLINE
  5
552
100
AcDbEntity
  8
3_AXES_OTHER
100
AcDbSpline
 62
7
  6
CONTINUOUS
 70
0
 71
3
 72
13
 73
9
 74
0
 42
0.0000001
 43
0.0000001
 44
0.0000000001
 40
0.0
 40
0.0
 40
0.0
 40
0.0
 40
0.2693988421
 40
0.3853766903
 40
0.4947740161
 40
0.6050936013
 40
0.7235376158
 40
1.0
 40
1.0
 40
1.0
 40
1.0
 10
181.5035679816
 20
88.8906825179
 30
0.0
 10
181.4955110701
 20
88.687673019
 30
0.0
 10
181.439261638
 20
88.3895670819
 30
0.0
 10
181.226816276
 20
88.0767205379
 30
0.0
 10
181.0221148025
 20
87.9197046925
 30
0.0
 10
180.7750905786
 20
87.8395540854
 30
0.0
 10
180.3894378295
 20
87.8376100322
 30
0.0
 10
180.1023695722
 20
87.9535310468
 30
0.0
 10
179.921818265
 20
88.0577996907
 30
0.0
  0
SPLINE
  5
553
100
AcDbEntity
  8
3_AXES_OTHER
100
AcDbSpline
 62
7
  6
CONTINUOUS
 70
0
 71
3
 72
9
 73
5
 74
0
 42
0.0000001
 43
0.0000001
 44
0.0000000001
 40
0.0
 40
0.0
 40
0.0
 40
0.0
 40
0.4596078333
 40
1.0
 40
1.0
 40
1.0
 40
1.0
 10
175.5512419761
 20
86.651224567
 30
0.0
 10
175.567071623
 20
86.5488978313
 30
0.0
 10
175.6325346488
 20
86.3298197113
 30
0.0
 10
175.7674170616
 20
86.1419949032
 30
0.0
 10
175.8551939246
 20
86.0576342151
 30
0.0
  0
SPLINE
  5
554
100
AcDbEntity
  8
3_ALL_AXES
100
AcDbSpline
 62
7
  6
CONTINUOUS
 70
0
 71
3
 72
9
 73
5
 74
0
 42
0.0000001
 43
0.0000001
 44
0.0000000001
 40
0.0
 40
0.0
 40
0.0
 40
0.0
 40
0.2674572659
 40
1.0
 40
1.0
 40
1.0
 40
1.0
 10
188.2269598285
 20
96.8034559735
 30
0.0
 10
188.2617865807
 20
96.7389315926
 30
0.0
 10
188.378845885
 20
96.4914432871
 30
0.0
 10
188.4474659712
 20
96.2163559483
 30
0.0
 10
188.4474659712
 20
96.0155298055
 30
0.0
  0
SPLINE
  5
555
100
AcDbEntity
  8
3_AXES_OTHER
100
AcDbSpline
 62
7
  6
CONTINUOUS
 70
0
 71
3
 72
9
 73
5
 74
0
 42
0.0000001
 43
0.0000001
 44
0.0000000001
 40
0.0
 40
0.0
 40
0.0
 40
0.0
 40
0.4596055994
 40
1.0
 40
1.0
 40
1.0
 40
1.0
 10
175.5511852122
 20
100.9834086409
 30
0.0
 10
175.5669894556
 20
100.8810216199
 30
0.0
 10
175.6324287958
 20
100.661803626
 30
0.0
 10
175.7673690545
 20
100.4738577776
 30
0.0
 10
175.8551939246
 20
100.3894509507
 30
0.0
  0
SPLINE
  5
556
100
AcDbEntity
  8
3_AXES_OTHER
100
AcDbSpline
 62
7
  6
CONTINUOUS
 70
0
 71
3
 72
9
 73
5
 74
0
 42
0.0000001
 43
0.0000001
 44
0.0000000001
 40
0.0
 40
0.0
 40
0.0
 40
0.0
 40
0.4688519221
 40
1.0
 40
1.0
 40
1.0
 40
1.0
 10
188.2237648379
 20
100.6489132184
 30
0.0
 10
188.2237665806
 20
100.6042095204
 30
0.0
 10
188.2025405558
 20
100.5073948634
 30
0.0
 10
188.1382182252
 20
100.4316554605
 30
0.0
 10
188.0985539248
 20
100.4001673158
 30
0.0
  0
SPLINE
  5
557
100
AcDbEntity
  8
3_ALL_AXES
100
AcDbSpline
 62
7
  6
CONTINUOUS
 70
0
 71
3
 72
10
 73
6
 74
0
 42
0.0000001
 43
0.0000001
 44
0.0000000001
 40
0.0
 40
0.0
 40
0.0
 40
0.0
 40
0.184808043
 40
0.5806887405
 40
1.0
 40
1.0
 40
1.0
 40
1.0
 10
188.7513528802
 20
95.770445485
 30
0.0
 10
188.7387381028
 20
95.7631697591
 30
0.0
 10
188.6869201486
 20
95.766720282
 30
0.0
 10
188.6307414336
 20
95.8286319078
 30
0.0
 10
188.6057994286
 20
95.891050937
 30
0.0
 10
188.6057994286
 20
95.9240920024
 30
0.0
  0
SPLINE
  5
558
100
AcDbEntity
  8
3_ALL_AXES
100
AcDbSpline
 62
7
  6
CONTINUOUS
 70
0
 71
3
 72
9
 73
5
 74
0
 42
0.0000001
 43
0.0000001
 44
0.0000000001
 40
0.0
 40
0.0
 40
0.0
 40
0.0
 40
0.5491619016
 40
1.0
 40
1.0
 40
1.0
 40
1.0
 10
188.4474659712
 20
96.0155298055
 30
0.0
 10
188.4474659712
 20
95.9063330257
 30
0.0
 10
188.4217408463
 20
95.7038589419
 30
0.0
 10
188.2985979686
 20
95.5315534203
 30
0.0
 10
188.2247377428
 20
95.4807494838
 30
0.0
  0
SPLINE
  5
559
100
AcDbEntity
  8
3_ALL_AXES
100
AcDbSpline
 62
7
  6
CONTINUOUS
 70
0
 71
3
 72
9
 73
5
 74
0
 42
0.0000001
 43
0.0000001
 44
0.0000000001
 40
0.0
 40
0.0
 40
0.0
 40
0.0
 40
0.2949613449
 40
1.0
 40
1.0
 40
1.0
 40
1.0
 10
188.6057994286
 20
95.9240920024
 30
0.0
 10
188.6057994286
 20
95.9301867394
 30
0.0
 10
188.6071678735
 20
95.9505721769
 30
0.0
 10
188.6181393774
 20
95.9719885587
 30
0.0
 10
188.6307589313
 20
95.9792670394
 30
0.0
  0
SPLINE
  5
55A
100
AcDbEntity
  8
3_AXES_OTHER
100
AcDbSpline
 62
7
  6
CONTINUOUS
 70
0
 71
3
 72
10
 73
6
 74
0
 42
0.0000001
 43
0.0000001
 44
0.0000000001
 40
0.0
 40
0.0
 40
0.0
 40
0.0
 40
0.2544015571
 40
0.5035433172
 40
1.0
 40
1.0
 40
1.0
 40
1.0
 10
180.7730554705
 20
83.2175619816
 30
0.0
 10
180.9320854706
 20
83.1623764566
 30
0.0
 10
181.259135467
 20
83.0888212835
 30
0.0
 10
181.917658504
 20
83.020619744
 30
0.0
 10
182.4137735198
 20
83.0331595986
 30
0.0
 10
182.7406240251
 20
83.0660030676
 30
0.0
  0
SPLINE
  5
55B
100
AcDbEntity
  8
3_AXES_OTHER
100
AcDbSpline
 62
7
  6
CONTINUOUS
 70
0
 71
3
 72
9
 73
5
 74
0
 42
0.0000001
 43
0.0000001
 44
0.0000000001
 40
0.0
 40
0.0
 40
0.0
 40
0.0
 40
0.5046849283
 40
1.0
 40
1.0
 40
1.0
 40
1.0
 10
180.7730554705
 20
97.5493787172
 30
0.0
 10
180.9911835715
 20
97.4736853653
 30
0.0
 10
181.4450641496
 20
97.3885444839
 30
0.0
 10
181.9023606608
 20
97.3653000224
 30
0.0
 10
182.1289608547
 20
97.3660889598
 30
0.0
  0
ELLIPSE
  5
55C
100
AcDbEntity
  8
3_AXES_OTHER
100
AcDbEllipse
 62
7
  6
CONTINUOUS
 10
41.8291245576
 20
74.2152128014
 30
0.0
 11
3.4689370079
 21
0.0
 31
0.0
 40
0.0994551341
 41
-0.5291182786
 42
-0.3938936571
  0
ELLIPSE
  5
55D
100
AcDbEntity
  8
3_AXES_OTHER
100
AcDbEllipse
 62
7
  6
CONTINUOUS
 10
41.8291245576
 20
94.0166873572
 30
0.0
 11
3.4689370079
 21
-0.0
 31
0.0
 40
0.0994551341
 41
0.3938936571
 42
0.5291182786
  0
ELLIPSE
  5
55E
100
AcDbEntity
  8
3_AXES_OTHER
100
AcDbEllipse
 62
7
  6
CONTINUOUS
 10
43.6516827516
 20
74.1398774951
 30
0.0
 11
1.4952362205
 21
0.0
 31
0.0
 40
0.0994551341
 41
-0.3938936571
 42
-0.0002500792
  0
ELLIPSE
  5
55F
100
AcDbEntity
  8
3_AXES_OTHER
100
AcDbEllipse
 62
7
  6
CONTINUOUS
 10
43.6516827516
 20
94.0920226635
 30
0.0
 11
1.4952362205
 21
0.0
 31
0.0
 40
0.0994551341
 41
0.0002500792
 42
0.3938936571
  0
ELLIPSE
  5
560
100
AcDbEntity
  8
3_AXES_OTHER
100
AcDbEllipse
 62
7
  6
CONTINUOUS
 10
34.0677474659
 20
94.0920226635
 30
0.0
 11
1.4952362205
 21
0.0
 31
0.0
 40
0.0994551341
 41
2.7476989965
 42
3.1413425819
  0
ELLIPSE
  5
561
100
AcDbEntity
  8
3_AXES_OTHER
100
AcDbEllipse
 62
7
  6
CONTINUOUS
 10
34.0677474659
 20
74.1398774951
 30
0.0
 11
1.4952362205
 21
0.0
 31
0.0
 40
0.0994551341
 41
-3.1413425819
 42
-2.7476989965
  0
ELLIPSE
  5
562
100
AcDbEntity
  8
3_AXES_OTHER
100
AcDbEllipse
 62
7
  6
CONTINUOUS
 10
35.8903056599
 20
74.2152128014
 30
0.0
 11
3.4689370079
 21
-0.0
 31
0.0
 40
0.0994551341
 41
-2.7476989965
 42
-2.6124743749
  0
ELLIPSE
  5
563
100
AcDbEntity
  8
3_AXES_OTHER
100
AcDbEllipse
 62
7
  6
CONTINUOUS
 10
35.8903056599
 20
94.0166873572
 30
0.0
 11
3.4689370079
 21
-0.0
 31
0.0
 40
0.0994551341
 41
2.6124743749
 42
2.7476989965
  0
ELLIPSE
  5
564
100
AcDbEntity
  8
3_AXES_OTHER
100
AcDbEllipse
 62
7
  6
CONTINUOUS
 10
139.7942523494
 20
94.0920226635
 30
0.0
 11
1.4952362205
 21
0.0
 31
0.0
 40
0.0994551341
 41
0.0002500716
 42
0.3938936571
  0
ELLIPSE
  5
565
100
AcDbEntity
  8
3_AXES_OTHER
100
AcDbEllipse
 62
7
  6
CONTINUOUS
 10
139.7942523494
 20
74.1398774951
 30
0.0
 11
1.4952362205
 21
-0.0
 31
0.0
 40
0.0994551341
 41
-0.3938936571
 42
-0.0002500716
  0
ELLIPSE
  5
566
100
AcDbEntity
  8
3_AXES_OTHER
100
AcDbEllipse
 62
7
  6
CONTINUOUS
 10
132.0328752577
 20
74.2152128014
 30
0.0
 11
3.4689370079
 21
-0.0
 31
0.0
 40
0.0994551341
 41
-2.7476989965
 42
-2.6124743749
  0
ELLIPSE
  5
567
100
AcDbEntity
  8
3_AXES_OTHER
100
AcDbEllipse
 62
7
  6
CONTINUOUS
 10
132.0328752577
 20
94.0166873572
 30
0.0
 11
3.4689370079
 21
-0.0
 31
0.0
 40
0.0994551341
 41
2.6124743749
 42
2.7476989965
  0
ELLIPSE
  5
568
100
AcDbEntity
  8
3_AXES_OTHER
100
AcDbEllipse
 62
7
  6
CONTINUOUS
 10
130.2103170637
 20
74.1398774951
 30
0.0
 11
1.4952362205
 21
-0.0
 31
0.0
 40
0.0994551341
 41
-3.1413425743
 42
-2.7476989965
  0
ELLIPSE
  5
569
100
AcDbEntity
  8
3_AXES_OTHER
100
AcDbEllipse
 62
7
  6
CONTINUOUS
 10
130.2103170637
 20
94.0920226635
 30
0.0
 11
1.4952362205
 21
0.0
 31
0.0
 40
0.0994551341
 41
2.7476989965
 42
3.1413425743
  0
ELLIPSE
  5
56A
100
AcDbEntity
  8
3_AXES_OTHER
100
AcDbEllipse
 62
7
  6
CONTINUOUS
 10
137.9716941553
 20
74.2152128014
 30
0.0
 11
3.4689370079
 21
0.0
 31
0.0
 40
0.0994551341
 41
-0.5291182786
 42
-0.3938936571
  0
ELLIPSE
  5
56B
100
AcDbEntity
  8
3_AXES_OTHER
100
AcDbEllipse
 62
7
  6
CONTINUOUS
 10
137.9716941553
 20
94.0166873572
 30
0.0
 11
3.4689370079
 21
0.0
 31
0.0
 40
0.0994551341
 41
0.3938936571
 42
0.5291182786
  0
ELLIPSE
  5
56C
100
AcDbEntity
  8
3_AXES_OTHER
100
AcDbEllipse
 62
7
  6
CONTINUOUS
 10
91.5536881866
 20
94.5033871096
 30
0.0
 11
49.9127952756
 21
-0.0
 31
0.0
 40
0.0994551341
 41
-0.2507164374
 42
-0.0855315433
  0
ELLIPSE
  5
56D
100
AcDbEntity
  8
3_AXES_OTHER
100
AcDbEllipse
 62
7
  6
CONTINUOUS
 10
178.4508812264
 20
94.5033871096
 30
0.0
 11
49.9127952756
 21
-0.0
 31
0.0
 40
0.0994551341
 41
-3.0560611103
 42
-2.8908762162
  0
ELLIPSE
  5
56E
100
AcDbEntity
  8
3_AXES_OTHER
100
AcDbEllipse
 62
7
  6
CONTINUOUS
 10
178.4508812264
 20
73.728513049
 30
0.0
 11
49.9127952756
 21
-0.0
 31
0.0
 40
0.0994551341
 41
2.8908762162
 42
3.0560611103
  0
ELLIPSE
  5
56F
100
AcDbEntity
  8
3_ALL_AXES
100
AcDbEllipse
 62
7
  6
CONTINUOUS
 10
135.0022847065
 20
93.74998706
 30
0.0
 11
0.1968503937
 21
0.0
 31
0.0
 40
0.0994551341
 41
0.0
 42
6.2831853072
  0
ELLIPSE
  5
570
100
AcDbEntity
  8
3_ALL_AXES
100
AcDbEllipse
 62
7
  6
CONTINUOUS
 10
135.0022847065
 20
74.4819130986
 30
0.0
 11
0.1968503937
 21
0.0
 31
0.0
 40
0.0994551341
 41
0.0
 42
6.2831853072
  0
ELLIPSE
  5
571
100
AcDbEntity
  8
3_ALL_AXES
100
AcDbEllipse
 62
7
  6
CONTINUOUS
 10
130.4944106908
 20
74.246979711
 30
0.0
 11
0.1968503937
 21
-0.0
 31
0.0
 40
0.0994551341
 41
0.0
 42
6.2831853072
  0
ELLIPSE
  5
572
100
AcDbEntity
  8
3_AXES_OTHER
100
AcDbEllipse
 62
7
  6
CONTINUOUS
 10
91.5536881866
 20
73.728513049
 30
0.0
 11
49.9127952756
 21
-0.0
 31
0.0
 40
0.0994551341
 41
0.0855315433
 42
0.2507164374
  0
ELLIPSE
  5
573
100
AcDbEntity
  8
3_ALL_AXES
100
AcDbEllipse
 62
7
  6
CONTINUOUS
 10
139.5101587223
 20
74.246979711
 30
0.0
 11
0.1968503937
 21
0.0
 31
0.0
 40
0.0994551341
 41
0.0
 42
6.2831853072
  0
ELLIPSE
  5
574
100
AcDbEntity
  8
3_AXES_OTHER
100
AcDbEllipse
 62
7
  6
CONTINUOUS
 10
182.2678329238
 20
84.8022768929
 30
0.0
 11
3.0297776587
 21
0.2903545968
 31
0.0
 40
0.6314401505
 41
-1.3749559435
 42
-1.2397313219
  0
ELLIPSE
  5
575
100
AcDbEntity
  8
3_AXES_OTHER
100
AcDbEllipse
 62
7
  6
CONTINUOUS
 10
182.9268162408
 20
83.8265861753
 30
0.0
 11
1.305942796
 21
0.1251532412
 31
0.0
 40
0.6314401505
 41
-1.2397313219
 42
-0.7603061215
  0
ELLIPSE
  5
576
100
AcDbEntity
  8
3_AXES_OTHER
100
AcDbEllipse
 62
7
  6
CONTINUOUS
 10
150.5203584565
 20
99.2917041055
 30
0.0
 11
43.593951596
 21
4.1777667091
 31
0.0
 40
0.6314401505
 41
-0.7603061215
 42
-0.5951212274
  0
ELLIPSE
  5
577
100
AcDbEntity
  8
3_AXES_OTHER
100
AcDbEllipse
 62
7
  6
CONTINUOUS
 10
204.285253613
 20
83.0827416873
 30
0.0
 11
43.6376038732
 21
-3.4286097001
 31
0.0
 40
0.5177529821
 41
2.1461355246
 42
2.3113204187
  0
ELLIPSE
  5
578
100
AcDbEntity
  8
3_AXES_OTHER
100
AcDbEllipse
 62
7
  6
CONTINUOUS
 10
176.9970588137
 20
101.5036639751
 30
0.0
 11
1.3072504861
 21
-0.1027107655
 31
0.0
 40
0.5177529821
 41
2.3113204187
 42
2.7907456192
  0
ELLIPSE
  5
579
100
AcDbEntity
  8
3_AXES_OTHER
100
AcDbEllipse
 62
7
  6
CONTINUOUS
 10
178.5933761984
 20
101.0692850522
 30
0.0
 11
3.03281149
 21
-0.2382882187
 31
0.0
 40
0.5177529821
 41
2.7907456192
 42
2.9259702407
  0
ELLIPSE
  5
57A
100
AcDbEntity
  8
3_AXES_OTHER
100
AcDbEllipse
 62
7
  6
CONTINUOUS
 10
182.2678329238
 20
98.9472809205
 30
0.0
 11
3.03281149
 21
-0.2382882187
 31
0.0
 40
0.5177529821
 41
-1.2738589702
 42
-1.1386343487
  0
ELLIPSE
  5
57B
100
AcDbEntity
  8
3_AXES_OTHER
100
AcDbEllipse
 62
7
  6
CONTINUOUS
 10
182.9268162408
 20
98.0792203905
 30
0.0
 11
1.3072504861
 21
-0.1027107655
 31
0.0
 40
0.5177529821
 41
-1.1386343487
 42
-0.6592091483
  0
ELLIPSE
  5
57C
100
AcDbEntity
  8
3_AXES_OTHER
100
AcDbEllipse
 62
7
  6
CONTINUOUS
 10
150.5203584565
 20
114.1320472543
 30
0.0
 11
43.6376038732
 21
-3.4286097001
 31
0.0
 40
0.5177529821
 41
-0.6592091483
 42
-0.4940242542
  0
ELLIPSE
  5
57D
100
AcDbEntity
  8
3_ALL_AXES
100
AcDbEllipse
 62
7
  6
CONTINUOUS
 10
182.0897686817
 20
100.7759377499
 30
0.0
 11
0.1721017518
 21
-0.0135220471
 31
0.0
 40
0.5177529821
 41
0.0
 42
6.2831853072
  0
ENDSEC
  0
SECTION
  2
OBJECTS
  0
DICTIONARY
  5
C
100
AcDbDictionary
280
0
281
1
  3
ACAD_GROUP
350
D
  3
ACAD_MLINESTYLE
350
17
  3
ACAD_LAYOUT
350
1A
  3
ACAD_PLOTSETTINGS
350
19
  3
ACAD_PLOTSTYLENAME
350
E
  0
DICTIONARY
  5
D
102
{ACAD_REACTORS
330
C
102
}
100
AcDbDictionary
280
0
281
1
  0
ACDBDICTIONARYWDFLT
  5
E
102
{ACAD_REACTORS
330
C
102
}
100
AcDbDictionary
281
1
  3
Normal
350
F
100
AcDbDictionaryWithDefault
340
F
  0
DICTIONARY
  5
17
102
{ACAD_REACTORS
330
C
102
}
100
AcDbDictionary
280
0
281
1
  3
Standard
350
18
  0
DICTIONARY
  5
19
102
{ACAD_REACTORS
330
C
102
}
100
AcDbDictionary
281
1
  0
DICTIONARY
  5
1A
102
{ACAD_REACTORS
330
C
102
}
100
AcDbDictionary
281
1
  3
Model
350
57E
  3
Layout1
350
57F
  0
ACDBPLACEHOLDER
  5
F
102
{ACAD_REACTORS
330
E
102
}
  0
MLINESTYLE
  5
18
102
{ACAD_REACTORS
330
17
102
}
100
AcDbMlineStyle
  2
STANDARD
 70
0
  3

 62
256
 51
90.0
 52
90.0
 71
2
 49
0.5
 62
256
  6
BYLAYER
 49
-0.5
 62
256
  6
BYLAYER
  0
LAYOUT
  5
57E
102
{ACAD_REACTORS
330
1A
102
}
100
AcDbPlotSettings
  1

  2
none_device
  4
ANSI_B_(17.00_x_11.00_Inches)
  6

 40
0.0
 41
0.0
 42
0.0
 43
0.0
 44
431.8
 45
279.4
 46
0.0
 47
0.0
 48
0.0
 49
0.0
140
0.0
141
0.0
142
1.0
143
1.0
 70
1024
 72
0
 73
0
 74
0
  7

 75
0
147
1.0
148
0.0
149
0.0
100
AcDbLayout
  1
Model
 70
0
 71
0
 10
0.0
 20
0.0
 11
17.0
 21
11.0
 12
0.0
 22
0.0
 32
0.0
 14
0.0
 24
0.0
 34
0.0
 15
0.0
 25
0.0
 35
0.0
146
0.0
 13
0.0
 23
0.0
 33
0.0
 16
1.0
 26
0.0
 36
0.0
 17
0.0
 27
1.0
 37
0.0
 76
0
330
211
345
0
346
0
  0
LAYOUT
  5
57F
102
{ACAD_REACTORS
330
1A
102
}
100
AcDbPlotSettings
  1

  2
none_device
  4
ANSI_B_(17.00_x_11.00_Inches)
  6

 40
0.0
 41
0.0
 42
0.0
 43
0.0
 44
431.8
 45
279.4
 46
0.0
 47
0.0
 48
0.0
 49
0.0
140
0.0
141
0.0
142
1.0
143
1.0
 70
0
 72
0
 73
0
 74
0
  7

 75
0
147
1.0
148
0.0
149
0.0
100
AcDbLayout
  1
Layout1
 70
0
 71
1
 10
0.0
 20
0.0
 11
17.0
 21
11.0
 12
0.0
 22
0.0
 32
0.0
 14
0.0
 24
0.0
 34
0.0
 15
0.0
 25
0.0
 35
0.0
146
0.0
 13
0.0
 23
0.0
 33
0.0
 16
1.0
 26
0.0
 36
0.0
 17
0.0
 27
1.0
 37
0.0
 76
0
330
212
345
0
346
0
  0
ENDSEC
  0
EOF
