999
DXF file: fg-901286-2d-A.dxf
999
Pro/ENGINEER 2018400 by Parametric Technology Corporation
  0
SECTION
  2
HEADER
  9
$ACADVER
  1
AC1018
  9
$DWGCODEPAGE
  3
ANSI_1252
  9
$EXTMAX
 10
2159.0
 20
1397.0
 30
0.0
  9
$EXTMIN
 10
0.0
 20
0.0
 30
0.0
  9
$LIMMIN
 10
0.0
 20
0.0
  9
$LIMMAX
 10
2159.0
 20
1397.0
  9
$VIEWCTR
 10
1079.5
 20
698.5
  9
$VIEWSIZE
 40
1397.0
  9
$CLAYER
  8
0
  9
$LTSCALE
 40
118.745
  9
$CELTYPE
  6
BYLAYER
  9
$DIMSCALE
 40
1.0
  9
$DIMASZ
 40
10.0
  9
$DIMEXO
 40
1.5875
  9
$DIMDLI
 40
82.042
  9
$DIMEXE
 40
3.175
  9
$DIMCEN
 40
19.431
  9
$DIMLFAC
 40
1.0
  9
$DIMBLK
  1
_FILLED
  9
$DIMALT
 70
1
  9
$DIMALTD
 70
0
  9
$DIMALTTD
 70
2
  9
$DIMALTF
 40
0.0393700787
  9
$DIMTXT
 40
11.43
  9
$DIMTOL
 70
1
  9
$DIMLIM
 70
0
  9
$DIMTFAC
 40
1.0
  9
$DIMTP
 40
0.1
  9
$DIMTM
 40
0.1
  9
$DIMGAP
 40
0.625
  9
$DIMDSEP
 70
46
  9
$AUNITS
 70
0
  9
$PDMODE
 70
3
  9
$PDSIZE
 40
7.9375
  9
$HANDSEED
  5
78E
  9
$TILEMODE
 70
1
  9
$MEASUREMENT
 70
1
  9
$INSUNITS
 70
4
  0
ENDSEC
  0
SECTION
  2
CLASSES
  0
CLASS
  1
ACDBDICTIONARYWDFLT
  2
AcDbDictionaryWithDefault
  3
AutoCAD 2000
 90
0
 91
1
280
0
281
0
  0
CLASS
  1
ACDBPLACEHOLDER
  2
AcDbPlaceHolder
  3
AutoCAD 2000
 90
0
 91
1
280
0
281
0
  0
CLASS
  1
LAYOUT
  2
AcDbLayout
  3
AutoCAD 2000
 90
0
 91
0
280
0
281
0
  0
CLASS
  1
TABLESTYLE
  2
AcDbTableStyle
  3
ObjectDBX Classes
 90
2047
 91
1
280
0
281
0
  0
CLASS
  1
ACAD_TABLE
  2
AcDbTable
  3
ObjectDBX Classes
 90
1025
 91
14
280
0
281
1
  0
ENDSEC
  0
SECTION
  2
TABLES
  0
TABLE
  2
VPORT
  5
8
100
AcDbSymbolTable
 70
2
  0
VPORT
  5
1F4
100
AcDbSymbolTableRecord
100
AcDbViewportTableRecord
  2
*ACTIVE
 70
0
 10
0.0
 20
0.0
 11
1.0
 21
1.0
 12
1079.5
 22
698.5
 13
0.0
 23
0.0
 14
1.0
 24
1.0
 15
0.0
 25
0.0
 16
0.0
 26
0.0
 36
1.0
 17
0.0
 27
0.0
 37
0.0
 40
1397.0
 41
1.5454545455
 42
50.0
 43
0.0
 44
0.0
 50
0.0
 51
0.0
 71
0
 72
100
 73
1
 74
1
 75
0
 76
0
 77
0
 78
0
  0
ENDTAB
  0
TABLE
  2
LTYPE
  5
5
100
AcDbSymbolTable
 70
6
  0
LTYPE
  5
14
100
AcDbSymbolTableRecord
100
AcDbLinetypeTableRecord
  2
BYBLOCK
 70
0
  3

 72
65
 73
0
 40
0.0
  0
LTYPE
  5
15
100
AcDbSymbolTableRecord
100
AcDbLinetypeTableRecord
  2
BYLAYER
 70
0
  3

 72
65
 73
0
 40
0.0
  0
LTYPE
  5
16
100
AcDbSymbolTableRecord
100
AcDbLinetypeTableRecord
  2
CONTINUOUS
 70
64
  3
Solid line
 72
65
 73
0
 40
0.0
  0
LTYPE
  5
1F5
100
AcDbSymbolTableRecord
100
AcDbLinetypeTableRecord
  2
CENTER
 70
64
  3
____ _ ____ _ ____ _ ____ _ ____ _ ____ _ ____
 72
65
 73
4
 40
0.6
 49
0.375
 74
0
 49
-0.075
 74
0
 49
0.075
 74
0
 49
-0.075
 74
0
  0
LTYPE
  5
1F6
100
AcDbSymbolTableRecord
100
AcDbLinetypeTableRecord
  2
HIDDEN
 70
64
  3
- - - - - - - - - - - - - - - - - - - -
 72
65
 73
2
 40
0.2
 49
0.1
 74
0
 49
-0.1
 74
0
  0
LTYPE
  5
1F7
100
AcDbSymbolTableRecord
100
AcDbLinetypeTableRecord
  2
PHANTOM
 70
64
  3
_____ _ _ _____ _ _ _____ _ _ _____
 72
65
 73
6
 40
0.8
 49
0.45
 74
0
 49
-0.05
 74
0
 49
0.1
 74
0
 49
-0.05
 74
0
 49
0.1
 74
0
 49
-0.05
 74
0
  0
LTYPE
  5
1F8
100
AcDbSymbolTableRecord
100
AcDbLinetypeTableRecord
  2
DOT
 70
64
  3
. . . . . . . . . . . . . . . . . . . .
 72
65
 73
2
 40
0.2
 49
0.1
 74
0
 49
-0.1
 74
0
  0
LTYPE
  5
1F9
100
AcDbSymbolTableRecord
100
AcDbLinetypeTableRecord
  2
DASHED
 70
64
  3
- - - - - - - - - - - - - - - - - - - -
 72
65
 73
2
 40
0.2
 49
0.1
 74
0
 49
-0.1
 74
0
  0
ENDTAB
  0
TABLE
  2
LAYER
  5
2
100
AcDbSymbolTable
 70
36
  0
LAYER
  5
10
100
AcDbSymbolTableRecord
100
AcDbLayerTableRecord
  2
0
 70
0
 62
7
  6
CONTINUOUS
370
-3
390
F
  0
LAYER
  5
1FA
100
AcDbSymbolTableRecord
100
AcDbLayerTableRecord
  2
DEFAULT_1
 70
0
 62
7
  6
CENTER
370
-3
390
F
  0
LAYER
  5
1FB
100
AcDbSymbolTableRecord
100
AcDbLayerTableRecord
  2
DEFAULT_2
 70
0
 62
8
  6
HIDDEN
370
-3
390
F
  0
LAYER
  5
1FC
100
AcDbSymbolTableRecord
100
AcDbLayerTableRecord
  2
DEFAULT_3
 70
0
 62
7
  6
PHANTOM
370
-3
390
F
  0
LAYER
  5
1FD
100
AcDbSymbolTableRecord
100
AcDbLayerTableRecord
  2
01___PRT_ALL_DTM_PLN
 70
0
 62
7
  6
CONTINUOUS
370
-3
390
F
  0
LAYER
  5
1FE
100
AcDbSymbolTableRecord
100
AcDbLayerTableRecord
  2
01___PRT_DEF_DTM_PLN
 70
0
 62
7
  6
CONTINUOUS
370
-3
390
F
  0
LAYER
  5
1FF
100
AcDbSymbolTableRecord
100
AcDbLayerTableRecord
  2
02___PRT_ALL_AXES
 70
0
 62
7
  6
CONTINUOUS
370
-3
390
F
  0
LAYER
  5
200
100
AcDbSymbolTableRecord
100
AcDbLayerTableRecord
  2
03___PRT_ALL_CURVES
 70
0
 62
7
  6
CONTINUOUS
370
-3
390
F
  0
LAYER
  5
201
100
AcDbSymbolTableRecord
100
AcDbLayerTableRecord
  2
04___PRT_ALL_DTM_PNT
 70
0
 62
7
  6
CONTINUOUS
370
-3
390
F
  0
LAYER
  5
202
100
AcDbSymbolTableRecord
100
AcDbLayerTableRecord
  2
05___PRT_ALL_DTM_CSYS
 70
0
 62
7
  6
CONTINUOUS
370
-3
390
F
  0
LAYER
  5
203
100
AcDbSymbolTableRecord
100
AcDbLayerTableRecord
  2
05___PRT_DEF_DTM_CSYS
 70
0
 62
7
  6
CONTINUOUS
370
-3
390
F
  0
LAYER
  5
204
100
AcDbSymbolTableRecord
100
AcDbLayerTableRecord
  2
06___PRT_ALL_SURFS
 70
0
 62
7
  6
CONTINUOUS
370
-3
390
F
  0
ENDTAB
  0
TABLE
  2
STYLE
  5
3
100
AcDbSymbolTable
 70
1
  0
STYLE
  5
11
100
AcDbSymbolTableRecord
100
AcDbTextStyleTableRecord
  2
STANDARD
 70
0
 40
0.0
 41
0.8
 50
0.0
 71
0
 42
0.2
  3
txt
  4

  0
STYLE
  5
205
100
AcDbSymbolTableRecord
100
AcDbTextStyleTableRecord
  2
TEXTSTYLE_1
 70
0
 40
0.0
 41
0.8
 50
0.0
 71
0
 42
0.2
  3
gdt
  4

  0
STYLE
  5
206
100
AcDbSymbolTableRecord
100
AcDbTextStyleTableRecord
  2
TEXTSTYLE_2
 70
0
 40
0.0
 41
1.0
 50
0.0
 71
0
 42
0.2
  3
gothic.ttf
  4

  0
ENDTAB
  0
TABLE
  2
VIEW
  5
6
100
AcDbSymbolTable
 70
0
  0
ENDTAB
  0
TABLE
  2
UCS
  5
7
100
AcDbSymbolTable
 70
0
  0
ENDTAB
  0
TABLE
  2
APPID
  5
9
100
AcDbSymbolTable
 70
1
  0
APPID
  5
207
100
AcDbSymbolTableRecord
100
AcDbRegAppTableRecord
  2
ACAD
 70
0
  0
ENDTAB
  0
TABLE
  2
BLOCK_RECORD
  5
1
100
AcDbSymbolTable
 70
0
  0
BLOCK_RECORD
  5
208
100
AcDbSymbolTableRecord
100
AcDbBlockTableRecord
  2
*Model_Space
  0
BLOCK_RECORD
  5
209
100
AcDbSymbolTableRecord
100
AcDbBlockTableRecord
  2
*Paper_Space
  0
BLOCK_RECORD
  5
20A
100
AcDbSymbolTableRecord
100
AcDbBlockTableRecord
  2
_FILLED
  0
BLOCK_RECORD
  5
20B
100
AcDbSymbolTableRecord
100
AcDbBlockTableRecord
  2
_DOT
  0
BLOCK_RECORD
  5
20C
100
AcDbSymbolTableRecord
100
AcDbBlockTableRecord
  2
*D0
  0
BLOCK_RECORD
  5
20D
100
AcDbSymbolTableRecord
100
AcDbBlockTableRecord
  2
*D1
  0
BLOCK_RECORD
  5
20E
100
AcDbSymbolTableRecord
100
AcDbBlockTableRecord
  2
*D2
  0
BLOCK_RECORD
  5
20F
100
AcDbSymbolTableRecord
100
AcDbBlockTableRecord
  2
*D3
  0
BLOCK_RECORD
  5
210
100
AcDbSymbolTableRecord
100
AcDbBlockTableRecord
  2
*D4
  0
BLOCK_RECORD
  5
211
100
AcDbSymbolTableRecord
100
AcDbBlockTableRecord
  2
*D5
  0
BLOCK_RECORD
  5
212
100
AcDbSymbolTableRecord
100
AcDbBlockTableRecord
  2
*D6
  0
BLOCK_RECORD
  5
213
100
AcDbSymbolTableRecord
100
AcDbBlockTableRecord
  2
*D7
  0
BLOCK_RECORD
  5
214
100
AcDbSymbolTableRecord
100
AcDbBlockTableRecord
  2
*D8
  0
BLOCK_RECORD
  5
215
100
AcDbSymbolTableRecord
100
AcDbBlockTableRecord
  2
*D9
  0
BLOCK_RECORD
  5
216
100
AcDbSymbolTableRecord
100
AcDbBlockTableRecord
  2
*D10
  0
BLOCK_RECORD
  5
217
100
AcDbSymbolTableRecord
100
AcDbBlockTableRecord
  2
CG_BL2
  0
BLOCK_RECORD
  5
218
100
AcDbSymbolTableRecord
100
AcDbBlockTableRecord
  2
CG_BL1
  0
BLOCK_RECORD
  5
219
100
AcDbSymbolTableRecord
100
AcDbBlockTableRecord
  2
CG_BL0
  0
BLOCK_RECORD
  5
21A
100
AcDbSymbolTableRecord
100
AcDbBlockTableRecord
  2
*T1
  0
BLOCK_RECORD
  5
21B
100
AcDbSymbolTableRecord
100
AcDbBlockTableRecord
  2
*T2
  0
BLOCK_RECORD
  5
21C
100
AcDbSymbolTableRecord
100
AcDbBlockTableRecord
  2
*T3
  0
BLOCK_RECORD
  5
21D
100
AcDbSymbolTableRecord
100
AcDbBlockTableRecord
  2
*T4
  0
BLOCK_RECORD
  5
21E
100
AcDbSymbolTableRecord
100
AcDbBlockTableRecord
  2
*T5
  0
BLOCK_RECORD
  5
21F
100
AcDbSymbolTableRecord
100
AcDbBlockTableRecord
  2
*T6
  0
BLOCK_RECORD
  5
220
100
AcDbSymbolTableRecord
100
AcDbBlockTableRecord
  2
*T7
  0
BLOCK_RECORD
  5
221
100
AcDbSymbolTableRecord
100
AcDbBlockTableRecord
  2
*T8
  0
BLOCK_RECORD
  5
222
100
AcDbSymbolTableRecord
100
AcDbBlockTableRecord
  2
*T9
  0
BLOCK_RECORD
  5
223
100
AcDbSymbolTableRecord
100
AcDbBlockTableRecord
  2
*T10
  0
BLOCK_RECORD
  5
224
100
AcDbSymbolTableRecord
100
AcDbBlockTableRecord
  2
*T11
  0
BLOCK_RECORD
  5
225
100
AcDbSymbolTableRecord
100
AcDbBlockTableRecord
  2
*T12
  0
BLOCK_RECORD
  5
226
100
AcDbSymbolTableRecord
100
AcDbBlockTableRecord
  2
*T13
  0
BLOCK_RECORD
  5
227
100
AcDbSymbolTableRecord
100
AcDbBlockTableRecord
  2
*T14
  0
ENDTAB
  0
TABLE
  2
DIMSTYLE
  5
A
100
AcDbSymbolTable
 70
1
100
AcDbDimStyleTable
 71
0
  0
DIMSTYLE
105
228
100
AcDbSymbolTableRecord
100
AcDbDimStyleTableRecord
  2
STANDARD
 70
0
  3

  4

 40
1.0
 41
10.0
 42
1.5875
 43
0.38
 44
3.175
 45
0.0
 46
0.0
 47
0.1
 48
0.1
140
11.43
141
0.09
142
0.0
143
0.0393700787
144
1.0
145
0.0
146
1.0
147
0.625
 71
1.0
 72
0.0
 73
1
 74
1
 75
0
 76
0
 77
0
 78
4
 79
1
170
1
171
0
172
0
173
0
174
0
175
0
176
0
177
0
178
0
270
2
179
1
271
1
272
1
273
2
274
2
275
0
280
0
281
0
282
0
283
1
284
4
285
0
286
0
287
3
288
0
340
11
278
46
341
20A
342
20A
343
20A
344
20A
  0
DIMSTYLE
105
229
100
AcDbSymbolTableRecord
100
AcDbDimStyleTableRecord
  2
DIMSTYLE_1
 70
0
  3
<>
  4

 40
1.0
 41
10.0
 42
1.5875
 43
0.38
 44
3.175
 45
0.0
 46
0.0
 47
0.1
 48
0.1
140
11.43
141
0.09
142
0.0
143
0.0393700787
144
1.0
145
0.0
146
1.0
147
0.625
 71
0.0
 72
0.0
 73
1
 74
1
 75
0
 76
0
 77
0
 78
4
 79
1
170
1
171
2
172
0
173
0
174
0
175
0
176
0
177
0
178
0
270
2
179
1
271
1
272
1
273
2
274
-1
275
0
280
0
281
0
282
0
283
1
284
4
285
0
286
0
287
3
288
1
340
11
278
46
289
1
341
20A
342
20A
343
20A
344
20A
  0
DIMSTYLE
105
22A
100
AcDbSymbolTableRecord
100
AcDbDimStyleTableRecord
  2
DIMSTYLE_2
 70
0
  3

  4

 40
1.0
 41
10.0
 42
1.5875
 43
0.38
 44
3.175
 45
0.0
 46
0.0
 47
0.1
 48
0.1
140
11.43
141
0.09
142
0.0
143
0.0393700787
144
1.0
145
0.0
146
1.0
147
1.143
 71
0.0
 72
0.0
 73
1
 74
1
 75
0
 76
0
 77
0
 78
4
 79
1
170
1
171
2
172
0
173
0
174
0
175
0
176
0
177
0
178
0
270
2
179
1
271
1
272
1
273
2
274
2
275
0
280
0
281
0
282
0
283
1
284
4
285
0
286
0
287
3
288
0
340
11
278
46
341
20A
342
20A
343
20A
344
20A
  0
DIMSTYLE
105
22B
100
AcDbSymbolTableRecord
100
AcDbDimStyleTableRecord
  2
DIMSTYLE_3
 70
0
  3

  4

 40
1.0
 41
10.0
 42
1.5875
 43
0.38
 44
3.175
 45
0.0
 46
0.0
 47
0.1
 48
0.1
140
11.43
141
0.09
142
0.0
143
0.0393700787
144
1.0
145
0.0
146
1.0
147
0.5715
 71
0.0
 72
0.0
 73
1
 74
1
 75
0
 76
0
 77
0
 78
4
 79
1
170
1
171
2
172
0
173
0
174
0
175
0
176
0
177
0
178
0
270
2
179
1
271
1
272
1
273
2
274
2
275
0
280
0
281
0
282
0
283
1
284
4
285
0
286
0
287
3
288
0
340
11
278
46
341
20A
342
20A
343
20A
344
20A
  0
DIMSTYLE
105
22C
100
AcDbSymbolTableRecord
100
AcDbDimStyleTableRecord
  2
DIMSTYLE_4
 70
0
  3

  4

 40
1.0
 41
10.0
 42
1.5875
 43
0.38
 44
3.175
 45
0.0
 46
0.0
 47
0.1
 48
0.1
140
11.43
141
0.09
142
0.0
143
0.0393700787
144
1.0
145
0.0
146
1.0
147
1.143
 71
0.0
 72
0.0
 73
1
 74
1
 75
0
 76
0
 77
0
 78
4
 79
1
170
1
171
2
172
0
173
0
174
0
175
0
176
0
177
0
178
0
270
2
179
1
271
1
272
1
273
2
274
-1
275
0
280
0
281
0
282
0
283
1
284
4
285
0
286
0
287
3
288
0
340
11
278
46
341
20A
342
20A
343
20A
344
20A
  0
ENDTAB
  0
ENDSEC
  0
SECTION
  2
BLOCKS
  0
BLOCK
  5
20
100
AcDbEntity
  8
0
100
AcDbBlockBegin
  2
*Model_Space
 70
0
 10
0.0
 20
0.0
 30
0.0
  3
*Model_Space
  1

  0
ENDBLK
  5
21
100
AcDbEntity
  8
0
100
AcDbBlockEnd
  0
BLOCK
  5
1C
100
AcDbEntity
  8
0
100
AcDbBlockBegin
  2
*Paper_Space
 70
0
 10
0.0
 20
0.0
 30
0.0
  3
*Paper_Space
  1

  0
ENDBLK
  5
1D
100
AcDbEntity
  8
0
100
AcDbBlockEnd
  0
BLOCK
  5
22D
100
AcDbEntity
  8
0
100
AcDbBlockBegin
 62
2
  6
CONTINUOUS
  2
CG_BL2
 70
64
 10
890.5614437829
 20
861.8608462735
  3
CG_BL2
  1

  0
ARC
  5
22E
100
AcDbEntity
  8
0
100
AcDbCircle
 62
7
  6
CONTINUOUS
 10
890.5614437829
 20
861.8608462735
 40
8.4614984135
100
AcDbArc
 50
90.0
 51
180.0
  0
ARC
  5
22F
100
AcDbEntity
  8
0
100
AcDbCircle
 62
7
  6
CONTINUOUS
 10
890.5614437829
 20
861.8608462735
 40
8.4614984135
100
AcDbArc
 50
180.0
 51
270.0
  0
ARC
  5
230
100
AcDbEntity
  8
0
100
AcDbCircle
 62
7
  6
CONTINUOUS
 10
890.5614437829
 20
861.8608462735
 40
8.4614984135
100
AcDbArc
 50
270.0
 51
360.0
  0
ARC
  5
231
100
AcDbEntity
  8
0
100
AcDbCircle
 62
7
  6
CONTINUOUS
 10
890.5614437829
 20
861.8608462735
 40
8.4614984135
100
AcDbArc
 50
0.0
 51
90.0
  0
LINE
  5
232
100
AcDbEntity
  8
0
100
AcDbLine
 62
7
  6
CONTINUOUS
 10
890.5614437829
 20
861.8608462735
 11
899.0229421963
 21
861.8608462735
  0
LINE
  5
233
100
AcDbEntity
  8
0
100
AcDbLine
 62
7
  6
CONTINUOUS
 10
890.5614437829
 20
861.8608462735
 11
890.5614437829
 21
853.39934786
  0
LINE
  5
234
100
AcDbEntity
  8
0
100
AcDbLine
 62
7
  6
CONTINUOUS
 10
882.0999453694
 20
861.8608462735
 11
890.5614437829
 21
861.8608462735
  0
LINE
  5
235
100
AcDbEntity
  8
0
100
AcDbLine
 62
7
  6
CONTINUOUS
 10
890.5614437829
 20
870.3223446869
 11
890.5614437829
 21
861.8608462735
  0
LINE
  5
236
100
AcDbEntity
  8
0
100
AcDbLine
 62
2
  6
CONTINUOUS
 10
890.5614437829
 20
861.8050794197
 11
890.6172106366
 21
861.8608462735
  0
LWPOLYLINE
  5
237
100
AcDbEntity
  8
0
100
AcDbPolyline
 62
7
  6
CONTINUOUS
 90
8
 70
0
 10
890.5614437829
 20
861.8608462735
 10
890.5614437829
 20
853.39934786
 10
893.1761905905
 20
853.8134830697
 10
895.5349877626
 20
855.0153502591
 10
897.4069397972
 20
856.8873022938
 10
898.6088069866
 20
859.2460994658
 10
899.0229421963
 20
861.8608462735
 10
890.5614437829
 20
861.8608462735
  0
HATCH
  5
238
100
AcDbEntity
  8
0
100
AcDbHatch
 62
7
  6
CONTINUOUS
 10
0.0
 20
0.0
 30
0.0
210
0.0
220
0.0
230
1.0
  2
SOLID
 70
1
 71
1
 91
1
 92
1
 93
7
 72
1
 10
890.5614437829
 20
861.8608462735
 11
890.5614437829
 21
853.39934786
 72
1
 10
890.5614437829
 20
853.39934786
 11
893.1761905905
 21
853.8134830697
 72
1
 10
893.1761905905
 20
853.8134830697
 11
895.5349877626
 21
855.0153502591
 72
1
 10
895.5349877626
 20
855.0153502591
 11
897.4069397972
 21
856.8873022938
 72
1
 10
897.4069397972
 20
856.8873022938
 11
898.6088069866
 21
859.2460994658
 72
1
 10
898.6088069866
 20
859.2460994658
 11
899.0229421963
 21
861.8608462735
 72
1
 10
899.0229421963
 20
861.8608462735
 11
890.5614437829
 21
861.8608462735
 97
1
330
237
 75
0
 76
1
 98
1
 10
0.0
 20
0.0
  0
LWPOLYLINE
  5
239
100
AcDbEntity
  8
0
100
AcDbPolyline
 62
7
  6
CONTINUOUS
 90
8
 70
0
 10
890.5614437829
 20
861.8608462735
 10
882.0999453694
 20
861.8608462735
 10
882.5140805791
 20
864.4755930811
 10
883.7159477685
 20
866.8343902532
 10
885.5878998031
 20
868.7063422878
 10
887.9466969752
 20
869.9082094772
 10
890.5614437829
 20
870.3223446869
 10
890.5614437829
 20
861.8608462735
  0
HATCH
  5
23A
100
AcDbEntity
  8
0
100
AcDbHatch
 62
7
  6
CONTINUOUS
 10
0.0
 20
0.0
 30
0.0
210
0.0
220
0.0
230
1.0
  2
SOLID
 70
1
 71
1
 91
1
 92
1
 93
7
 72
1
 10
890.5614437829
 20
861.8608462735
 11
882.0999453694
 21
861.8608462735
 72
1
 10
882.0999453694
 20
861.8608462735
 11
882.5140805791
 21
864.4755930811
 72
1
 10
882.5140805791
 20
864.4755930811
 11
883.7159477685
 21
866.8343902532
 72
1
 10
883.7159477685
 20
866.8343902532
 11
885.5878998031
 21
868.7063422878
 72
1
 10
885.5878998031
 20
868.7063422878
 11
887.9466969752
 21
869.9082094772
 72
1
 10
887.9466969752
 20
869.9082094772
 11
890.5614437829
 21
870.3223446869
 72
1
 10
890.5614437829
 20
870.3223446869
 11
890.5614437829
 21
861.8608462735
 97
1
330
239
 75
0
 76
1
 98
1
 10
0.0
 20
0.0
  0
ENDBLK
  5
23B
100
AcDbEntity
  8
0
  6
BYBLOCK
 62
0
100
AcDbBlockEnd
  0
BLOCK
  5
23C
100
AcDbEntity
  8
0
100
AcDbBlockBegin
 62
2
  6
CONTINUOUS
  2
CG_BL1
 70
64
 10
890.5580639547
 20
1163.3050997058
  3
CG_BL1
  1

  0
ARC
  5
23D
100
AcDbEntity
  8
0
100
AcDbCircle
 62
7
  6
CONTINUOUS
 10
890.5580639547
 20
1163.3050997058
 40
8.4614984135
100
AcDbArc
 50
90.0
 51
180.0
  0
ARC
  5
23E
100
AcDbEntity
  8
0
100
AcDbCircle
 62
7
  6
CONTINUOUS
 10
890.5580639547
 20
1163.3050997058
 40
8.4614984135
100
AcDbArc
 50
180.0
 51
270.0
  0
ARC
  5
23F
100
AcDbEntity
  8
0
100
AcDbCircle
 62
7
  6
CONTINUOUS
 10
890.5580639547
 20
1163.3050997058
 40
8.4614984135
100
AcDbArc
 50
270.0
 51
360.0
  0
ARC
  5
240
100
AcDbEntity
  8
0
100
AcDbCircle
 62
7
  6
CONTINUOUS
 10
890.5580639547
 20
1163.3050997058
 40
8.4614984135
100
AcDbArc
 50
0.0
 51
90.0
  0
LINE
  5
241
100
AcDbEntity
  8
0
100
AcDbLine
 62
7
  6
CONTINUOUS
 10
890.5580639547
 20
1163.3050997058
 11
899.0195623681
 21
1163.3050997058
  0
LINE
  5
242
100
AcDbEntity
  8
0
100
AcDbLine
 62
7
  6
CONTINUOUS
 10
890.5580639547
 20
1163.3050997058
 11
890.5580639547
 21
1154.8436012924
  0
LINE
  5
243
100
AcDbEntity
  8
0
100
AcDbLine
 62
7
  6
CONTINUOUS
 10
882.0965655412
 20
1163.3050997058
 11
890.5580639547
 21
1163.3050997058
  0
LINE
  5
244
100
AcDbEntity
  8
0
100
AcDbLine
 62
7
  6
CONTINUOUS
 10
890.5580639547
 20
1171.7665981193
 11
890.5580639547
 21
1163.3050997058
  0
LINE
  5
245
100
AcDbEntity
  8
0
100
AcDbLine
 62
2
  6
CONTINUOUS
 10
890.5580639547
 20
1163.2493328521
 11
890.6138308084
 21
1163.3050997058
  0
LWPOLYLINE
  5
246
100
AcDbEntity
  8
0
100
AcDbPolyline
 62
7
  6
CONTINUOUS
 90
8
 70
0
 10
890.5580639547
 20
1163.3050997058
 10
890.5580639547
 20
1154.8436012924
 10
893.1728107623
 20
1155.2577365021
 10
895.5316079344
 20
1156.4596036914
 10
897.403559969
 20
1158.3315557261
 10
898.6054271584
 20
1160.6903528982
 10
899.0195623681
 20
1163.3050997058
 10
890.5580639547
 20
1163.3050997058
  0
HATCH
  5
247
100
AcDbEntity
  8
0
100
AcDbHatch
 62
7
  6
CONTINUOUS
 10
0.0
 20
0.0
 30
0.0
210
0.0
220
0.0
230
1.0
  2
SOLID
 70
1
 71
1
 91
1
 92
1
 93
7
 72
1
 10
890.5580639547
 20
1163.3050997058
 11
890.5580639547
 21
1154.8436012924
 72
1
 10
890.5580639547
 20
1154.8436012924
 11
893.1728107623
 21
1155.2577365021
 72
1
 10
893.1728107623
 20
1155.2577365021
 11
895.5316079344
 21
1156.4596036914
 72
1
 10
895.5316079344
 20
1156.4596036914
 11
897.403559969
 21
1158.3315557261
 72
1
 10
897.403559969
 20
1158.3315557261
 11
898.6054271584
 21
1160.6903528982
 72
1
 10
898.6054271584
 20
1160.6903528982
 11
899.0195623681
 21
1163.3050997058
 72
1
 10
899.0195623681
 20
1163.3050997058
 11
890.5580639547
 21
1163.3050997058
 97
1
330
246
 75
0
 76
1
 98
1
 10
0.0
 20
0.0
  0
LWPOLYLINE
  5
248
100
AcDbEntity
  8
0
100
AcDbPolyline
 62
7
  6
CONTINUOUS
 90
8
 70
0
 10
890.5580639547
 20
1163.3050997058
 10
882.0965655412
 20
1163.3050997058
 10
882.5107007509
 20
1165.9198465134
 10
883.7125679403
 20
1168.2786436855
 10
885.5845199749
 20
1170.1505957202
 10
887.943317147
 20
1171.3524629095
 10
890.5580639547
 20
1171.7665981193
 10
890.5580639547
 20
1163.3050997058
  0
HATCH
  5
249
100
AcDbEntity
  8
0
100
AcDbHatch
 62
7
  6
CONTINUOUS
 10
0.0
 20
0.0
 30
0.0
210
0.0
220
0.0
230
1.0
  2
SOLID
 70
1
 71
1
 91
1
 92
1
 93
7
 72
1
 10
890.5580639547
 20
1163.3050997058
 11
882.0965655412
 21
1163.3050997058
 72
1
 10
882.0965655412
 20
1163.3050997058
 11
882.5107007509
 21
1165.9198465134
 72
1
 10
882.5107007509
 20
1165.9198465134
 11
883.7125679403
 21
1168.2786436855
 72
1
 10
883.7125679403
 20
1168.2786436855
 11
885.5845199749
 21
1170.1505957202
 72
1
 10
885.5845199749
 20
1170.1505957202
 11
887.943317147
 21
1171.3524629095
 72
1
 10
887.943317147
 20
1171.3524629095
 11
890.5580639547
 21
1171.7665981193
 72
1
 10
890.5580639547
 20
1171.7665981193
 11
890.5580639547
 21
1163.3050997058
 97
1
330
248
 75
0
 76
1
 98
1
 10
0.0
 20
0.0
  0
ENDBLK
  5
24A
100
AcDbEntity
  8
0
  6
BYBLOCK
 62
0
100
AcDbBlockEnd
  0
BLOCK
  5
24B
100
AcDbEntity
  8
0
100
AcDbBlockBegin
 62
2
  6
CONTINUOUS
  2
CG_BL0
 70
64
 10
167.3456642294
 20
218.1216551971
  3
CG_BL0
  1

  0
ARC
  5
24C
100
AcDbEntity
  8
0
100
AcDbCircle
 62
7
  6
CONTINUOUS
 10
167.3456642294
 20
218.1216551971
 40
8.4614984135
100
AcDbArc
 50
90.0
 51
180.0
  0
ARC
  5
24D
100
AcDbEntity
  8
0
100
AcDbCircle
 62
7
  6
CONTINUOUS
 10
167.3456642294
 20
218.1216551971
 40
8.4614984135
100
AcDbArc
 50
180.0
 51
270.0
  0
ARC
  5
24E
100
AcDbEntity
  8
0
100
AcDbCircle
 62
7
  6
CONTINUOUS
 10
167.3456642294
 20
218.1216551971
 40
8.4614984135
100
AcDbArc
 50
270.0
 51
360.0
  0
ARC
  5
24F
100
AcDbEntity
  8
0
100
AcDbCircle
 62
7
  6
CONTINUOUS
 10
167.3456642294
 20
218.1216551971
 40
8.4614984135
100
AcDbArc
 50
0.0
 51
90.0
  0
LINE
  5
250
100
AcDbEntity
  8
0
100
AcDbLine
 62
7
  6
CONTINUOUS
 10
167.3456642294
 20
218.1216551971
 11
175.8071626429
 21
218.1216551971
  0
LINE
  5
251
100
AcDbEntity
  8
0
100
AcDbLine
 62
7
  6
CONTINUOUS
 10
167.3456642294
 20
218.1216551971
 11
167.3456642294
 21
209.6601567836
  0
LINE
  5
252
100
AcDbEntity
  8
0
100
AcDbLine
 62
7
  6
CONTINUOUS
 10
158.884165816
 20
218.1216551971
 11
167.3456642294
 21
218.1216551971
  0
LINE
  5
253
100
AcDbEntity
  8
0
100
AcDbLine
 62
7
  6
CONTINUOUS
 10
167.3456642294
 20
226.5831536105
 11
167.3456642294
 21
218.1216551971
  0
LINE
  5
254
100
AcDbEntity
  8
0
100
AcDbLine
 62
2
  6
CONTINUOUS
 10
167.3456642294
 20
218.0658883433
 11
167.4014310832
 21
218.1216551971
  0
LWPOLYLINE
  5
255
100
AcDbEntity
  8
0
100
AcDbPolyline
 62
7
  6
CONTINUOUS
 90
8
 70
0
 10
167.3456642294
 20
218.1216551971
 10
167.3456642294
 20
209.6601567836
 10
169.9604110371
 20
210.0742919933
 10
172.3192082091
 20
211.2761591827
 10
174.1911602438
 20
213.1481112174
 10
175.3930274332
 20
215.5069083894
 10
175.8071626429
 20
218.1216551971
 10
167.3456642294
 20
218.1216551971
  0
HATCH
  5
256
100
AcDbEntity
  8
0
100
AcDbHatch
 62
7
  6
CONTINUOUS
 10
0.0
 20
0.0
 30
0.0
210
0.0
220
0.0
230
1.0
  2
SOLID
 70
1
 71
1
 91
1
 92
1
 93
7
 72
1
 10
167.3456642294
 20
218.1216551971
 11
167.3456642294
 21
209.6601567836
 72
1
 10
167.3456642294
 20
209.6601567836
 11
169.9604110371
 21
210.0742919933
 72
1
 10
169.9604110371
 20
210.0742919933
 11
172.3192082091
 21
211.2761591827
 72
1
 10
172.3192082091
 20
211.2761591827
 11
174.1911602438
 21
213.1481112174
 72
1
 10
174.1911602438
 20
213.1481112174
 11
175.3930274332
 21
215.5069083894
 72
1
 10
175.3930274332
 20
215.5069083894
 11
175.8071626429
 21
218.1216551971
 72
1
 10
175.8071626429
 20
218.1216551971
 11
167.3456642294
 21
218.1216551971
 97
1
330
255
 75
0
 76
1
 98
1
 10
0.0
 20
0.0
  0
LWPOLYLINE
  5
257
100
AcDbEntity
  8
0
100
AcDbPolyline
 62
7
  6
CONTINUOUS
 90
8
 70
0
 10
167.3456642294
 20
218.1216551971
 10
158.884165816
 20
218.1216551971
 10
159.2983010257
 20
220.7364020047
 10
160.5001682151
 20
223.0951991768
 10
162.3721202497
 20
224.9671512114
 10
164.7309174218
 20
226.1690184008
 10
167.3456642294
 20
226.5831536105
 10
167.3456642294
 20
218.1216551971
  0
HATCH
  5
258
100
AcDbEntity
  8
0
100
AcDbHatch
 62
7
  6
CONTINUOUS
 10
0.0
 20
0.0
 30
0.0
210
0.0
220
0.0
230
1.0
  2
SOLID
 70
1
 71
1
 91
1
 92
1
 93
7
 72
1
 10
167.3456642294
 20
218.1216551971
 11
158.884165816
 21
218.1216551971
 72
1
 10
158.884165816
 20
218.1216551971
 11
159.2983010257
 21
220.7364020047
 72
1
 10
159.2983010257
 20
220.7364020047
 11
160.5001682151
 21
223.0951991768
 72
1
 10
160.5001682151
 20
223.0951991768
 11
162.3721202497
 21
224.9671512114
 72
1
 10
162.3721202497
 20
224.9671512114
 11
164.7309174218
 21
226.1690184008
 72
1
 10
164.7309174218
 20
226.1690184008
 11
167.3456642294
 21
226.5831536105
 72
1
 10
167.3456642294
 20
226.5831536105
 11
167.3456642294
 21
218.1216551971
 97
1
330
257
 75
0
 76
1
 98
1
 10
0.0
 20
0.0
  0
ENDBLK
  5
259
100
AcDbEntity
  8
0
  6
BYBLOCK
 62
0
100
AcDbBlockEnd
  0
BLOCK
  5
25A
100
AcDbEntity
  8
0
100
AcDbBlockBegin
  2
_FILLED
 70
64
 10
0.0
 20
0.0
  3
_FILLED
  1

  0
SOLID
  5
25B
100
AcDbEntity
  8
0
  6
BYBLOCK
 62
0
100
AcDbTrace
 10
0.0
 20
0.0
 11
-1.0
 21
0.1275
 12
-1.0
 22
-0.1275
 13
-1.0
 23
-0.1275
  0
ENDBLK
  5
25C
100
AcDbEntity
  8
0
  6
BYBLOCK
 62
0
100
AcDbBlockEnd
  0
BLOCK
  5
25D
100
AcDbEntity
  8
0
100
AcDbBlockBegin
  2
_DOT
 70
64
 10
0.0
 20
0.0
  3
_DOT
  1

  0
LWPOLYLINE
  5
25E
100
AcDbEntity
  8
0
  6
BYBLOCK
 62
0
100
AcDbPolyline
 90
2
 70
1
 43
0.1275
 10
-0.06375
 20
0.0
 42
1.0
 10
0.06375
 20
0.0
 42
1.0
  0
LINE
  5
25F
100
AcDbEntity
  8
0
  6
BYBLOCK
 62
0
100
AcDbLine
 10
-0.1275
 20
0.0
 11
-1.0
 21
0.0
  0
ENDBLK
  5
260
100
AcDbEntity
  8
0
  6
BYBLOCK
 62
0
100
AcDbBlockEnd
  0
BLOCK
  5
261
100
AcDbEntity
  8
0
100
AcDbBlockBegin
 62
2
  6
CONTINUOUS
  2
*D0
 70
65
 10
0.0
 20
0.0
  3
*D0
  1

  0
MTEXT
  5
262
100
AcDbEntity
  8
0
100
AcDbMText
 62
2
  6
CONTINUOUS
  7
TEXTSTYLE_1
 71
1
 72
1
 10
975.60840869
 20
1021.621335128
 30
0.0
 11
1.0
 21
0.0
 31
0.0
 73
2
 44
0.9
  1
{\fgdt;n}\ftxt;260,0\P[10.24]
 40
11.43
 41
64.008
  0
LINE
  5
263
100
AcDbEntity
  8
0
100
AcDbLine
 62
2
  6
CONTINUOUS
 10
930.2005011545
 20
1036.4958294107
 11
943.85840869
 21
1015.906335128
  0
LINE
  5
264
100
AcDbEntity
  8
0
100
AcDbLine
 62
2
  6
CONTINUOUS
 10
943.85840869
 20
1015.906335128
 11
969.89340869
 21
1015.906335128
  0
INSERT
  5
265
100
AcDbEntity
  8
0
100
AcDbBlockReference
 62
2
  6
CONTINUOUS
  2
_FILLED
 10
930.2005011545
 20
1036.4958294107
 41
10.0
 42
10.0
 43
10.0
 50
123.5580481624
  0
ENDBLK
  5
266
100
AcDbEntity
  8
0
  6
BYBLOCK
 62
0
100
AcDbBlockEnd
  0
BLOCK
  5
267
100
AcDbEntity
  8
0
100
AcDbBlockBegin
 62
2
  6
CONTINUOUS
  2
*D1
 70
65
 10
0.0
 20
0.0
  3
*D1
  1

  0
MTEXT
  5
268
100
AcDbEntity
  8
0
100
AcDbMText
 62
2
  6
CONTINUOUS
  7
TEXTSTYLE_1
 71
2
 72
1
 10
853.7669012214
 20
747.1246497708
 30
0.0
 11
1.0
 21
0.0
 31
0.0
 73
2
 44
0.9
  1
{\fgdt;n}\ftxt;223,0\P[8.78]
 40
11.43
 41
60.96
  0
LINE
  5
269
100
AcDbEntity
  8
0
100
AcDbLine
 62
2
  6
CONTINUOUS
 10
746.8389012214
 20
858.4231743458
 11
746.8389012214
 21
725.5346497708
  0
LINE
  5
26A
100
AcDbEntity
  8
0
100
AcDbLine
 62
2
  6
CONTINUOUS
 10
969.8389012214
 20
858.4231743458
 11
969.8389012214
 21
725.5346497708
  0
LINE
  5
26B
100
AcDbEntity
  8
0
100
AcDbLine
 62
2
  6
CONTINUOUS
 10
746.8389012214
 20
741.4096497708
 11
817.5719012214
 21
741.4096497708
  0
LINE
  5
26C
100
AcDbEntity
  8
0
100
AcDbLine
 62
2
  6
CONTINUOUS
 10
969.8389012214
 20
741.4096497708
 11
899.1059012214
 21
741.4096497708
  0
INSERT
  5
26D
100
AcDbEntity
  8
0
100
AcDbBlockReference
 62
2
  6
CONTINUOUS
  2
_FILLED
 10
746.8389012214
 20
741.4096497708
 41
10.0
 42
10.0
 43
10.0
 50
180.0
  0
INSERT
  5
26E
100
AcDbEntity
  8
0
100
AcDbBlockReference
 62
2
  6
CONTINUOUS
  2
_FILLED
 10
969.8389012214
 20
741.4096497708
 41
10.0
 42
10.0
 43
10.0
  0
ENDBLK
  5
26F
100
AcDbEntity
  8
0
  6
BYBLOCK
 62
0
100
AcDbBlockEnd
  0
BLOCK
  5
270
100
AcDbEntity
  8
0
100
AcDbBlockBegin
 62
2
  6
CONTINUOUS
  2
*D2
 70
65
 10
0.0
 20
0.0
  3
*D2
  1

  0
MTEXT
  5
271
100
AcDbEntity
  8
0
100
AcDbMText
 62
2
  6
CONTINUOUS
  7
STANDARD
 71
1
 72
1
 10
1050.1199207589
 20
914.9162657515
 30
0.0
 11
0.0
 21
1.0
 31
0.0
 73
2
 44
0.9
  1
5,1\P[.20]
 40
11.43
 41
45.72
  0
LINE
  5
272
100
AcDbEntity
  8
0
100
AcDbLine
 62
2
  6
CONTINUOUS
 10
975.4391749184
 20
890.8606743458
 11
1080.2824207589
 21
890.8606743458
  0
LINE
  5
273
100
AcDbEntity
  8
0
100
AcDbLine
 62
2
  6
CONTINUOUS
 10
996.2764012214
 20
885.7606743458
 11
1080.2824207589
 21
885.7606743458
  0
LINE
  5
274
100
AcDbEntity
  8
0
100
AcDbLine
 62
2
  6
CONTINUOUS
 10
1064.4074207589
 20
890.8606743458
 11
1064.4074207589
 21
960.6362657515
  0
LINE
  5
275
100
AcDbEntity
  8
0
100
AcDbLine
 62
2
  6
CONTINUOUS
 10
1064.4074207589
 20
960.6362657515
 11
1064.4074207589
 21
888.3106743458
  0
LINE
  5
276
100
AcDbEntity
  8
0
100
AcDbLine
 62
2
  6
CONTINUOUS
 10
1064.4074207589
 20
885.7606743458
 11
1064.4074207589
 21
865.7606743458
  0
LINE
  5
277
100
AcDbEntity
  8
0
100
AcDbLine
 62
2
  6
CONTINUOUS
 10
1064.4074207589
 20
865.7606743458
 11
1064.4074207589
 21
888.3106743458
  0
INSERT
  5
278
100
AcDbEntity
  8
0
100
AcDbBlockReference
 62
2
  6
CONTINUOUS
  2
_FILLED
 10
1064.4074207589
 20
890.8606743458
 41
10.0
 42
10.0
 43
10.0
 50
270.0
  0
INSERT
  5
279
100
AcDbEntity
  8
0
100
AcDbBlockReference
 62
2
  6
CONTINUOUS
  2
_FILLED
 10
1064.4074207589
 20
885.7606743458
 41
10.0
 42
10.0
 43
10.0
 50
90.0
  0
ENDBLK
  5
27A
100
AcDbEntity
  8
0
  6
BYBLOCK
 62
0
100
AcDbBlockEnd
  0
BLOCK
  5
27B
100
AcDbEntity
  8
0
100
AcDbBlockBegin
 62
2
  6
CONTINUOUS
  2
*D3
 70
65
 10
0.0
 20
0.0
  3
*D3
  1

  0
MTEXT
  5
27C
100
AcDbEntity
  8
0
100
AcDbMText
 62
2
  6
CONTINUOUS
  7
STANDARD
 71
2
 72
1
 10
1055.2634207589
 20
860.4121832958
 30
0.0
 11
1.0
 21
0.0
 31
0.0
 73
2
 44
0.9
  1
94,1\P[3.70]
 40
11.43
 41
54.864
  0
LINE
  5
27D
100
AcDbEntity
  8
0
100
AcDbLine
 62
2
  6
CONTINUOUS
 10
960.7764012214
 20
791.6606743458
 11
1080.2824207589
 21
791.6606743458
  0
LINE
  5
27E
100
AcDbEntity
  8
0
100
AcDbLine
 62
2
  6
CONTINUOUS
 10
996.2764012214
 20
885.7606743458
 11
1080.2824207589
 21
885.7606743458
  0
LINE
  5
27F
100
AcDbEntity
  8
0
100
AcDbLine
 62
2
  6
CONTINUOUS
 10
1064.4074207589
 20
791.6606743458
 11
1064.4074207589
 21
826.1221832958
  0
LINE
  5
280
100
AcDbEntity
  8
0
100
AcDbLine
 62
2
  6
CONTINUOUS
 10
1064.4074207589
 20
885.7606743458
 11
1064.4074207589
 21
866.1271832958
  0
INSERT
  5
281
100
AcDbEntity
  8
0
100
AcDbBlockReference
 62
2
  6
CONTINUOUS
  2
_FILLED
 10
1064.4074207589
 20
791.6606743458
 41
10.0
 42
10.0
 43
10.0
 50
270.0
  0
INSERT
  5
282
100
AcDbEntity
  8
0
100
AcDbBlockReference
 62
2
  6
CONTINUOUS
  2
_FILLED
 10
1064.4074207589
 20
885.7606743458
 41
10.0
 42
10.0
 43
10.0
 50
90.0
  0
ENDBLK
  5
283
100
AcDbEntity
  8
0
  6
BYBLOCK
 62
0
100
AcDbBlockEnd
  0
BLOCK
  5
284
100
AcDbEntity
  8
0
100
AcDbBlockBegin
 62
2
  6
CONTINUOUS
  2
*D4
 70
65
 10
0.0
 20
0.0
  3
*D4
  1

  0
MTEXT
  5
285
100
AcDbEntity
  8
0
100
AcDbMText
 62
2
  6
CONTINUOUS
  7
STANDARD
 71
2
 72
1
 10
706.1148519244
 20
855.8171363257
 30
0.0
 11
1.0
 21
0.0
 31
0.0
 73
2
 44
0.9
  1
103,4\P[4.07]
 40
11.43
 41
54.864
  0
LINE
  5
286
100
AcDbEntity
  8
0
100
AcDbLine
 62
2
  6
CONTINUOUS
 10
741.2386275243
 20
890.8606743458
 11
694.8118519244
 21
890.8606743458
  0
LINE
  5
287
100
AcDbEntity
  8
0
100
AcDbLine
 62
2
  6
CONTINUOUS
 10
830.4014012214
 20
787.4339927489
 11
694.8118519244
 21
787.4339927489
  0
LINE
  5
288
100
AcDbEntity
  8
0
100
AcDbLine
 62
2
  6
CONTINUOUS
 10
710.6868519244
 20
890.8606743458
 11
710.6868519244
 21
861.5321363257
  0
LINE
  5
289
100
AcDbEntity
  8
0
100
AcDbLine
 62
2
  6
CONTINUOUS
 10
710.6868519244
 20
787.4339927489
 11
710.6868519244
 21
821.5271363257
  0
INSERT
  5
28A
100
AcDbEntity
  8
0
100
AcDbBlockReference
 62
2
  6
CONTINUOUS
  2
_FILLED
 10
710.6868519244
 20
890.8606743458
 41
10.0
 42
10.0
 43
10.0
 50
90.0
  0
INSERT
  5
28B
100
AcDbEntity
  8
0
100
AcDbBlockReference
 62
2
  6
CONTINUOUS
  2
_FILLED
 10
710.6868519244
 20
787.4339927489
 41
10.0
 42
10.0
 43
10.0
 50
270.0
  0
ENDBLK
  5
28C
100
AcDbEntity
  8
0
  6
BYBLOCK
 62
0
100
AcDbBlockEnd
  0
BLOCK
  5
28D
100
AcDbEntity
  8
0
100
AcDbBlockBegin
 62
2
  6
CONTINUOUS
  2
*D5
 70
65
 10
0.0
 20
0.0
  3
*D5
  1

  0
MTEXT
  5
28E
100
AcDbEntity
  8
0
100
AcDbMText
 62
2
  6
CONTINUOUS
  7
TEXTSTYLE_1
 71
1
 72
1
 10
921.3493644229
 20
335.1043242584
 30
0.0
 11
1.0
 21
0.0
 31
0.0
 73
2
 44
0.9
  1
{\fgdt;n}\ftxt;8,0\P[.32]
 40
11.43
 41
45.72
  0
LINE
  5
28F
100
AcDbEntity
  8
0
100
AcDbLine
 62
2
  6
CONTINUOUS
 10
860.0384892467
 20
392.3686733148
 11
889.5993644229
 21
329.3893242584
  0
LINE
  5
290
100
AcDbEntity
  8
0
100
AcDbLine
 62
2
  6
CONTINUOUS
 10
889.5993644229
 20
329.3893242584
 11
915.6343644229
 21
329.3893242584
  0
INSERT
  5
291
100
AcDbEntity
  8
0
100
AcDbBlockReference
 62
2
  6
CONTINUOUS
  2
_FILLED
 10
860.0384892467
 20
392.3686733148
 41
10.0
 42
10.0
 43
10.0
 50
115.1441444244
  0
ENDBLK
  5
292
100
AcDbEntity
  8
0
  6
BYBLOCK
 62
0
100
AcDbBlockEnd
  0
BLOCK
  5
293
100
AcDbEntity
  8
0
100
AcDbBlockBegin
 62
2
  6
CONTINUOUS
  2
*D6
 70
65
 10
0.0
 20
0.0
  3
*D6
  1

  0
MTEXT
  5
294
100
AcDbEntity
  8
0
100
AcDbMText
 62
2
  6
CONTINUOUS
  7
STANDARD
 71
1
 72
1
 10
694.5443507413
 20
430.7181537285
 30
0.0
 11
0.0
 21
1.0
 31
0.0
 73
2
 44
0.9
  1
4,0\P[.16]
 40
11.43
 41
45.72
  0
LINE
  5
295
100
AcDbEntity
  8
0
100
AcDbLine
 62
2
  6
CONTINUOUS
 10
833.6308913901
 20
399.9896401117
 11
692.9568507413
 21
399.9896401117
  0
LINE
  5
296
100
AcDbEntity
  8
0
100
AcDbLine
 62
2
  6
CONTINUOUS
 10
850.4014012214
 20
395.9896401117
 11
692.9568507413
 21
395.9896401117
  0
LINE
  5
297
100
AcDbEntity
  8
0
100
AcDbLine
 62
2
  6
CONTINUOUS
 10
708.8318507413
 20
399.9896401117
 11
708.8318507413
 21
476.4381537285
  0
LINE
  5
298
100
AcDbEntity
  8
0
100
AcDbLine
 62
2
  6
CONTINUOUS
 10
708.8318507413
 20
476.4381537285
 11
708.8318507413
 21
397.9896401117
  0
LINE
  5
299
100
AcDbEntity
  8
0
100
AcDbLine
 62
2
  6
CONTINUOUS
 10
708.8318507413
 20
395.9896401117
 11
708.8318507413
 21
375.9896401117
  0
LINE
  5
29A
100
AcDbEntity
  8
0
100
AcDbLine
 62
2
  6
CONTINUOUS
 10
708.8318507413
 20
375.9896401117
 11
708.8318507413
 21
397.9896401117
  0
INSERT
  5
29B
100
AcDbEntity
  8
0
100
AcDbBlockReference
 62
2
  6
CONTINUOUS
  2
_FILLED
 10
708.8318507413
 20
399.9896401117
 41
10.0
 42
10.0
 43
10.0
 50
270.0
  0
INSERT
  5
29C
100
AcDbEntity
  8
0
100
AcDbBlockReference
 62
2
  6
CONTINUOUS
  2
_FILLED
 10
708.8318507413
 20
395.9896401117
 41
10.0
 42
10.0
 43
10.0
 50
90.0
  0
ENDBLK
  5
29D
100
AcDbEntity
  8
0
  6
BYBLOCK
 62
0
100
AcDbBlockEnd
  0
BLOCK
  5
29E
100
AcDbEntity
  8
0
100
AcDbBlockBegin
 62
2
  6
CONTINUOUS
  2
*D7
 70
65
 10
0.0
 20
0.0
  3
*D7
  1

  0
MTEXT
  5
29F
100
AcDbEntity
  8
0
100
AcDbMText
 62
2
  6
CONTINUOUS
  7
STANDARD
 71
2
 72
1
 10
689.9738344219
 20
1235.4169665452
 30
0.0
 11
1.0
 21
0.0
 31
0.0
 73
2
 44
0.9
  1
111,5\P[4.39]
 40
11.43
 41
54.864
  0
LINE
  5
2A0
100
AcDbEntity
  8
0
100
AcDbLine
 62
2
  6
CONTINUOUS
 10
850.4014012214
 20
1274.8282366352
 11
678.6708344219
 21
1274.8282366352
  0
LINE
  5
2A1
100
AcDbEntity
  8
0
100
AcDbLine
 62
2
  6
CONTINUOUS
 10
882.6242572401
 20
1163.3049368276
 11
678.6708344219
 21
1163.3049368276
  0
LINE
  5
2A2
100
AcDbEntity
  8
0
100
AcDbLine
 62
2
  6
CONTINUOUS
 10
694.5458344219
 20
1274.8282366352
 11
694.5458344219
 21
1241.1319665452
  0
LINE
  5
2A3
100
AcDbEntity
  8
0
100
AcDbLine
 62
2
  6
CONTINUOUS
 10
694.5458344219
 20
1163.3049368276
 11
694.5458344219
 21
1201.1269665452
  0
INSERT
  5
2A4
100
AcDbEntity
  8
0
100
AcDbBlockReference
 62
2
  6
CONTINUOUS
  2
_FILLED
 10
694.5458344219
 20
1274.8282366352
 41
10.0
 42
10.0
 43
10.0
 50
90.0
  0
INSERT
  5
2A5
100
AcDbEntity
  8
0
100
AcDbBlockReference
 62
2
  6
CONTINUOUS
  2
_FILLED
 10
694.5458344219
 20
1163.3049368276
 41
10.0
 42
10.0
 43
10.0
 50
270.0
  0
ENDBLK
  5
2A6
100
AcDbEntity
  8
0
  6
BYBLOCK
 62
0
100
AcDbBlockEnd
  0
BLOCK
  5
2A7
100
AcDbEntity
  8
0
100
AcDbBlockBegin
 62
2
  6
CONTINUOUS
  2
*D8
 70
65
 10
0.0
 20
0.0
  3
*D8
  1

  0
MTEXT
  5
2A8
100
AcDbEntity
  8
0
100
AcDbMText
 62
2
  6
CONTINUOUS
  7
STANDARD
 71
2
 72
1
 10
935.8261560365
 20
1319.1372517015
 30
0.0
 11
1.0
 21
0.0
 31
0.0
 73
2
 44
0.9
  1
97,8\P[3.85]
 40
11.43
 41
54.864
  0
LINE
  5
2A9
100
AcDbEntity
  8
0
100
AcDbLine
 62
2
  6
CONTINUOUS
 10
988.3389012214
 20
1152.7657366352
 11
988.3389012214
 21
1329.2972517015
  0
LINE
  5
2AA
100
AcDbEntity
  8
0
100
AcDbLine
 62
2
  6
CONTINUOUS
 10
890.5617572401
 20
1171.2424368276
 11
890.5617572401
 21
1329.2972517015
  0
LINE
  5
2AB
100
AcDbEntity
  8
0
100
AcDbLine
 62
2
  6
CONTINUOUS
 10
988.3389012214
 20
1313.4222517015
 11
978.1171560365
 21
1313.4222517015
  0
LINE
  5
2AC
100
AcDbEntity
  8
0
100
AcDbLine
 62
2
  6
CONTINUOUS
 10
890.5617572401
 20
1313.4222517015
 11
911.8231560365
 21
1313.4222517015
  0
INSERT
  5
2AD
100
AcDbEntity
  8
0
100
AcDbBlockReference
 62
2
  6
CONTINUOUS
  2
_FILLED
 10
988.3389012214
 20
1313.4222517015
 41
10.0
 42
10.0
 43
10.0
  0
INSERT
  5
2AE
100
AcDbEntity
  8
0
100
AcDbBlockReference
 62
2
  6
CONTINUOUS
  2
_FILLED
 10
890.5617572401
 20
1313.4222517015
 41
10.0
 42
10.0
 43
10.0
 50
180.0
  0
ENDBLK
  5
2AF
100
AcDbEntity
  8
0
  6
BYBLOCK
 62
0
100
AcDbBlockEnd
  0
BLOCK
  5
2B0
100
AcDbEntity
  8
0
100
AcDbBlockBegin
 62
2
  6
CONTINUOUS
  2
*D9
 70
65
 10
0.0
 20
0.0
  3
*D9
  1

  0
MTEXT
  5
2B1
100
AcDbEntity
  8
0
100
AcDbMText
 62
2
  6
CONTINUOUS
  7
STANDARD
 71
2
 72
1
 10
1898.146876681
 20
851.9542730946
 30
0.0
 11
1.0
 21
0.0
 31
0.0
 73
2
 44
0.9
  1
98,3\P[3.87]
 40
11.43
 41
54.864
  0
LINE
  5
2B2
100
AcDbEntity
  8
0
100
AcDbLine
 62
2
  6
CONTINUOUS
 10
1895.3467170871
 20
885.7606743458
 11
1923.165876681
 21
885.7606743458
  0
LINE
  5
2B3
100
AcDbEntity
  8
0
100
AcDbLine
 62
2
  6
CONTINUOUS
 10
1785.3467170871
 20
787.4339927489
 11
1923.165876681
 21
787.4339927489
  0
LINE
  5
2B4
100
AcDbEntity
  8
0
100
AcDbLine
 62
2
  6
CONTINUOUS
 10
1907.290876681
 20
885.7606743458
 11
1907.290876681
 21
857.6692730946
  0
LINE
  5
2B5
100
AcDbEntity
  8
0
100
AcDbLine
 62
2
  6
CONTINUOUS
 10
1907.290876681
 20
787.4339927489
 11
1907.290876681
 21
817.6642730946
  0
INSERT
  5
2B6
100
AcDbEntity
  8
0
100
AcDbBlockReference
 62
2
  6
CONTINUOUS
  2
_FILLED
 10
1907.290876681
 20
885.7606743458
 41
10.0
 42
10.0
 43
10.0
 50
90.0
  0
INSERT
  5
2B7
100
AcDbEntity
  8
0
100
AcDbBlockReference
 62
2
  6
CONTINUOUS
  2
_FILLED
 10
1907.290876681
 20
787.4339927489
 41
10.0
 42
10.0
 43
10.0
 50
270.0
  0
ENDBLK
  5
2B8
100
AcDbEntity
  8
0
  6
BYBLOCK
 62
0
100
AcDbBlockEnd
  0
BLOCK
  5
2B9
100
AcDbEntity
  8
0
100
AcDbBlockBegin
 62
2
  6
CONTINUOUS
  2
*D10
 70
65
 10
0.0
 20
0.0
  3
*D10
  1

  0
MTEXT
  5
2BA
100
AcDbEntity
  8
0
100
AcDbMText
 62
2
  6
CONTINUOUS
  7
STANDARD
 71
1
 72
1
 10
988.2772466029
 20
910.0877697919
 30
0.0
 11
0.0
 21
1.0
 31
0.0
 73
2
 44
0.9
  1
29,0\P[1.14]
 40
11.43
 41
54.864
  0
LINE
  5
2BB
100
AcDbEntity
  8
0
100
AcDbLine
 62
2
  6
CONTINUOUS
 10
975.4391749184
 20
890.8606743458
 11
1018.4397466029
 21
890.8606743458
  0
LINE
  5
2BC
100
AcDbEntity
  8
0
100
AcDbLine
 62
2
  6
CONTINUOUS
 10
898.4992572401
 20
861.8606743458
 11
1018.4397466029
 21
861.8606743458
  0
LINE
  5
2BD
100
AcDbEntity
  8
0
100
AcDbLine
 62
2
  6
CONTINUOUS
 10
1002.5647466029
 20
890.8606743458
 11
1002.5647466029
 21
964.9517697919
  0
LINE
  5
2BE
100
AcDbEntity
  8
0
100
AcDbLine
 62
2
  6
CONTINUOUS
 10
1002.5647466029
 20
964.9517697919
 11
1002.5647466029
 21
876.3606743458
  0
LINE
  5
2BF
100
AcDbEntity
  8
0
100
AcDbLine
 62
2
  6
CONTINUOUS
 10
1002.5647466029
 20
861.8606743458
 11
1002.5647466029
 21
841.8606743458
  0
LINE
  5
2C0
100
AcDbEntity
  8
0
100
AcDbLine
 62
2
  6
CONTINUOUS
 10
1002.5647466029
 20
841.8606743458
 11
1002.5647466029
 21
876.3606743458
  0
INSERT
  5
2C1
100
AcDbEntity
  8
0
100
AcDbBlockReference
 62
2
  6
CONTINUOUS
  2
_FILLED
 10
1002.5647466029
 20
890.8606743458
 41
10.0
 42
10.0
 43
10.0
 50
270.0
  0
INSERT
  5
2C2
100
AcDbEntity
  8
0
100
AcDbBlockReference
 62
2
  6
CONTINUOUS
  2
_FILLED
 10
1002.5647466029
 20
861.8606743458
 41
10.0
 42
10.0
 43
10.0
 50
90.0
  0
ENDBLK
  5
2C3
100
AcDbEntity
  8
0
  6
BYBLOCK
 62
0
100
AcDbBlockEnd
  0
BLOCK
  5
2C4
100
AcDbEntity
  8
0
100
AcDbBlockBegin
  2
*T1
 70
1
 10
0.0
 20
0.0
  3
*T1
  1

  0
LINE
  5
2C5
100
AcDbEntity
  8
0
100
AcDbLine
 62
2
  6
CONTINUOUS
 10
0.0
 20
0.0
 11
294.5
 21
0.0
  0
LINE
  5
2C6
100
AcDbEntity
  8
0
100
AcDbLine
 62
2
  6
CONTINUOUS
 10
0.0
 20
0.0
 11
0.0
 21
-95.546875
  0
LINE
  5
2C7
100
AcDbEntity
  8
0
100
AcDbLine
 62
2
  6
CONTINUOUS
 10
0.0
 20
-95.546875
 11
294.5
 21
-95.546875
  0
LINE
  5
2C8
100
AcDbEntity
  8
0
100
AcDbLine
 62
2
  6
CONTINUOUS
 10
294.5
 20
0.0
 11
294.5
 21
-95.546875
  0
MTEXT
  5
2C9
100
AcDbEntity
  8
0
100
AcDbMText
 62
2
  6
CONTINUOUS
  7
STANDARD
 71
2
 72
1
 10
147.25
 20
-13.377605225
 30
0.0
 11
1.0
 21
0.0
 31
0.0
 73
2
 44
0.99999996
  1
FINISHED GOOD,\PLOUDSPEAKER,AC-C2T-LP\P2.5"CEILING LOW-PROFILE
 40
15.875
 41
584.2
  0
ENDBLK
  5
2CA
100
AcDbEntity
  8
0
  6
BYBLOCK
 62
0
100
AcDbBlockEnd
  0
BLOCK
  5
2CB
100
AcDbEntity
  8
0
100
AcDbBlockBegin
  2
*T2
 70
1
 10
0.0
 20
0.0
  3
*T2
  1

  0
LINE
  5
2CC
100
AcDbEntity
  8
0
100
AcDbLine
 62
2
  6
CONTINUOUS
 10
0.0
 20
0.0
 11
52.3125
 21
0.0
  0
LINE
  5
2CD
100
AcDbEntity
  8
0
100
AcDbLine
 62
2
  6
CONTINUOUS
 10
0.0
 20
0.0
 11
0.0
 21
-31.25
  0
LINE
  5
2CE
100
AcDbEntity
  8
0
100
AcDbLine
 62
2
  6
CONTINUOUS
 10
0.0
 20
-31.25
 11
52.3125
 21
-31.25
  0
LINE
  5
2CF
100
AcDbEntity
  8
0
100
AcDbLine
 62
2
  6
CONTINUOUS
 10
52.3125
 20
0.0
 11
52.3125
 21
-31.25
  0
MTEXT
  5
2D0
100
AcDbEntity
  8
0
100
AcDbMText
 62
2
  6
CONTINUOUS
  7
STANDARD
 71
2
 72
1
 10
26.15625
 20
-12.109375
 30
0.0
 11
1.0
 21
0.0
 31
0.0
 73
2
 44
0.9
  1
A
 40
15.875
 41
25.4
  0
ENDBLK
  5
2D1
100
AcDbEntity
  8
0
  6
BYBLOCK
 62
0
100
AcDbBlockEnd
  0
BLOCK
  5
2D2
100
AcDbEntity
  8
0
100
AcDbBlockBegin
  2
*T3
 70
1
 10
0.0
 20
0.0
  3
*T3
  1

  0
LINE
  5
2D3
100
AcDbEntity
  8
0
100
AcDbLine
 62
2
  6
CONTINUOUS
 10
0.0
 20
0.0
 11
157.5
 21
0.0
  0
LINE
  5
2D4
100
AcDbEntity
  8
0
100
AcDbLine
 62
2
  6
CONTINUOUS
 10
0.0
 20
0.0
 11
0.0
 21
-31.171875
  0
LINE
  5
2D5
100
AcDbEntity
  8
0
100
AcDbLine
 62
2
  6
CONTINUOUS
 10
0.0
 20
-31.171875
 11
157.5
 21
-31.171875
  0
LINE
  5
2D6
100
AcDbEntity
  8
0
100
AcDbLine
 62
2
  6
CONTINUOUS
 10
157.5
 20
0.0
 11
157.5
 21
-31.171875
  0
MTEXT
  5
2D7
100
AcDbEntity
  8
0
100
AcDbMText
 62
2
  6
CONTINUOUS
  7
STANDARD
 71
2
 72
1
 10
78.75
 20
-10.78125
 30
0.0
 11
1.0
 21
0.0
 31
0.0
 73
2
 44
0.9
  1
FG-901286-2D
 40
15.875
 41
304.8
  0
ENDBLK
  5
2D8
100
AcDbEntity
  8
0
  6
BYBLOCK
 62
0
100
AcDbBlockEnd
  0
BLOCK
  5
2D9
100
AcDbEntity
  8
0
100
AcDbBlockBegin
  2
*T4
 70
1
 10
0.0
 20
0.0
  3
*T4
  1

  0
LINE
  5
2DA
100
AcDbEntity
  8
0
100
AcDbLine
 62
2
  6
CONTINUOUS
 10
0.0
 20
0.0
 11
167.5
 21
0.0
  0
LINE
  5
2DB
100
AcDbEntity
  8
0
100
AcDbLine
 62
2
  6
CONTINUOUS
 10
0.0
 20
0.0
 11
0.0
 21
-23.0078125
  0
LINE
  5
2DC
100
AcDbEntity
  8
0
100
AcDbLine
 62
2
  6
CONTINUOUS
 10
0.0
 20
-23.0078125
 11
167.5
 21
-23.0078125
  0
LINE
  5
2DD
100
AcDbEntity
  8
0
100
AcDbLine
 62
2
  6
CONTINUOUS
 10
167.5
 20
0.0
 11
167.5
 21
-23.0078125
  0
MTEXT
  5
2DE
100
AcDbEntity
  8
0
100
AcDbMText
 62
2
  6
CONTINUOUS
  7
STANDARD
 71
2
 72
1
 10
100.5
 20
-5.78890625
 30
0.0
 11
1.0
 21
0.0
 31
0.0
 73
2
 44
0.9
  1
N/A
 40
11.43
 41
54.864
  0
ENDBLK
  5
2DF
100
AcDbEntity
  8
0
  6
BYBLOCK
 62
0
100
AcDbBlockEnd
  0
BLOCK
  5
2E0
100
AcDbEntity
  8
0
100
AcDbBlockBegin
  2
*T5
 70
1
 10
0.0
 20
0.0
  3
*T5
  1

  0
LINE
  5
2E1
100
AcDbEntity
  8
0
100
AcDbLine
 62
2
  6
CONTINUOUS
 10
0.0
 20
0.0
 11
167.5
 21
0.0
  0
LINE
  5
2E2
100
AcDbEntity
  8
0
100
AcDbLine
 62
2
  6
CONTINUOUS
 10
0.0
 20
0.0
 11
0.0
 21
-23.0078125
  0
LINE
  5
2E3
100
AcDbEntity
  8
0
100
AcDbLine
 62
2
  6
CONTINUOUS
 10
0.0
 20
-23.0078125
 11
167.5
 21
-23.0078125
  0
LINE
  5
2E4
100
AcDbEntity
  8
0
100
AcDbLine
 62
2
  6
CONTINUOUS
 10
167.5
 20
0.0
 11
167.5
 21
-23.0078125
  0
MTEXT
  5
2E5
100
AcDbEntity
  8
0
100
AcDbMText
 62
2
  6
CONTINUOUS
  7
STANDARD
 71
2
 72
1
 10
100.5
 20
-5.78890625
 30
0.0
 11
1.0
 21
0.0
 31
0.0
 73
2
 44
0.9
  1
N/A
 40
11.43
 41
54.864
  0
ENDBLK
  5
2E6
100
AcDbEntity
  8
0
  6
BYBLOCK
 62
0
100
AcDbBlockEnd
  0
BLOCK
  5
2E7
100
AcDbEntity
  8
0
100
AcDbBlockBegin
  2
*T6
 70
1
 10
0.0
 20
0.0
  3
*T6
  1

  0
LINE
  5
2E8
100
AcDbEntity
  8
0
100
AcDbLine
 62
2
  6
CONTINUOUS
 10
0.0
 20
0.0
 11
172.5
 21
0.0
  0
LINE
  5
2E9
100
AcDbEntity
  8
0
100
AcDbLine
 62
2
  6
CONTINUOUS
 10
0.0
 20
0.0
 11
0.0
 21
-32.1875
  0
LINE
  5
2EA
100
AcDbEntity
  8
0
100
AcDbLine
 62
2
  6
CONTINUOUS
 10
0.0
 20
-32.1875
 11
172.5
 21
-32.1875
  0
LINE
  5
2EB
100
AcDbEntity
  8
0
100
AcDbLine
 62
2
  6
CONTINUOUS
 10
172.5
 20
0.0
 11
172.5
 21
-32.1875
  0
MTEXT
  5
2EC
100
AcDbEntity
  8
0
100
AcDbMText
 62
2
  6
CONTINUOUS
  7
STANDARD
 71
1
 72
1
 10
0.3125
 20
-16.1484375
 30
0.0
 11
1.0
 21
0.0
 31
0.0
 73
2
 44
0.9
  1
 H.HE
 40
7.9375
 41
63.5
  0
ENDBLK
  5
2ED
100
AcDbEntity
  8
0
  6
BYBLOCK
 62
0
100
AcDbBlockEnd
  0
BLOCK
  5
2EE
100
AcDbEntity
  8
0
100
AcDbBlockBegin
  2
*T7
 70
1
 10
0.0
 20
0.0
  3
*T7
  1

  0
LINE
  5
2EF
100
AcDbEntity
  8
0
100
AcDbLine
 62
2
  6
CONTINUOUS
 10
0.0
 20
0.0
 11
172.5
 21
0.0
  0
LINE
  5
2F0
100
AcDbEntity
  8
0
100
AcDbLine
 62
2
  6
CONTINUOUS
 10
0.0
 20
0.0
 11
0.0
 21
-34.0625
  0
LINE
  5
2F1
100
AcDbEntity
  8
0
100
AcDbLine
 62
2
  6
CONTINUOUS
 10
0.0
 20
-34.0625
 11
172.5
 21
-34.0625
  0
LINE
  5
2F2
100
AcDbEntity
  8
0
100
AcDbLine
 62
2
  6
CONTINUOUS
 10
172.5
 20
0.0
 11
172.5
 21
-34.0625
  0
MTEXT
  5
2F3
100
AcDbEntity
  8
0
100
AcDbMText
 62
2
  6
CONTINUOUS
  7
STANDARD
 71
1
 72
1
 10
0.3125
 20
-17.3203125
 30
0.0
 11
1.0
 21
0.0
 31
0.0
 73
2
 44
0.9
  1
 B.HAWKINS
 40
7.9375
 41
127.0
  0
ENDBLK
  5
2F4
100
AcDbEntity
  8
0
  6
BYBLOCK
 62
0
100
AcDbBlockEnd
  0
BLOCK
  5
2F5
100
AcDbEntity
  8
0
100
AcDbBlockBegin
  2
*T8
 70
1
 10
0.0
 20
0.0
  3
*T8
  1

  0
LINE
  5
2F6
100
AcDbEntity
  8
0
100
AcDbLine
 62
2
  6
CONTINUOUS
 10
0.0
 20
0.0
 11
172.5
 21
0.0
  0
LINE
  5
2F7
100
AcDbEntity
  8
0
100
AcDbLine
 62
2
  6
CONTINUOUS
 10
0.0
 20
0.0
 11
0.0
 21
-34.0625
  0
LINE
  5
2F8
100
AcDbEntity
  8
0
100
AcDbLine
 62
2
  6
CONTINUOUS
 10
0.0
 20
-34.0625
 11
172.5
 21
-34.0625
  0
LINE
  5
2F9
100
AcDbEntity
  8
0
100
AcDbLine
 62
2
  6
CONTINUOUS
 10
172.5
 20
0.0
 11
172.5
 21
-34.0625
  0
MTEXT
  5
2FA
100
AcDbEntity
  8
0
100
AcDbMText
 62
2
  6
CONTINUOUS
  7
STANDARD
 71
1
 72
1
 10
0.3125
 20
-17.3203125
 30
0.0
 11
1.0
 21
0.0
 31
0.0
 73
2
 44
0.9
  1
 J.SANDERS
 40
7.9375
 41
127.0
  0
ENDBLK
  5
2FB
100
AcDbEntity
  8
0
  6
BYBLOCK
 62
0
100
AcDbBlockEnd
  0
BLOCK
  5
2FC
100
AcDbEntity
  8
0
100
AcDbBlockBegin
  2
*T9
 70
1
 10
0.0
 20
0.0
  3
*T9
  1

  0
LINE
  5
2FD
100
AcDbEntity
  8
0
100
AcDbLine
 62
2
  6
CONTINUOUS
 10
0.0
 20
0.0
 11
172.5
 21
0.0
  0
LINE
  5
2FE
100
AcDbEntity
  8
0
100
AcDbLine
 62
2
  6
CONTINUOUS
 10
0.0
 20
0.0
 11
0.0
 21
-34.0625
  0
LINE
  5
2FF
100
AcDbEntity
  8
0
100
AcDbLine
 62
2
  6
CONTINUOUS
 10
0.0
 20
-34.0625
 11
172.5
 21
-34.0625
  0
LINE
  5
300
100
AcDbEntity
  8
0
100
AcDbLine
 62
2
  6
CONTINUOUS
 10
172.5
 20
0.0
 11
172.5
 21
-34.0625
  0
MTEXT
  5
301
100
AcDbEntity
  8
0
100
AcDbMText
 62
2
  6
CONTINUOUS
  7
STANDARD
 71
1
 72
1
 10
0.3125
 20
-17.3203125
 30
0.0
 11
1.0
 21
0.0
 31
0.0
 73
2
 44
0.9
  1
 M.LUO
 40
7.9375
 41
76.2
  0
ENDBLK
  5
302
100
AcDbEntity
  8
0
  6
BYBLOCK
 62
0
100
AcDbBlockEnd
  0
BLOCK
  5
303
100
AcDbEntity
  8
0
100
AcDbBlockBegin
  2
*T10
 70
1
 10
0.0
 20
0.0
  3
*T10
  1

  0
LINE
  5
304
100
AcDbEntity
  8
0
100
AcDbLine
 62
2
  6
CONTINUOUS
 10
0.0
 20
0.0
 11
59.0
 21
0.0
  0
LINE
  5
305
100
AcDbEntity
  8
0
100
AcDbLine
 62
2
  6
CONTINUOUS
 10
0.0
 20
0.0
 11
0.0
 21
-15.5078125
  0
LINE
  5
306
100
AcDbEntity
  8
0
100
AcDbLine
 62
2
  6
CONTINUOUS
 10
0.0
 20
-15.5078125
 11
59.0
 21
-15.5078125
  0
LINE
  5
307
100
AcDbEntity
  8
0
100
AcDbLine
 62
2
  6
CONTINUOUS
 10
59.0
 20
0.0
 11
59.0
 21
-15.5078125
  0
MTEXT
  5
308
100
AcDbEntity
  8
0
100
AcDbMText
 62
2
  6
CONTINUOUS
  7
STANDARD
 71
2
 72
1
 10
44.25
 20
-3.30890625
 30
0.0
 11
1.0
 21
0.0
 31
0.0
 73
2
 44
0.9
  1
1:5
 40
8.89
 41
42.672
  0
ENDBLK
  5
309
100
AcDbEntity
  8
0
  6
BYBLOCK
 62
0
100
AcDbBlockEnd
  0
BLOCK
  5
30A
100
AcDbEntity
  8
0
100
AcDbBlockBegin
  2
*T11
 70
1
 10
0.0
 20
0.0
  3
*T11
  1

  0
LINE
  5
30B
100
AcDbEntity
  8
0
100
AcDbLine
 62
2
  6
CONTINUOUS
 10
0.0
 20
0.0
 11
86.25
 21
0.0
  0
LINE
  5
30C
100
AcDbEntity
  8
0
100
AcDbLine
 62
2
  6
CONTINUOUS
 10
0.0
 20
0.0
 11
0.0
 21
-15.0390625
  0
LINE
  5
30D
100
AcDbEntity
  8
0
100
AcDbLine
 62
2
  6
CONTINUOUS
 10
0.0
 20
-15.0390625
 11
86.25
 21
-15.0390625
  0
LINE
  5
30E
100
AcDbEntity
  8
0
100
AcDbLine
 62
2
  6
CONTINUOUS
 10
86.25
 20
0.0
 11
86.25
 21
-15.0390625
  0
MTEXT
  5
30F
100
AcDbEntity
  8
0
100
AcDbMText
 62
2
  6
CONTINUOUS
  7
STANDARD
 71
2
 72
1
 10
60.375
 20
-2.88932375
 30
0.0
 11
1.0
 21
0.0
 31
0.0
 73
2
 44
0.9
  1
1 OF 1
 40
9.260415
 41
88.899984
  0
ENDBLK
  5
310
100
AcDbEntity
  8
0
  6
BYBLOCK
 62
0
100
AcDbBlockEnd
  0
BLOCK
  5
311
100
AcDbEntity
  8
0
100
AcDbBlockBegin
  2
*T12
 70
1
 10
0.0
 20
0.0
  3
*T12
  1

  0
LINE
  5
312
100
AcDbEntity
  8
0
100
AcDbLine
 62
2
  6
CONTINUOUS
 10
0.0
 20
0.0
 11
149.0
 21
0.0
  0
LINE
  5
313
100
AcDbEntity
  8
0
100
AcDbLine
 62
2
  6
CONTINUOUS
 10
0.0
 20
0.0
 11
0.0
 21
-15.0390625
  0
LINE
  5
314
100
AcDbEntity
  8
0
100
AcDbLine
 62
2
  6
CONTINUOUS
 10
0.0
 20
-15.0390625
 11
149.0
 21
-15.0390625
  0
LINE
  5
315
100
AcDbEntity
  8
0
100
AcDbLine
 62
2
  6
CONTINUOUS
 10
149.0
 20
0.0
 11
149.0
 21
-15.0390625
  0
MTEXT
  5
316
100
AcDbEntity
  8
0
100
AcDbMText
 62
2
  6
CONTINUOUS
  7
STANDARD
 71
2
 72
1
 10
93.125
 20
-4.34453125
 30
0.0
 11
1.0
 21
0.0
 31
0.0
 73
2
 44
0.9
  1
FG-901286-2D..0 
 40
6.35
 41
162.56
  0
ENDBLK
  5
317
100
AcDbEntity
  8
0
  6
BYBLOCK
 62
0
100
AcDbBlockEnd
  0
BLOCK
  5
318
100
AcDbEntity
  8
0
100
AcDbBlockBegin
  2
*T13
 70
1
 10
0.0
 20
0.0
  3
*T13
  1

  0
LINE
  5
319
100
AcDbEntity
  8
0
100
AcDbLine
 62
2
  6
CONTINUOUS
 10
0.0
 20
0.0
 11
166.875
 21
0.0
  0
LINE
  5
31A
100
AcDbEntity
  8
0
100
AcDbLine
 62
2
  6
CONTINUOUS
 10
0.0
 20
0.0
 11
0.0
 21
-97.8125
  0
LINE
  5
31B
100
AcDbEntity
  8
0
100
AcDbLine
 62
2
  6
CONTINUOUS
 10
0.0
 20
-97.8125
 11
166.875
 21
-97.8125
  0
LINE
  5
31C
100
AcDbEntity
  8
0
100
AcDbLine
 62
2
  6
CONTINUOUS
 10
166.875
 20
0.0
 11
166.875
 21
-97.8125
  0
MTEXT
  5
31D
100
AcDbEntity
  8
0
100
AcDbMText
 62
2
  6
CONTINUOUS
  7
STANDARD
 71
1
 72
1
 10
17.0
 20
-69.390625
 30
0.0
 11
1.0
 21
0.0
 31
0.0
 73
2
 44
0.9
  1
X\fgdt;{\fgdt;`}\ftxt;3 [.1]    \fgdt;{\fgdt;`}\ftxt;1\fgdt;{\fgdt;~}
 40
7.9375
 41
200.025
  0
ENDBLK
  5
31E
100
AcDbEntity
  8
0
  6
BYBLOCK
 62
0
100
AcDbBlockEnd
  0
BLOCK
  5
31F
100
AcDbEntity
  8
0
100
AcDbBlockBegin
  2
*T14
 70
1
 10
0.0
 20
0.0
  3
*T14
  1

  0
LINE
  5
320
100
AcDbEntity
  8
0
100
AcDbLine
 62
2
  6
CONTINUOUS
 10
0.0
 20
0.0
 11
709.575
 21
0.0
  0
LINE
  5
321
100
AcDbEntity
  8
0
100
AcDbLine
 62
2
  6
CONTINUOUS
 10
0.0
 20
0.0
 11
0.0
 21
-68.58
  0
LINE
  5
322
100
AcDbEntity
  8
0
100
AcDbLine
 62
2
  6
CONTINUOUS
 10
0.0
 20
-22.86
 11
709.575
 21
-22.86
  0
LINE
  5
323
100
AcDbEntity
  8
0
100
AcDbLine
 62
2
  6
CONTINUOUS
 10
0.0
 20
-45.72
 11
709.575
 21
-45.72
  0
LINE
  5
324
100
AcDbEntity
  8
0
100
AcDbLine
 62
2
  6
CONTINUOUS
 10
0.0
 20
-68.58
 11
709.575
 21
-68.58
  0
LINE
  5
325
100
AcDbEntity
  8
0
100
AcDbLine
 62
2
  6
CONTINUOUS
 10
49.38
 20
-22.86
 11
49.38
 21
-68.58
  0
LINE
  5
326
100
AcDbEntity
  8
0
100
AcDbLine
 62
2
  6
CONTINUOUS
 10
566.93
 20
-22.86
 11
566.93
 21
-68.58
  0
LINE
  5
327
100
AcDbEntity
  8
0
100
AcDbLine
 62
2
  6
CONTINUOUS
 10
612.65
 20
-22.86
 11
612.65
 21
-68.58
  0
LINE
  5
328
100
AcDbEntity
  8
0
100
AcDbLine
 62
2
  6
CONTINUOUS
 10
709.575
 20
0.0
 11
709.575
 21
-68.58
  0
MTEXT
  5
329
100
AcDbEntity
  8
0
100
AcDbMText
 62
2
  6
CONTINUOUS
  7
TEXTSTYLE_2
 71
2
 72
1
 10
354.7875
 20
-5.715
 30
0.0
 11
1.0
 21
0.0
 31
0.0
 73
2
 44
0.9
  1
REVISION
 40
11.43
 41
140.3892936803
  0
MTEXT
  5
32A
100
AcDbEntity
  8
0
100
AcDbMText
 62
2
  6
CONTINUOUS
  7
TEXTSTYLE_2
 71
2
 72
1
 10
24.69
 20
-28.575
 30
0.0
 11
1.0
 21
0.0
 31
0.0
 73
2
 44
0.9
  1
REV
 40
11.43
 41
58.8071375465
  0
MTEXT
  5
32B
100
AcDbEntity
  8
0
100
AcDbMText
 62
2
  6
CONTINUOUS
  7
TEXTSTYLE_2
 71
1
 72
1
 10
53.952
 20
-28.575
 30
0.0
 11
1.0
 21
0.0
 31
0.0
 73
2
 44
0.9
  1
                        DESCRIPTION
 40
11.43
 41
412.2448327138
  0
MTEXT
  5
32C
100
AcDbEntity
  8
0
100
AcDbMText
 62
2
  6
CONTINUOUS
  7
TEXTSTYLE_2
 71
2
 72
1
 10
589.79
 20
-28.575
 30
0.0
 11
1.0
 21
0.0
 31
0.0
 73
2
 44
0.9
  1
BY
 40
11.43
 41
37.1368773234
  0
MTEXT
  5
32D
100
AcDbEntity
  8
0
100
AcDbMText
 62
2
  6
CONTINUOUS
  7
TEXTSTYLE_2
 71
2
 72
1
 10
661.1125
 20
-28.575
 30
0.0
 11
1.0
 21
0.0
 31
0.0
 73
2
 44
0.9
  1
DATE
 40
11.43
 41
77.9279553903
  0
MTEXT
  5
32E
100
AcDbEntity
  8
0
100
AcDbMText
 62
2
  6
CONTINUOUS
  7
STANDARD
 71
2
 72
1
 10
24.69
 20
-51.435
 30
0.0
 11
1.0
 21
0.0
 31
0.0
 73
2
 44
0.9
  1
A
 40
11.43
 41
18.288
  0
MTEXT
  5
32F
100
AcDbEntity
  8
0
100
AcDbMText
 62
2
  6
CONTINUOUS
  7
STANDARD
 71
1
 72
1
 10
53.952
 20
-51.435
 30
0.0
 11
1.0
 21
0.0
 31
0.0
 73
2
 44
0.9
  1
INITIAL RELEASE
 40
11.43
 41
274.32
  0
MTEXT
  5
330
100
AcDbEntity
  8
0
100
AcDbMText
 62
2
  6
CONTINUOUS
  7
STANDARD
 71
2
 72
1
 10
589.79
 20
-51.435
 30
0.0
 11
1.0
 21
0.0
 31
0.0
 73
2
 44
0.9
  1
H.HE
 40
11.43
 41
73.152
  0
MTEXT
  5
331
100
AcDbEntity
  8
0
100
AcDbMText
 62
2
  6
CONTINUOUS
  7
STANDARD
 71
2
 72
1
 10
661.1125
 20
-51.435
 30
0.0
 11
1.0
 21
0.0
 31
0.0
 73
2
 44
0.9
  1
27-FEB-20
 40
11.43
 41
164.592
  0
ENDBLK
  5
332
100
AcDbEntity
  8
0
  6
BYBLOCK
 62
0
100
AcDbBlockEnd
  0
ENDSEC
  0
SECTION
  2
ENTITIES
  0
MTEXT
  5
333
100
AcDbEntity
  8
0
100
AcDbMText
 62
2
  6
CONTINUOUS
  7
TEXTSTYLE_2
 71
1
 72
1
 10
28.8389310383
 20
216.8976369672
 30
0.0
 11
1.0
 21
0.0
 31
0.0
 73
2
 44
1.0
  1
A
 40
11.90625
 41
12.2603392193
  0
MTEXT
  5
334
100
AcDbEntity
  8
0
100
AcDbMText
 62
2
  6
CONTINUOUS
  7
TEXTSTYLE_2
 71
1
 72
1
 10
28.7918938038
 20
543.7583575302
 30
0.0
 11
1.0
 21
0.0
 31
0.0
 73
2
 44
1.0
  1
B
 40
11.90625
 41
9.5161477695
  0
MTEXT
  5
335
100
AcDbEntity
  8
0
100
AcDbMText
 62
2
  6
CONTINUOUS
  7
TEXTSTYLE_2
 71
1
 72
1
 10
28.7941724273
 20
870.6792752012
 30
0.0
 11
1.0
 21
0.0
 31
0.0
 73
2
 44
1.0
  1
C
 40
11.90625
 41
13.499651487
  0
MTEXT
  5
336
100
AcDbEntity
  8
0
100
AcDbMText
 62
2
  6
CONTINUOUS
  7
TEXTSTYLE_2
 71
1
 72
1
 10
28.7696380663
 20
1197.7257623847
 30
0.0
 11
1.0
 21
0.0
 31
0.0
 73
2
 44
1.0
  1
D
 40
11.90625
 41
12.3488615242
  0
MTEXT
  5
337
100
AcDbEntity
  8
0
100
AcDbMText
 62
2
  6
CONTINUOUS
  7
TEXTSTYLE_2
 71
1
 72
1
 10
1823.541324033
 20
59.0832561593
 30
0.0
 11
1.0
 21
0.0
 31
0.0
 73
2
 44
1.0000002
  1
SCALE:  
 40
6.614585
 41
35.7777738848
  0
MTEXT
  5
338
100
AcDbEntity
  8
0
100
AcDbMText
 62
2
  6
CONTINUOUS
  7
TEXTSTYLE_2
 71
1
 72
1
 10
1824.0886376291
 20
92.844686536
 30
0.0
 11
1.0
 21
0.0
 31
0.0
 73
2
 44
1.0000002
  1
SIZE
 40
6.614585
 41
16.0569665613
  0
MTEXT
  5
339
100
AcDbEntity
  8
0
100
AcDbMText
 62
2
  6
CONTINUOUS
  7
TEXTSTYLE_2
 71
1
 72
1
 10
1882.592633459
 20
58.6096449393
 30
0.0
 11
1.0
 21
0.0
 31
0.0
 73
2
 44
1.0000002
  1
CAD FILE:                   
 40
6.66
 41
91.259330855
  0
MTEXT
  5
33A
100
AcDbEntity
  8
0
100
AcDbMText
 62
2
  6
CONTINUOUS
  7
TEXTSTYLE_2
 71
1
 72
1
 10
1907.3416075835
 20
92.613836703
 30
0.0
 11
1.0
 21
0.0
 31
0.0
 73
2
 44
1.0000002
  1
DWG. NO.
 40
6.614585
 41
46.2529159294
  0
MTEXT
  5
33B
100
AcDbEntity
  8
0
100
AcDbMText
 62
2
  6
CONTINUOUS
  7
TEXTSTYLE_2
 71
1
 72
1
 10
1828.0884379228
 20
78.2681838544
 30
0.0
 11
1.0
 21
0.0
 31
0.0
 73
2
 44
1.0000002
  1
B
 40
9.260415
 41
7.4014469331
  0
MTEXT
  5
33C
100
AcDbEntity
  8
0
100
AcDbMText
 62
2
  6
CONTINUOUS
  7
TEXTSTYLE_2
 71
1
 72
1
 10
2030.574392081
 20
58.8547920191
 30
0.0
 11
1.0
 21
0.0
 31
0.0
 73
2
 44
1.0000002
  1
SHEET:
 40
6.614585
 41
27.2697946654
  0
MTEXT
  5
33D
100
AcDbEntity
  8
0
100
AcDbMText
 62
2
  6
CONTINUOUS
  7
TEXTSTYLE_2
 71
1
 72
1
 10
1651.7154840621
 20
177.2595654902
 30
0.0
 11
1.0
 21
0.0
 31
0.0
 73
2
 44
1.0000002
  1
DRAWN BY
 40
6.614585
 41
48.24466829
  0
MTEXT
  5
33E
100
AcDbEntity
  8
0
100
AcDbMText
 62
2
  6
CONTINUOUS
  7
TEXTSTYLE_2
 71
1
 72
1
 10
1652.3864510223
 20
143.7114300849
 30
0.0
 11
1.0
 21
0.0
 31
0.0
 73
2
 44
1.0000002
  1
MECH ENGINEER
 40
6.614585
 41
73.9653222305
  0
MTEXT
  5
33F
100
AcDbEntity
  8
0
100
AcDbMText
 62
2
  6
CONTINUOUS
  7
TEXTSTYLE_2
 71
1
 72
1
 10
1652.3864510223
 20
110.1390117499
 30
0.0
 11
1.0
 21
0.0
 31
0.0
 73
2
 44
1.0000002
  1
TECH DIRECTOR
 40
6.614585
 41
69.7851012268
  0
MTEXT
  5
340
100
AcDbEntity
  8
0
100
AcDbMText
 62
2
  6
CONTINUOUS
  7
TEXTSTYLE_2
 71
1
 72
1
 10
1652.3864510223
 20
76.0267560349
 30
0.0
 11
1.0
 21
0.0
 31
0.0
 73
2
 44
1.0000002
  1
MFG ENGINEER
 40
6.614585
 41
67.7441697955
  0
MTEXT
  5
341
100
AcDbEntity
  8
0
100
AcDbMText
 62
2
  6
CONTINUOUS
  7
TEXTSTYLE_2
 71
1
 72
1
 10
1499.2508362047
 20
186.69633691
 30
0.0
 11
1.0
 21
0.0
 31
0.0
 73
2
 44
1.0000002
  1
DECIMALS                    ANGLES
 40
6.614585
 41
132.1441627881
  0
MTEXT
  5
342
100
AcDbEntity
  8
0
100
AcDbMText
 62
2
  6
CONTINUOUS
  7
TEXTSTYLE_2
 71
1
 72
1
 10
1482.4438977356
 20
135.3939039217
 30
0.0
 11
1.0
 21
0.0
 31
0.0
 73
2
 44
1.0000002
  1
MATERIAL
 40
6.614585
 41
42.9333286617
  0
MTEXT
  5
343
100
AcDbEntity
  8
0
100
AcDbMText
 62
2
  6
CONTINUOUS
  7
TEXTSTYLE_2
 71
1
 72
1
 10
1482.8976510681
 20
112.2502701621
 30
0.0
 11
1.0
 21
0.0
 31
0.0
 73
2
 44
1.0000002
  1
FINISH
 40
6.614585
 41
26.3599818587
  0
MTEXT
  5
344
100
AcDbEntity
  8
0
100
AcDbMText
 62
2
  6
CONTINUOUS
  7
TEXTSTYLE_2
 71
1
 72
1
 10
1491.5402698579
 20
85.9451449608
 30
0.0
 11
1.0
 21
0.0
 31
0.0
 73
2
 44
1.0000002
  1
DO  NOT  SCALE  DRAWING
 40
7.9375
 41
146.592936803
  0
MTEXT
  5
345
100
AcDbEntity
  8
0
100
AcDbMText
 62
2
  6
CONTINUOUS
  7
TEXTSTYLE_2
 71
1
 72
1
 10
1981.0744012948
 20
43.8550177682
 30
0.0
 11
1.0
 21
0.0
 31
0.0
 73
2
 44
1.0
  1
1
 40
11.90625
 41
9.2063197026
  0
MTEXT
  5
346
100
AcDbEntity
  8
0
100
AcDbMText
 62
2
  6
CONTINUOUS
  7
TEXTSTYLE_2
 71
1
 72
1
 10
1722.2540564033
 20
44.2685848932
 30
0.0
 11
1.0
 21
0.0
 31
0.0
 73
2
 44
1.0
  1
2
 40
11.90625
 41
9.2063197026
  0
MTEXT
  5
347
100
AcDbEntity
  8
0
100
AcDbMText
 62
2
  6
CONTINUOUS
  7
TEXTSTYLE_2
 71
1
 72
1
 10
1463.2625185208
 20
44.0049076457
 30
0.0
 11
1.0
 21
0.0
 31
0.0
 73
2
 44
1.0
  1
3
 40
11.90625
 41
9.2063197026
  0
MTEXT
  5
348
100
AcDbEntity
  8
0
100
AcDbMText
 62
2
  6
CONTINUOUS
  7
TEXTSTYLE_2
 71
1
 72
1
 10
1204.6860000723
 20
44.1592369727
 30
0.0
 11
1.0
 21
0.0
 31
0.0
 73
2
 44
1.0
  1
4
 40
11.90625
 41
9.2063197026
  0
MTEXT
  5
349
100
AcDbEntity
  8
0
100
AcDbMText
 62
2
  6
CONTINUOUS
  7
TEXTSTYLE_2
 71
1
 72
1
 10
946.1355027423
 20
44.0279034312
 30
0.0
 11
1.0
 21
0.0
 31
0.0
 73
2
 44
1.0
  1
5
 40
11.90625
 41
9.2063197026
  0
MTEXT
  5
34A
100
AcDbEntity
  8
0
100
AcDbMText
 62
2
  6
CONTINUOUS
  7
TEXTSTYLE_2
 71
1
 72
1
 10
687.3417858883
 20
44.3812321822
 30
0.0
 11
1.0
 21
0.0
 31
0.0
 73
2
 44
1.0
  1
6
 40
11.90625
 41
9.2063197026
  0
MTEXT
  5
34B
100
AcDbEntity
  8
0
100
AcDbMText
 62
2
  6
CONTINUOUS
  7
TEXTSTYLE_2
 71
1
 72
1
 10
428.4925764818
 20
44.1776620192
 30
0.0
 11
1.0
 21
0.0
 31
0.0
 73
2
 44
1.0
  1
7
 40
11.90625
 41
9.2063197026
  0
MTEXT
  5
34C
100
AcDbEntity
  8
0
100
AcDbMText
 62
2
  6
CONTINUOUS
  7
TEXTSTYLE_2
 71
1
 72
1
 10
169.5359198278
 20
43.9969534497
 30
0.0
 11
1.0
 21
0.0
 31
0.0
 73
2
 44
1.0
  1
8
 40
11.90625
 41
9.2063197026
  0
MTEXT
  5
34D
100
AcDbEntity
  8
0
100
AcDbMText
 62
2
  6
CONTINUOUS
  7
TEXTSTYLE_2
 71
1
 72
1
 10
173.1311341102
 20
1368.0924877276
 30
0.0
 11
1.0
 21
0.0
 31
0.0
 73
2
 44
1.0000002
  1
8
 40
11.90625
 41
9.2063197026
  0
MTEXT
  5
34E
100
AcDbEntity
  8
0
100
AcDbMText
 62
2
  6
CONTINUOUS
  7
TEXTSTYLE_2
 71
1
 72
1
 10
1482.0627778742
 20
62.0422504496
 30
0.0
 11
1.0
 21
0.0
 31
0.0
 73
2
 44
1.0000002
  1
PROJECTION SYMBOL
 40
7.85
 41
113.3143122677
  0
MTEXT
  5
34F
100
AcDbEntity
  8
0
100
AcDbMText
 62
2
  6
CONTINUOUS
  7
TEXTSTYLE_2
 71
1
 72
1
 10
1705.7777884799
 20
191.21132077
 30
0.0
 11
1.0
 21
0.0
 31
0.0
 73
2
 44
1.0000002
  1
APPROVALS
 40
6.614585
 41
53.4822393123
  0
MTEXT
  5
350
100
AcDbEntity
  8
0
100
AcDbMText
 62
2
  6
CONTINUOUS
  7
TEXTSTYLE_2
 71
1
 72
1
 10
428.9077843403
 20
1368.2042634772
 30
0.0
 11
1.0
 21
0.0
 31
0.0
 73
2
 44
1.0000002
  1
7
 40
11.90625
 41
9.2063197026
  0
MTEXT
  5
351
100
AcDbEntity
  8
0
100
AcDbMText
 62
2
  6
CONTINUOUS
  7
TEXTSTYLE_2
 71
1
 72
1
 10
946.1616529848
 20
1367.7046865142
 30
0.0
 11
1.0
 21
0.0
 31
0.0
 73
2
 44
1.0
  1
5
 40
11.90625
 41
9.2063197026
  0
MTEXT
  5
352
100
AcDbEntity
  8
0
100
AcDbMText
 62
2
  6
CONTINUOUS
  7
TEXTSTYLE_2
 71
1
 72
1
 10
1204.8815189153
 20
1367.7472285362
 30
0.0
 11
1.0
 21
0.0
 31
0.0
 73
2
 44
1.0
  1
4
 40
11.90625
 41
9.2063197026
  0
MTEXT
  5
353
100
AcDbEntity
  8
0
100
AcDbMText
 62
2
  6
CONTINUOUS
  7
TEXTSTYLE_2
 71
1
 72
1
 10
1463.4982225403
 20
1367.7164981037
 30
0.0
 11
1.0
 21
0.0
 31
0.0
 73
2
 44
1.0
  1
3
 40
11.90625
 41
9.2063197026
  0
MTEXT
  5
354
100
AcDbEntity
  8
0
100
AcDbMText
 62
2
  6
CONTINUOUS
  7
TEXTSTYLE_2
 71
1
 72
1
 10
1722.3327256088
 20
1367.9803145297
 30
0.0
 11
1.0
 21
0.0
 31
0.0
 73
2
 44
1.0
  1
2
 40
11.90625
 41
9.2063197026
  0
MTEXT
  5
355
100
AcDbEntity
  8
0
100
AcDbMText
 62
2
  6
CONTINUOUS
  7
TEXTSTYLE_2
 71
1
 72
1
 10
1981.5530706833
 20
1368.0838742972
 30
0.0
 11
1.0
 21
0.0
 31
0.0
 73
2
 44
1.0
  1
1
 40
11.90625
 41
9.2063197026
  0
MTEXT
  5
356
100
AcDbEntity
  8
0
100
AcDbMText
 62
2
  6
CONTINUOUS
  7
TEXTSTYLE_2
 71
1
 72
1
 10
2119.1970627348
 20
1197.3739405177
 30
0.0
 11
1.0
 21
0.0
 31
0.0
 73
2
 44
1.0
  1
D
 40
11.90625
 41
12.3488615242
  0
MTEXT
  5
357
100
AcDbEntity
  8
0
100
AcDbMText
 62
2
  6
CONTINUOUS
  7
TEXTSTYLE_2
 71
1
 72
1
 10
2117.8796401948
 20
870.6016373667
 30
0.0
 11
1.0
 21
0.0
 31
0.0
 73
2
 44
1.0
  1
C
 40
11.90625
 41
13.499651487
  0
MTEXT
  5
358
100
AcDbEntity
  8
0
100
AcDbMText
 62
2
  6
CONTINUOUS
  7
TEXTSTYLE_2
 71
1
 72
1
 10
2121.5137787523
 20
543.2768106757
 30
0.0
 11
1.0
 21
0.0
 31
0.0
 73
2
 44
1.0
  1
B
 40
11.90625
 41
9.5161477695
  0
MTEXT
  5
359
100
AcDbEntity
  8
0
100
AcDbMText
 62
2
  6
CONTINUOUS
  7
TEXTSTYLE_2
 71
1
 72
1
 10
2118.8994160843
 20
216.4523346397
 30
0.0
 11
1.0
 21
0.0
 31
0.0
 73
2
 44
1.0
  1
A
 40
11.90625
 41
12.2603392193
  0
MTEXT
  5
35A
100
AcDbEntity
  8
0
100
AcDbMText
 62
2
  6
CONTINUOUS
  7
TEXTSTYLE_2
 71
1
 72
1
 10
1483.2735458462
 20
232.4940634897
 30
0.0
 11
1.0
 21
0.0
 31
0.0
 73
2
 44
1.2
  1
UNLESS  OTHERWISE  SPECIFIED\PDIMENSIONS ARE IN MM [IN]\PTOLERANCES ARE:
 40
7.9375
 41
160.4614312268
  0
MTEXT
  5
35B
100
AcDbEntity
  8
0
100
AcDbMText
 62
2
  6
CONTINUOUS
  7
TEXTSTYLE_2
 71
1
 72
1
 10
1655.9345379806
 20
228.7371411549
 30
0.0
 11
1.0
 21
0.0
 31
0.0
 73
2
 44
1.0000002
  1
CAD GENERATED DRAWING\PDO NOT MANUALLY UPDATE
 40
7.9375
 41
149.1600836431
  0
MTEXT
  5
35C
100
AcDbEntity
  8
0
100
AcDbMText
 62
2
  6
CONTINUOUS
  7
TEXTSTYLE_2
 71
1
 72
1
 10
50.1144391862
 20
1340.1918467834
 30
0.0
 11
1.0
 21
0.0
 31
0.0
 73
2
 44
1.0000002
  1
PROPERTY OF QSC, LLC, THAT MAY NOT BE DISCLOSED, REPRODUCED OR
 40
6.614585
 41
322.2704498513
  0
MTEXT
  5
35D
100
AcDbEntity
  8
0
100
AcDbMText
 62
2
  6
CONTINUOUS
  7
TEXTSTYLE_2
 71
1
 72
1
 10
50.1144391862
 20
1349.7489904089
 30
0.0
 11
1.0
 21
0.0
 31
0.0
 73
2
 44
1.0000002
  1
THIS DOCUMENT CONTAINS PROPRIETARY INFORMATION WHICH IS THE
 40
6.614585
 41
309.016690316
  0
MTEXT
  5
35E
100
AcDbEntity
  8
0
100
AcDbMText
 62
2
  6
CONTINUOUS
  7
TEXTSTYLE_2
 71
1
 72
1
 10
49.9700051232
 20
1330.2864036889
 30
0.0
 11
1.0
 21
0.0
 31
0.0
 73
2
 44
1.0000002
  1
USED WITHOUT THE EXPRESS WRITTEN CONSENT FROM QSC, LLC.
 40
6.614585
 41
279.6321956134
  0
MTEXT
  5
35F
100
AcDbEntity
  8
0
100
AcDbMText
 62
2
  6
CONTINUOUS
  7
TEXTSTYLE_2
 71
1
 72
1
 10
2080.6325959442
 20
92.8395830734
 30
0.0
 11
1.0
 21
0.0
 31
0.0
 73
2
 44
1.0000002
  1
REV
 40
6.614585
 41
17.0159584387
  0
MTEXT
  5
360
100
AcDbEntity
  8
0
100
AcDbMText
 62
2
  6
CONTINUOUS
  7
TEXTSTYLE_2
 71
1
 72
1
 10
687.3566821023
 20
1367.8900940487
 30
0.0
 11
1.0
 21
0.0
 31
0.0
 73
2
 44
1.0
  1
6
 40
11.90625
 41
9.2063197026
  0
MTEXT
  5
361
100
AcDbEntity
  8
0
100
AcDbMText
 62
2
  6
CONTINUOUS
  7
TEXTSTYLE_2
 71
1
 72
1
 10
1845.103351808
 20
92.2877746542
 30
0.0
 11
1.0
 21
0.0
 31
0.0
 73
2
 44
1.0000002
  1
CAGE CODE
 40
6.614585
 41
57.1706696097
  0
MTEXT
  5
362
100
AcDbEntity
  8
0
100
AcDbMText
 62
2
  6
CONTINUOUS
  7
TEXTSTYLE_2
 71
1
 72
1
 10
1853.4884379228
 20
78.2681838544
 30
0.0
 11
1.0
 21
0.0
 31
0.0
 73
2
 44
1.0000002
  1
00PW4
 40
9.260415
 41
41.5169534944
  0
MTEXT
  5
363
100
AcDbEntity
  8
0
100
AcDbMText
 62
2
  6
CONTINUOUS
  7
TEXTSTYLE_2
 71
1
 72
1
 10
1954.2158252913
 20
214.5709356682
 30
0.0
 11
1.0
 21
0.0
 31
0.0
 73
2
 44
1.0000002
  1
1675 MACARTHUR BOULEVARD\PCOSTA MESA, CA 92626 USA
 40
7.62
 41
157.7821561338
  0
MTEXT
  5
364
100
AcDbEntity
  8
0
100
AcDbMText
 62
2
  6
CONTINUOUS
  7
TEXTSTYLE_2
 71
1
 72
1
 10
1955.2908984967
 20
232.5351666032
 30
0.0
 11
1.0
 21
0.0
 31
0.0
 73
2
 44
1.0000002
  1
QSC, LLC
 40
12.7
 41
79.2215613383
  0
MTEXT
  5
365
100
AcDbEntity
  8
0
100
AcDbMText
 62
2
  6
CONTINUOUS
  7
TEXTSTYLE_2
 71
3
 72
1
 10
2113.3234799928
 20
37.0738140042
 30
0.0
 11
1.0
 21
0.0
 31
0.0
 73
2
 44
1.0000002
  1
Form: QMS100206 Rev B
 40
5.0
 41
80.1301115242
  0
DIMENSION
  5
366
100
AcDbEntity
  8
0
100
AcDbDimension
 62
2
  6
CONTINUOUS
  2
*D0
 10
930.2005011545
 20
1036.4958294107
 11
1015.23240869
 21
1007.333835128
 70
163
 71
1
 72
2
 41
0.9
 42
260.0
  1
%%c<>\P[]
  3
DIMSTYLE_1
100
AcDbDiametricDimension
 15
786.4773012883
 25
1253.1606438597
  0
DIMENSION
  5
367
100
AcDbEntity
  8
0
100
AcDbDimension
 62
2
  6
CONTINUOUS
  2
*D1
 10
969.8389012214
 20
741.4096497708
 11
858.3389012214
 21
732.8371497708
 70
160
 71
2
 72
2
 41
0.9
 42
223.0
  1
%%c<>\P[]
  3
DIMSTYLE_2
100
AcDbAlignedDimension
 13
746.8389012214
 23
860.0106743458
 14
969.8389012214
 24
860.0106743458
100
AcDbRotatedDimension
  0
DIMENSION
  5
368
100
AcDbEntity
  8
0
100
AcDbDimension
 62
2
  6
CONTINUOUS
  2
*D2
 10
1064.4074207589
 20
885.7606743458
 11
1064.4074207589
 21
937.7762657515
 70
160
 71
1
 72
2
 41
0.9
 42
5.1
  1
<>\P[]
  3
DIMSTYLE_3
100
AcDbAlignedDimension
 13
973.8516749184
 23
890.8606743458
 14
994.6889012214
 24
885.7606743458
 50
270.0
100
AcDbRotatedDimension
1001
ACAD
1000
DSTYLE
1002
{
1070
73
1070
0
1070
74
1070
0
1070
77
1070
1
1002
}
  0
DIMENSION
  5
369
100
AcDbEntity
  8
0
100
AcDbDimension
 62
2
  6
CONTINUOUS
  2
*D3
 10
1064.4074207589
 20
885.7606743458
 11
1064.4074207589
 21
846.1246832958
 70
160
 71
2
 72
2
 41
0.9
 42
94.1
  1
<>\P[]
  3
DIMSTYLE_4
100
AcDbAlignedDimension
 13
959.1889012214
 23
791.6606743458
 14
994.6889012214
 24
885.7606743458
 50
90.0
100
AcDbRotatedDimension
  0
DIMENSION
  5
36A
100
AcDbEntity
  8
0
100
AcDbDimension
 62
2
  6
CONTINUOUS
  2
*D4
 10
710.6868519244
 20
787.4339927489
 11
710.6868519244
 21
841.5296363257
 70
160
 71
2
 72
2
 41
0.9
 42
103.4266815969
  1
<>\P[]
  3
DIMSTYLE_4
100
AcDbAlignedDimension
 13
742.8261275243
 23
890.8606743458
 14
831.9889012214
 24
787.4339927489
 50
270.0
100
AcDbRotatedDimension
  0
DIMENSION
  5
36B
100
AcDbEntity
  8
0
100
AcDbDimension
 62
2
  6
CONTINUOUS
  2
*D5
 10
860.0384892467
 20
392.3686733148
 11
951.8293644229
 21
320.8168242584
 70
163
 71
1
 72
2
 41
0.9
 42
8.0
  1
%%c<>\P[]
  3
DIMSTYLE_1
100
AcDbDiametricDimension
 15
856.6393131961
 25
399.6106069085
  0
DIMENSION
  5
36C
100
AcDbEntity
  8
0
100
AcDbDimension
 62
2
  6
CONTINUOUS
  2
*D6
 10
708.8318507413
 20
395.9896401117
 11
708.8318507413
 21
453.5781537285
 70
160
 71
1
 72
2
 41
0.9
 42
4.0
  1
<>\P[]
  3
DIMSTYLE_3
100
AcDbAlignedDimension
 13
835.2183913901
 23
399.9896401117
 14
851.9889012214
 24
395.9896401117
 50
270.0
100
AcDbRotatedDimension
1001
ACAD
1000
DSTYLE
1002
{
1070
73
1070
0
1070
74
1070
0
1070
77
1070
1
1002
}
  0
DIMENSION
  5
36D
100
AcDbEntity
  8
0
100
AcDbDimension
 62
2
  6
CONTINUOUS
  2
*D7
 10
694.5458344219
 20
1163.3049368276
 11
694.5458344219
 21
1221.1294665452
 70
160
 71
2
 72
2
 41
0.9
 42
111.5232998076
  1
<>\P[]
  3
DIMSTYLE_4
100
AcDbAlignedDimension
 13
851.9889012214
 23
1274.8282366352
 14
884.2117572401
 24
1163.3049368276
 50
270.0
100
AcDbRotatedDimension
  0
DIMENSION
  5
36E
100
AcDbEntity
  8
0
100
AcDbDimension
 62
2
  6
CONTINUOUS
  2
*D8
 10
890.5617572401
 20
1313.4222517015
 11
944.9701560365
 21
1304.8497517015
 70
160
 71
2
 72
2
 41
0.9
 42
97.7771439813
  1
<>\P[]
  3
DIMSTYLE_4
100
AcDbAlignedDimension
 13
988.3389012214
 23
1151.1782366352
 14
890.5617572401
 24
1169.6549368276
 50
180.0
100
AcDbRotatedDimension
  0
DIMENSION
  5
36F
100
AcDbEntity
  8
0
100
AcDbDimension
 62
2
  6
CONTINUOUS
  2
*D9
 10
1907.290876681
 20
787.4339927489
 11
1907.290876681
 21
837.6667730946
 70
160
 71
2
 72
2
 41
0.9
 42
98.3266815969
  1
<>\P[]
  3
DIMSTYLE_4
100
AcDbAlignedDimension
 13
1924.753376681
 23
885.7606743458
 14
1783.7592170871
 24
787.4339927489
 50
270.0
100
AcDbRotatedDimension
  0
DIMENSION
  5
370
100
AcDbEntity
  8
0
100
AcDbDimension
 62
2
  6
CONTINUOUS
  2
*D10
 10
1002.5647466029
 20
861.8606743458
 11
1002.5647466029
 21
937.5197697919
 70
160
 71
1
 72
2
 41
0.9
 42
29.0
  1
<>\P[]
  3
DIMSTYLE_3
100
AcDbAlignedDimension
 13
973.8516749184
 23
890.8606743458
 14
896.9117572401
 24
861.8606743458
 50
270.0
100
AcDbRotatedDimension
1001
ACAD
1000
DSTYLE
1002
{
1070
73
1070
0
1070
74
1070
0
1070
77
1070
1
1002
}
  0
ACAD_TABLE
  5
371
100
AcDbEntity
  8
0
 62
2
  6
CONTINUOUS
100
AcDbBlockReference
  2
*T1
 10
1820.6028769004
 20
190.0758161656
 30
0.0
100
AcDbTable
342
       78C
343
21A
 11
1.0
 21
0.0
 31
0.0
 90
22
 91
1
 92
1
 93
0
 94
0
 95
0
 96
0
141
95.546875
142
294.5
171
1
172
0
173
0
174
0
175
1
176
1
177
33
178
0
145
0.0
  1
FINISHED GOOD,\PLOUDSPEAKER,AC-C2T-LP\P2.5"CEILING LOW-PROFILE
170
5
140
15.875
  0
ACAD_TABLE
  5
372
100
AcDbEntity
  8
0
 62
2
  6
CONTINUOUS
100
AcDbBlockReference
  2
*T2
 10
2062.5802566359
 20
94.4876066631
 30
0.0
100
AcDbTable
342
       78C
343
21B
 11
1.0
 21
0.0
 31
0.0
 90
22
 91
8
 92
9
 93
16
 94
0
 95
0
 96
0
 41
0.0
141
3.90625
141
3.90625
141
3.90625
141
3.90625
141
3.90625
141
3.90625
141
3.90625
141
3.90625
142
5.8125
142
5.8125
142
5.8125
142
5.8125
142
5.8125
142
5.8125
142
5.8125
142
5.8125
142
5.8125
171
1
172
0
173
0
174
0
175
1
176
1
177
33
178
0
145
0.0
  1
 
170
1
140
0.78125
171
1
172
0
173
0
174
0
175
1
176
1
177
33
178
0
145
0.0
  1
 
170
1
140
0.78125
171
1
172
0
173
0
174
0
175
1
176
1
177
33
178
0
145
0.0
  1
 
170
1
140
0.78125
171
1
172
0
173
0
174
0
175
1
176
1
177
33
178
0
145
0.0
  1
 
170
1
140
0.78125
171
1
172
0
173
0
174
0
175
1
176
1
177
33
178
0
145
0.0
  1
 
170
1
140
0.78125
171
1
172
0
173
0
174
0
175
1
176
1
177
33
178
0
145
0.0
  1
 
170
1
140
0.78125
171
1
172
0
173
0
174
0
175
1
176
1
177
33
178
0
145
0.0
  1
 
170
1
140
0.78125
171
1
172
0
173
0
174
0
175
1
176
1
177
33
178
0
145
0.0
  1
 
170
1
140
0.78125
171
1
172
0
173
0
174
0
175
1
176
1
177
33
178
0
145
0.0
  1
 
170
1
140
0.78125
171
1
172
0
173
0
174
0
175
1
176
1
177
33
178
0
145
0.0
  1
 
170
1
140
0.78125
171
1
172
0
173
0
174
0
175
1
176
1
177
33
178
0
145
0.0
  1
 
170
1
140
0.78125
171
1
172
0
173
0
174
0
175
1
176
1
177
33
178
0
145
0.0
  1
 
170
1
140
0.78125
171
1
172
0
173
0
174
0
175
1
176
1
177
33
178
0
145
0.0
  1
 
170
1
140
0.78125
171
1
172
0
173
0
174
0
175
1
176
1
177
33
178
0
145
0.0
  1
 
170
1
140
0.78125
171
1
172
0
173
0
174
0
175
1
176
1
177
33
178
0
145
0.0
  1
 
170
1
140
0.78125
171
1
172
0
173
0
174
0
175
1
176
1
177
33
178
0
145
0.0
  1
 
170
1
140
0.78125
171
1
172
0
173
0
174
0
175
1
176
1
177
33
178
0
145
0.0
  1
 
170
1
140
0.78125
171
1
172
0
173
0
174
0
175
1
176
1
177
33
178
0
145
0.0
  1
 
170
1
140
0.78125
171
1
172
0
173
0
174
0
175
1
176
1
177
33
178
0
145
0.0
  1
 
170
1
140
0.78125
171
1
172
0
173
0
174
0
175
1
176
1
177
33
178
0
145
0.0
  1
 
170
1
140
0.78125
171
1
172
0
173
0
174
0
175
1
176
1
177
33
178
0
145
0.0
  1
 
170
1
140
0.78125
171
1
172
0
173
0
174
0
175
1
176
1
177
33
178
0
145
0.0
  1
 
170
1
140
0.78125
171
1
172
0
173
0
174
0
175
1
176
1
177
33
178
0
145
0.0
  1
 
170
1
140
0.78125
171
1
172
0
173
0
174
0
175
1
176
1
177
33
178
0
145
0.0
  1
 
170
1
140
0.78125
171
1
172
0
173
0
174
0
175
1
176
1
177
33
178
0
145
0.0
  1
 
170
1
140
0.78125
171
1
172
0
173
0
174
0
175
1
176
1
177
33
178
0
145
0.0
  1
 
170
1
140
0.78125
171
1
172
0
173
0
174
0
175
1
176
1
177
33
178
0
145
0.0
  1
 
170
1
140
0.78125
171
1
172
0
173
0
174
0
175
1
176
1
177
33
178
0
145
0.0
  1
 
170
1
140
0.78125
171
1
172
0
173
0
174
0
175
7
176
4
177
33
178
0
145
0.0
  1
A
170
2
140
15.875
171
1
172
0
173
1
174
0
175
1
176
1
177
1
178
0
145
0.0
170
1
171
1
172
0
173
1
174
0
175
1
176
1
177
1
178
0
145
0.0
170
1
171
1
172
0
173
1
174
0
175
1
176
1
177
1
178
0
145
0.0
170
1
171
1
172
0
173
1
174
0
175
1
176
1
177
1
178
0
145
0.0
170
1
171
1
172
0
173
1
174
0
175
1
176
1
177
1
178
0
145
0.0
170
1
171
1
172
0
173
1
174
0
175
1
176
1
177
1
178
0
145
0.0
170
1
171
1
172
0
173
0
174
0
175
1
176
1
177
33
178
0
145
0.0
  1
 
170
1
140
0.78125
171
1
172
0
173
0
174
0
175
1
176
1
177
33
178
0
145
0.0
  1
 
170
1
140
0.78125
171
1
172
0
173
1
174
0
175
1
176
1
177
1
178
0
145
0.0
170
1
171
1
172
0
173
1
174
0
175
1
176
1
177
1
178
0
145
0.0
170
1
171
1
172
0
173
1
174
0
175
1
176
1
177
1
178
0
145
0.0
170
1
171
1
172
0
173
1
174
0
175
1
176
1
177
1
178
0
145
0.0
170
1
171
1
172
0
173
1
174
0
175
1
176
1
177
1
178
0
145
0.0
170
1
171
1
172
0
173
1
174
0
175
1
176
1
177
1
178
0
145
0.0
170
1
171
1
172
0
173
1
174
0
175
1
176
1
177
1
178
0
145
0.0
170
1
171
1
172
0
173
0
174
0
175
1
176
1
177
33
178
0
145
0.0
  1
 
170
1
140
0.78125
171
1
172
0
173
0
174
0
175
1
176
1
177
33
178
0
145
0.0
  1
 
170
1
140
0.78125
171
1
172
0
173
1
174
0
175
1
176
1
177
1
178
0
145
0.0
170
1
171
1
172
0
173
1
174
0
175
1
176
1
177
1
178
0
145
0.0
170
1
171
1
172
0
173
1
174
0
175
1
176
1
177
1
178
0
145
0.0
170
1
171
1
172
0
173
1
174
0
175
1
176
1
177
1
178
0
145
0.0
170
1
171
1
172
0
173
1
174
0
175
1
176
1
177
1
178
0
145
0.0
170
1
171
1
172
0
173
1
174
0
175
1
176
1
177
1
178
0
145
0.0
170
1
171
1
172
0
173
1
174
0
175
1
176
1
177
1
178
0
145
0.0
170
1
171
1
172
0
173
0
174
0
175
1
176
1
177
33
178
0
145
0.0
  1
 
170
1
140
0.78125
171
1
172
0
173
0
174
0
175
1
176
1
177
33
178
0
145
0.0
  1
 
170
1
140
0.78125
171
1
172
0
173
1
174
0
175
1
176
1
177
1
178
0
145
0.0
170
1
171
1
172
0
173
1
174
0
175
1
176
1
177
1
178
0
145
0.0
170
1
171
1
172
0
173
1
174
0
175
1
176
1
177
1
178
0
145
0.0
170
1
171
1
172
0
173
1
174
0
175
1
176
1
177
1
178
0
145
0.0
170
1
171
1
172
0
173
1
174
0
175
1
176
1
177
1
178
0
145
0.0
170
1
171
1
172
0
173
1
174
0
175
1
176
1
177
1
178
0
145
0.0
170
1
171
1
172
0
173
1
174
0
175
1
176
1
177
1
178
0
145
0.0
170
1
171
1
172
0
173
0
174
0
175
1
176
1
177
33
178
0
145
0.0
  1
 
170
1
140
0.78125
171
1
172
0
173
0
174
0
175
1
176
1
177
33
178
0
145
0.0
  1
 
170
1
140
0.78125
171
1
172
0
173
0
174
0
175
1
176
1
177
33
178
0
145
0.0
  1
 
170
1
140
0.78125
171
1
172
0
173
0
174
0
175
1
176
1
177
33
178
0
145
0.0
  1
 
170
1
140
0.78125
171
1
172
0
173
0
174
0
175
1
176
1
177
33
178
0
145
0.0
  1
 
170
1
140
0.78125
171
1
172
0
173
0
174
0
175
1
176
1
177
33
178
0
145
0.0
  1
 
170
1
140
0.78125
171
1
172
0
173
0
174
0
175
1
176
1
177
33
178
0
145
0.0
  1
 
170
1
140
0.78125
171
1
172
0
173
0
174
0
175
1
176
1
177
33
178
0
145
0.0
  1
 
170
1
140
0.78125
171
1
172
0
173
0
174
0
175
1
176
1
177
33
178
0
145
0.0
  1
 
170
1
140
0.78125
171
1
172
0
173
0
174
0
175
1
176
1
177
33
178
0
145
0.0
  1
 
170
1
140
0.78125
  0
ACAD_TABLE
  5
373
100
AcDbEntity
  8
0
 62
2
  6
CONTINUOUS
100
AcDbBlockReference
  2
*T3
 10
1904.2653694501
 20
94.3902335415
 30
0.0
100
AcDbTable
342
       78C
343
21C
 11
1.0
 21
0.0
 31
0.0
 90
22
 91
6
 92
1
 93
16
 94
0
 95
0
 96
0
 41
0.0
141
5.1953125
141
5.1953125
141
5.1953125
141
5.1953125
141
5.1953125
141
5.1953125
142
157.5
171
1
172
0
173
0
174
0
175
1
176
1
177
33
178
0
145
0.0
  1
 
170
1
140
0.78125
171
1
172
0
173
0
174
0
175
1
176
1
177
33
178
0
145
0.0
  1
 
170
1
140
0.78125
171
1
172
0
173
0
174
0
175
1
176
3
177
33
178
0
145
0.0
  1
FG-901286-2D
170
2
140
15.875
171
1
172
0
173
1
174
0
175
1
176
1
177
1
178
0
145
0.0
170
1
171
1
172
0
173
1
174
0
175
1
176
1
177
1
178
0
145
0.0
170
1
171
1
172
0
173
0
174
0
175
1
176
1
177
33
178
0
145
0.0
  1
 
170
1
140
0.78125
  0
ACAD_TABLE
  5
374
100
AcDbEntity
  8
0
 62
2
  6
CONTINUOUS
100
AcDbBlockReference
  2
*T4
 10
1479.8458150003
 20
138.2071066325
 30
0.0
100
AcDbTable
342
       78C
343
21D
 11
1.0
 21
0.0
 31
0.0
 90
22
 91
1
 92
5
 93
0
 94
0
 95
0
 96
0
141
23.0078125
142
33.5
142
33.5
142
33.5
142
33.5
142
33.5
171
1
172
0
173
0
174
0
175
1
176
1
177
33
178
0
145
0.0
  1
 
170
1
140
0.78125
171
1
172
0
173
0
174
0
175
4
176
1
177
33
178
0
145
0.0
  1
N/A
170
5
140
11.43
171
1
172
0
173
1
174
0
175
1
176
1
177
1
178
0
145
0.0
170
1
171
1
172
0
173
1
174
0
175
1
176
1
177
1
178
0
145
0.0
170
1
171
1
172
0
173
1
174
0
175
1
176
1
177
1
178
0
145
0.0
170
1
  0
ACAD_TABLE
  5
375
100
AcDbEntity
  8
0
 62
2
  6
CONTINUOUS
100
AcDbBlockReference
  2
*T5
 10
1479.9504754773
 20
114.9335620279
 30
0.0
100
AcDbTable
342
       78C
343
21E
 11
1.0
 21
0.0
 31
0.0
 90
22
 91
1
 92
5
 93
0
 94
0
 95
0
 96
0
141
23.0078125
142
33.5
142
33.5
142
33.5
142
33.5
142
33.5
171
1
172
0
173
0
174
0
175
1
176
1
177
33
178
0
145
0.0
  1
 
170
1
140
0.78125
171
1
172
0
173
0
174
0
175
4
176
1
177
33
178
0
145
0.0
  1
N/A
170
5
140
11.43
171
1
172
0
173
1
174
0
175
1
176
1
177
1
178
0
145
0.0
170
1
171
1
172
0
173
1
174
0
175
1
176
1
177
1
178
0
145
0.0
170
1
171
1
172
0
173
1
174
0
175
1
176
1
177
1
178
0
145
0.0
170
1
  0
ACAD_TABLE
  5
376
100
AcDbEntity
  8
0
 62
2
  6
CONTINUOUS
100
AcDbBlockReference
  2
*T6
 10
1647.6037764292
 20
180.367517872
 30
0.0
100
AcDbTable
342
       78C
343
21F
 11
1.0
 21
0.0
 31
0.0
 90
22
 91
8
 92
1
 93
16
 94
0
 95
0
 96
0
 41
0.0
141
4.0234375
141
4.0234375
141
4.0234375
141
4.0234375
141
4.0234375
141
4.0234375
141
4.0234375
141
4.0234375
142
172.5
171
1
172
0
173
0
174
0
175
1
176
1
177
33
178
0
145
0.0
  1
 
170
1
140
0.78125
171
1
172
0
173
0
174
0
175
1
176
1
177
33
178
0
145
0.0
  1
 
170
1
140
0.78125
171
1
172
0
173
0
174
0
175
1
176
1
177
33
178
0
145
0.0
  1
 
170
1
140
0.78125
171
1
172
0
173
0
174
0
175
1
176
4
177
33
178
0
145
0.0
  1
 H.HE
170
4
140
7.9375
171
1
172
0
173
1
174
0
175
1
176
1
177
1
178
0
145
0.0
170
1
171
1
172
0
173
1
174
0
175
1
176
1
177
1
178
0
145
0.0
170
1
171
1
172
0
173
1
174
0
175
1
176
1
177
1
178
0
145
0.0
170
1
171
1
172
0
173
0
174
0
175
1
176
1
177
33
178
0
145
0.0
  1
 
170
1
140
0.78125
  0
ACAD_TABLE
  5
377
100
AcDbEntity
  8
0
 62
2
  6
CONTINUOUS
100
AcDbBlockReference
  2
*T7
 10
1647.6514541912
 20
148.3454103537
 30
0.0
100
AcDbTable
342
       78C
343
220
 11
1.0
 21
0.0
 31
0.0
 90
22
 91
8
 92
1
 93
16
 94
0
 95
0
 96
0
 41
0.0
141
4.2578125
141
4.2578125
141
4.2578125
141
4.2578125
141
4.2578125
141
4.2578125
141
4.2578125
141
4.2578125
142
172.5
171
1
172
0
173
0
174
0
175
1
176
1
177
33
178
0
145
0.0
  1
 
170
1
140
0.78125
171
1
172
0
173
0
174
0
175
1
176
1
177
33
178
0
145
0.0
  1
 
170
1
140
0.78125
171
1
172
0
173
0
174
0
175
1
176
1
177
33
178
0
145
0.0
  1
 
170
1
140
0.78125
171
1
172
0
173
0
174
0
175
1
176
4
177
33
178
0
145
0.0
  1
 B.HAWKINS
170
4
140
7.9375
171
1
172
0
173
1
174
0
175
1
176
1
177
1
178
0
145
0.0
170
1
171
1
172
0
173
1
174
0
175
1
176
1
177
1
178
0
145
0.0
170
1
171
1
172
0
173
1
174
0
175
1
176
1
177
1
178
0
145
0.0
170
1
171
1
172
0
173
0
174
0
175
1
176
1
177
33
178
0
145
0.0
  1
 
170
1
140
0.78125
  0
ACAD_TABLE
  5
378
100
AcDbEntity
  8
0
 62
2
  6
CONTINUOUS
100
AcDbBlockReference
  2
*T8
 10
1647.6868235302
 20
114.2161739862
 30
0.0
100
AcDbTable
342
       78C
343
221
 11
1.0
 21
0.0
 31
0.0
 90
22
 91
8
 92
1
 93
16
 94
0
 95
0
 96
0
 41
0.0
141
4.2578125
141
4.2578125
141
4.2578125
141
4.2578125
141
4.2578125
141
4.2578125
141
4.2578125
141
4.2578125
142
172.5
171
1
172
0
173
0
174
0
175
1
176
1
177
33
178
0
145
0.0
  1
 
170
1
140
0.78125
171
1
172
0
173
0
174
0
175
1
176
1
177
33
178
0
145
0.0
  1
 
170
1
140
0.78125
171
1
172
0
173
0
174
0
175
1
176
1
177
33
178
0
145
0.0
  1
 
170
1
140
0.78125
171
1
172
0
173
0
174
0
175
1
176
4
177
33
178
0
145
0.0
  1
 J.SANDERS
170
4
140
7.9375
171
1
172
0
173
1
174
0
175
1
176
1
177
1
178
0
145
0.0
170
1
171
1
172
0
173
1
174
0
175
1
176
1
177
1
178
0
145
0.0
170
1
171
1
172
0
173
1
174
0
175
1
176
1
177
1
178
0
145
0.0
170
1
171
1
172
0
173
0
174
0
175
1
176
1
177
33
178
0
145
0.0
  1
 
170
1
140
0.78125
  0
ACAD_TABLE
  5
379
100
AcDbEntity
  8
0
 62
2
  6
CONTINUOUS
100
AcDbBlockReference
  2
*T9
 10
1647.66345815
 20
80.5921951928
 30
0.0
100
AcDbTable
342
       78C
343
222
 11
1.0
 21
0.0
 31
0.0
 90
22
 91
8
 92
1
 93
16
 94
0
 95
0
 96
0
 41
0.0
141
4.2578125
141
4.2578125
141
4.2578125
141
4.2578125
141
4.2578125
141
4.2578125
141
4.2578125
141
4.2578125
142
172.5
171
1
172
0
173
0
174
0
175
1
176
1
177
33
178
0
145
0.0
  1
 
170
1
140
0.78125
171
1
172
0
173
0
174
0
175
1
176
1
177
33
178
0
145
0.0
  1
 
170
1
140
0.78125
171
1
172
0
173
0
174
0
175
1
176
1
177
33
178
0
145
0.0
  1
 
170
1
140
0.78125
171
1
172
0
173
0
174
0
175
1
176
4
177
33
178
0
145
0.0
  1
 M.LUO
170
4
140
7.9375
171
1
172
0
173
1
174
0
175
1
176
1
177
1
178
0
145
0.0
170
1
171
1
172
0
173
1
174
0
175
1
176
1
177
1
178
0
145
0.0
170
1
171
1
172
0
173
1
174
0
175
1
176
1
177
1
178
0
145
0.0
170
1
171
1
172
0
173
0
174
0
175
1
176
1
177
33
178
0
145
0.0
  1
 
170
1
140
0.78125
  0
ACAD_TABLE
  5
37A
100
AcDbEntity
  8
0
 62
2
  6
CONTINUOUS
100
AcDbBlockReference
  2
*T10
 10
1820.5515318893
 20
62.258102323
 30
0.0
100
AcDbTable
342
       78C
343
223
 11
1.0
 21
0.0
 31
0.0
 90
22
 91
1
 92
2
 93
0
 94
0
 95
0
 96
0
141
15.5078125
142
29.5
142
29.5
171
1
172
0
173
0
174
0
175
1
176
1
177
33
178
0
145
0.0
  1
 
170
1
140
0.78125
171
1
172
0
173
0
174
0
175
1
176
1
177
33
178
0
145
0.0
  1
1:5
170
5
140
8.89
  0
ACAD_TABLE
  5
37B
100
AcDbEntity
  8
0
 62
2
  6
CONTINUOUS
100
AcDbBlockReference
  2
*T11
 10
2028.9646585649
 20
62.3755401123
 30
0.0
100
AcDbTable
342
       78C
343
224
 11
1.0
 21
0.0
 31
0.0
 90
22
 91
1
 92
5
 93
0
 94
0
 95
0
 96
0
141
15.0390625
142
17.25
142
17.25
142
17.25
142
17.25
142
17.25
171
1
172
0
173
0
174
0
175
2
176
1
177
33
178
0
145
0.0
  1
 
170
1
140
0.78125
171
1
172
0
173
1
174
0
175
1
176
1
177
1
178
0
145
0.0
170
1
171
1
172
0
173
0
174
0
175
3
176
1
177
33
178
0
145
0.0
  1
1 OF 1
170
5
140
9.260415
171
1
172
0
173
1
174
0
175
1
176
1
177
1
178
0
145
0.0
170
1
171
1
172
0
173
1
174
0
175
1
176
1
177
1
178
0
145
0.0
170
1
  0
ACAD_TABLE
  5
37C
100
AcDbEntity
  8
0
 62
2
  6
CONTINUOUS
100
AcDbBlockReference
  2
*T12
 10
1879.5151149344
 20
62.3408376704
 30
0.0
100
AcDbTable
342
       78C
343
225
 11
1.0
 21
0.0
 31
0.0
 90
22
 91
1
 92
4
 93
0
 94
0
 95
0
 96
0
141
15.0390625
142
37.25
142
37.25
142
37.25
142
37.25
171
1
172
0
173
0
174
0
175
1
176
1
177
33
178
0
145
0.0
  1
 
170
1
140
0.78125
171
1
172
0
173
0
174
0
175
3
176
1
177
33
178
0
145
0.0
  1
FG-901286-2D..0 
170
5
140
6.35
171
1
172
0
173
1
174
0
175
1
176
1
177
1
178
0
145
0.0
170
1
171
1
172
0
173
1
174
0
175
1
176
1
177
1
178
0
145
0.0
170
1
  0
ACAD_TABLE
  5
37D
100
AcDbEntity
  8
0
 62
2
  6
CONTINUOUS
100
AcDbBlockReference
  2
*T13
 10
1480.2910173494
 20
236.8998434768
 30
0.0
100
AcDbTable
342
       78C
343
226
 11
1.0
 21
0.0
 31
0.0
 90
22
 91
8
 92
10
 93
0
 94
0
 95
0
 96
0
141
12.2265625
141
12.2265625
141
12.2265625
141
12.2265625
141
12.2265625
141
12.2265625
141
12.2265625
141
12.2265625
142
16.6875
142
16.6875
142
16.6875
142
16.6875
142
16.6875
142
16.6875
142
16.6875
142
16.6875
142
16.6875
142
16.6875
171
1
172
0
173
0
174
0
175
1
176
1
177
33
178
0
145
0.0
  1
 
170
1
140
0.78125
171
1
172
0
173
0
174
0
175
1
176
1
177
33
178
0
145
0.0
  1
 
170
1
140
0.78125
171
1
172
0
173
0
174
0
175
1
176
1
177
33
178
0
145
0.0
  1
 
170
1
140
0.78125
171
1
172
0
173
0
174
0
175
1
176
1
177
33
178
0
145
0.0
  1
 
170
1
140
0.78125
171
1
172
0
173
0
174
0
175
1
176
1
177
33
178
0
145
0.0
  1
 
170
1
140
0.78125
171
1
172
0
173
0
174
0
175
1
176
1
177
33
178
0
145
0.0
  1
 
170
1
140
0.78125
171
1
172
0
173
0
174
0
175
1
176
1
177
33
178
0
145
0.0
  1
 
170
1
140
0.78125
171
1
172
0
173
0
174
0
175
1
176
1
177
33
178
0
145
0.0
  1
 
170
1
140
0.78125
171
1
172
0
173
0
174
0
175
1
176
1
177
33
178
0
145
0.0
  1
 
170
1
140
0.78125
171
1
172
0
173
0
174
0
175
1
176
1
177
33
178
0
145
0.0
  1
 
170
1
140
0.78125
171
1
172
0
173
0
174
0
175
1
176
1
177
33
178
0
145
0.0
  1
 
170
1
140
0.78125
171
1
172
0
173
0
174
0
175
1
176
1
177
33
178
0
145
0.0
  1
 
170
1
140
0.78125
171
1
172
0
173
0
174
0
175
1
176
1
177
33
178
0
145
0.0
  1
 
170
1
140
0.78125
171
1
172
0
173
0
174
0
175
1
176
1
177
33
178
0
145
0.0
  1
 
170
1
140
0.78125
171
1
172
0
173
0
174
0
175
1
176
1
177
33
178
0
145
0.0
  1
 
170
1
140
0.78125
171
1
172
0
173
0
174
0
175
1
176
1
177
33
178
0
145
0.0
  1
 
170
1
140
0.78125
171
1
172
0
173
0
174
0
175
1
176
1
177
33
178
0
145
0.0
  1
 
170
1
140
0.78125
171
1
172
0
173
0
174
0
175
1
176
1
177
33
178
0
145
0.0
  1
 
170
1
140
0.78125
171
1
172
0
173
0
174
0
175
1
176
1
177
33
178
0
145
0.0
  1
 
170
1
140
0.78125
171
1
172
0
173
0
174
0
175
1
176
1
177
33
178
0
145
0.0
  1
 
170
1
140
0.78125
171
1
172
0
173
0
174
0
175
1
176
1
177
33
178
0
145
0.0
  1
 
170
1
140
0.78125
171
1
172
0
173
0
174
0
175
1
176
1
177
33
178
0
145
0.0
  1
 
170
1
140
0.78125
171
1
172
0
173
0
174
0
175
1
176
1
177
33
178
0
145
0.0
  1
 
170
1
140
0.78125
171
1
172
0
173
0
174
0
175
1
176
1
177
33
178
0
145
0.0
  1
 
170
1
140
0.78125
171
1
172
0
173
0
174
0
175
1
176
1
177
33
178
0
145
0.0
  1
 
170
1
140
0.78125
171
1
172
0
173
0
174
0
175
1
176
1
177
33
178
0
145
0.0
  1
 
170
1
140
0.78125
171
1
172
0
173
0
174
0
175
1
176
1
177
33
178
0
145
0.0
  1
 
170
1
140
0.78125
171
1
172
0
173
0
174
0
175
1
176
1
177
33
178
0
145
0.0
  1
 
170
1
140
0.78125
171
1
172
0
173
0
174
0
175
1
176
1
177
33
178
0
145
0.0
  1
 
170
1
140
0.78125
171
1
172
0
173
0
174
0
175
1
176
1
177
33
178
0
145
0.0
  1
 
170
1
140
0.78125
171
1
172
0
173
0
174
0
175
1
176
1
177
33
178
0
145
0.0
  1
 
170
1
140
0.78125
171
1
172
0
173
0
174
0
175
1
176
1
177
33
178
0
145
0.0
  1
 
170
1
140
0.78125
171
1
172
0
173
0
174
0
175
1
176
1
177
33
178
0
145
0.0
  1
 
170
1
140
0.78125
171
1
172
0
173
0
174
0
175
1
176
1
177
33
178
0
145
0.0
  1
 
170
1
140
0.78125
171
1
172
0
173
0
174
0
175
1
176
1
177
33
178
0
145
0.0
  1
 
170
1
140
0.78125
171
1
172
0
173
0
174
0
175
1
176
1
177
33
178
0
145
0.0
  1
 
170
1
140
0.78125
171
1
172
0
173
0
174
0
175
1
176
1
177
33
178
0
145
0.0
  1
 
170
1
140
0.78125
171
1
172
0
173
0
174
0
175
1
176
1
177
33
178
0
145
0.0
  1
 
170
1
140
0.78125
171
1
172
0
173
0
174
0
175
1
176
1
177
33
178
0
145
0.0
  1
 
170
1
140
0.78125
171
1
172
0
173
0
174
0
175
1
176
1
177
33
178
0
145
0.0
  1
 
170
1
140
0.78125
171
1
172
0
173
0
174
0
175
1
176
1
177
33
178
0
145
0.0
  1
 
170
1
140
0.78125
171
1
172
0
173
0
174
0
175
1
176
1
177
33
178
0
145
0.0
  1
 
170
1
140
0.78125
171
1
172
0
173
0
174
0
175
1
176
1
177
33
178
0
145
0.0
  1
 
170
1
140
0.78125
171
1
172
0
173
0
174
0
175
1
176
1
177
33
178
0
145
0.0
  1
 
170
1
140
0.78125
171
1
172
0
173
0
174
0
175
1
176
1
177
33
178
0
145
0.0
  1
 
170
1
140
0.78125
171
1
172
0
173
0
174
0
175
1
176
1
177
33
178
0
145
0.0
  1
 
170
1
140
0.78125
171
1
172
0
173
0
174
0
175
1
176
1
177
33
178
0
145
0.0
  1
 
170
1
140
0.78125
171
1
172
0
173
0
174
0
175
1
176
1
177
33
178
0
145
0.0
  1
 
170
1
140
0.78125
171
1
172
0
173
0
174
0
175
1
176
1
177
33
178
0
145
0.0
  1
 
170
1
140
0.78125
171
1
172
0
173
0
174
0
175
1
176
1
177
33
178
0
145
0.0
  1
 
170
1
140
0.78125
171
1
172
0
173
0
174
0
175
1
176
1
177
33
178
0
145
0.0
  1
 
170
1
140
0.78125
171
1
172
0
173
0
174
0
175
8
176
2
177
33
178
0
145
0.0
  1
X\fgdt;{\fgdt;`}\ftxt;3 [.1]    \fgdt;{\fgdt;`}\ftxt;1\fgdt;{\fgdt;~}
170
4
140
7.9375
171
1
172
0
173
1
174
0
175
1
176
1
177
1
178
0
145
0.0
170
1
171
1
172
0
173
1
174
0
175
1
176
1
177
1
178
0
145
0.0
170
1
171
1
172
0
173
1
174
0
175
1
176
1
177
1
178
0
145
0.0
170
1
171
1
172
0
173
1
174
0
175
1
176
1
177
1
178
0
145
0.0
170
1
171
1
172
0
173
1
174
0
175
1
176
1
177
1
178
0
145
0.0
170
1
171
1
172
0
173
1
174
0
175
1
176
1
177
1
178
0
145
0.0
170
1
171
1
172
0
173
1
174
0
175
1
176
1
177
1
178
0
145
0.0
170
1
171
1
172
0
173
0
174
0
175
1
176
1
177
33
178
0
145
0.0
  1
 
170
1
140
0.78125
171
1
172
0
173
0
174
0
175
1
176
1
177
33
178
0
145
0.0
  1
 
170
1
140
0.78125
171
1
172
0
173
1
174
0
175
1
176
1
177
1
178
0
145
0.0
170
1
171
1
172
0
173
1
174
0
175
1
176
1
177
1
178
0
145
0.0
170
1
171
1
172
0
173
1
174
0
175
1
176
1
177
1
178
0
145
0.0
170
1
171
1
172
0
173
1
174
0
175
1
176
1
177
1
178
0
145
0.0
170
1
171
1
172
0
173
1
174
0
175
1
176
1
177
1
178
0
145
0.0
170
1
171
1
172
0
173
1
174
0
175
1
176
1
177
1
178
0
145
0.0
170
1
171
1
172
0
173
1
174
0
175
1
176
1
177
1
178
0
145
0.0
170
1
171
1
172
0
173
1
174
0
175
1
176
1
177
1
178
0
145
0.0
170
1
171
1
172
0
173
0
174
0
175
1
176
1
177
33
178
0
145
0.0
  1
 
170
1
140
0.78125
171
1
172
0
173
0
174
0
175
1
176
1
177
33
178
0
145
0.0
  1
 
170
1
140
0.78125
171
1
172
0
173
0
174
0
175
1
176
1
177
33
178
0
145
0.0
  1
 
170
1
140
0.78125
171
1
172
0
173
0
174
0
175
1
176
1
177
33
178
0
145
0.0
  1
 
170
1
140
0.78125
171
1
172
0
173
0
174
0
175
1
176
1
177
33
178
0
145
0.0
  1
 
170
1
140
0.78125
171
1
172
0
173
0
174
0
175
1
176
1
177
33
178
0
145
0.0
  1
 
170
1
140
0.78125
171
1
172
0
173
0
174
0
175
1
176
1
177
33
178
0
145
0.0
  1
 
170
1
140
0.78125
171
1
172
0
173
0
174
0
175
1
176
1
177
33
178
0
145
0.0
  1
 
170
1
140
0.78125
171
1
172
0
173
0
174
0
175
1
176
1
177
33
178
0
145
0.0
  1
 
170
1
140
0.78125
171
1
172
0
173
0
174
0
175
1
176
1
177
33
178
0
145
0.0
  1
 
170
1
140
0.78125
171
1
172
0
173
0
174
0
175
1
176
1
177
33
178
0
145
0.0
  1
 
170
1
140
0.78125
  0
ACAD_TABLE
  5
37E
100
AcDbEntity
  8
0
 62
2
  6
CONTINUOUS
100
AcDbBlockReference
  2
*T14
 10
1405.879272835
 20
1354.8421829095
 30
0.0
100
AcDbTable
342
       78C
343
227
 11
1.0
 21
0.0
 31
0.0
 90
22
 91
3
 92
4
 93
0
 94
0
 95
0
 96
0
141
22.86
141
22.86
141
22.86
142
49.38
142
517.55
142
45.72
142
96.925
171
1
172
0
173
0
174
0
175
4
176
1
177
49
178
0
145
0.0
  7
TEXTSTYLE_2
  1
REVISION
170
5
140
11.43
171
1
172
0
173
1
174
0
175
1
176
1
177
1
178
0
145
0.0
170
1
171
1
172
0
173
1
174
0
175
1
176
1
177
1
178
0
145
0.0
170
1
171
1
172
0
173
1
174
0
175
1
176
1
177
1
178
0
145
0.0
170
1
171
1
172
0
173
0
174
0
175
1
176
1
177
49
178
0
145
0.0
  7
TEXTSTYLE_2
  1
REV
170
5
140
11.43
171
1
172
0
173
0
174
0
175
1
176
1
177
49
178
0
145
0.0
  7
TEXTSTYLE_2
  1
                        DESCRIPTION
170
4
140
11.43
171
1
172
0
173
0
174
0
175
1
176
1
177
49
178
0
145
0.0
  7
TEXTSTYLE_2
  1
BY
170
5
140
11.43
171
1
172
0
173
0
174
0
175
1
176
1
177
49
178
0
145
0.0
  7
TEXTSTYLE_2
  1
DATE
170
5
140
11.43
171
1
172
0
173
0
174
0
175
1
176
1
177
33
178
0
145
0.0
  1
A
170
5
140
11.43
171
1
172
0
173
0
174
0
175
1
176
1
177
33
178
0
145
0.0
  1
INITIAL RELEASE
170
4
140
11.43
171
1
172
0
173
0
174
0
175
1
176
1
177
33
178
0
145
0.0
  1
H.HE
170
5
140
11.43
171
1
172
0
173
0
174
0
175
1
176
1
177
33
178
0
145
0.0
  1
27-FEB-20
170
5
140
11.43
  0
TEXT
  5
37F
100
AcDbEntity
  8
0
100
AcDbText
 62
2
  6
CONTINUOUS
 10
71.5877736162
 20
258.515296344
  7
STANDARD
 40
11.43
  1
 
 41
0.8
 72
0
100
AcDbText
  0
TEXT
  5
380
100
AcDbEntity
  8
0
100
AcDbText
 62
2
  6
CONTINUOUS
 10
71.5877736162
 20
235.655296344
  7
STANDARD
 40
11.43
  1
5. GRILLE NOT SHOWN FOR CLARITY;
 41
0.8
 72
0
100
AcDbText
  0
TEXT
  5
381
100
AcDbEntity
  8
0
100
AcDbText
 62
2
  6
CONTINUOUS
 10
71.5877736162
 20
212.795296344
  7
STANDARD
 40
11.43
  1
4. SYMBOL   INDICATES CENTER OF GRAVITY;
 41
0.8
 72
0
100
AcDbText
  0
TEXT
  5
382
100
AcDbEntity
  8
0
100
AcDbText
 62
2
  6
CONTINUOUS
 10
77.3027736162
 20
189.935296344
  7
STANDARD
 40
11.43
  1
3
 41
0.8
 72
0
100
AcDbText
  0
TEXT
  5
383
100
AcDbEntity
  8
0
100
AcDbText
 62
2
  6
CONTINUOUS
 10
92.1617736162
 20
189.935296344
  7
STANDARD
 40
11.43
  1
.SAFETY SEISMIC MOUNTING TAG WITH 
 41
0.8
 72
0
100
AcDbText
  0
TEXT
  5
384
100
AcDbEntity
  8
0
100
AcDbText
 62
2
  6
CONTINUOUS
 10
403.0577736162
 20
189.935296344
  7
TEXTSTYLE_1
 40
11.43
  1
n
 41
1.0
 72
0
100
AcDbText
  0
TEXT
  5
385
100
AcDbEntity
  8
0
100
AcDbText
 62
2
  6
CONTINUOUS
 10
418.2977736162
 20
189.935296344
  7
STANDARD
 40
11.43
  1
8MM HOLE;
 41
0.8
 72
0
100
AcDbText
  0
TEXT
  5
386
100
AcDbEntity
  8
0
100
AcDbText
 62
2
  6
CONTINUOUS
 10
71.5877736162
 20
167.075296344
  7
STANDARD
 40
11.43
  1
2. DIMENSIONS ARE IN MILLIMETERS [INCH];
 41
0.8
 72
0
100
AcDbText
  0
TEXT
  5
387
100
AcDbEntity
  8
0
100
AcDbText
 62
2
  6
CONTINUOUS
 10
71.5877736162
 20
144.215296344
  7
STANDARD
 40
11.43
  1
1. NET WEIGHT APPROX 3.2 KG [7.0 LBS];
 41
0.8
 72
0
100
AcDbText
  0
TEXT
  5
388
100
AcDbEntity
  8
0
100
AcDbText
 62
2
  6
CONTINUOUS
 10
71.5877736162
 20
121.355296344
  7
STANDARD
 40
11.43
  1
 
 41
0.8
 72
0
100
AcDbText
  0
TEXT
  5
389
100
AcDbEntity
  8
0
100
AcDbText
 62
2
  6
CONTINUOUS
 10
71.5877736162
 20
98.495296344
  7
STANDARD
 40
11.43
  1
NOTE: UNLESS OTHERWISE SPECIFIED.
 41
0.8
 72
0
100
AcDbText
  0
MTEXT
  5
38A
100
AcDbEntity
  8
0
100
AcDbMText
 62
2
  6
CONTINUOUS
  7
STANDARD
 71
1
 72
1
 10
848.1127034082
 20
341.991869873
 30
0.0
 11
1.0
 21
0.0
 31
0.0
 73
2
 44
0.9
  1
CL
 40
11.43
 41
18.288
  0
LEADER
  5
38B
100
AcDbEntity
  8
0
100
AcDbLeader
 62
2
  6
CONTINUOUS
  3
STANDARD
 71
1
 72
0
 73
0
 75
0
 40
11.43
 41
17.145
 76
3
 10
853.7661966902
 20
806.2986170455
 30
0.0
 10
755.5439648176
 20
760.614579859
 30
0.0
 10
723.7939648176
 20
760.614579859
 30
0.0
340
38C
1001
ACAD
1000
DSTYLE
1002
{
1070
77
1070
0
1070
341
1005
20B
1002
}
  0
MTEXT
  5
38C
102
{ACAD_REACTORS
330
38B
102
}
100
AcDbEntity
  8
0
100
AcDbMText
 62
2
  6
CONTINUOUS
  7
TEXTSTYLE_1
 71
3
 72
1
 10
723.7939648176
 20
766.329579859
 30
0.0
 11
1.0
 21
0.0
 31
0.0
 73
2
 44
0.9
  1
{\fgdt;n}\ftxt;23.5 CLAMP-WIRE ENTRY POINT\P[0.93]                      
 40
11.43
 41
264.033
  0
LEADER
  5
38D
100
AcDbEntity
  8
0
100
AcDbLeader
 62
2
  6
CONTINUOUS
  3
STANDARD
 71
1
 72
0
 73
0
 75
0
 40
11.43
 41
100.584
 76
3
 10
855.0966336873
 20
802.134661078
 30
0.0
 10
954.3442245411
 20
762.1617889154
 30
0.0
 10
986.0942245411
 20
762.1617889154
 30
0.0
340
38E
1001
ACAD
1000
DSTYLE
1002
{
1070
77
1070
0
1070
341
1005
20B
1002
}
  0
MTEXT
  5
38E
102
{ACAD_REACTORS
330
38D
102
}
100
AcDbEntity
  8
0
100
AcDbMText
 62
2
  6
CONTINUOUS
  7
STANDARD
 71
1
 72
1
 10
986.0942245411
 20
767.8767889154
 30
0.0
 11
1.0
 21
0.0
 31
0.0
 73
2
 44
0.9
  1
CABLE CLAMP
 40
11.43
 41
100.584
  0
LEADER
  5
38F
100
AcDbEntity
  8
0
100
AcDbLeader
 62
2
  6
CONTINUOUS
  3
STANDARD
 71
1
 72
0
 73
0
 75
0
 40
11.43
 41
201.168
 76
3
 10
878.4333483035
 20
612.548008206
 30
0.0
 10
929.0649825892
 20
675.6154824917
 30
0.0
 10
960.8149825892
 20
675.6154824917
 30
0.0
340
390
1001
ACAD
1000
DSTYLE
1002
{
1070
77
1070
0
1070
341
1005
20B
1002
}
  0
MTEXT
  5
390
102
{ACAD_REACTORS
330
38F
102
}
100
AcDbEntity
  8
0
100
AcDbMText
 62
2
  6
CONTINUOUS
  7
STANDARD
 71
1
 72
1
 10
960.8149825892
 20
681.3304824917
 30
0.0
 11
1.0
 21
0.0
 31
0.0
 73
2
 44
0.9
  1
DETACHABLE COVER PLATE
 40
11.43
 41
201.168
  0
LEADER
  5
391
100
AcDbEntity
  8
0
100
AcDbLeader
 62
2
  6
CONTINUOUS
  3
STANDARD
 71
1
 72
0
 73
0
 75
0
 40
11.43
 41
128.016
 76
3
 10
861.4906461884
 20
566.5174925964
 30
0.0
 10
930.1248856793
 20
635.0753262864
 30
0.0
 10
961.8748856793
 20
635.0753262864
 30
0.0
340
392
1001
ACAD
1000
DSTYLE
1002
{
1070
77
1070
0
1070
341
1005
20B
1002
}
  0
MTEXT
  5
392
102
{ACAD_REACTORS
330
391
102
}
100
AcDbEntity
  8
0
100
AcDbMText
 62
2
  6
CONTINUOUS
  7
STANDARD
 71
1
 72
1
 10
961.8748856793
 20
640.7903262864
 30
0.0
 11
1.0
 21
0.0
 31
0.0
 73
2
 44
0.9
  1
EURO CONNECTOR
 40
11.43
 41
128.016
  0
LEADER
  5
393
100
AcDbEntity
  8
0
100
AcDbLeader
 62
2
  6
CONTINUOUS
  3
STANDARD
 71
1
 72
0
 73
0
 75
0
 40
11.43
 41
164.592
 76
3
 10
919.5596479613
 20
405.4931317678
 30
0.0
 10
954.0223025657
 20
386.8646698195
 30
0.0
 10
985.7723025657
 20
386.8646698195
 30
0.0
340
394
1001
ACAD
1000
DSTYLE
1002
{
1070
77
1070
0
1070
341
1005
20B
1002
}
  0
MTEXT
  5
394
102
{ACAD_REACTORS
330
393
102
}
100
AcDbEntity
  8
0
100
AcDbMText
 62
2
  6
CONTINUOUS
  7
STANDARD
 71
1
 72
1
 10
985.7723025657
 20
392.5796698195
 30
0.0
 11
1.0
 21
0.0
 31
0.0
 73
2
 44
0.9
  1
4X MOUNTING CLAMPS
 40
11.43
 41
164.592
  0
TEXT
  5
395
100
AcDbEntity
  8
0
100
AcDbText
 62
2
  6
CONTINUOUS
 10
568.181543296
 20
323.6956741415
  7
STANDARD
 40
11.43
  1
3
 41
0.8
 72
2
 11
577.325543296
 21
323.6956741415
100
AcDbText
  0
TEXT
  5
396
100
AcDbEntity
  8
0
100
AcDbText
 62
2
  6
CONTINUOUS
 10
583.040543296
 20
323.6956741415
  7
STANDARD
 40
11.43
  1
SEISMIC MOUNTING TAG
 41
0.8
 72
2
 11
765.920543296
 21
323.6956741415
100
AcDbText
  0
LEADER
  5
397
100
AcDbEntity
  8
0
100
AcDbLeader
 62
2
  6
CONTINUOUS
  3
STANDARD
 71
1
 72
0
 73
3
 75
0
 76
3
 10
858.4462703456
 20
395.8077898169
 30
0.0
 10
797.670543296
 20
329.4106741415
 30
0.0
 10
765.920543296
 20
329.4106741415
 30
0.0
1001
ACAD
1000
DSTYLE
1002
{
1070
77
1070
0
1070
341
1005
20B
1002
}
  0
INSERT
  5
398
100
AcDbEntity
  8
0
100
AcDbBlockReference
 62
2
  6
CONTINUOUS
  2
CG_BL0
 10
167.3456642294
 20
218.1216551971
  0
INSERT
  5
399
100
AcDbEntity
  8
0
100
AcDbBlockReference
 62
2
  6
CONTINUOUS
  2
CG_BL1
 10
890.5580639547
 20
1163.3050997058
  0
INSERT
  5
39A
100
AcDbEntity
  8
0
100
AcDbBlockReference
 62
2
  6
CONTINUOUS
  2
CG_BL2
 10
890.5614437829
 20
861.8608462735
  0
LWPOLYLINE
  5
39B
100
AcDbEntity
  8
0
100
AcDbPolyline
 62
7
  6
CONTINUOUS
 90
2
 70
0
 43
1.2499999944
 10
36.9592273622
 20
705.5155695402
 10
36.9592273622
 20
696.3501340167
  0
LWPOLYLINE
  5
39C
100
AcDbEntity
  8
0
100
AcDbPolyline
 62
7
  6
CONTINUOUS
 90
2
 70
0
 43
1.2499999944
 10
44.8967273622
 20
1354.9828517787
 10
44.8967273622
 20
46.8828517787
  0
LWPOLYLINE
  5
39D
100
AcDbEntity
  8
0
100
AcDbPolyline
 62
7
  6
CONTINUOUS
 90
2
 70
0
 43
1.2499999944
 10
303.6592273622
 20
46.8828517787
 10
303.6592273622
 20
31.0078517787
  0
LWPOLYLINE
  5
39E
100
AcDbEntity
  8
0
100
AcDbPolyline
 62
7
  6
CONTINUOUS
 90
2
 70
0
 43
1.2499999944
 10
303.6592273622
 20
1354.9828517787
 10
303.6592273622
 20
1370.8578517787
  0
LWPOLYLINE
  5
39F
100
AcDbEntity
  8
0
100
AcDbPolyline
 62
7
  6
CONTINUOUS
 90
2
 70
0
 43
1.2499999944
 10
375.0967273622
 20
1354.9828517787
 10
375.0967273622
 20
1320.0578517787
  0
LWPOLYLINE
  5
3A0
100
AcDbEntity
  8
0
100
AcDbPolyline
 62
7
  6
CONTINUOUS
 90
2
 70
0
 43
1.2499999944
 10
1622.7790981857
 20
61.9196566652
 10
1641.8290981862
 20
65.0946566652
  0
LWPOLYLINE
  5
3A1
100
AcDbEntity
  8
0
100
AcDbPolyline
 62
7
  6
CONTINUOUS
 90
2
 70
0
 43
1.2499999944
 10
1084.5294451237
 20
38.9453517787
 10
1075.3640096007
 20
38.9453517787
  0
LWPOLYLINE
  5
3A2
100
AcDbEntity
  8
0
100
AcDbPolyline
 62
7
  6
CONTINUOUS
 90
2
 70
0
 43
1.2499999944
 10
2114.9967273622
 20
46.8828517787
 10
44.8967273622
 20
46.8828517787
  0
LWPOLYLINE
  5
3A3
100
AcDbEntity
  8
0
100
AcDbPolyline
 62
7
  6
CONTINUOUS
 90
2
 70
0
 43
0.4999999849
 10
1601.8494981857
 20
58.7446566652
 10
1618.3086981862
 20
58.7446566652
  0
LWPOLYLINE
  5
3A4
100
AcDbEntity
  8
0
100
AcDbPolyline
 62
7
  6
CONTINUOUS
 90
2
 70
0
 43
0.4999999849
 10
1620.4146657267
 20
58.7446566652
 10
1643.7722407237
 20
58.7446566652
  0
LWPOLYLINE
  5
3A5
100
AcDbEntity
  8
0
100
AcDbPolyline
 62
7
  6
CONTINUOUS
 90
2
 70
0
 43
1.2499999944
 10
1820.5661501862
 20
62.7578517787
 10
2114.9967273622
 20
62.7578517787
  0
LWPOLYLINE
  5
3A6
100
AcDbEntity
  8
0
100
AcDbPolyline
 62
7
  6
CONTINUOUS
 90
2
 70
0
 43
1.2499999944
 10
1479.9967273622
 20
69.7428517787
 10
1647.2542882717
 20
69.7428517787
  0
LWPOLYLINE
  5
3A7
100
AcDbEntity
  8
0
100
AcDbPolyline
 62
7
  6
CONTINUOUS
 90
2
 70
0
 43
1.2499999944
 10
1647.0736371222
 20
80.6328517787
 10
1820.3854990367
 20
80.6328517787
  0
LWPOLYLINE
  5
3A8
100
AcDbEntity
  8
0
100
AcDbPolyline
 62
7
  6
CONTINUOUS
 90
2
 70
0
 43
1.2499999944
 10
1479.9967273622
 20
92.6028517787
 10
1647.2542882717
 20
92.6028517787
  0
LWPOLYLINE
  5
3A9
100
AcDbEntity
  8
0
100
AcDbPolyline
 62
7
  6
CONTINUOUS
 90
2
 70
0
 43
1.2499999944
 10
1820.5661501862
 20
95.0078517787
 10
2114.9967273622
 20
95.0078517787
  0
LWPOLYLINE
  5
3AA
100
AcDbEntity
  8
0
100
AcDbPolyline
 62
7
  6
CONTINUOUS
 90
2
 70
0
 43
1.2499999944
 10
36.9592273622
 20
696.3501340167
 10
44.8967273622
 20
700.9328517787
  0
LWPOLYLINE
  5
3AB
100
AcDbEntity
  8
0
100
AcDbPolyline
 62
7
  6
CONTINUOUS
 90
2
 70
0
 43
1.2499999944
 10
1647.2542882717
 20
114.3828517787
 10
1820.5661501862
 20
114.3828517787
  0
LWPOLYLINE
  5
3AC
100
AcDbEntity
  8
0
100
AcDbPolyline
 62
7
  6
CONTINUOUS
 90
2
 70
0
 43
1.2499999944
 10
1479.9967273622
 20
115.4628517787
 10
1647.2542882717
 20
115.4628517787
  0
LWPOLYLINE
  5
3AD
100
AcDbEntity
  8
0
100
AcDbPolyline
 62
7
  6
CONTINUOUS
 90
2
 70
0
 43
1.2499999944
 10
1647.2542882717
 20
138.6584380147
 10
1479.9967273622
 20
138.6584380147
  0
LWPOLYLINE
  5
3AE
100
AcDbEntity
  8
0
100
AcDbPolyline
 62
7
  6
CONTINUOUS
 90
2
 70
0
 43
1.2499999944
 10
1647.2542882717
 20
148.1328517787
 10
1820.5661501862
 20
148.1328517787
  0
LWPOLYLINE
  5
3AF
100
AcDbEntity
  8
0
100
AcDbPolyline
 62
7
  6
CONTINUOUS
 90
2
 70
0
 43
1.2499999944
 10
1647.2542882717
 20
180.5068377822
 10
1820.5661501862
 20
180.5068377822
  0
LWPOLYLINE
  5
3B0
100
AcDbEntity
  8
0
100
AcDbPolyline
 62
7
  6
CONTINUOUS
 90
2
 70
0
 43
1.2499999944
 10
1622.7790981857
 20
55.5696566652
 10
1641.8290981862
 20
52.3946566652
  0
LWPOLYLINE
  5
3B1
100
AcDbEntity
  8
0
100
AcDbPolyline
 62
7
  6
CONTINUOUS
 90
2
 70
0
 43
1.2499999944
 10
562.4217273622
 20
46.8828517787
 10
562.4217273622
 20
31.0078517787
  0
LWPOLYLINE
  5
3B2
100
AcDbEntity
  8
0
100
AcDbPolyline
 62
7
  6
CONTINUOUS
 90
2
 70
0
 43
1.2499999944
 10
562.4217273622
 20
1354.9828517787
 10
562.4217273622
 20
1370.8578517787
  0
LWPOLYLINE
  5
3B3
100
AcDbEntity
  8
0
100
AcDbPolyline
 62
2
  6
CONTINUOUS
 90
5
 70
0
 10
71.5877736162
 20
184.220296344
 10
92.1617736162
 20
184.220296344
 10
92.1617736162
 20
207.080296344
 10
71.5877736162
 20
207.080296344
 10
71.5877736162
 20
184.220296344
  0
LWPOLYLINE
  5
3B4
100
AcDbEntity
  8
0
100
AcDbPolyline
 62
7
  6
CONTINUOUS
 90
2
 70
0
 43
1.2499999944
 10
1820.5661501862
 20
189.7578517787
 10
2114.9967273622
 20
189.7578517787
  0
LWPOLYLINE
  5
3B5
100
AcDbEntity
  8
0
100
AcDbPolyline
 62
7
  6
CONTINUOUS
 90
2
 70
0
 43
1.2499999944
 10
1647.2542882717
 20
193.8418377822
 10
1820.5661501862
 20
193.8418377822
  0
LINE
  5
3B6
100
AcDbEntity
  8
0
100
AcDbLine
 62
7
  6
CONTINUOUS
 10
1851.463578277
 20
199.9656581034
 11
1858.2384749534
 21
199.9656581034
  0
LINE
  5
3B7
100
AcDbEntity
  8
0
100
AcDbLine
 62
7
  6
CONTINUOUS
 10
1833.4511993586
 20
202.5868317802
 11
1851.028481675
 21
202.5868317802
  0
LINE
  5
3B8
100
AcDbEntity
  8
0
100
AcDbLine
 62
7
  6
CONTINUOUS
 10
1858.6735715554
 20
202.5868317802
 11
1862.1299231246
 21
202.5868317802
  0
LINE
  5
3B9
100
AcDbEntity
  8
0
100
AcDbLine
 62
7
  6
CONTINUOUS
 10
1871.6498589978
 20
202.586831771
 11
1903.0921172002
 21
202.586831771
  0
LINE
  5
3BA
100
AcDbEntity
  8
0
100
AcDbLine
 62
7
  6
CONTINUOUS
 10
1896.9769229902
 20
206.992644399
 11
1871.6498589978
 21
206.992644399
  0
LINE
  5
3BB
100
AcDbEntity
  8
0
100
AcDbLine
 62
7
  6
CONTINUOUS
 10
1947.7979309306
 20
207.090643035
 11
1921.7304038042
 21
207.090643035
  0
LINE
  5
3BC
100
AcDbEntity
  8
0
100
AcDbLine
 62
7
  6
CONTINUOUS
 10
1837.9363687486
 20
207.2479652974
 11
1850.9295257734
 21
207.2479652974
  0
LINE
  5
3BD
100
AcDbEntity
  8
0
100
AcDbLine
 62
7
  6
CONTINUOUS
 10
1858.540089231
 20
207.2479653202
 11
1860.538363807
 21
207.2479653202
  0
LINE
  5
3BE
100
AcDbEntity
  8
0
100
AcDbLine
 62
7
  6
CONTINUOUS
 10
1851.3646223802
 20
209.8623655514
 11
1858.1049926474
 21
209.8623655514
  0
LINE
  5
3BF
100
AcDbEntity
  8
0
100
AcDbLine
 62
7
  6
CONTINUOUS
 10
1875.2496877222
 20
211.5650447918
 11
1896.9769229946
 21
211.5650447918
  0
LINE
  5
3C0
100
AcDbEntity
  8
0
100
AcDbLine
 62
7
  6
CONTINUOUS
 10
1903.0921172002
 20
216.1377983718
 11
1881.654491601
 21
216.1377983718
  0
LINE
  5
3C1
100
AcDbEntity
  8
0
100
AcDbLine
 62
7
  6
CONTINUOUS
 10
1881.6544915966
 20
220.540741425
 11
1907.0159333622
 21
220.540741425
  0
LINE
  5
3C2
100
AcDbEntity
  8
0
100
AcDbLine
 62
7
  6
CONTINUOUS
 10
1921.730403809
 20
220.5858759362
 11
1947.7979309258
 21
220.5858759362
  0
LINE
  5
3C3
100
AcDbEntity
  8
0
100
AcDbLine
 62
7
  6
CONTINUOUS
 10
1837.936368753
 20
220.790780219
 11
1860.5383637978
 21
220.790780219
  0
LINE
  5
3C4
100
AcDbEntity
  8
0
100
AcDbLine
 62
7
  6
CONTINUOUS
 10
1862.1299231246
 20
225.0852391762
 11
1833.4511993586
 21
225.0852391762
  0
LINE
  5
3C5
100
AcDbEntity
  8
0
100
AcDbLine
 62
7
  6
CONTINUOUS
 10
1947.7979309318
 20
225.1116581034
 11
1917.3855966354
 21
225.1116581034
  0
LINE
  5
3C6
100
AcDbEntity
  8
0
100
AcDbLine
 62
7
  6
CONTINUOUS
 10
1907.0159333622
 20
225.111658099
 11
1875.2496877222
 21
225.111658099
  0
LWPOLYLINE
  5
3C7
100
AcDbEntity
  8
0
100
AcDbPolyline
 62
7
  6
CONTINUOUS
 90
2
 70
0
 43
1.2499999944
 10
1479.9967273622
 20
237.3828517787
 10
2114.9967273622
 20
237.3828517787
  0
LINE
  5
3C8
100
AcDbEntity
  8
0
100
AcDbLine
 62
7
  6
CONTINUOUS
 10
1917.3855966354
 20
202.5868431918
 11
1947.800399995
 21
202.5490879238
  0
LWPOLYLINE
  5
3C9
100
AcDbEntity
  8
0
100
AcDbPolyline
 62
7
  6
CONTINUOUS
 90
2
 70
0
 43
1.2499999944
 10
44.8967273622
 20
700.9328517787
 10
36.9592273622
 20
705.5155695402
  0
LWPOLYLINE
  5
3CA
100
AcDbEntity
  8
0
100
AcDbPolyline
 62
7
  6
CONTINUOUS
 90
2
 70
0
 43
1.2499999944
 10
1079.9467273622
 20
1354.9828517787
 10
1084.5294451237
 20
1362.9203517787
  0
LWPOLYLINE
  5
3CB
100
AcDbEntity
  8
0
100
AcDbPolyline
 62
7
  6
CONTINUOUS
 90
2
 70
0
 43
1.2499999944
 10
44.8967273622
 20
373.9078517787
 10
29.0217273622
 20
373.9078517787
  0
LWPOLYLINE
  5
3CC
100
AcDbEntity
  8
0
100
AcDbPolyline
 62
7
  6
CONTINUOUS
 90
2
 70
0
 43
1.2499999944
 10
2114.9967273622
 20
373.9078517787
 10
2130.8717273622
 20
373.9078517787
  0
LWPOLYLINE
  5
3CD
100
AcDbEntity
  8
0
100
AcDbPolyline
 62
7
  6
CONTINUOUS
 90
2
 70
0
 43
1.2499999944
 10
1079.9467273622
 20
46.8828517787
 10
1084.5294451237
 20
38.9453517787
  0
LWPOLYLINE
  5
3CE
100
AcDbEntity
  8
0
100
AcDbPolyline
 62
7
  6
CONTINUOUS
 90
2
 70
0
 43
1.2499999944
 10
821.1842273622
 20
46.8828517787
 10
821.1842273622
 20
31.0078517787
  0
LWPOLYLINE
  5
3CF
100
AcDbEntity
  8
0
100
AcDbPolyline
 62
7
  6
CONTINUOUS
 90
2
 70
0
 43
1.2499999944
 10
821.1842273622
 20
1354.9828517787
 10
821.1842273622
 20
1370.8578517787
  0
LINE
  5
3D0
100
AcDbEntity
  8
DEFAULT_1
100
AcDbLine
 62
2
  6
CENTER
 10
858.3389012214
 20
350.4854271618
 11
858.3389012214
 21
668.8429311618
  0
LWPOLYLINE
  5
3D1
100
AcDbEntity
  8
0
100
AcDbPolyline
 62
7
  6
CONTINUOUS
 90
2
 70
0
 43
1.2499999944
 10
1079.9467273622
 20
46.8828517787
 10
1079.9467273622
 20
31.0078517787
  0
LWPOLYLINE
  5
3D2
100
AcDbEntity
  8
0
100
AcDbPolyline
 62
7
  6
CONTINUOUS
 90
2
 70
0
 43
1.2499999944
 10
1079.9467273622
 20
1354.9828517787
 10
1079.9467273622
 20
1370.8578517787
  0
LWPOLYLINE
  5
3D3
100
AcDbEntity
  8
0
100
AcDbPolyline
 62
7
  6
CONTINUOUS
 90
2
 70
0
 43
1.2499999944
 10
44.8967273622
 20
700.9328517787
 10
29.0217273622
 20
700.9328517787
  0
LWPOLYLINE
  5
3D4
100
AcDbEntity
  8
0
100
AcDbPolyline
 62
7
  6
CONTINUOUS
 90
2
 70
0
 43
1.2499999944
 10
2114.9967273622
 20
700.9328517787
 10
2130.8717273622
 20
700.9328517787
  0
LWPOLYLINE
  5
3D5
100
AcDbEntity
  8
0
100
AcDbPolyline
 62
7
  6
CONTINUOUS
 90
2
 70
0
 43
1.2499999944
 10
1338.7092273622
 20
46.8828517787
 10
1338.7092273622
 20
31.0078517787
  0
LWPOLYLINE
  5
3D6
100
AcDbEntity
  8
0
100
AcDbPolyline
 62
7
  6
CONTINUOUS
 90
2
 70
0
 43
1.2499999944
 10
1338.7092273622
 20
1354.9828517787
 10
1338.7092273622
 20
1370.8578517787
  0
LWPOLYLINE
  5
3D7
100
AcDbEntity
  8
0
100
AcDbPolyline
 62
7
  6
CONTINUOUS
 90
2
 70
0
 43
1.2499999944
 10
1079.9467273622
 20
46.8828517787
 10
1075.3640096007
 20
38.9453517787
  0
LWPOLYLINE
  5
3D8
100
AcDbEntity
  8
0
100
AcDbPolyline
 62
7
  6
CONTINUOUS
 90
2
 70
0
 43
1.2499999944
 10
44.8967273622
 20
1027.9578517787
 10
29.0217273622
 20
1027.9578517787
  0
LWPOLYLINE
  5
3D9
100
AcDbEntity
  8
0
100
AcDbPolyline
 62
7
  6
CONTINUOUS
 90
2
 70
0
 43
1.2499999944
 10
2114.9967273622
 20
1027.9578517787
 10
2130.8717273622
 20
1027.9578517787
  0
LWPOLYLINE
  5
3DA
100
AcDbEntity
  8
0
100
AcDbPolyline
 62
7
  6
CONTINUOUS
 90
2
 70
0
 43
1.2499999944
 10
1079.9467273622
 20
1354.9828517787
 10
1075.3640096007
 20
1362.9203517787
  0
LWPOLYLINE
  5
3DB
100
AcDbEntity
  8
0
100
AcDbPolyline
 62
7
  6
CONTINUOUS
 90
2
 70
0
 43
1.2499999944
 10
1479.9967273622
 20
46.8828517787
 10
1479.9967273622
 20
237.3828517787
  0
LWPOLYLINE
  5
3DC
100
AcDbEntity
  8
0
100
AcDbPolyline
 62
7
  6
CONTINUOUS
 90
2
 70
0
 43
1.2499999944
 10
1597.4717273622
 20
31.0078517787
 10
1597.4717273622
 20
69.7428517787
  0
LWPOLYLINE
  5
3DD
100
AcDbEntity
  8
0
100
AcDbPolyline
 62
7
  6
CONTINUOUS
 90
2
 70
0
 43
1.2499999944
 10
1597.4717273622
 20
1354.9828517787
 10
1597.4717273622
 20
1370.8578517787
  0
LWPOLYLINE
  5
3DE
100
AcDbEntity
  8
0
100
AcDbPolyline
 62
7
  6
CONTINUOUS
 90
2
 70
0
 43
0.4999999849
 10
1610.0790981857
 20
50.5150566652
 10
1610.0790981857
 20
66.9742566652
  0
LWPOLYLINE
  5
3DF
100
AcDbEntity
  8
0
100
AcDbPolyline
 62
7
  6
CONTINUOUS
 90
2
 70
0
 43
1.2499999944
 10
2114.9967273622
 20
700.9328517787
 10
2122.9342273622
 20
705.5155695402
  0
LWPOLYLINE
  5
3E0
100
AcDbEntity
  8
0
100
AcDbPolyline
 62
7
  6
CONTINUOUS
 90
2
 70
0
 43
1.2499999944
 10
2122.9342273622
 20
696.3501340167
 10
2114.9967273622
 20
700.9328517787
  0
LWPOLYLINE
  5
3E1
100
AcDbEntity
  8
0
100
AcDbPolyline
 62
7
  6
CONTINUOUS
 90
2
 70
0
 43
1.2499999944
 10
1622.7790981857
 20
61.9196566652
 10
1622.7790981857
 20
55.5696566652
  0
LWPOLYLINE
  5
3E2
100
AcDbEntity
  8
0
100
AcDbPolyline
 62
7
  6
CONTINUOUS
 90
2
 70
0
 43
1.2499999944
 10
1641.8290981862
 20
65.0946566652
 10
1641.8290981862
 20
52.3946566652
  0
LWPOLYLINE
  5
3E3
100
AcDbEntity
  8
0
100
AcDbPolyline
 62
7
  6
CONTINUOUS
 90
2
 70
0
 43
1.2499999944
 10
1647.2542882717
 20
237.3828517787
 10
1647.2542882717
 20
46.8828517787
  0
LWPOLYLINE
  5
3E4
100
AcDbEntity
  8
0
100
AcDbPolyline
 62
7
  6
CONTINUOUS
 90
2
 70
0
 43
1.2499999944
 10
44.8967273622
 20
1319.5578517787
 10
375.0967273622
 20
1319.5578517787
  0
LWPOLYLINE
  5
3E5
100
AcDbEntity
  8
0
100
AcDbPolyline
 62
7
  6
CONTINUOUS
 90
2
 70
0
 43
1.2499999944
 10
44.8967273622
 20
1354.4828517787
 10
2114.9967273622
 20
1354.4828517787
  0
LWPOLYLINE
  5
3E6
100
AcDbEntity
  8
0
100
AcDbPolyline
 62
7
  6
CONTINUOUS
 90
2
 70
0
 43
1.2499999944
 10
1084.5294451237
 20
1362.9203517787
 10
1075.3640096007
 20
1362.9203517787
  0
LWPOLYLINE
  5
3E7
100
AcDbEntity
  8
0
100
AcDbPolyline
 62
7
  6
CONTINUOUS
 90
2
 70
0
 43
1.2499999944
 10
1820.5661501862
 20
237.3828517787
 10
1820.5661501862
 20
46.8828517787
  0
LINE
  5
3E8
100
AcDbEntity
  8
0
100
AcDbLine
 62
7
  6
CONTINUOUS
 10
1836.8051175722
 20
208.3792164738
 11
1836.8051175722
 21
219.6595290382
  0
LINE
  5
3E9
100
AcDbEntity
  8
0
100
AcDbLine
 62
7
  6
CONTINUOUS
 10
1910.9958871738
 20
213.8885203282
 11
1910.9978726378
 21
213.7163910298
  0
LWPOLYLINE
  5
3EA
100
AcDbEntity
  8
0
100
AcDbPolyline
 62
7
  6
CONTINUOUS
 90
2
 70
0
 43
1.2499999944
 10
1843.5161781097
 20
94.5078517787
 10
1843.5161781097
 20
62.7578517787
  0
LINE
  5
3EB
100
AcDbEntity
  8
0
100
AcDbLine
 62
7
  6
CONTINUOUS
 10
1850.9295257734
 20
207.2479652974
 11
1850.9295257734
 21
209.427268945
  0
LINE
  5
3EC
100
AcDbEntity
  8
0
100
AcDbLine
 62
7
  6
CONTINUOUS
 10
1851.028481675
 20
202.5868317802
 11
1851.028481675
 21
200.4007547054
  0
LWPOLYLINE
  5
3ED
100
AcDbEntity
  8
0
100
AcDbPolyline
 62
7
  6
CONTINUOUS
 90
2
 70
0
 43
1.2499999944
 10
1856.2342273622
 20
46.8828517787
 10
1856.2342273622
 20
31.0078517787
  0
LWPOLYLINE
  5
3EE
100
AcDbEntity
  8
0
100
AcDbPolyline
 62
7
  6
CONTINUOUS
 90
2
 70
0
 43
1.2499999944
 10
1856.2342273622
 20
1354.9828517787
 10
1856.2342273622
 20
1370.8578517787
  0
LINE
  5
3EF
100
AcDbEntity
  8
0
100
AcDbLine
 62
7
  6
CONTINUOUS
 10
1858.540089231
 20
207.2479653202
 11
1858.540089231
 21
209.4272689586
  0
LINE
  5
3F0
100
AcDbEntity
  8
0
100
AcDbLine
 62
7
  6
CONTINUOUS
 10
1858.6735715554
 20
200.4007547054
 11
1858.6735715554
 21
202.5868317802
  0
LINE
  5
3F1
100
AcDbEntity
  8
0
100
AcDbLine
 62
7
  6
CONTINUOUS
 10
1861.6696149786
 20
208.3792164918
 11
1861.6696149786
 21
219.6595290566
  0
LINE
  5
3F2
100
AcDbEntity
  8
0
100
AcDbLine
 62
7
  6
CONTINUOUS
 10
1867.462700569
 20
206.7966463798
 11
1867.462700569
 21
220.8754245674
  0
LINE
  5
3F3
100
AcDbEntity
  8
0
100
AcDbLine
 62
7
  6
CONTINUOUS
 10
1870.5186078218
 20
205.8613932226
 11
1870.5186078218
 21
203.718082947
  0
LWPOLYLINE
  5
3F4
100
AcDbEntity
  8
0
100
AcDbPolyline
 62
7
  6
CONTINUOUS
 90
2
 70
0
 43
1.2499999944
 10
1879.7846250177
 20
62.7578517787
 10
1879.7846250177
 20
46.8828517787
  0
LINE
  5
3F5
100
AcDbEntity
  8
0
100
AcDbLine
 62
7
  6
CONTINUOUS
 10
1880.523240425
 20
217.2690495478
 11
1880.523240425
 21
219.4094902534
  0
LINE
  5
3F6
100
AcDbEntity
  8
0
100
AcDbLine
 62
7
  6
CONTINUOUS
 10
1898.1081741618
 20
210.4337936158
 11
1898.1081741618
 21
208.1238955706
  0
LWPOLYLINE
  5
3F7
100
AcDbEntity
  8
0
100
AcDbPolyline
 62
7
  6
CONTINUOUS
 90
2
 70
0
 43
1.2499999944
 10
1903.8411781097
 20
94.5078517787
 10
1903.8411781097
 20
62.7578517787
  0
LINE
  5
3F8
100
AcDbEntity
  8
0
100
AcDbLine
 62
7
  6
CONTINUOUS
 10
1908.1471845382
 20
221.6719926014
 11
1908.1471845382
 21
223.9804069134
  0
LINE
  5
3F9
100
AcDbEntity
  8
0
100
AcDbLine
 62
7
  6
CONTINUOUS
 10
1920.5991526282
 20
208.221894211
 11
1920.5991526282
 21
219.4546247554
  0
LINE
  5
3FA
100
AcDbEntity
  8
0
100
AcDbLine
 62
7
  6
CONTINUOUS
 10
1948.9291821022
 20
203.6803363994
 11
1948.9291821022
 21
205.9593918634
  0
LINE
  5
3FB
100
AcDbEntity
  8
0
100
AcDbLine
 62
7
  6
CONTINUOUS
 10
1948.9291821022
 20
221.7171271126
 11
1948.9291821022
 21
223.9804069426
  0
LWPOLYLINE
  5
3FC
100
AcDbEntity
  8
0
100
AcDbPolyline
 62
7
  6
CONTINUOUS
 90
2
 70
0
 43
1.2499999944
 10
2028.4651256752
 20
62.7578517787
 10
2028.4651256752
 20
46.8828517787
  0
LWPOLYLINE
  5
3FD
100
AcDbEntity
  8
0
100
AcDbPolyline
 62
7
  6
CONTINUOUS
 90
2
 70
0
 43
1.2499999944
 10
2062.2580131807
 20
94.5078517787
 10
2062.2580131807
 20
62.7578517787
  0
LWPOLYLINE
  5
3FE
100
AcDbEntity
  8
0
100
AcDbPolyline
 62
7
  6
CONTINUOUS
 90
2
 70
0
 43
1.2499999944
 10
2114.9967273622
 20
46.8828517787
 10
2114.9967273622
 20
1354.9828517787
  0
LWPOLYLINE
  5
3FF
100
AcDbEntity
  8
0
100
AcDbPolyline
 62
7
  6
CONTINUOUS
 90
2
 70
0
 43
1.2499999944
 10
2122.9342273622
 20
705.5155695402
 10
2122.9342273622
 20
696.3501340167
  0
LINE
  5
400
100
AcDbEntity
  8
0
100
AcDbLine
 62
7
  6
CONTINUOUS
 10
859.3389012214
 20
990.3282366352
 11
850.9243540341
 21
990.3282366352
  0
LINE
  5
401
100
AcDbEntity
  8
02___PRT_ALL_AXES
100
AcDbLine
 62
7
  6
CONTINUOUS
 10
859.3389012214
 20
992.4282366352
 11
861.5389012214
 21
992.4282366352
  0
LINE
  5
402
100
AcDbEntity
  8
02___PRT_ALL_AXES
100
AcDbLine
 62
7
  6
CONTINUOUS
 10
857.3389012214
 20
994.5782366352
 11
844.3389012214
 21
994.5782366352
  0
LINE
  5
403
100
AcDbEntity
  8
02___PRT_ALL_AXES
100
AcDbLine
 62
7
  6
CONTINUOUS
 10
857.3389012214
 20
998.0782366352
 11
844.3389012214
 21
998.0782366352
  0
LINE
  5
404
100
AcDbEntity
  8
02___PRT_ALL_AXES
100
AcDbLine
 62
7
  6
CONTINUOUS
 10
879.2389012214
 20
1000.1282366352
 11
871.4389012214
 21
1000.1282366352
  0
LINE
  5
405
100
AcDbEntity
  8
02___PRT_ALL_AXES
100
AcDbLine
 62
7
  6
CONTINUOUS
 10
845.2389012214
 20
1000.1282366352
 11
837.4389012214
 21
1000.1282366352
  0
LINE
  5
406
100
AcDbEntity
  8
02___PRT_ALL_AXES
100
AcDbLine
 62
7
  6
CONTINUOUS
 10
859.3389012214
 20
1000.2282366352
 11
861.5389012214
 21
1000.2282366352
  0
LINE
  5
407
100
AcDbEntity
  8
02___PRT_ALL_AXES
100
AcDbLine
 62
7
  6
CONTINUOUS
 10
862.2389012214
 20
1001.6282366352
 11
854.4389012214
 21
1001.6282366352
  0
LINE
  5
408
100
AcDbEntity
  8
0
100
AcDbLine
 62
7
  6
CONTINUOUS
 10
883.3389012214
 20
1002.3282366352
 11
862.2389012214
 21
1002.3282366352
  0
LINE
  5
409
100
AcDbEntity
  8
0
100
AcDbLine
 62
7
  6
CONTINUOUS
 10
854.4389012214
 20
1002.3282366352
 11
833.3389012214
 21
1002.3282366352
  0
LINE
  5
40A
100
AcDbEntity
  8
02___PRT_ALL_AXES
100
AcDbLine
 62
7
  6
CONTINUOUS
 10
883.3389012214
 20
1003.8282366352
 11
875.1986165215
 21
1003.8282366352
  0
LINE
  5
40B
100
AcDbEntity
  8
02___PRT_ALL_AXES
100
AcDbLine
 62
7
  6
CONTINUOUS
 10
841.4791859213
 20
1003.8282366352
 11
833.3389012214
 21
1003.8282366352
  0
LINE
  5
40C
100
AcDbEntity
  8
0
100
AcDbLine
 62
7
  6
CONTINUOUS
 10
841.4791859213
 20
1003.8282366352
 11
875.1986165215
 21
1003.8282366352
  0
LINE
  5
40D
100
AcDbEntity
  8
0
100
AcDbLine
 62
7
  6
CONTINUOUS
 10
875.1094110526
 20
1004.8282366352
 11
841.5683913901
 21
1004.8282366352
  0
LINE
  5
40E
100
AcDbEntity
  8
02___PRT_ALL_AXES
100
AcDbLine
 62
7
  6
CONTINUOUS
 10
839.4271210314
 20
1005.3282366352
 11
845.2389012214
 21
1005.3282366352
  0
LINE
  5
40F
100
AcDbEntity
  8
02___PRT_ALL_AXES
100
AcDbLine
 62
7
  6
CONTINUOUS
 10
871.4389012214
 20
1005.3282366352
 11
877.2506814114
 21
1005.3282366352
  0
LINE
  5
410
100
AcDbEntity
  8
0
100
AcDbLine
 62
7
  6
CONTINUOUS
 10
814.3389012214
 20
1014.1966038639
 11
814.3389012214
 21
1022.6083465213
  0
LINE
  5
411
100
AcDbEntity
  8
0
100
AcDbLine
 62
7
  6
CONTINUOUS
 10
780.5431411552
 20
1125.8168659397
 11
817.2532516266
 21
1106.4618203656
  0
LINE
  5
412
100
AcDbEntity
  8
02___PRT_ALL_AXES
100
AcDbLine
 62
7
  6
CONTINUOUS
 10
833.3389012214
 20
1003.8282366352
 11
833.3389012214
 21
1002.3282366352
  0
LINE
  5
413
100
AcDbEntity
  8
02___PRT_ALL_AXES
100
AcDbLine
 62
7
  6
CONTINUOUS
 10
828.0991463679
 20
1109.9003066945
 11
907.7114341372
 21
1067.9255090639
  0
LINE
  5
414
100
AcDbEntity
  8
0
100
AcDbLine
 62
7
  6
CONTINUOUS
 10
824.2490512317
 20
1119.7305349938
 11
787.5389407603
 21
1139.0855805679
  0
LINE
  5
415
100
AcDbEntity
  8
02___PRT_ALL_AXES
100
AcDbLine
 62
7
  6
CONTINUOUS
 10
837.4389012214
 20
1004.6432593052
 11
837.4389012214
 21
1003.8282366352
  0
LINE
  5
416
100
AcDbEntity
  8
02___PRT_ALL_AXES
100
AcDbLine
 62
7
  6
CONTINUOUS
 10
837.4389012214
 20
1002.3282366352
 11
837.4389012214
 21
1000.1282366352
  0
LINE
  5
417
100
AcDbEntity
  8
02___PRT_ALL_AXES
100
AcDbLine
 62
7
  6
CONTINUOUS
 10
844.3389012214
 20
998.0782366352
 11
844.3389012214
 21
994.5782366352
  0
LINE
  5
418
100
AcDbEntity
  8
02___PRT_ALL_AXES
100
AcDbLine
 62
7
  6
CONTINUOUS
 10
845.2389012214
 20
1005.3282366352
 11
845.2389012214
 21
1004.8282366352
  0
LINE
  5
419
100
AcDbEntity
  8
02___PRT_ALL_AXES
100
AcDbLine
 62
7
  6
CONTINUOUS
 10
845.2389012214
 20
1002.3282366352
 11
845.2389012214
 21
1000.1282366352
  0
LINE
  5
41A
100
AcDbEntity
  8
02___PRT_ALL_AXES
100
AcDbLine
 62
7
  6
CONTINUOUS
 10
870.0739439985
 20
1189.5125944639
 11
828.0991463679
 21
1109.9003066945
  0
LINE
  5
41B
100
AcDbEntity
  8
0
100
AcDbLine
 62
7
  6
CONTINUOUS
 10
902.804509687
 20
1013.3116130409
 11
902.3389012214
 21
1014.1966038639
  0
LINE
  5
41C
100
AcDbEntity
  8
0
100
AcDbLine
 62
7
  6
CONTINUOUS
 10
850.9243540341
 20
1002.3282366352
 11
850.9243540341
 21
998.0782366352
  0
LINE
  5
41D
100
AcDbEntity
  8
0
100
AcDbLine
 62
7
  6
CONTINUOUS
 10
850.9243540341
 20
994.5782366352
 11
850.9243540341
 21
990.3282366352
  0
LINE
  5
41E
100
AcDbEntity
  8
02___PRT_ALL_AXES
100
AcDbLine
 62
7
  6
CONTINUOUS
 10
854.4389012214
 20
1003.8282366352
 11
854.4389012214
 21
1001.6282366352
  0
LINE
  5
41F
100
AcDbEntity
  8
0
100
AcDbLine
 62
7
  6
CONTINUOUS
 10
857.3389012214
 20
1001.6282366352
 11
857.3389012214
 21
990.3282366352
  0
LINE
  5
420
100
AcDbEntity
  8
0
100
AcDbLine
 62
7
  6
CONTINUOUS
 10
859.3389012214
 20
1001.6282366352
 11
859.3389012214
 21
990.3282366352
  0
LINE
  5
421
100
AcDbEntity
  8
02___PRT_ALL_AXES
100
AcDbLine
 62
7
  6
CONTINUOUS
 10
861.5389012214
 20
1000.2282366352
 11
861.5389012214
 21
992.4282366352
  0
LINE
  5
422
100
AcDbEntity
  8
02___PRT_ALL_AXES
100
AcDbLine
 62
7
  6
CONTINUOUS
 10
862.2389012214
 20
1003.8282366352
 11
862.2389012214
 21
1001.6282366352
  0
LINE
  5
423
100
AcDbEntity
  8
02___PRT_ALL_AXES
100
AcDbLine
 62
7
  6
CONTINUOUS
 10
871.4389012214
 20
1005.3282366352
 11
871.4389012214
 21
1004.8282366352
  0
LINE
  5
424
100
AcDbEntity
  8
02___PRT_ALL_AXES
100
AcDbLine
 62
7
  6
CONTINUOUS
 10
871.4389012214
 20
1002.3282366352
 11
871.4389012214
 21
1000.1282366352
  0
LINE
  5
425
100
AcDbEntity
  8
02___PRT_ALL_AXES
100
AcDbLine
 62
7
  6
CONTINUOUS
 10
879.2389012214
 20
1004.6432593052
 11
879.2389012214
 21
1003.8282366352
  0
LINE
  5
426
100
AcDbEntity
  8
02___PRT_ALL_AXES
100
AcDbLine
 62
7
  6
CONTINUOUS
 10
879.2389012214
 20
1002.3282366352
 11
879.2389012214
 21
1000.1282366352
  0
LINE
  5
427
100
AcDbEntity
  8
02___PRT_ALL_AXES
100
AcDbLine
 62
7
  6
CONTINUOUS
 10
883.3389012214
 20
1003.8282366352
 11
883.3389012214
 21
1002.3282366352
  0
LINE
  5
428
100
AcDbEntity
  8
0
100
AcDbLine
 62
7
  6
CONTINUOUS
 10
813.8732927558
 20
1013.3116130409
 11
814.3389012214
 21
1014.1966038639
  0
LINE
  5
429
100
AcDbEntity
  8
02___PRT_ALL_AXES
100
AcDbLine
 62
9
  6
CONTINUOUS
 10
899.4925158864
 20
1118.0996003064
 11
916.3923679568
 21
1101.199748236
  0
LINE
  5
42A
100
AcDbEntity
  8
02___PRT_ALL_AXES
100
AcDbLine
 62
9
  6
CONTINUOUS
 10
878.2793124508
 20
1139.312803742
 11
861.3794603805
 21
1156.2126558123
  0
LINE
  5
42B
100
AcDbEntity
  8
0
100
AcDbLine
 62
7
  6
CONTINUOUS
 10
902.3389012214
 20
1022.6083465213
 11
902.3389012214
 21
1014.1966038639
  0
LINE
  5
42C
100
AcDbEntity
  8
02___PRT_ALL_AXES
100
AcDbLine
 62
7
  6
CONTINUOUS
 10
949.6862317678
 20
1147.5377968333
 11
870.0739439985
 21
1189.5125944639
  0
LINE
  5
42D
100
AcDbEntity
  8
02___PRT_ALL_AXES
100
AcDbLine
 62
7
  6
CONTINUOUS
 10
907.7114341372
 20
1067.9255090639
 11
949.6862317678
 21
1147.5377968333
  0
LINE
  5
42E
100
AcDbEntity
  8
0
100
AcDbLine
 62
7
  6
CONTINUOUS
 10
728.3389012214
 20
886.7606743458
 11
728.3389012214
 21
885.7606743458
  0
LINE
  5
42F
100
AcDbEntity
  8
0
100
AcDbLine
 62
7
  6
CONTINUOUS
 10
746.8389012214
 20
885.7606743458
 11
746.8389012214
 21
866.3606743458
  0
LINE
  5
430
100
AcDbEntity
  8
0
100
AcDbLine
 62
7
  6
CONTINUOUS
 10
763.2330391518
 20
846.3606743458
 11
763.2330391518
 21
824.3606743458
  0
LINE
  5
431
100
AcDbEntity
  8
0
100
AcDbLine
 62
7
  6
CONTINUOUS
 10
763.8389012214
 20
866.3606743458
 11
763.8389012214
 21
791.6606743458
  0
LINE
  5
432
100
AcDbEntity
  8
0
100
AcDbLine
 62
7
  6
CONTINUOUS
 10
775.122889011
 20
866.3606743458
 11
775.122889011
 21
828.3606743458
  0
LINE
  5
433
100
AcDbEntity
  8
0
100
AcDbLine
 62
7
  6
CONTINUOUS
 10
778.3705483303
 20
866.3606743458
 11
778.3705483303
 21
828.3606743458
  0
LINE
  5
434
100
AcDbEntity
  8
0
100
AcDbLine
 62
7
  6
CONTINUOUS
 10
779.799795978
 20
841.3606743458
 11
779.799795978
 21
818.3606743458
  0
LINE
  5
435
100
AcDbEntity
  8
0
100
AcDbLine
 62
7
  6
CONTINUOUS
 10
782.7437622514
 20
866.3606743458
 11
782.7437622514
 21
836.3606743458
  0
LINE
  5
436
100
AcDbEntity
  8
0
100
AcDbLine
 62
7
  6
CONTINUOUS
 10
783.1589189634
 20
836.3606743458
 11
783.1589189634
 21
824.3606743458
  0
LINE
  5
437
100
AcDbEntity
  8
0
100
AcDbLine
 62
7
  6
CONTINUOUS
 10
783.299795978
 20
818.3606743458
 11
783.299795978
 21
816.3606743458
  0
LINE
  5
438
100
AcDbEntity
  8
0
100
AcDbLine
 62
7
  6
CONTINUOUS
 10
785.9914215707
 20
866.3606743458
 11
785.9914215707
 21
836.3606743458
  0
LINE
  5
439
100
AcDbEntity
  8
0
100
AcDbLine
 62
7
  6
CONTINUOUS
 10
786.299795978
 20
818.3606743458
 11
786.299795978
 21
816.3606743458
  0
LINE
  5
43A
100
AcDbEntity
  8
0
100
AcDbLine
 62
7
  6
CONTINUOUS
 10
789.799795978
 20
824.3606743458
 11
789.799795978
 21
818.3606743458
  0
LINE
  5
43B
100
AcDbEntity
  8
0
100
AcDbLine
 62
7
  6
CONTINUOUS
 10
791.6587317555
 20
836.3606743458
 11
791.6587317555
 21
846.3606743458
  0
LINE
  5
43C
100
AcDbEntity
  8
0
100
AcDbLine
 62
7
  6
CONTINUOUS
 10
794.549795978
 20
866.3606743458
 11
794.549795978
 21
846.3606743458
  0
LINE
  5
43D
100
AcDbEntity
  8
0
100
AcDbLine
 62
7
  6
CONTINUOUS
 10
800.0025917735
 20
846.3606743458
 11
800.0025917735
 21
824.3606743458
  0
LINE
  5
43E
100
AcDbEntity
  8
0
100
AcDbLine
 62
7
  6
CONTINUOUS
 10
806.3665528042
 20
824.3606743458
 11
806.3665528042
 21
846.3606743458
  0
LINE
  5
43F
100
AcDbEntity
  8
0
100
AcDbLine
 62
7
  6
CONTINUOUS
 10
838.3389012214
 20
787.4339927489
 11
878.3389012214
 21
787.4339927489
  0
LINE
  5
440
100
AcDbEntity
  8
0
100
AcDbLine
 62
7
  6
CONTINUOUS
 10
857.3389012214
 20
787.6606743458
 11
859.3389012214
 21
787.6606743458
  0
LINE
  5
441
100
AcDbEntity
  8
0
100
AcDbLine
 62
7
  6
CONTINUOUS
 10
838.3389012214
 20
787.720981725
 11
857.3389012214
 21
787.720981725
  0
LINE
  5
442
100
AcDbEntity
  8
0
100
AcDbLine
 62
7
  6
CONTINUOUS
 10
859.3389012214
 20
787.720981725
 11
878.3389012214
 21
787.720981725
  0
LINE
  5
443
100
AcDbEntity
  8
02___PRT_ALL_AXES
100
AcDbLine
 62
7
  6
CONTINUOUS
 10
859.3389012214
 20
788.0106743458
 11
861.5389012214
 21
788.0106743458
  0
LINE
  5
444
100
AcDbEntity
  8
06___PRT_ALL_SURFS
100
AcDbLine
 62
7
  6
CONTINUOUS
 10
838.3389012214
 20
788.6606743458
 11
857.3389012214
 21
788.6606743458
  0
LINE
  5
445
100
AcDbEntity
  8
06___PRT_ALL_SURFS
100
AcDbLine
 62
7
  6
CONTINUOUS
 10
861.5389012214
 20
788.6606743458
 11
878.3389012214
 21
788.6606743458
  0
LINE
  5
446
100
AcDbEntity
  8
06___PRT_ALL_SURFS
100
AcDbLine
 62
7
  6
CONTINUOUS
 10
838.3389012214
 20
790.0606743458
 11
857.3389012214
 21
790.0606743458
  0
LINE
  5
447
100
AcDbEntity
  8
06___PRT_ALL_SURFS
100
AcDbLine
 62
7
  6
CONTINUOUS
 10
861.5389012214
 20
790.0606743458
 11
878.3389012214
 21
790.0606743458
  0
LINE
  5
448
100
AcDbEntity
  8
02___PRT_ALL_AXES
100
AcDbLine
 62
7
  6
CONTINUOUS
 10
844.3389012214
 20
790.1606743458
 11
857.3389012214
 21
790.1606743458
  0
LINE
  5
449
100
AcDbEntity
  8
0
100
AcDbLine
 62
7
  6
CONTINUOUS
 10
813.8732927558
 20
790.6606743458
 11
844.3389012214
 21
790.6606743458
  0
LINE
  5
44A
100
AcDbEntity
  8
0
100
AcDbLine
 62
7
  6
CONTINUOUS
 10
861.5389012214
 20
790.6606743458
 11
902.804509687
 21
790.6606743458
  0
LINE
  5
44B
100
AcDbEntity
  8
0
100
AcDbLine
 62
7
  6
CONTINUOUS
 10
952.8388781258
 20
791.6606743458
 11
902.804509687
 21
791.6606743458
  0
LINE
  5
44C
100
AcDbEntity
  8
0
100
AcDbLine
 62
7
  6
CONTINUOUS
 10
813.8732927558
 20
791.6606743458
 11
763.8389244628
 21
791.6606743458
  0
LINE
  5
44D
100
AcDbEntity
  8
02___PRT_ALL_AXES
100
AcDbLine
 62
7
  6
CONTINUOUS
 10
844.3389012214
 20
793.6606743458
 11
857.3243540341
 21
793.6606743458
  0
LINE
  5
44E
100
AcDbEntity
  8
0
100
AcDbLine
 62
7
  6
CONTINUOUS
 10
813.8732927558
 20
841.6606743458
 11
813.8732927558
 21
790.6606743458
  0
LINE
  5
44F
100
AcDbEntity
  8
02___PRT_ALL_AXES
100
AcDbLine
 62
7
  6
CONTINUOUS
 10
859.3389012214
 20
795.8106743458
 11
861.5389012214
 21
795.8106743458
  0
LINE
  5
450
100
AcDbEntity
  8
0
100
AcDbLine
 62
7
  6
CONTINUOUS
 10
833.3389012214
 20
796.3606743458
 11
854.5150833062
 21
796.3606743458
  0
LINE
  5
451
100
AcDbEntity
  8
0
100
AcDbLine
 62
7
  6
CONTINUOUS
 10
855.8342683717
 20
796.3606743458
 11
858.3389012214
 21
796.3606743458
  0
LINE
  5
452
100
AcDbEntity
  8
0
100
AcDbLine
 62
7
  6
CONTINUOUS
 10
859.3389012214
 20
796.3606743458
 11
883.3389012214
 21
796.3606743458
  0
LINE
  5
453
100
AcDbEntity
  8
02___PRT_ALL_AXES
100
AcDbLine
 62
7
  6
CONTINUOUS
 10
872.345575312
 20
803.9606743458
 11
862.3389012214
 21
803.9606743458
  0
LINE
  5
454
100
AcDbEntity
  8
02___PRT_ALL_AXES
100
AcDbLine
 62
7
  6
CONTINUOUS
 10
862.3389012214
 20
808.9606743458
 11
872.345575312
 21
808.9606743458
  0
LINE
  5
455
100
AcDbEntity
  8
02___PRT_ALL_AXES
100
AcDbLine
 62
7
  6
CONTINUOUS
 10
833.3389012214
 20
816.5606743458
 11
833.3389012214
 21
796.3606743458
  0
LINE
  5
456
100
AcDbEntity
  8
0
100
AcDbLine
 62
7
  6
CONTINUOUS
 10
838.3389012214
 20
788.6606743458
 11
838.3389012214
 21
787.4339927489
  0
LINE
  5
457
100
AcDbEntity
  8
0
100
AcDbLine
 62
7
  6
CONTINUOUS
 10
838.3389012214
 20
790.0606743458
 11
838.3389012214
 21
790.6606743458
  0
LINE
  5
458
100
AcDbEntity
  8
06___PRT_ALL_SURFS
100
AcDbLine
 62
7
  6
CONTINUOUS
 10
838.3389012214
 20
788.6606743458
 11
838.3389012214
 21
790.0606743458
  0
LINE
  5
459
100
AcDbEntity
  8
02___PRT_ALL_AXES
100
AcDbLine
 62
7
  6
CONTINUOUS
 10
933.3772075706
 20
816.3606743458
 11
930.378805359
 21
816.3606743458
  0
LINE
  5
45A
100
AcDbEntity
  8
0
100
AcDbLine
 62
7
  6
CONTINUOUS
 10
786.2989970838
 20
816.3606743458
 11
783.3005948722
 21
816.3606743458
  0
LINE
  5
45B
100
AcDbEntity
  8
0
100
AcDbLine
 62
7
  6
CONTINUOUS
 10
883.3389012214
 20
816.5606743458
 11
859.3389012214
 21
816.5606743458
  0
LINE
  5
45C
100
AcDbEntity
  8
0
100
AcDbLine
 62
7
  6
CONTINUOUS
 10
858.3389012214
 20
816.5606743458
 11
855.8342683717
 21
816.5606743458
  0
LINE
  5
45D
100
AcDbEntity
  8
0
100
AcDbLine
 62
7
  6
CONTINUOUS
 10
854.5150833062
 20
816.5606743458
 11
833.3389012214
 21
816.5606743458
  0
LINE
  5
45E
100
AcDbEntity
  8
02___PRT_ALL_AXES
100
AcDbLine
 62
7
  6
CONTINUOUS
 10
859.3389012214
 20
817.1106743458
 11
861.5389012214
 21
817.1106743458
  0
LINE
  5
45F
100
AcDbEntity
  8
0
100
AcDbLine
 62
7
  6
CONTINUOUS
 10
936.8770302945
 20
818.3606743458
 11
926.8789826351
 21
818.3606743458
  0
LINE
  5
460
100
AcDbEntity
  8
0
100
AcDbLine
 62
7
  6
CONTINUOUS
 10
789.7988198077
 20
818.3606743458
 11
779.8007721483
 21
818.3606743458
  0
LINE
  5
461
100
AcDbEntity
  8
02___PRT_ALL_AXES
100
AcDbLine
 62
7
  6
CONTINUOUS
 10
844.3389012214
 20
819.2606743458
 11
857.3243540341
 21
819.2606743458
  0
LINE
  5
462
100
AcDbEntity
  8
02___PRT_ALL_AXES
100
AcDbLine
 62
7
  6
CONTINUOUS
 10
841.4791859213
 20
841.6606743458
 11
841.4791859213
 21
816.5606743458
  0
LINE
  5
463
100
AcDbEntity
  8
02___PRT_ALL_AXES
100
AcDbLine
 62
7
  6
CONTINUOUS
 10
841.4791859213
 20
796.3606743458
 11
841.4791859213
 21
790.6606743458
  0
LINE
  5
464
100
AcDbEntity
  8
0
100
AcDbLine
 62
7
  6
CONTINUOUS
 10
841.5683913901
 20
866.3606743458
 11
841.5683913901
 21
841.6606743458
  0
LINE
  5
465
100
AcDbEntity
  8
02___PRT_ALL_AXES
100
AcDbLine
 62
7
  6
CONTINUOUS
 10
844.3389012214
 20
822.7590380361
 11
844.3389012214
 21
819.2623106554
  0
LINE
  5
466
100
AcDbEntity
  8
02___PRT_ALL_AXES
100
AcDbLine
 62
7
  6
CONTINUOUS
 10
844.3389012214
 20
793.6590380361
 11
844.3389012214
 21
790.1623106554
  0
LINE
  5
467
100
AcDbEntity
  8
02___PRT_ALL_AXES
100
AcDbLine
 62
7
  6
CONTINUOUS
 10
844.3389012214
 20
822.7606743458
 11
857.3389012214
 21
822.7606743458
  0
LINE
  5
468
100
AcDbEntity
  8
0
100
AcDbLine
 62
7
  6
CONTINUOUS
 10
953.444763291
 20
824.3606743458
 11
936.6010904809
 21
824.3606743458
  0
LINE
  5
469
100
AcDbEntity
  8
0
100
AcDbLine
 62
7
  6
CONTINUOUS
 10
806.3665528042
 20
824.3606743458
 11
783.1589189634
 21
824.3606743458
  0
LINE
  5
46A
100
AcDbEntity
  8
0
100
AcDbLine
 62
7
  6
CONTINUOUS
 10
763.8389012214
 20
824.3606743458
 11
763.2330391518
 21
824.3606743458
  0
LINE
  5
46B
100
AcDbEntity
  8
02___PRT_ALL_AXES
100
AcDbLine
 62
7
  6
CONTINUOUS
 10
859.3389012214
 20
824.9106743458
 11
861.5389012214
 21
824.9106743458
  0
LINE
  5
46C
100
AcDbEntity
  8
0
100
AcDbLine
 62
7
  6
CONTINUOUS
 10
859.3389012214
 20
825.2606743458
 11
857.3389012214
 21
825.2606743458
  0
LINE
  5
46D
100
AcDbEntity
  8
0
100
AcDbLine
 62
7
  6
CONTINUOUS
 10
933.9340401913
 20
828.3606743458
 11
922.130706863
 21
828.3606743458
  0
LINE
  5
46E
100
AcDbEntity
  8
0
100
AcDbLine
 62
7
  6
CONTINUOUS
 10
779.799795978
 20
828.3606743458
 11
775.122889011
 21
828.3606743458
  0
LINE
  5
46F
100
AcDbEntity
  8
0
100
AcDbLine
 62
7
  6
CONTINUOUS
 10
857.3389012214
 20
825.2606743458
 11
857.3389012214
 21
819.2715718309
  0
LINE
  5
470
100
AcDbEntity
  8
0
100
AcDbLine
 62
7
  6
CONTINUOUS
 10
857.3389012214
 20
793.6497768606
 11
857.3389012214
 21
787.6606743458
  0
LINE
  5
471
100
AcDbEntity
  8
0
100
AcDbLine
 62
7
  6
CONTINUOUS
 10
858.3389012214
 20
818.7606743458
 11
858.3389012214
 21
816.3616948602
  0
LINE
  5
472
100
AcDbEntity
  8
0
100
AcDbLine
 62
7
  6
CONTINUOUS
 10
858.3389012214
 20
796.5596538313
 11
858.3389012214
 21
794.1606743458
  0
LINE
  5
473
100
AcDbEntity
  8
0
100
AcDbLine
 62
7
  6
CONTINUOUS
 10
859.3389012214
 20
825.2606743458
 11
859.3389012214
 21
816.3616948602
  0
LINE
  5
474
100
AcDbEntity
  8
0
100
AcDbLine
 62
7
  6
CONTINUOUS
 10
859.3389012214
 20
796.5596538313
 11
859.3389012214
 21
787.6606743458
  0
LINE
  5
475
100
AcDbEntity
  8
0
100
AcDbLine
 62
7
  6
CONTINUOUS
 10
945.100903273
 20
836.3606743458
 11
936.6010904809
 21
836.3606743458
  0
LINE
  5
476
100
AcDbEntity
  8
0
100
AcDbLine
 62
7
  6
CONTINUOUS
 10
791.6587317555
 20
836.3606743458
 11
782.7437622514
 21
836.3606743458
  0
LINE
  5
477
100
AcDbEntity
  8
02___PRT_ALL_AXES
100
AcDbLine
 62
7
  6
CONTINUOUS
 10
861.5389012214
 20
824.9093309778
 11
861.5389012214
 21
817.1120177138
  0
LINE
  5
478
100
AcDbEntity
  8
02___PRT_ALL_AXES
100
AcDbLine
 62
7
  6
CONTINUOUS
 10
861.5389012214
 20
795.8093309778
 11
861.5389012214
 21
788.0120177138
  0
LINE
  5
479
100
AcDbEntity
  8
0
100
AcDbLine
 62
7
  6
CONTINUOUS
 10
936.8770302945
 20
841.3606743458
 11
933.9340401913
 21
841.3606743458
  0
LINE
  5
47A
100
AcDbEntity
  8
0
100
AcDbLine
 62
7
  6
CONTINUOUS
 10
782.7437622514
 20
841.3606743458
 11
779.8007721483
 21
841.3606743458
  0
LINE
  5
47B
100
AcDbEntity
  8
0
100
AcDbLine
 62
7
  6
CONTINUOUS
 10
813.8732927558
 20
841.6606743458
 11
902.804509687
 21
841.6606743458
  0
LINE
  5
47C
100
AcDbEntity
  8
0
100
AcDbLine
 62
7
  6
CONTINUOUS
 10
763.2330391518
 20
846.3606743458
 11
763.8389012214
 21
846.3606743458
  0
LINE
  5
47D
100
AcDbEntity
  8
0
100
AcDbLine
 62
7
  6
CONTINUOUS
 10
791.6587317555
 20
846.3606743458
 11
806.3665528042
 21
846.3606743458
  0
LINE
  5
47E
100
AcDbEntity
  8
0
100
AcDbLine
 62
7
  6
CONTINUOUS
 10
941.5549134317
 20
846.3606743458
 11
953.444763291
 21
846.3606743458
  0
LINE
  5
47F
100
AcDbEntity
  8
0
100
AcDbLine
 62
7
  6
CONTINUOUS
 10
875.1094110526
 20
866.3606743458
 11
875.1094110526
 21
841.6606743458
  0
LINE
  5
480
100
AcDbEntity
  8
02___PRT_ALL_AXES
100
AcDbLine
 62
7
  6
CONTINUOUS
 10
875.1986165215
 20
841.6606743458
 11
875.1986165215
 21
816.5606743458
  0
LINE
  5
481
100
AcDbEntity
  8
02___PRT_ALL_AXES
100
AcDbLine
 62
7
  6
CONTINUOUS
 10
875.1986165215
 20
796.3606743458
 11
875.1986165215
 21
790.6606743458
  0
LINE
  5
482
100
AcDbEntity
  8
0
100
AcDbLine
 62
7
  6
CONTINUOUS
 10
878.3389012214
 20
788.6606743458
 11
878.3389012214
 21
787.4339927489
  0
LINE
  5
483
100
AcDbEntity
  8
06___PRT_ALL_SURFS
100
AcDbLine
 62
7
  6
CONTINUOUS
 10
878.3389012214
 20
788.6606743458
 11
878.3389012214
 21
790.0606743458
  0
LINE
  5
484
100
AcDbEntity
  8
0
100
AcDbLine
 62
7
  6
CONTINUOUS
 10
878.3389012214
 20
790.0606743458
 11
878.3389012214
 21
790.6606743458
  0
LINE
  5
485
100
AcDbEntity
  8
02___PRT_ALL_AXES
100
AcDbLine
 62
7
  6
CONTINUOUS
 10
883.3389012214
 20
796.3606743458
 11
883.3389012214
 21
816.5606743458
  0
LINE
  5
486
100
AcDbEntity
  8
0
100
AcDbLine
 62
7
  6
CONTINUOUS
 10
746.8396371377
 20
866.3606743458
 11
969.8381653051
 21
866.3606743458
  0
LINE
  5
487
100
AcDbEntity
  8
0
100
AcDbLine
 62
7
  6
CONTINUOUS
 10
902.804509687
 20
841.6606743458
 11
902.804509687
 21
790.6606743458
  0
LINE
  5
488
100
AcDbEntity
  8
0
100
AcDbLine
 62
7
  6
CONTINUOUS
 10
728.3391231583
 20
885.7606743458
 11
988.3386792845
 21
885.7606743458
  0
LINE
  5
489
100
AcDbEntity
  8
0
100
AcDbLine
 62
7
  6
CONTINUOUS
 10
728.3389012214
 20
886.7606743458
 11
988.3389012214
 21
886.7606743458
  0
LINE
  5
48A
100
AcDbEntity
  8
0
100
AcDbLine
 62
7
  6
CONTINUOUS
 10
749.1762792881
 20
890.8606743458
 11
967.5015231547
 21
890.8606743458
  0
LINE
  5
48B
100
AcDbEntity
  8
0
100
AcDbLine
 62
7
  6
CONTINUOUS
 10
922.1280064648
 20
866.3606743458
 11
922.1280064648
 21
828.3606743458
  0
LINE
  5
48C
100
AcDbEntity
  8
0
100
AcDbLine
 62
7
  6
CONTINUOUS
 10
926.8780064648
 20
828.3606743458
 11
926.8780064648
 21
818.3606743458
  0
LINE
  5
48D
100
AcDbEntity
  8
02___PRT_ALL_AXES
100
AcDbLine
 62
7
  6
CONTINUOUS
 10
930.3780064648
 20
818.3606743458
 11
930.3780064648
 21
816.3606743458
  0
LINE
  5
48E
100
AcDbEntity
  8
0
100
AcDbLine
 62
7
  6
CONTINUOUS
 10
930.6863808721
 20
866.3606743458
 11
930.6863808721
 21
828.3606743458
  0
LINE
  5
48F
100
AcDbEntity
  8
02___PRT_ALL_AXES
100
AcDbLine
 62
7
  6
CONTINUOUS
 10
933.3780064648
 20
818.3606743458
 11
933.3780064648
 21
816.3606743458
  0
LINE
  5
490
100
AcDbEntity
  8
0
100
AcDbLine
 62
7
  6
CONTINUOUS
 10
933.9340401913
 20
866.3606743458
 11
933.9340401913
 21
828.3606743458
  0
LINE
  5
491
100
AcDbEntity
  8
0
100
AcDbLine
 62
7
  6
CONTINUOUS
 10
936.6010904809
 20
836.3606743458
 11
936.6010904809
 21
824.3606743458
  0
LINE
  5
492
100
AcDbEntity
  8
0
100
AcDbLine
 62
7
  6
CONTINUOUS
 10
936.8780064648
 20
841.3606743458
 11
936.8780064648
 21
836.3606743458
  0
LINE
  5
493
100
AcDbEntity
  8
0
100
AcDbLine
 62
7
  6
CONTINUOUS
 10
936.8780064648
 20
824.3606743458
 11
936.8780064648
 21
818.3606743458
  0
LINE
  5
494
100
AcDbEntity
  8
0
100
AcDbLine
 62
7
  6
CONTINUOUS
 10
938.3072541125
 20
866.3606743458
 11
938.3072541125
 21
836.3606743458
  0
LINE
  5
495
100
AcDbEntity
  8
0
100
AcDbLine
 62
7
  6
CONTINUOUS
 10
941.5549134317
 20
866.3606743458
 11
941.5549134317
 21
836.3606743458
  0
LINE
  5
496
100
AcDbEntity
  8
0
100
AcDbLine
 62
7
  6
CONTINUOUS
 10
945.100903273
 20
836.3606743458
 11
945.100903273
 21
846.3606743458
  0
LINE
  5
497
100
AcDbEntity
  8
0
100
AcDbLine
 62
7
  6
CONTINUOUS
 10
952.8389012214
 20
866.3606743458
 11
952.8389012214
 21
846.3606743458
  0
LINE
  5
498
100
AcDbEntity
  8
0
100
AcDbLine
 62
7
  6
CONTINUOUS
 10
952.8389012214
 20
824.3606743458
 11
952.8389012214
 21
791.6606743458
  0
LINE
  5
499
100
AcDbEntity
  8
0
100
AcDbLine
 62
7
  6
CONTINUOUS
 10
953.444763291
 20
846.3606743458
 11
953.444763291
 21
824.3606743458
  0
LINE
  5
49A
100
AcDbEntity
  8
0
100
AcDbLine
 62
7
  6
CONTINUOUS
 10
969.8389012214
 20
885.7606743458
 11
969.8389012214
 21
866.3606743458
  0
LINE
  5
49B
100
AcDbEntity
  8
0
100
AcDbLine
 62
7
  6
CONTINUOUS
 10
988.3389012214
 20
886.7606743458
 11
988.3389012214
 21
885.7606743458
  0
LINE
  5
49C
100
AcDbEntity
  8
0
100
AcDbLine
 62
7
  6
CONTINUOUS
 10
1177.6840915821
 20
825.2606743458
 11
1177.6840915821
 21
787.6606743458
  0
LINE
  5
49D
100
AcDbEntity
  8
02___PRT_ALL_AXES
100
AcDbLine
 62
7
  6
CONTINUOUS
 10
1187.4840915821
 20
802.5620177138
 11
1187.4840915821
 21
810.3593309778
  0
LINE
  5
49E
100
AcDbEntity
  8
02___PRT_ALL_AXES
100
AcDbLine
 62
7
  6
CONTINUOUS
 10
1188.9840915821
 20
829.7620177138
 11
1188.9840915821
 21
837.5593309778
  0
LINE
  5
49F
100
AcDbEntity
  8
0
100
AcDbLine
 62
7
  6
CONTINUOUS
 10
1189.6840915821
 20
825.2606743458
 11
1189.6840915821
 21
816.5606743458
  0
LINE
  5
4A0
100
AcDbEntity
  8
0
100
AcDbLine
 62
7
  6
CONTINUOUS
 10
1189.6840915821
 20
796.3606743458
 11
1189.6840915821
 21
787.6606743458
  0
LINE
  5
4A1
100
AcDbEntity
  8
02___PRT_ALL_AXES
100
AcDbLine
 62
7
  6
CONTINUOUS
 10
1189.6840915821
 20
796.3606743458
 11
1189.6840915821
 21
816.5606743458
  0
LINE
  5
4A2
100
AcDbEntity
  8
02___PRT_ALL_AXES
100
AcDbLine
 62
7
  6
CONTINUOUS
 10
1191.1840915821
 20
790.6606743458
 11
1191.1840915821
 21
841.6606743458
  0
LINE
  5
4A3
100
AcDbEntity
  8
0
100
AcDbLine
 62
7
  6
CONTINUOUS
 10
1200.6674679878
 20
841.6606743458
 11
1200.6674679878
 21
790.6606743458
  0
LINE
  5
4A4
100
AcDbEntity
  8
0
100
AcDbLine
 62
7
  6
CONTINUOUS
 10
1201.5524588108
 20
841.6606743458
 11
1201.5524588108
 21
790.6606743458
  0
LINE
  5
4A5
100
AcDbEntity
  8
0
100
AcDbLine
 62
7
  6
CONTINUOUS
 10
1202.1840915821
 20
886.7606743458
 11
1202.1840915821
 21
885.7606743458
  0
LINE
  5
4A6
100
AcDbEntity
  8
0
100
AcDbLine
 62
7
  6
CONTINUOUS
 10
1220.6840915821
 20
885.7606743458
 11
1220.6840915821
 21
866.3606743458
  0
LINE
  5
4A7
100
AcDbEntity
  8
0
100
AcDbLine
 62
7
  6
CONTINUOUS
 10
1237.0782295125
 20
846.3606743458
 11
1237.0782295125
 21
824.3606743458
  0
LINE
  5
4A8
100
AcDbEntity
  8
02___PRT_ALL_AXES
100
AcDbLine
 62
7
  6
CONTINUOUS
 10
1238.6840915821
 20
791.6606743458
 11
1238.6840915821
 21
790.6606743458
  0
LINE
  5
4A9
100
AcDbEntity
  8
0
100
AcDbLine
 62
7
  6
CONTINUOUS
 10
1239.1840915821
 20
866.3606743458
 11
1239.1840915821
 21
813.6606743458
  0
LINE
  5
4AA
100
AcDbEntity
  8
0
100
AcDbLine
 62
7
  6
CONTINUOUS
 10
1242.084147076
 20
813.6606743458
 11
1242.084147076
 21
791.6606743458
  0
LINE
  5
4AB
100
AcDbEntity
  8
0
100
AcDbLine
 62
7
  6
CONTINUOUS
 10
1248.9680793717
 20
866.3606743458
 11
1248.9680793717
 21
828.3606743458
  0
LINE
  5
4AC
100
AcDbEntity
  8
0
100
AcDbLine
 62
7
  6
CONTINUOUS
 10
1252.215738691
 20
866.3606743458
 11
1252.215738691
 21
828.3606743458
  0
LINE
  5
4AD
100
AcDbEntity
  8
0
100
AcDbLine
 62
7
  6
CONTINUOUS
 10
1253.6449863387
 20
841.3606743458
 11
1253.6449863387
 21
818.3606743458
  0
LINE
  5
4AE
100
AcDbEntity
  8
0
100
AcDbLine
 62
7
  6
CONTINUOUS
 10
1256.5889526121
 20
866.3606743458
 11
1256.5889526121
 21
836.3606743458
  0
LINE
  5
4AF
100
AcDbEntity
  8
0
100
AcDbLine
 62
7
  6
CONTINUOUS
 10
1257.0041093241
 20
836.3606743458
 11
1257.0041093241
 21
824.3606743458
  0
LINE
  5
4B0
100
AcDbEntity
  8
02___PRT_ALL_AXES
100
AcDbLine
 62
7
  6
CONTINUOUS
 10
1257.1449863387
 20
818.3606743458
 11
1257.1449863387
 21
816.3606743458
  0
LINE
  5
4B1
100
AcDbEntity
  8
0
100
AcDbLine
 62
7
  6
CONTINUOUS
 10
1259.8366119314
 20
866.3606743458
 11
1259.8366119314
 21
836.3606743458
  0
LINE
  5
4B2
100
AcDbEntity
  8
02___PRT_ALL_AXES
100
AcDbLine
 62
7
  6
CONTINUOUS
 10
1260.1449863387
 20
818.3606743458
 11
1260.1449863387
 21
816.3606743458
  0
LINE
  5
4B3
100
AcDbEntity
  8
0
100
AcDbLine
 62
7
  6
CONTINUOUS
 10
1278.6840843811
 20
788.8339927489
 11
1279.492374758
 21
787.4339927489
  0
LINE
  5
4B4
100
AcDbEntity
  8
06___PRT_ALL_SURFS
100
AcDbLine
 62
7
  6
CONTINUOUS
 10
1279.1305599693
 20
790.0606743458
 11
1279.9388503462
 21
788.6606743458
  0
LINE
  5
4B5
100
AcDbEntity
  8
0
100
AcDbLine
 62
7
  6
CONTINUOUS
 10
1263.6449863387
 20
824.3606743458
 11
1263.6449863387
 21
818.3606743458
  0
LINE
  5
4B6
100
AcDbEntity
  8
0
100
AcDbLine
 62
7
  6
CONTINUOUS
 10
1265.5039221162
 20
836.3606743458
 11
1265.5039221162
 21
846.3606743458
  0
LINE
  5
4B7
100
AcDbEntity
  8
0
100
AcDbLine
 62
7
  6
CONTINUOUS
 10
1268.3949863387
 20
866.3606743458
 11
1268.3949863387
 21
846.3606743458
  0
LINE
  5
4B8
100
AcDbEntity
  8
0
100
AcDbLine
 62
7
  6
CONTINUOUS
 10
1189.6840915821
 20
787.6606743458
 11
1177.6840915821
 21
787.6606743458
  0
LINE
  5
4B9
100
AcDbEntity
  8
0
100
AcDbLine
 62
7
  6
CONTINUOUS
 10
1284.0162588411
 20
787.6606743458
 11
1288.0293910437
 21
787.6606743458
  0
LINE
  5
4BA
100
AcDbEntity
  8
06___PRT_ALL_SURFS
100
AcDbLine
 62
7
  6
CONTINUOUS
 10
1284.5936091103
 20
788.6606743458
 11
1287.4520407745
 21
788.6606743458
  0
LINE
  5
4BB
100
AcDbEntity
  8
0
100
AcDbLine
 62
7
  6
CONTINUOUS
 10
1283.3388431452
 20
788.8339927489
 11
1284.0162588411
 21
787.6606743458
  0
LINE
  5
4BC
100
AcDbEntity
  8
06___PRT_ALL_SURFS
100
AcDbLine
 62
7
  6
CONTINUOUS
 10
1283.7853187334
 20
790.0606743458
 11
1284.5936091103
 21
788.6606743458
  0
LINE
  5
4BD
100
AcDbEntity
  8
0
100
AcDbLine
 62
7
  6
CONTINUOUS
 10
1275.2840915821
 20
788.6606743458
 11
1275.6261117254
 21
787.720981725
  0
LINE
  5
4BE
100
AcDbEntity
  8
0
100
AcDbLine
 62
7
  6
CONTINUOUS
 10
1273.8477821342
 20
846.3606743458
 11
1273.8477821342
 21
824.3606743458
  0
LINE
  5
4BF
100
AcDbEntity
  8
0
100
AcDbLine
 62
7
  6
CONTINUOUS
 10
1280.2117431649
 20
824.3606743458
 11
1280.2117431649
 21
846.3606743458
  0
LINE
  5
4C0
100
AcDbEntity
  8
0
100
AcDbLine
 62
7
  6
CONTINUOUS
 10
1191.1840915821
 20
790.6606743458
 11
1238.6840915821
 21
790.6606743458
  0
LINE
  5
4C1
100
AcDbEntity
  8
0
100
AcDbLine
 62
7
  6
CONTINUOUS
 10
1289.7614418513
 20
790.6606743458
 11
1299.1840915821
 21
790.6606743458
  0
LINE
  5
4C2
100
AcDbEntity
  8
02___PRT_ALL_AXES
100
AcDbLine
 62
7
  6
CONTINUOUS
 10
1436.6829300023
 20
791.6606743458
 11
1425.1840915821
 21
791.6606743458
  0
LINE
  5
4C3
100
AcDbEntity
  8
0
100
AcDbLine
 62
7
  6
CONTINUOUS
 10
1425.1840915821
 20
791.6606743458
 11
1242.084147076
 21
791.6606743458
  0
LINE
  5
4C4
100
AcDbEntity
  8
0
100
AcDbLine
 62
7
  6
CONTINUOUS
 10
1238.6840915821
 20
791.6606743458
 11
1201.5524588108
 21
791.6606743458
  0
LINE
  5
4C5
100
AcDbEntity
  8
02___PRT_ALL_AXES
100
AcDbLine
 62
7
  6
CONTINUOUS
 10
1436.6829300023
 20
793.6606743458
 11
1425.1840915821
 21
793.6606743458
  0
LINE
  5
4C6
100
AcDbEntity
  8
02___PRT_ALL_AXES
100
AcDbLine
 62
7
  6
CONTINUOUS
 10
1191.1840915821
 20
796.3606743458
 11
1189.6840915821
 21
796.3606743458
  0
LINE
  5
4C7
100
AcDbEntity
  8
0
100
AcDbLine
 62
9
  6
CONTINUOUS
 10
1189.6840915821
 20
796.5596538313
 11
1177.6840915821
 21
796.5596538313
  0
LINE
  5
4C8
100
AcDbEntity
  8
0
100
AcDbLine
 62
9
  6
CONTINUOUS
 10
1189.6840915821
 20
798.867346139
 11
1177.6840915821
 21
798.867346139
  0
LINE
  5
4C9
100
AcDbEntity
  8
02___PRT_ALL_AXES
100
AcDbLine
 62
7
  6
CONTINUOUS
 10
1189.6840915821
 20
802.5606743458
 11
1187.4840915821
 21
802.5606743458
  0
LINE
  5
4CA
100
AcDbEntity
  8
0
100
AcDbLine
 62
9
  6
CONTINUOUS
 10
1187.4840915821
 20
804.9602818402
 11
1177.6840915821
 21
804.9602818402
  0
LINE
  5
4CB
100
AcDbEntity
  8
0
100
AcDbLine
 62
9
  6
CONTINUOUS
 10
1187.4840915821
 20
807.9610668513
 11
1177.6840915821
 21
807.9610668513
  0
LINE
  5
4CC
100
AcDbEntity
  8
0
100
AcDbLine
 62
7
  6
CONTINUOUS
 10
1299.1840915821
 20
791.6606743458
 11
1299.1840915821
 21
790.6606743458
  0
LINE
  5
4CD
100
AcDbEntity
  8
02___PRT_ALL_AXES
100
AcDbLine
 62
7
  6
CONTINUOUS
 10
1189.6840915821
 20
810.3606743458
 11
1187.4840915821
 21
810.3606743458
  0
LINE
  5
4CE
100
AcDbEntity
  8
0
100
AcDbLine
 62
7
  6
CONTINUOUS
 10
1242.084147076
 20
813.6606743458
 11
1239.1840915821
 21
813.6606743458
  0
LINE
  5
4CF
100
AcDbEntity
  8
0
100
AcDbLine
 62
9
  6
CONTINUOUS
 10
1189.6840915821
 20
814.0540025525
 11
1177.6840915821
 21
814.0540025525
  0
LINE
  5
4D0
100
AcDbEntity
  8
0
100
AcDbLine
 62
7
  6
CONTINUOUS
 10
1407.2223979313
 20
816.3606743458
 11
1404.2239957197
 21
816.3606743458
  0
LINE
  5
4D1
100
AcDbEntity
  8
02___PRT_ALL_AXES
100
AcDbLine
 62
7
  6
CONTINUOUS
 10
1260.1441874445
 20
816.3606743458
 11
1257.1457852329
 21
816.3606743458
  0
LINE
  5
4D2
100
AcDbEntity
  8
0
100
AcDbLine
 62
9
  6
CONTINUOUS
 10
1189.6840915821
 20
816.3616948602
 11
1177.6840915821
 21
816.3616948602
  0
LINE
  5
4D3
100
AcDbEntity
  8
02___PRT_ALL_AXES
100
AcDbLine
 62
7
  6
CONTINUOUS
 10
1191.1840915821
 20
816.5606743458
 11
1189.6840915821
 21
816.5606743458
  0
LINE
  5
4D4
100
AcDbEntity
  8
0
100
AcDbLine
 62
7
  6
CONTINUOUS
 10
1410.7222206552
 20
818.3606743458
 11
1400.7241729958
 21
818.3606743458
  0
LINE
  5
4D5
100
AcDbEntity
  8
0
100
AcDbLine
 62
7
  6
CONTINUOUS
 10
1263.6440101684
 20
818.3606743458
 11
1253.645962509
 21
818.3606743458
  0
LINE
  5
4D6
100
AcDbEntity
  8
0
100
AcDbLine
 62
7
  6
CONTINUOUS
 10
1427.2899536517
 20
824.3606743458
 11
1410.4462808416
 21
824.3606743458
  0
LINE
  5
4D7
100
AcDbEntity
  8
0
100
AcDbLine
 62
7
  6
CONTINUOUS
 10
1280.2117431649
 20
824.3606743458
 11
1257.0041093241
 21
824.3606743458
  0
LINE
  5
4D8
100
AcDbEntity
  8
0
100
AcDbLine
 62
7
  6
CONTINUOUS
 10
1239.1840915821
 20
824.3606743458
 11
1237.0782295125
 21
824.3606743458
  0
LINE
  5
4D9
100
AcDbEntity
  8
0
100
AcDbLine
 62
7
  6
CONTINUOUS
 10
1189.6840915821
 20
825.2606743458
 11
1177.6840915821
 21
825.2606743458
  0
LINE
  5
4DA
100
AcDbEntity
  8
0
100
AcDbLine
 62
7
  6
CONTINUOUS
 10
1407.779230552
 20
828.3606743458
 11
1395.9758972237
 21
828.3606743458
  0
LINE
  5
4DB
100
AcDbEntity
  8
0
100
AcDbLine
 62
7
  6
CONTINUOUS
 10
1253.6449863387
 20
828.3606743458
 11
1248.9680793717
 21
828.3606743458
  0
LINE
  5
4DC
100
AcDbEntity
  8
02___PRT_ALL_AXES
100
AcDbLine
 62
7
  6
CONTINUOUS
 10
1191.1840915821
 20
829.7606743458
 11
1188.9840915821
 21
829.7606743458
  0
LINE
  5
4DD
100
AcDbEntity
  8
0
100
AcDbLine
 62
7
  6
CONTINUOUS
 10
1287.4520407745
 20
788.6606743458
 11
1289.1840915821
 21
791.6606743458
  0
LINE
  5
4DE
100
AcDbEntity
  8
0
100
AcDbLine
 62
7
  6
CONTINUOUS
 10
1288.0293910437
 20
787.6606743458
 11
1289.7614418513
 21
790.6606743458
  0
LINE
  5
4DF
100
AcDbEntity
  8
0
100
AcDbLine
 62
7
  6
CONTINUOUS
 10
1418.9460936337
 20
836.3606743458
 11
1410.4462808416
 21
836.3606743458
  0
LINE
  5
4E0
100
AcDbEntity
  8
0
100
AcDbLine
 62
7
  6
CONTINUOUS
 10
1265.5039221162
 20
836.3606743458
 11
1256.5889526121
 21
836.3606743458
  0
LINE
  5
4E1
100
AcDbEntity
  8
02___PRT_ALL_AXES
100
AcDbLine
 62
7
  6
CONTINUOUS
 10
1191.1840915821
 20
837.5606743458
 11
1188.9840915821
 21
837.5606743458
  0
LINE
  5
4E2
100
AcDbEntity
  8
0
100
AcDbLine
 62
7
  6
CONTINUOUS
 10
1410.7222206552
 20
841.3606743458
 11
1407.779230552
 21
841.3606743458
  0
LINE
  5
4E3
100
AcDbEntity
  8
0
100
AcDbLine
 62
7
  6
CONTINUOUS
 10
1256.5889526121
 20
841.3606743458
 11
1253.645962509
 21
841.3606743458
  0
LINE
  5
4E4
100
AcDbEntity
  8
0
100
AcDbLine
 62
7
  6
CONTINUOUS
 10
1191.1840915821
 20
841.6606743458
 11
1201.5524588108
 21
841.6606743458
  0
LINE
  5
4E5
100
AcDbEntity
  8
0
100
AcDbLine
 62
7
  6
CONTINUOUS
 10
1237.0782295125
 20
846.3606743458
 11
1239.1840915821
 21
846.3606743458
  0
LINE
  5
4E6
100
AcDbEntity
  8
0
100
AcDbLine
 62
7
  6
CONTINUOUS
 10
1265.5039221162
 20
846.3606743458
 11
1280.2117431649
 21
846.3606743458
  0
LINE
  5
4E7
100
AcDbEntity
  8
0
100
AcDbLine
 62
7
  6
CONTINUOUS
 10
1415.4001037924
 20
846.3606743458
 11
1427.2899536517
 21
846.3606743458
  0
LINE
  5
4E8
100
AcDbEntity
  8
0
100
AcDbLine
 62
7
  6
CONTINUOUS
 10
1220.6848274984
 20
866.3606743458
 11
1443.6833556658
 21
866.3606743458
  0
LINE
  5
4E9
100
AcDbEntity
  8
06___PRT_ALL_SURFS
100
AcDbLine
 62
7
  6
CONTINUOUS
 10
1275.2840915821
 20
788.6606743458
 11
1279.1305599693
 21
790.0606743458
  0
LINE
  5
4EA
100
AcDbEntity
  8
0
100
AcDbLine
 62
7
  6
CONTINUOUS
 10
1275.6261117254
 20
787.720981725
 11
1278.6840843811
 21
788.8339927489
  0
LINE
  5
4EB
100
AcDbEntity
  8
06___PRT_ALL_SURFS
100
AcDbLine
 62
7
  6
CONTINUOUS
 10
1279.9388503462
 20
788.6606743458
 11
1283.7853187334
 21
790.0606743458
  0
LINE
  5
4EC
100
AcDbEntity
  8
0
100
AcDbLine
 62
7
  6
CONTINUOUS
 10
1279.492374758
 20
787.4339927489
 11
1283.3388431452
 21
788.8339927489
  0
LINE
  5
4ED
100
AcDbEntity
  8
0
100
AcDbLine
 62
7
  6
CONTINUOUS
 10
1202.184313519
 20
885.7606743458
 11
1462.1838696452
 21
885.7606743458
  0
LINE
  5
4EE
100
AcDbEntity
  8
0
100
AcDbLine
 62
7
  6
CONTINUOUS
 10
1202.1840915821
 20
886.7606743458
 11
1462.1840915821
 21
886.7606743458
  0
LINE
  5
4EF
100
AcDbEntity
  8
0
100
AcDbLine
 62
7
  6
CONTINUOUS
 10
1223.0214696488
 20
890.8606743458
 11
1441.3467135154
 21
890.8606743458
  0
LINE
  5
4F0
100
AcDbEntity
  8
0
100
AcDbLine
 62
7
  6
CONTINUOUS
 10
1395.9731968255
 20
866.3606743458
 11
1395.9731968255
 21
828.3606743458
  0
LINE
  5
4F1
100
AcDbEntity
  8
0
100
AcDbLine
 62
7
  6
CONTINUOUS
 10
1400.7231968255
 20
828.3606743458
 11
1400.7231968255
 21
818.3606743458
  0
LINE
  5
4F2
100
AcDbEntity
  8
0
100
AcDbLine
 62
7
  6
CONTINUOUS
 10
1404.2231968255
 20
818.3606743458
 11
1404.2231968255
 21
816.3606743458
  0
LINE
  5
4F3
100
AcDbEntity
  8
0
100
AcDbLine
 62
7
  6
CONTINUOUS
 10
1404.5315712328
 20
866.3606743458
 11
1404.5315712328
 21
828.3606743458
  0
LINE
  5
4F4
100
AcDbEntity
  8
0
100
AcDbLine
 62
7
  6
CONTINUOUS
 10
1407.2231968255
 20
818.3606743458
 11
1407.2231968255
 21
816.3606743458
  0
LINE
  5
4F5
100
AcDbEntity
  8
0
100
AcDbLine
 62
7
  6
CONTINUOUS
 10
1407.779230552
 20
866.3606743458
 11
1407.779230552
 21
828.3606743458
  0
LINE
  5
4F6
100
AcDbEntity
  8
0
100
AcDbLine
 62
7
  6
CONTINUOUS
 10
1410.4462808416
 20
836.3606743458
 11
1410.4462808416
 21
824.3606743458
  0
LINE
  5
4F7
100
AcDbEntity
  8
0
100
AcDbLine
 62
7
  6
CONTINUOUS
 10
1410.7231968255
 20
841.3606743458
 11
1410.7231968255
 21
836.3606743458
  0
LINE
  5
4F8
100
AcDbEntity
  8
0
100
AcDbLine
 62
7
  6
CONTINUOUS
 10
1410.7231968255
 20
824.3606743458
 11
1410.7231968255
 21
818.3606743458
  0
LINE
  5
4F9
100
AcDbEntity
  8
0
100
AcDbLine
 62
7
  6
CONTINUOUS
 10
1412.1524444732
 20
866.3606743458
 11
1412.1524444732
 21
836.3606743458
  0
LINE
  5
4FA
100
AcDbEntity
  8
0
100
AcDbLine
 62
7
  6
CONTINUOUS
 10
1415.4001037924
 20
866.3606743458
 11
1415.4001037924
 21
836.3606743458
  0
LINE
  5
4FB
100
AcDbEntity
  8
0
100
AcDbLine
 62
7
  6
CONTINUOUS
 10
1418.9460936337
 20
836.3606743458
 11
1418.9460936337
 21
846.3606743458
  0
LINE
  5
4FC
100
AcDbEntity
  8
0
100
AcDbLine
 62
7
  6
CONTINUOUS
 10
1425.1840915821
 20
866.3606743458
 11
1425.1840915821
 21
846.3606743458
  0
LINE
  5
4FD
100
AcDbEntity
  8
0
100
AcDbLine
 62
7
  6
CONTINUOUS
 10
1425.1840915821
 20
824.3606743458
 11
1425.1840915821
 21
791.6606743458
  0
LINE
  5
4FE
100
AcDbEntity
  8
0
100
AcDbLine
 62
7
  6
CONTINUOUS
 10
1427.2899536517
 20
846.3606743458
 11
1427.2899536517
 21
824.3606743458
  0
LINE
  5
4FF
100
AcDbEntity
  8
02___PRT_ALL_AXES
100
AcDbLine
 62
9
  6
CONTINUOUS
 10
1429.1840915821
 20
791.6606743458
 11
1429.1840915821
 21
793.6606743458
  0
LINE
  5
500
100
AcDbEntity
  8
02___PRT_ALL_AXES
100
AcDbLine
 62
7
  6
CONTINUOUS
 10
1436.6840915821
 20
793.6606743458
 11
1436.6840915821
 21
791.6606743458
  0
LINE
  5
501
100
AcDbEntity
  8
0
100
AcDbLine
 62
7
  6
CONTINUOUS
 10
1443.6840915821
 20
885.7606743458
 11
1443.6840915821
 21
866.3606743458
  0
LINE
  5
502
100
AcDbEntity
  8
0
100
AcDbLine
 62
7
  6
CONTINUOUS
 10
1462.1840915821
 20
886.7606743458
 11
1462.1840915821
 21
885.7606743458
  0
LINE
  5
503
100
AcDbEntity
  8
0
100
AcDbLine
 62
7
  6
CONTINUOUS
 10
1627.4092170871
 20
886.7606743458
 11
1627.4092170871
 21
885.7606743458
  0
LINE
  5
504
100
AcDbEntity
  8
0
100
AcDbLine
 62
7
  6
CONTINUOUS
 10
1645.9092170871
 20
885.7606743458
 11
1645.9092170871
 21
866.3606743458
  0
LINE
  5
505
100
AcDbEntity
  8
0
100
AcDbLine
 62
7
  6
CONTINUOUS
 10
1662.3033550175
 20
846.3606743458
 11
1662.3033550175
 21
824.3606743458
  0
LINE
  5
506
100
AcDbEntity
  8
0
100
AcDbLine
 62
7
  6
CONTINUOUS
 10
1662.9092170871
 20
866.3606743458
 11
1662.9092170871
 21
791.6606743458
  0
LINE
  5
507
100
AcDbEntity
  8
0
100
AcDbLine
 62
7
  6
CONTINUOUS
 10
1674.1932048768
 20
866.3606743458
 11
1674.1932048768
 21
828.3606743458
  0
LINE
  5
508
100
AcDbEntity
  8
0
100
AcDbLine
 62
7
  6
CONTINUOUS
 10
1677.440864196
 20
866.3606743458
 11
1677.440864196
 21
828.3606743458
  0
LINE
  5
509
100
AcDbEntity
  8
0
100
AcDbLine
 62
7
  6
CONTINUOUS
 10
1678.8701118437
 20
841.3606743458
 11
1678.8701118437
 21
818.3606743458
  0
LINE
  5
50A
100
AcDbEntity
  8
0
100
AcDbLine
 62
7
  6
CONTINUOUS
 10
1681.8140781171
 20
866.3606743458
 11
1681.8140781171
 21
836.3606743458
  0
LINE
  5
50B
100
AcDbEntity
  8
0
100
AcDbLine
 62
7
  6
CONTINUOUS
 10
1682.2292348291
 20
836.3606743458
 11
1682.2292348291
 21
824.3606743458
  0
LINE
  5
50C
100
AcDbEntity
  8
0
100
AcDbLine
 62
7
  6
CONTINUOUS
 10
1682.3701118437
 20
818.3606743458
 11
1682.3701118437
 21
816.3606743458
  0
LINE
  5
50D
100
AcDbEntity
  8
0
100
AcDbLine
 62
7
  6
CONTINUOUS
 10
1685.0617374364
 20
866.3606743458
 11
1685.0617374364
 21
836.3606743458
  0
LINE
  5
50E
100
AcDbEntity
  8
0
100
AcDbLine
 62
7
  6
CONTINUOUS
 10
1685.3701118437
 20
818.3606743458
 11
1685.3701118437
 21
816.3606743458
  0
LINE
  5
50F
100
AcDbEntity
  8
0
100
AcDbLine
 62
7
  6
CONTINUOUS
 10
1688.8701118437
 20
824.3606743458
 11
1688.8701118437
 21
818.3606743458
  0
LINE
  5
510
100
AcDbEntity
  8
0
100
AcDbLine
 62
7
  6
CONTINUOUS
 10
1690.7290476212
 20
836.3606743458
 11
1690.7290476212
 21
846.3606743458
  0
LINE
  5
511
100
AcDbEntity
  8
0
100
AcDbLine
 62
7
  6
CONTINUOUS
 10
1693.6201118437
 20
866.3606743458
 11
1693.6201118437
 21
846.3606743458
  0
LINE
  5
512
100
AcDbEntity
  8
0
100
AcDbLine
 62
7
  6
CONTINUOUS
 10
1699.0729076392
 20
846.3606743458
 11
1699.0729076392
 21
824.3606743458
  0
LINE
  5
513
100
AcDbEntity
  8
0
100
AcDbLine
 62
7
  6
CONTINUOUS
 10
1705.4368686699
 20
824.3606743458
 11
1705.4368686699
 21
846.3606743458
  0
LINE
  5
514
100
AcDbEntity
  8
0
100
AcDbLine
 62
7
  6
CONTINUOUS
 10
1777.4092170871
 20
787.4339927489
 11
1737.4092170871
 21
787.4339927489
  0
LINE
  5
515
100
AcDbEntity
  8
0
100
AcDbLine
 62
7
  6
CONTINUOUS
 10
1777.4092170871
 20
787.6606743458
 11
1737.4092170871
 21
787.6606743458
  0
LINE
  5
516
100
AcDbEntity
  8
02___PRT_ALL_AXES
100
AcDbLine
 62
7
  6
CONTINUOUS
 10
1801.4092170871
 20
790.6606743458
 11
1777.4092170871
 21
790.6606743458
  0
LINE
  5
517
100
AcDbEntity
  8
0
100
AcDbLine
 62
7
  6
CONTINUOUS
 10
1777.4092170871
 20
790.6606743458
 11
1737.4092170871
 21
790.6606743458
  0
LINE
  5
518
100
AcDbEntity
  8
02___PRT_ALL_AXES
100
AcDbLine
 62
7
  6
CONTINUOUS
 10
1737.4092170871
 20
790.6606743458
 11
1713.4092170871
 21
790.6606743458
  0
LINE
  5
519
100
AcDbEntity
  8
0
100
AcDbLine
 62
7
  6
CONTINUOUS
 10
1713.4092170871
 20
790.6606743458
 11
1712.9436086215
 21
790.6606743458
  0
LINE
  5
51A
100
AcDbEntity
  8
0
100
AcDbLine
 62
7
  6
CONTINUOUS
 10
1801.4092170871
 20
790.6606743458
 11
1801.8748255527
 21
790.6606743458
  0
LINE
  5
51B
100
AcDbEntity
  8
0
100
AcDbLine
 62
7
  6
CONTINUOUS
 10
1851.9091938457
 20
791.6606743458
 11
1774.1797269184
 21
791.6606743458
  0
LINE
  5
51C
100
AcDbEntity
  8
0
100
AcDbLine
 62
7
  6
CONTINUOUS
 10
1740.6387072559
 20
791.6606743458
 11
1662.9092401827
 21
791.6606743458
  0
LINE
  5
51D
100
AcDbEntity
  8
02___PRT_ALL_AXES
100
AcDbLine
 62
7
  6
CONTINUOUS
 10
1740.6387072559
 20
791.6606743458
 11
1774.1797269184
 21
791.6606743458
  0
LINE
  5
51E
100
AcDbEntity
  8
02___PRT_ALL_AXES
100
AcDbLine
 62
7
  6
CONTINUOUS
 10
1764.9092170871
 20
793.6606743458
 11
1749.9092170871
 21
793.6606743458
  0
LINE
  5
51F
100
AcDbEntity
  8
0
100
AcDbLine
 62
7
  6
CONTINUOUS
 10
1712.9436086215
 20
791.6606743458
 11
1712.9436086215
 21
790.6606743458
  0
LINE
  5
520
100
AcDbEntity
  8
02___PRT_ALL_AXES
100
AcDbLine
 62
7
  6
CONTINUOUS
 10
1713.4092170871
 20
791.6606743458
 11
1713.4092170871
 21
790.6606743458
  0
LINE
  5
521
100
AcDbEntity
  8
0
100
AcDbLine
 62
7
  6
CONTINUOUS
 10
1737.4092170871
 20
787.4339927489
 11
1737.4092170871
 21
791.6606743458
  0
LINE
  5
522
100
AcDbEntity
  8
0
100
AcDbLine
 62
7
  6
CONTINUOUS
 10
1832.4475234363
 20
816.3606743458
 11
1829.4491212247
 21
816.3606743458
  0
LINE
  5
523
100
AcDbEntity
  8
0
100
AcDbLine
 62
7
  6
CONTINUOUS
 10
1685.3693129495
 20
816.3606743458
 11
1682.3709107379
 21
816.3606743458
  0
LINE
  5
524
100
AcDbEntity
  8
0
100
AcDbLine
 62
7
  6
CONTINUOUS
 10
1835.9473461602
 20
818.3606743458
 11
1825.9492985008
 21
818.3606743458
  0
LINE
  5
525
100
AcDbEntity
  8
0
100
AcDbLine
 62
7
  6
CONTINUOUS
 10
1688.8691356734
 20
818.3606743458
 11
1678.871088014
 21
818.3606743458
  0
LINE
  5
526
100
AcDbEntity
  8
0
100
AcDbLine
 62
7
  6
CONTINUOUS
 10
1740.6387072559
 20
866.3606743458
 11
1740.6387072559
 21
791.6606743458
  0
LINE
  5
527
100
AcDbEntity
  8
0
100
AcDbLine
 62
7
  6
CONTINUOUS
 10
1852.5150791567
 20
824.3606743458
 11
1835.6714063466
 21
824.3606743458
  0
LINE
  5
528
100
AcDbEntity
  8
0
100
AcDbLine
 62
7
  6
CONTINUOUS
 10
1705.4368686699
 20
824.3606743458
 11
1682.2292348291
 21
824.3606743458
  0
LINE
  5
529
100
AcDbEntity
  8
0
100
AcDbLine
 62
7
  6
CONTINUOUS
 10
1662.9092170871
 20
824.3606743458
 11
1662.3033550175
 21
824.3606743458
  0
LINE
  5
52A
100
AcDbEntity
  8
0
100
AcDbLine
 62
7
  6
CONTINUOUS
 10
1833.0043560571
 20
828.3606743458
 11
1821.2010227287
 21
828.3606743458
  0
LINE
  5
52B
100
AcDbEntity
  8
0
100
AcDbLine
 62
7
  6
CONTINUOUS
 10
1678.8701118437
 20
828.3606743458
 11
1674.1932048768
 21
828.3606743458
  0
LINE
  5
52C
100
AcDbEntity
  8
02___PRT_ALL_AXES
100
AcDbLine
 62
7
  6
CONTINUOUS
 10
1749.9092170871
 20
791.6606743458
 11
1749.9092170871
 21
793.6606743458
  0
LINE
  5
52D
100
AcDbEntity
  8
0
100
AcDbLine
 62
7
  6
CONTINUOUS
 10
1844.1712191387
 20
836.3606743458
 11
1835.6714063466
 21
836.3606743458
  0
LINE
  5
52E
100
AcDbEntity
  8
0
100
AcDbLine
 62
7
  6
CONTINUOUS
 10
1690.7290476212
 20
836.3606743458
 11
1681.8140781171
 21
836.3606743458
  0
LINE
  5
52F
100
AcDbEntity
  8
02___PRT_ALL_AXES
100
AcDbLine
 62
7
  6
CONTINUOUS
 10
1764.9092170871
 20
791.6606743458
 11
1764.9092170871
 21
793.6606743458
  0
LINE
  5
530
100
AcDbEntity
  8
0
100
AcDbLine
 62
7
  6
CONTINUOUS
 10
1835.9473461602
 20
841.3606743458
 11
1833.0043560571
 21
841.3606743458
  0
LINE
  5
531
100
AcDbEntity
  8
0
100
AcDbLine
 62
7
  6
CONTINUOUS
 10
1681.8140781171
 20
841.3606743458
 11
1678.871088014
 21
841.3606743458
  0
LINE
  5
532
100
AcDbEntity
  8
0
100
AcDbLine
 62
7
  6
CONTINUOUS
 10
1662.3033550175
 20
846.3606743458
 11
1662.9092170871
 21
846.3606743458
  0
LINE
  5
533
100
AcDbEntity
  8
0
100
AcDbLine
 62
7
  6
CONTINUOUS
 10
1690.7290476212
 20
846.3606743458
 11
1705.4368686699
 21
846.3606743458
  0
LINE
  5
534
100
AcDbEntity
  8
0
100
AcDbLine
 62
7
  6
CONTINUOUS
 10
1840.6252292974
 20
846.3606743458
 11
1852.5150791567
 21
846.3606743458
  0
LINE
  5
535
100
AcDbEntity
  8
0
100
AcDbLine
 62
7
  6
CONTINUOUS
 10
1774.1797269184
 20
866.3606743458
 11
1774.1797269184
 21
791.6606743458
  0
LINE
  5
536
100
AcDbEntity
  8
0
100
AcDbLine
 62
7
  6
CONTINUOUS
 10
1777.4092170871
 20
787.4339927489
 11
1777.4092170871
 21
791.6606743458
  0
LINE
  5
537
100
AcDbEntity
  8
0
100
AcDbLine
 62
7
  6
CONTINUOUS
 10
1645.9099530034
 20
866.3606743458
 11
1868.9084811708
 21
866.3606743458
  0
LINE
  5
538
100
AcDbEntity
  8
02___PRT_ALL_AXES
100
AcDbLine
 62
7
  6
CONTINUOUS
 10
1801.4092170871
 20
791.6606743458
 11
1801.4092170871
 21
790.6606743458
  0
LINE
  5
539
100
AcDbEntity
  8
0
100
AcDbLine
 62
7
  6
CONTINUOUS
 10
1801.8748255527
 20
791.6606743458
 11
1801.8748255527
 21
790.6606743458
  0
LINE
  5
53A
100
AcDbEntity
  8
0
100
AcDbLine
 62
7
  6
CONTINUOUS
 10
1627.409439024
 20
885.7606743458
 11
1887.4089951502
 21
885.7606743458
  0
LINE
  5
53B
100
AcDbEntity
  8
0
100
AcDbLine
 62
7
  6
CONTINUOUS
 10
1627.4092170871
 20
886.7606743458
 11
1887.4092170871
 21
886.7606743458
  0
LINE
  5
53C
100
AcDbEntity
  8
0
100
AcDbLine
 62
7
  6
CONTINUOUS
 10
1648.2465951538
 20
890.8606743458
 11
1866.5718390204
 21
890.8606743458
  0
LINE
  5
53D
100
AcDbEntity
  8
0
100
AcDbLine
 62
7
  6
CONTINUOUS
 10
1821.1983223305
 20
866.3606743458
 11
1821.1983223305
 21
828.3606743458
  0
LINE
  5
53E
100
AcDbEntity
  8
0
100
AcDbLine
 62
7
  6
CONTINUOUS
 10
1825.9483223305
 20
828.3606743458
 11
1825.9483223305
 21
818.3606743458
  0
LINE
  5
53F
100
AcDbEntity
  8
0
100
AcDbLine
 62
7
  6
CONTINUOUS
 10
1829.4483223305
 20
818.3606743458
 11
1829.4483223305
 21
816.3606743458
  0
LINE
  5
540
100
AcDbEntity
  8
0
100
AcDbLine
 62
7
  6
CONTINUOUS
 10
1829.7566967378
 20
866.3606743458
 11
1829.7566967378
 21
828.3606743458
  0
LINE
  5
541
100
AcDbEntity
  8
0
100
AcDbLine
 62
7
  6
CONTINUOUS
 10
1832.4483223305
 20
818.3606743458
 11
1832.4483223305
 21
816.3606743458
  0
LINE
  5
542
100
AcDbEntity
  8
0
100
AcDbLine
 62
7
  6
CONTINUOUS
 10
1833.0043560571
 20
866.3606743458
 11
1833.0043560571
 21
828.3606743458
  0
LINE
  5
543
100
AcDbEntity
  8
0
100
AcDbLine
 62
7
  6
CONTINUOUS
 10
1835.6714063466
 20
836.3606743458
 11
1835.6714063466
 21
824.3606743458
  0
LINE
  5
544
100
AcDbEntity
  8
0
100
AcDbLine
 62
7
  6
CONTINUOUS
 10
1835.9483223305
 20
841.3606743458
 11
1835.9483223305
 21
836.3606743458
  0
LINE
  5
545
100
AcDbEntity
  8
0
100
AcDbLine
 62
7
  6
CONTINUOUS
 10
1835.9483223305
 20
824.3606743458
 11
1835.9483223305
 21
818.3606743458
  0
LINE
  5
546
100
AcDbEntity
  8
0
100
AcDbLine
 62
7
  6
CONTINUOUS
 10
1837.3775699782
 20
866.3606743458
 11
1837.3775699782
 21
836.3606743458
  0
LINE
  5
547
100
AcDbEntity
  8
0
100
AcDbLine
 62
7
  6
CONTINUOUS
 10
1840.6252292974
 20
866.3606743458
 11
1840.6252292974
 21
836.3606743458
  0
LINE
  5
548
100
AcDbEntity
  8
0
100
AcDbLine
 62
7
  6
CONTINUOUS
 10
1844.1712191387
 20
836.3606743458
 11
1844.1712191387
 21
846.3606743458
  0
LINE
  5
549
100
AcDbEntity
  8
0
100
AcDbLine
 62
7
  6
CONTINUOUS
 10
1851.9092170871
 20
866.3606743458
 11
1851.9092170871
 21
846.3606743458
  0
LINE
  5
54A
100
AcDbEntity
  8
0
100
AcDbLine
 62
7
  6
CONTINUOUS
 10
1851.9092170871
 20
824.3606743458
 11
1851.9092170871
 21
791.6606743458
  0
LINE
  5
54B
100
AcDbEntity
  8
0
100
AcDbLine
 62
7
  6
CONTINUOUS
 10
1852.5150791567
 20
846.3606743458
 11
1852.5150791567
 21
824.3606743458
  0
LINE
  5
54C
100
AcDbEntity
  8
0
100
AcDbLine
 62
7
  6
CONTINUOUS
 10
1868.9092170871
 20
885.7606743458
 11
1868.9092170871
 21
866.3606743458
  0
LINE
  5
54D
100
AcDbEntity
  8
0
100
AcDbLine
 62
7
  6
CONTINUOUS
 10
1887.4092170871
 20
886.7606743458
 11
1887.4092170871
 21
885.7606743458
  0
LINE
  5
54E
100
AcDbEntity
  8
0
100
AcDbLine
 62
7
  6
CONTINUOUS
 10
225.5048742175
 20
886.7606743458
 11
225.5048742175
 21
885.7606743458
  0
LINE
  5
54F
100
AcDbEntity
  8
0
100
AcDbLine
 62
7
  6
CONTINUOUS
 10
244.0048742175
 20
885.7606743458
 11
244.0048742175
 21
866.3606743458
  0
LINE
  5
550
100
AcDbEntity
  8
02___PRT_ALL_AXES
100
AcDbLine
 62
7
  6
CONTINUOUS
 10
251.0048742175
 20
793.6606743458
 11
251.0048742175
 21
791.6606743458
  0
LINE
  5
551
100
AcDbEntity
  8
02___PRT_ALL_AXES
100
AcDbLine
 62
9
  6
CONTINUOUS
 10
258.5048742175
 20
791.6606743458
 11
258.5048742175
 21
793.6606743458
  0
LINE
  5
552
100
AcDbEntity
  8
0
100
AcDbLine
 62
7
  6
CONTINUOUS
 10
260.3990121479
 20
846.3606743458
 11
260.3990121479
 21
824.3606743458
  0
LINE
  5
553
100
AcDbEntity
  8
0
100
AcDbLine
 62
7
  6
CONTINUOUS
 10
262.5048742175
 20
866.3606743458
 11
262.5048742175
 21
791.6606743458
  0
LINE
  5
554
100
AcDbEntity
  8
0
100
AcDbLine
 62
7
  6
CONTINUOUS
 10
272.2888620072
 20
866.3606743458
 11
272.2888620072
 21
828.3606743458
  0
LINE
  5
555
100
AcDbEntity
  8
0
100
AcDbLine
 62
7
  6
CONTINUOUS
 10
275.5365213264
 20
866.3606743458
 11
275.5365213264
 21
828.3606743458
  0
LINE
  5
556
100
AcDbEntity
  8
0
100
AcDbLine
 62
7
  6
CONTINUOUS
 10
276.9657689741
 20
841.3606743458
 11
276.9657689741
 21
818.3606743458
  0
LINE
  5
557
100
AcDbEntity
  8
0
100
AcDbLine
 62
7
  6
CONTINUOUS
 10
279.9097352476
 20
866.3606743458
 11
279.9097352476
 21
836.3606743458
  0
LINE
  5
558
100
AcDbEntity
  8
0
100
AcDbLine
 62
7
  6
CONTINUOUS
 10
280.3248919595
 20
836.3606743458
 11
280.3248919595
 21
824.3606743458
  0
LINE
  5
559
100
AcDbEntity
  8
0
100
AcDbLine
 62
7
  6
CONTINUOUS
 10
280.4657689741
 20
818.3606743458
 11
280.4657689741
 21
816.3606743458
  0
LINE
  5
55A
100
AcDbEntity
  8
0
100
AcDbLine
 62
7
  6
CONTINUOUS
 10
283.1573945668
 20
866.3606743458
 11
283.1573945668
 21
836.3606743458
  0
LINE
  5
55B
100
AcDbEntity
  8
0
100
AcDbLine
 62
7
  6
CONTINUOUS
 10
283.4657689741
 20
818.3606743458
 11
283.4657689741
 21
816.3606743458
  0
LINE
  5
55C
100
AcDbEntity
  8
0
100
AcDbLine
 62
7
  6
CONTINUOUS
 10
286.9657689741
 20
824.3606743458
 11
286.9657689741
 21
818.3606743458
  0
LINE
  5
55D
100
AcDbEntity
  8
0
100
AcDbLine
 62
7
  6
CONTINUOUS
 10
288.8247047516
 20
836.3606743458
 11
288.8247047516
 21
846.3606743458
  0
LINE
  5
55E
100
AcDbEntity
  8
0
100
AcDbLine
 62
7
  6
CONTINUOUS
 10
291.7157689741
 20
866.3606743458
 11
291.7157689741
 21
846.3606743458
  0
LINE
  5
55F
100
AcDbEntity
  8
0
100
AcDbLine
 62
7
  6
CONTINUOUS
 10
297.1685647696
 20
846.3606743458
 11
297.1685647696
 21
824.3606743458
  0
LINE
  5
560
100
AcDbEntity
  8
0
100
AcDbLine
 62
7
  6
CONTINUOUS
 10
303.5325258003
 20
824.3606743458
 11
303.5325258003
 21
846.3606743458
  0
LINE
  5
561
100
AcDbEntity
  8
0
100
AcDbLine
 62
7
  6
CONTINUOUS
 10
403.6727069585
 20
787.6606743458
 11
399.6595747559
 21
787.6606743458
  0
LINE
  5
562
100
AcDbEntity
  8
0
100
AcDbLine
 62
7
  6
CONTINUOUS
 10
498.0048742175
 20
787.6606743458
 11
510.0048742175
 21
787.6606743458
  0
LINE
  5
563
100
AcDbEntity
  8
06___PRT_ALL_SURFS
100
AcDbLine
 62
7
  6
CONTINUOUS
 10
403.0953566893
 20
788.6606743458
 11
400.2369250251
 21
788.6606743458
  0
LINE
  5
564
100
AcDbEntity
  8
0
100
AcDbLine
 62
7
  6
CONTINUOUS
 10
397.9275239483
 20
790.6606743458
 11
388.5048742175
 21
790.6606743458
  0
LINE
  5
565
100
AcDbEntity
  8
0
100
AcDbLine
 62
7
  6
CONTINUOUS
 10
449.0048742175
 20
790.6606743458
 11
496.5048742175
 21
790.6606743458
  0
LINE
  5
566
100
AcDbEntity
  8
0
100
AcDbLine
 62
7
  6
CONTINUOUS
 10
486.1365069888
 20
791.6606743458
 11
449.0048742175
 21
791.6606743458
  0
LINE
  5
567
100
AcDbEntity
  8
0
100
AcDbLine
 62
7
  6
CONTINUOUS
 10
445.6048187236
 20
791.6606743458
 11
262.5048742175
 21
791.6606743458
  0
LINE
  5
568
100
AcDbEntity
  8
02___PRT_ALL_AXES
100
AcDbLine
 62
7
  6
CONTINUOUS
 10
262.5048742175
 20
791.6606743458
 11
251.0060357973
 21
791.6606743458
  0
LINE
  5
569
100
AcDbEntity
  8
02___PRT_ALL_AXES
100
AcDbLine
 62
7
  6
CONTINUOUS
 10
498.0048742175
 20
793.6497768606
 11
503.8098807746
 21
793.6497768606
  0
LINE
  5
56A
100
AcDbEntity
  8
02___PRT_ALL_AXES
100
AcDbLine
 62
7
  6
CONTINUOUS
 10
504.1998676604
 20
793.6497768606
 11
510.0048742175
 21
793.6497768606
  0
LINE
  5
56B
100
AcDbEntity
  8
02___PRT_ALL_AXES
100
AcDbLine
 62
7
  6
CONTINUOUS
 10
262.5048742175
 20
793.6606743458
 11
251.0060357973
 21
793.6606743458
  0
LINE
  5
56C
100
AcDbEntity
  8
02___PRT_ALL_AXES
100
AcDbLine
 62
7
  6
CONTINUOUS
 10
496.5048742175
 20
796.3606743458
 11
498.0048742175
 21
796.3606743458
  0
LINE
  5
56D
100
AcDbEntity
  8
02___PRT_ALL_AXES
100
AcDbLine
 62
7
  6
CONTINUOUS
 10
498.0048742175
 20
802.5606743458
 11
500.2048742175
 21
802.5606743458
  0
LINE
  5
56E
100
AcDbEntity
  8
0
100
AcDbLine
 62
7
  6
CONTINUOUS
 10
408.1965910416
 20
787.4339927489
 11
404.3501226544
 21
788.8339927489
  0
LINE
  5
56F
100
AcDbEntity
  8
06___PRT_ALL_SURFS
100
AcDbLine
 62
7
  6
CONTINUOUS
 10
407.7501154534
 20
788.6606743458
 11
403.9036470662
 21
790.0606743458
  0
LINE
  5
570
100
AcDbEntity
  8
0
100
AcDbLine
 62
7
  6
CONTINUOUS
 10
412.0628540742
 20
787.720981725
 11
409.0048814185
 21
788.8339927489
  0
LINE
  5
571
100
AcDbEntity
  8
06___PRT_ALL_SURFS
100
AcDbLine
 62
7
  6
CONTINUOUS
 10
412.4048742175
 20
788.6606743458
 11
408.5584058303
 21
790.0606743458
  0
LINE
  5
572
100
AcDbEntity
  8
02___PRT_ALL_AXES
100
AcDbLine
 62
7
  6
CONTINUOUS
 10
498.0048742175
 20
810.3606743458
 11
500.2048742175
 21
810.3606743458
  0
LINE
  5
573
100
AcDbEntity
  8
0
100
AcDbLine
 62
7
  6
CONTINUOUS
 10
448.5048742175
 20
813.6606743458
 11
445.6048187236
 21
813.6606743458
  0
LINE
  5
574
100
AcDbEntity
  8
0
100
AcDbLine
 62
7
  6
CONTINUOUS
 10
430.5431805667
 20
816.3606743458
 11
427.5447783551
 21
816.3606743458
  0
LINE
  5
575
100
AcDbEntity
  8
0
100
AcDbLine
 62
7
  6
CONTINUOUS
 10
283.4649700799
 20
816.3606743458
 11
280.4665678683
 21
816.3606743458
  0
LINE
  5
576
100
AcDbEntity
  8
02___PRT_ALL_AXES
100
AcDbLine
 62
7
  6
CONTINUOUS
 10
496.5048742175
 20
816.5606743458
 11
498.0048742175
 21
816.5606743458
  0
LINE
  5
577
100
AcDbEntity
  8
0
100
AcDbLine
 62
7
  6
CONTINUOUS
 10
434.0430032906
 20
818.3606743458
 11
424.0449556312
 21
818.3606743458
  0
LINE
  5
578
100
AcDbEntity
  8
0
100
AcDbLine
 62
7
  6
CONTINUOUS
 10
286.9647928038
 20
818.3606743458
 11
276.9667451444
 21
818.3606743458
  0
LINE
  5
579
100
AcDbEntity
  8
02___PRT_ALL_AXES
100
AcDbLine
 62
7
  6
CONTINUOUS
 10
498.0048742175
 20
819.2715718309
 11
503.8098807746
 21
819.2715718309
  0
LINE
  5
57A
100
AcDbEntity
  8
02___PRT_ALL_AXES
100
AcDbLine
 62
7
  6
CONTINUOUS
 10
504.1998676604
 20
819.2715718309
 11
510.0048742175
 21
819.2715718309
  0
LINE
  5
57B
100
AcDbEntity
  8
0
100
AcDbLine
 62
7
  6
CONTINUOUS
 10
450.6107362871
 20
824.3606743458
 11
433.767063477
 21
824.3606743458
  0
LINE
  5
57C
100
AcDbEntity
  8
0
100
AcDbLine
 62
7
  6
CONTINUOUS
 10
303.5325258003
 20
824.3606743458
 11
280.3248919595
 21
824.3606743458
  0
LINE
  5
57D
100
AcDbEntity
  8
0
100
AcDbLine
 62
7
  6
CONTINUOUS
 10
262.5048742175
 20
824.3606743458
 11
260.3990121479
 21
824.3606743458
  0
LINE
  5
57E
100
AcDbEntity
  8
0
100
AcDbLine
 62
7
  6
CONTINUOUS
 10
498.0048742175
 20
825.2606743458
 11
510.0048742175
 21
825.2606743458
  0
LINE
  5
57F
100
AcDbEntity
  8
0
100
AcDbLine
 62
7
  6
CONTINUOUS
 10
431.1000131875
 20
828.3606743458
 11
419.2966798591
 21
828.3606743458
  0
LINE
  5
580
100
AcDbEntity
  8
0
100
AcDbLine
 62
7
  6
CONTINUOUS
 10
276.9657689741
 20
828.3606743458
 11
272.2888620072
 21
828.3606743458
  0
LINE
  5
581
100
AcDbEntity
  8
02___PRT_ALL_AXES
100
AcDbLine
 62
7
  6
CONTINUOUS
 10
496.5048742175
 20
829.7606743458
 11
498.7048742175
 21
829.7606743458
  0
LINE
  5
582
100
AcDbEntity
  8
0
100
AcDbLine
 62
7
  6
CONTINUOUS
 10
442.2668762691
 20
836.3606743458
 11
433.767063477
 21
836.3606743458
  0
LINE
  5
583
100
AcDbEntity
  8
0
100
AcDbLine
 62
7
  6
CONTINUOUS
 10
288.8247047516
 20
836.3606743458
 11
279.9097352476
 21
836.3606743458
  0
LINE
  5
584
100
AcDbEntity
  8
02___PRT_ALL_AXES
100
AcDbLine
 62
7
  6
CONTINUOUS
 10
496.5048742175
 20
837.5606743458
 11
498.7048742175
 21
837.5606743458
  0
LINE
  5
585
100
AcDbEntity
  8
0
100
AcDbLine
 62
7
  6
CONTINUOUS
 10
434.0430032906
 20
841.3606743458
 11
431.1000131875
 21
841.3606743458
  0
LINE
  5
586
100
AcDbEntity
  8
0
100
AcDbLine
 62
7
  6
CONTINUOUS
 10
279.9097352476
 20
841.3606743458
 11
276.9667451444
 21
841.3606743458
  0
LINE
  5
587
100
AcDbEntity
  8
0
100
AcDbLine
 62
7
  6
CONTINUOUS
 10
486.1365069888
 20
841.6606743458
 11
496.5048742175
 21
841.6606743458
  0
LINE
  5
588
100
AcDbEntity
  8
0
100
AcDbLine
 62
7
  6
CONTINUOUS
 10
260.3990121479
 20
846.3606743458
 11
262.5048742175
 21
846.3606743458
  0
LINE
  5
589
100
AcDbEntity
  8
0
100
AcDbLine
 62
7
  6
CONTINUOUS
 10
288.8247047516
 20
846.3606743458
 11
303.5325258003
 21
846.3606743458
  0
LINE
  5
58A
100
AcDbEntity
  8
0
100
AcDbLine
 62
7
  6
CONTINUOUS
 10
438.7208864278
 20
846.3606743458
 11
450.6107362871
 21
846.3606743458
  0
LINE
  5
58B
100
AcDbEntity
  8
0
100
AcDbLine
 62
7
  6
CONTINUOUS
 10
399.6595747559
 20
787.6606743458
 11
397.9275239483
 21
790.6606743458
  0
LINE
  5
58C
100
AcDbEntity
  8
0
100
AcDbLine
 62
7
  6
CONTINUOUS
 10
400.2369250251
 20
788.6606743458
 11
398.5048742175
 21
791.6606743458
  0
LINE
  5
58D
100
AcDbEntity
  8
0
100
AcDbLine
 62
7
  6
CONTINUOUS
 10
388.5048742175
 20
791.6606743458
 11
388.5048742175
 21
790.6606743458
  0
LINE
  5
58E
100
AcDbEntity
  8
0
100
AcDbLine
 62
7
  6
CONTINUOUS
 10
244.0056101338
 20
866.3606743458
 11
467.0041383012
 21
866.3606743458
  0
LINE
  5
58F
100
AcDbEntity
  8
0
100
AcDbLine
 62
7
  6
CONTINUOUS
 10
419.2939794609
 20
866.3606743458
 11
419.2939794609
 21
828.3606743458
  0
LINE
  5
590
100
AcDbEntity
  8
0
100
AcDbLine
 62
7
  6
CONTINUOUS
 10
225.5050961544
 20
885.7606743458
 11
485.5046522806
 21
885.7606743458
  0
LINE
  5
591
100
AcDbEntity
  8
0
100
AcDbLine
 62
7
  6
CONTINUOUS
 10
225.5048742175
 20
886.7606743458
 11
485.5048742175
 21
886.7606743458
  0
LINE
  5
592
100
AcDbEntity
  8
0
100
AcDbLine
 62
7
  6
CONTINUOUS
 10
246.3422522842
 20
890.8606743458
 11
464.6674961508
 21
890.8606743458
  0
LINE
  5
593
100
AcDbEntity
  8
0
100
AcDbLine
 62
7
  6
CONTINUOUS
 10
424.0439794609
 20
828.3606743458
 11
424.0439794609
 21
818.3606743458
  0
LINE
  5
594
100
AcDbEntity
  8
0
100
AcDbLine
 62
7
  6
CONTINUOUS
 10
427.5439794609
 20
818.3606743458
 11
427.5439794609
 21
816.3606743458
  0
LINE
  5
595
100
AcDbEntity
  8
0
100
AcDbLine
 62
7
  6
CONTINUOUS
 10
427.8523538682
 20
866.3606743458
 11
427.8523538682
 21
828.3606743458
  0
LINE
  5
596
100
AcDbEntity
  8
0
100
AcDbLine
 62
7
  6
CONTINUOUS
 10
412.4048742175
 20
788.6606743458
 11
412.0628540742
 21
787.720981725
  0
LINE
  5
597
100
AcDbEntity
  8
06___PRT_ALL_SURFS
100
AcDbLine
 62
7
  6
CONTINUOUS
 10
403.9036470662
 20
790.0606743458
 11
403.0953566893
 21
788.6606743458
  0
LINE
  5
598
100
AcDbEntity
  8
0
100
AcDbLine
 62
7
  6
CONTINUOUS
 10
404.3501226544
 20
788.8339927489
 11
403.6727069585
 21
787.6606743458
  0
LINE
  5
599
100
AcDbEntity
  8
06___PRT_ALL_SURFS
100
AcDbLine
 62
7
  6
CONTINUOUS
 10
408.5584058303
 20
790.0606743458
 11
407.7501154534
 21
788.6606743458
  0
LINE
  5
59A
100
AcDbEntity
  8
0
100
AcDbLine
 62
7
  6
CONTINUOUS
 10
409.0048814185
 20
788.8339927489
 11
408.1965910416
 21
787.4339927489
  0
LINE
  5
59B
100
AcDbEntity
  8
0
100
AcDbLine
 62
7
  6
CONTINUOUS
 10
430.5439794609
 20
818.3606743458
 11
430.5439794609
 21
816.3606743458
  0
LINE
  5
59C
100
AcDbEntity
  8
0
100
AcDbLine
 62
7
  6
CONTINUOUS
 10
431.1000131875
 20
866.3606743458
 11
431.1000131875
 21
828.3606743458
  0
LINE
  5
59D
100
AcDbEntity
  8
0
100
AcDbLine
 62
7
  6
CONTINUOUS
 10
433.767063477
 20
836.3606743458
 11
433.767063477
 21
824.3606743458
  0
LINE
  5
59E
100
AcDbEntity
  8
0
100
AcDbLine
 62
7
  6
CONTINUOUS
 10
434.0439794609
 20
841.3606743458
 11
434.0439794609
 21
836.3606743458
  0
LINE
  5
59F
100
AcDbEntity
  8
0
100
AcDbLine
 62
7
  6
CONTINUOUS
 10
434.0439794609
 20
824.3606743458
 11
434.0439794609
 21
818.3606743458
  0
LINE
  5
5A0
100
AcDbEntity
  8
0
100
AcDbLine
 62
7
  6
CONTINUOUS
 10
435.4732271086
 20
866.3606743458
 11
435.4732271086
 21
836.3606743458
  0
LINE
  5
5A1
100
AcDbEntity
  8
0
100
AcDbLine
 62
7
  6
CONTINUOUS
 10
438.7208864278
 20
866.3606743458
 11
438.7208864278
 21
836.3606743458
  0
LINE
  5
5A2
100
AcDbEntity
  8
0
100
AcDbLine
 62
7
  6
CONTINUOUS
 10
442.2668762691
 20
836.3606743458
 11
442.2668762691
 21
846.3606743458
  0
LINE
  5
5A3
100
AcDbEntity
  8
0
100
AcDbLine
 62
7
  6
CONTINUOUS
 10
445.6048187236
 20
813.6606743458
 11
445.6048187236
 21
791.6606743458
  0
LINE
  5
5A4
100
AcDbEntity
  8
0
100
AcDbLine
 62
7
  6
CONTINUOUS
 10
448.5048742175
 20
866.3606743458
 11
448.5048742175
 21
846.3606743458
  0
LINE
  5
5A5
100
AcDbEntity
  8
0
100
AcDbLine
 62
7
  6
CONTINUOUS
 10
448.5048742175
 20
824.3606743458
 11
448.5048742175
 21
813.6606743458
  0
LINE
  5
5A6
100
AcDbEntity
  8
02___PRT_ALL_AXES
100
AcDbLine
 62
7
  6
CONTINUOUS
 10
449.0048742175
 20
791.6606743458
 11
449.0048742175
 21
790.6606743458
  0
LINE
  5
5A7
100
AcDbEntity
  8
0
100
AcDbLine
 62
7
  6
CONTINUOUS
 10
450.6107362871
 20
846.3606743458
 11
450.6107362871
 21
824.3606743458
  0
LINE
  5
5A8
100
AcDbEntity
  8
0
100
AcDbLine
 62
7
  6
CONTINUOUS
 10
467.0048742175
 20
885.7606743458
 11
467.0048742175
 21
866.3606743458
  0
LINE
  5
5A9
100
AcDbEntity
  8
0
100
AcDbLine
 62
7
  6
CONTINUOUS
 10
485.5048742175
 20
886.7606743458
 11
485.5048742175
 21
885.7606743458
  0
LINE
  5
5AA
100
AcDbEntity
  8
0
100
AcDbLine
 62
7
  6
CONTINUOUS
 10
486.1365069888
 20
841.6606743458
 11
486.1365069888
 21
790.6606743458
  0
LINE
  5
5AB
100
AcDbEntity
  8
0
100
AcDbLine
 62
7
  6
CONTINUOUS
 10
487.0214978118
 20
841.6606743458
 11
487.0214978118
 21
790.6606743458
  0
LINE
  5
5AC
100
AcDbEntity
  8
02___PRT_ALL_AXES
100
AcDbLine
 62
7
  6
CONTINUOUS
 10
496.5048742175
 20
841.6606743458
 11
496.5048742175
 21
790.6606743458
  0
LINE
  5
5AD
100
AcDbEntity
  8
0
100
AcDbLine
 62
7
  6
CONTINUOUS
 10
498.0048742175
 20
825.2606743458
 11
498.0048742175
 21
816.5606743458
  0
LINE
  5
5AE
100
AcDbEntity
  8
02___PRT_ALL_AXES
100
AcDbLine
 62
7
  6
CONTINUOUS
 10
498.0048742175
 20
816.5606743458
 11
498.0048742175
 21
796.3606743458
  0
LINE
  5
5AF
100
AcDbEntity
  8
0
100
AcDbLine
 62
7
  6
CONTINUOUS
 10
498.0048742175
 20
796.3606743458
 11
498.0048742175
 21
787.6606743458
  0
LINE
  5
5B0
100
AcDbEntity
  8
02___PRT_ALL_AXES
100
AcDbLine
 62
7
  6
CONTINUOUS
 10
498.7048742175
 20
837.5593309778
 11
498.7048742175
 21
829.7620177138
  0
LINE
  5
5B1
100
AcDbEntity
  8
02___PRT_ALL_AXES
100
AcDbLine
 62
7
  6
CONTINUOUS
 10
500.2048742175
 20
810.3593309778
 11
500.2048742175
 21
802.5620177138
  0
LINE
  5
5B2
100
AcDbEntity
  8
0
100
AcDbLine
 62
7
  6
CONTINUOUS
 10
510.0048742175
 20
825.2606743458
 11
510.0048742175
 21
787.6606743458
  0
LWPOLYLINE
  5
5B3
100
AcDbEntity
  8
0
100
AcDbPolyline
 62
2
  6
CONTINUOUS
 90
5
 70
0
 10
562.466543296
 20
317.9806741415
 10
583.040543296
 20
317.9806741415
 10
583.040543296
 20
340.8406741415
 10
562.466543296
 20
340.8406741415
 10
562.466543296
 20
317.9806741415
  0
LINE
  5
5B4
100
AcDbEntity
  8
0
100
AcDbLine
 62
7
  6
CONTINUOUS
 10
775.122889011
 20
420.642160461
 11
778.3705483303
 21
417.3945011417
  0
LINE
  5
5B5
100
AcDbEntity
  8
0
100
AcDbLine
 62
7
  6
CONTINUOUS
 10
782.7437622514
 20
413.0212872206
 11
785.9914215707
 21
409.7736279013
  0
LINE
  5
5B6
100
AcDbEntity
  8
0
100
AcDbLine
 62
7
  6
CONTINUOUS
 10
763.2330391518
 20
434.6533306638
 11
780.0767119619
 21
417.8096578537
  0
LINE
  5
5B7
100
AcDbEntity
  8
0
100
AcDbLine
 62
7
  6
CONTINUOUS
 10
785.9914215707
 20
576.205652322
 11
782.7437622514
 21
572.9579930027
  0
LINE
  5
5B8
100
AcDbEntity
  8
0
100
AcDbLine
 62
7
  6
CONTINUOUS
 10
778.3705483303
 20
568.5847790816
 11
775.122889011
 21
565.3371197624
  0
LINE
  5
5B9
100
AcDbEntity
  8
02___PRT_ALL_AXES
100
AcDbLine
 62
7
  6
CONTINUOUS
 10
875.1094110526
 20
399.9896401117
 11
865.8389012214
 21
399.9896401117
  0
LINE
  5
5BA
100
AcDbEntity
  8
02___PRT_ALL_AXES
100
AcDbLine
 62
7
  6
CONTINUOUS
 10
850.8389012214
 20
399.9896401117
 11
841.5683913901
 21
399.9896401117
  0
LINE
  5
5BB
100
AcDbEntity
  8
0
100
AcDbLine
 62
7
  6
CONTINUOUS
 10
786.4406729926
 20
424.1736188843
 11
769.5970001825
 21
441.0172916945
  0
LINE
  5
5BC
100
AcDbEntity
  8
0
100
AcDbLine
 62
7
  6
CONTINUOUS
 10
794.4631736649
 20
420.7473122898
 11
786.0965733995
 21
429.1139125551
  0
LINE
  5
5BD
100
AcDbEntity
  8
0
100
AcDbLine
 62
7
  6
CONTINUOUS
 10
800.0025917735
 20
588.0955021813
 11
783.1589189634
 21
571.2518293711
  0
LINE
  5
5BE
100
AcDbEntity
  8
0
100
AcDbLine
 62
7
  6
CONTINUOUS
 10
789.5228799941
 20
564.8878683405
 11
806.3665528042
 21
581.7315411506
  0
LINE
  5
5BF
100
AcDbEntity
  8
0
100
AcDbLine
 62
7
  6
CONTINUOUS
 10
786.0965733995
 20
556.8653676682
 11
794.4631736649
 21
565.2319679335
  0
LINE
  5
5C0
100
AcDbEntity
  8
0
100
AcDbLine
 62
7
  6
CONTINUOUS
 10
814.3389012214
 20
623.621272883
 11
814.3389012214
 21
586.4896401117
  0
LINE
  5
5C1
100
AcDbEntity
  8
0
100
AcDbLine
 62
7
  6
CONTINUOUS
 10
829.8389012214
 20
583.0895846177
 11
829.8389012214
 21
551.9896401117
  0
LINE
  5
5C2
100
AcDbEntity
  8
02___PRT_ALL_AXES
100
AcDbLine
 62
7
  6
CONTINUOUS
 10
833.3389012214
 20
633.9896401117
 11
833.3389012214
 21
635.4896401117
  0
LINE
  5
5C3
100
AcDbEntity
  8
0
100
AcDbLine
 62
7
  6
CONTINUOUS
 10
910.3112496386
 20
404.2477390727
 11
916.6752106693
 21
397.8837780421
  0
LINE
  5
5C4
100
AcDbEntity
  8
02___PRT_ALL_AXES
100
AcDbLine
 62
7
  6
CONTINUOUS
 10
837.4389012214
 20
633.1746174417
 11
837.4389012214
 21
633.9896401117
  0
LINE
  5
5C5
100
AcDbEntity
  8
02___PRT_ALL_AXES
100
AcDbLine
 62
7
  6
CONTINUOUS
 10
837.4389012214
 20
635.4896401117
 11
837.4389012214
 21
637.6896401117
  0
LINE
  5
5C6
100
AcDbEntity
  8
0
100
AcDbLine
 62
7
  6
CONTINUOUS
 10
838.3389012214
 20
549.8896401117
 11
838.3389012214
 21
525.9896401117
  0
LINE
  5
5C7
100
AcDbEntity
  8
02___PRT_ALL_AXES
100
AcDbLine
 62
7
  6
CONTINUOUS
 10
844.3389012214
 20
643.2396401117
 11
844.3389012214
 21
639.7396401117
  0
LINE
  5
5C8
100
AcDbEntity
  8
02___PRT_ALL_AXES
100
AcDbLine
 62
7
  6
CONTINUOUS
 10
845.2389012214
 20
635.4896401117
 11
845.2389012214
 21
637.6896401117
  0
LINE
  5
5C9
100
AcDbEntity
  8
0
100
AcDbLine
 62
7
  6
CONTINUOUS
 10
902.3389012214
 20
623.621272883
 11
902.804509687
 21
624.506263706
  0
LINE
  5
5CA
100
AcDbEntity
  8
0
100
AcDbLine
 62
7
  6
CONTINUOUS
 10
769.5970001825
 20
441.0172916945
 11
763.2330391518
 21
434.6533306638
  0
LINE
  5
5CB
100
AcDbEntity
  8
0
100
AcDbLine
 62
7
  6
CONTINUOUS
 10
847.8389012214
 20
570.7396401117
 11
847.8389012214
 21
561.2396401117
  0
LINE
  5
5CC
100
AcDbEntity
  8
02___PRT_ALL_AXES
100
AcDbLine
 62
7
  6
CONTINUOUS
 10
850.8389012214
 20
399.9896401117
 11
850.8389012214
 21
395.9896401117
  0
LINE
  5
5CD
100
AcDbEntity
  8
0
100
AcDbLine
 62
7
  6
CONTINUOUS
 10
850.9243540341
 20
635.4896401117
 11
850.9243540341
 21
639.7396401117
  0
LINE
  5
5CE
100
AcDbEntity
  8
0
100
AcDbLine
 62
7
  6
CONTINUOUS
 10
850.9243540341
 20
643.2396401117
 11
850.9243540341
 21
647.4896401117
  0
LINE
  5
5CF
100
AcDbEntity
  8
0
100
AcDbLine
 62
7
  6
CONTINUOUS
 10
857.3389012214
 20
635.4896401117
 11
857.3389012214
 21
647.4896401117
  0
LINE
  5
5D0
100
AcDbEntity
  8
0
100
AcDbLine
 62
7
  6
CONTINUOUS
 10
859.3389012214
 20
635.4896401117
 11
859.3389012214
 21
647.4896401117
  0
LINE
  5
5D1
100
AcDbEntity
  8
0
100
AcDbLine
 62
7
  6
CONTINUOUS
 10
790.2798735322
 20
561.0486678009
 11
789.572766751
 21
561.7557745821
  0
LINE
  5
5D2
100
AcDbEntity
  8
0
100
AcDbLine
 62
7
  6
CONTINUOUS
 10
926.3979289106
 20
424.9306124225
 11
927.1050356918
 21
424.2235056413
  0
LINE
  5
5D3
100
AcDbEntity
  8
02___PRT_ALL_AXES
100
AcDbLine
 62
7
  6
CONTINUOUS
 10
861.5389012214
 20
645.3896401117
 11
861.5389012214
 21
637.5896401117
  0
LINE
  5
5D4
100
AcDbEntity
  8
02___PRT_ALL_AXES
100
AcDbLine
 62
7
  6
CONTINUOUS
 10
862.2389012214
 20
635.4896401117
 11
862.2389012214
 21
636.1896401117
  0
LINE
  5
5D5
100
AcDbEntity
  8
02___PRT_ALL_AXES
100
AcDbLine
 62
7
  6
CONTINUOUS
 10
865.8389012214
 20
395.9896401117
 11
865.8389012214
 21
399.9896401117
  0
LINE
  5
5D6
100
AcDbEntity
  8
0
100
AcDbLine
 62
7
  6
CONTINUOUS
 10
868.8389012214
 20
561.2396401117
 11
868.8389012214
 21
570.7396401117
  0
LINE
  5
5D7
100
AcDbEntity
  8
02___PRT_ALL_AXES
100
AcDbLine
 62
7
  6
CONTINUOUS
 10
871.4389012214
 20
635.4896401117
 11
871.4389012214
 21
637.6896401117
  0
LINE
  5
5D8
100
AcDbEntity
  8
0
100
AcDbLine
 62
7
  6
CONTINUOUS
 10
790.2798735322
 20
424.9306124225
 11
789.572766751
 21
424.2235056413
  0
LINE
  5
5D9
100
AcDbEntity
  8
0
100
AcDbLine
 62
7
  6
CONTINUOUS
 10
926.3979289106
 20
561.0486678009
 11
927.1050356918
 21
561.7557745821
  0
LINE
  5
5DA
100
AcDbEntity
  8
0
100
AcDbLine
 62
7
  6
CONTINUOUS
 10
878.3389012214
 20
549.8896401117
 11
878.3389012214
 21
525.9896401117
  0
LINE
  5
5DB
100
AcDbEntity
  8
02___PRT_ALL_AXES
100
AcDbLine
 62
7
  6
CONTINUOUS
 10
879.2389012214
 20
633.1746174417
 11
879.2389012214
 21
633.9896401117
  0
LINE
  5
5DC
100
AcDbEntity
  8
02___PRT_ALL_AXES
100
AcDbLine
 62
7
  6
CONTINUOUS
 10
879.2389012214
 20
635.4896401117
 11
879.2389012214
 21
637.6896401117
  0
LINE
  5
5DD
100
AcDbEntity
  8
02___PRT_ALL_AXES
100
AcDbLine
 62
7
  6
CONTINUOUS
 10
883.3389012214
 20
633.9896401117
 11
883.3389012214
 21
635.4896401117
  0
LINE
  5
5DE
100
AcDbEntity
  8
0
100
AcDbLine
 62
7
  6
CONTINUOUS
 10
838.3389012214
 20
525.9896401117
 11
878.3389012214
 21
525.9896401117
  0
LINE
  5
5DF
100
AcDbEntity
  8
0
100
AcDbLine
 62
7
  6
CONTINUOUS
 10
806.3665528042
 20
581.7315411506
 11
800.0025917735
 21
588.0955021813
  0
LINE
  5
5E0
100
AcDbEntity
  8
0
100
AcDbLine
 62
7
  6
CONTINUOUS
 10
814.3389012214
 20
623.621272883
 11
813.8732927558
 21
624.506263706
  0
LINE
  5
5E1
100
AcDbEntity
  8
0
100
AcDbLine
 62
7
  6
CONTINUOUS
 10
886.8389012214
 20
551.9896401117
 11
886.8389012214
 21
583.0895846177
  0
LINE
  5
5E2
100
AcDbEntity
  8
0
100
AcDbLine
 62
7
  6
CONTINUOUS
 10
947.0808022603
 20
544.9619885289
 11
953.444763291
 21
551.3259495596
  0
LINE
  5
5E3
100
AcDbEntity
  8
0
100
AcDbLine
 62
7
  6
CONTINUOUS
 10
838.3389012214
 20
535.4122898425
 11
878.3389012214
 21
535.4122898425
  0
LINE
  5
5E4
100
AcDbEntity
  8
0
100
AcDbLine
 62
7
  6
CONTINUOUS
 10
838.3389012214
 20
537.14434065
 11
878.3389012214
 21
537.14434065
  0
LINE
  5
5E5
100
AcDbEntity
  8
0
100
AcDbLine
 62
7
  6
CONTINUOUS
 10
838.3389012214
 20
541.1574728526
 11
878.3389012214
 21
541.1574728526
  0
LINE
  5
5E6
100
AcDbEntity
  8
0
100
AcDbLine
 62
7
  6
CONTINUOUS
 10
838.3389012214
 20
541.8348885485
 11
878.3389012214
 21
541.8348885485
  0
LINE
  5
5E7
100
AcDbEntity
  8
0
100
AcDbLine
 62
7
  6
CONTINUOUS
 10
902.3389012214
 20
586.4896401117
 11
902.3389012214
 21
623.621272883
  0
LINE
  5
5E8
100
AcDbEntity
  8
0
100
AcDbLine
 62
7
  6
CONTINUOUS
 10
838.3389012214
 20
545.6813569358
 11
878.3389012214
 21
545.6813569358
  0
LINE
  5
5E9
100
AcDbEntity
  8
0
100
AcDbLine
 62
7
  6
CONTINUOUS
 10
838.3389012214
 20
546.4896473126
 11
878.3389012214
 21
546.4896473126
  0
LINE
  5
5EA
100
AcDbEntity
  8
0
100
AcDbLine
 62
7
  6
CONTINUOUS
 10
838.3389012214
 20
549.5476199683
 11
878.3389012214
 21
549.5476199683
  0
LINE
  5
5EB
100
AcDbEntity
  8
06___PRT_ALL_SURFS
100
AcDbLine
 62
7
  6
CONTINUOUS
 10
838.3389012214
 20
549.8896401117
 11
878.3389012214
 21
549.8896401117
  0
LINE
  5
5EC
100
AcDbEntity
  8
0
100
AcDbLine
 62
7
  6
CONTINUOUS
 10
829.8389012214
 20
551.9896401117
 11
886.8389012214
 21
551.9896401117
  0
LINE
  5
5ED
100
AcDbEntity
  8
0
100
AcDbLine
 62
7
  6
CONTINUOUS
 10
847.8389012214
 20
561.2396401117
 11
868.8389012214
 21
561.2396401117
  0
LINE
  5
5EE
100
AcDbEntity
  8
0
100
AcDbLine
 62
7
  6
CONTINUOUS
 10
868.8389012214
 20
570.7396401117
 11
847.8389012214
 21
570.7396401117
  0
LINE
  5
5EF
100
AcDbEntity
  8
0
100
AcDbLine
 62
7
  6
CONTINUOUS
 10
875.1094110526
 20
585.9896401117
 11
841.5683913901
 21
585.9896401117
  0
LINE
  5
5F0
100
AcDbEntity
  8
02___PRT_ALL_AXES
100
AcDbLine
 62
7
  6
CONTINUOUS
 10
814.3389012214
 20
586.4896401117
 11
902.3389012214
 21
586.4896401117
  0
LINE
  5
5F1
100
AcDbEntity
  8
0
100
AcDbLine
 62
7
  6
CONTINUOUS
 10
922.2146287779
 20
565.2319679335
 11
930.5812290433
 21
556.8653676682
  0
LINE
  5
5F2
100
AcDbEntity
  8
0
100
AcDbLine
 62
7
  6
CONTINUOUS
 10
930.2371294502
 20
561.805661339
 11
947.0808022603
 21
544.9619885289
  0
LINE
  5
5F3
100
AcDbEntity
  8
0
100
AcDbLine
 62
7
  6
CONTINUOUS
 10
953.444763291
 20
551.3259495596
 11
936.6010904809
 21
568.1696223697
  0
LINE
  5
5F4
100
AcDbEntity
  8
0
100
AcDbLine
 62
7
  6
CONTINUOUS
 10
941.5549134317
 20
565.3371197624
 11
938.3072541125
 21
568.5847790816
  0
LINE
  5
5F5
100
AcDbEntity
  8
0
100
AcDbLine
 62
7
  6
CONTINUOUS
 10
933.9340401913
 20
572.9579930027
 11
930.6863808721
 21
576.205652322
  0
LINE
  5
5F6
100
AcDbEntity
  8
0
100
AcDbLine
 62
7
  6
CONTINUOUS
 10
930.5812290433
 20
429.1139125551
 11
922.2146287779
 21
420.7473122898
  0
LINE
  5
5F7
100
AcDbEntity
  8
0
100
AcDbLine
 62
7
  6
CONTINUOUS
 10
927.1549224487
 20
421.0914118829
 11
910.3112496386
 21
404.2477390727
  0
LINE
  5
5F8
100
AcDbEntity
  8
0
100
AcDbLine
 62
7
  6
CONTINUOUS
 10
916.6752106693
 20
397.8837780421
 11
933.5188834794
 21
414.7274508522
  0
LINE
  5
5F9
100
AcDbEntity
  8
0
100
AcDbLine
 62
7
  6
CONTINUOUS
 10
930.6863808721
 20
409.7736279013
 11
933.9340401913
 21
413.0212872206
  0
LINE
  5
5FA
100
AcDbEntity
  8
0
100
AcDbLine
 62
7
  6
CONTINUOUS
 10
938.3072541125
 20
417.3945011417
 11
941.5549134317
 21
420.642160461
  0
LINE
  5
5FB
100
AcDbEntity
  8
0
100
AcDbLine
 62
7
  6
CONTINUOUS
 10
875.1986165215
 20
633.9896401117
 11
841.4791859213
 21
633.9896401117
  0
LINE
  5
5FC
100
AcDbEntity
  8
02___PRT_ALL_AXES
100
AcDbLine
 62
7
  6
CONTINUOUS
 10
833.3389012214
 20
633.9896401117
 11
841.4791859213
 21
633.9896401117
  0
LINE
  5
5FD
100
AcDbEntity
  8
02___PRT_ALL_AXES
100
AcDbLine
 62
7
  6
CONTINUOUS
 10
875.1986165215
 20
633.9896401117
 11
883.3389012214
 21
633.9896401117
  0
LINE
  5
5FE
100
AcDbEntity
  8
0
100
AcDbLine
 62
7
  6
CONTINUOUS
 10
833.3389012214
 20
635.4896401117
 11
883.3389012214
 21
635.4896401117
  0
LINE
  5
5FF
100
AcDbEntity
  8
02___PRT_ALL_AXES
100
AcDbLine
 62
7
  6
CONTINUOUS
 10
859.3389012214
 20
636.1896401117
 11
862.2389012214
 21
636.1896401117
  0
LINE
  5
600
100
AcDbEntity
  8
02___PRT_ALL_AXES
100
AcDbLine
 62
7
  6
CONTINUOUS
 10
859.3389012214
 20
637.5896401117
 11
861.5389012214
 21
637.5896401117
  0
LINE
  5
601
100
AcDbEntity
  8
02___PRT_ALL_AXES
100
AcDbLine
 62
7
  6
CONTINUOUS
 10
837.4389012214
 20
637.6896401117
 11
845.2389012214
 21
637.6896401117
  0
LINE
  5
602
100
AcDbEntity
  8
02___PRT_ALL_AXES
100
AcDbLine
 62
7
  6
CONTINUOUS
 10
871.4389012214
 20
637.6896401117
 11
879.2389012214
 21
637.6896401117
  0
LINE
  5
603
100
AcDbEntity
  8
02___PRT_ALL_AXES
100
AcDbLine
 62
7
  6
CONTINUOUS
 10
857.3389012214
 20
639.7396401117
 11
844.3389012214
 21
639.7396401117
  0
LINE
  5
604
100
AcDbEntity
  8
02___PRT_ALL_AXES
100
AcDbLine
 62
7
  6
CONTINUOUS
 10
857.3389012214
 20
643.2396401117
 11
844.3389012214
 21
643.2396401117
  0
LINE
  5
605
100
AcDbEntity
  8
02___PRT_ALL_AXES
100
AcDbLine
 62
7
  6
CONTINUOUS
 10
859.3389012214
 20
645.3896401117
 11
861.5389012214
 21
645.3896401117
  0
LINE
  5
606
100
AcDbEntity
  8
0
100
AcDbLine
 62
7
  6
CONTINUOUS
 10
850.9243540341
 20
647.4896401117
 11
859.3389012214
 21
647.4896401117
  0
LINE
  5
607
100
AcDbEntity
  8
0
100
AcDbLine
 62
7
  6
CONTINUOUS
 10
1382.6782631246
 20
421.8248063402
 11
1376.7201461056
 21
437.4252390832
  0
LINE
  5
608
100
AcDbEntity
  8
0
100
AcDbLine
 62
7
  6
CONTINUOUS
 10
1377.8784634177
 20
437.9555063944
 11
1377.3518854634
 21
439.3342715201
  0
LINE
  5
609
100
AcDbEntity
  8
0
100
AcDbLine
 62
7
  6
CONTINUOUS
 10
1378.8487014346
 20
438.3843732233
 11
1379.2896694798
 21
437.2297647605
  0
LINE
  5
60A
100
AcDbEntity
  8
0
100
AcDbLine
 62
7
  6
CONTINUOUS
 10
1365.7410400277
 20
485.3607404492
 11
1363.4839787565
 21
492.9014032037
  0
LINE
  5
60B
100
AcDbEntity
  8
0
100
AcDbLine
 62
7
  6
CONTINUOUS
 10
1369.2128282585
 20
483.1499700093
 11
1371.3970367954
 21
475.8520676326
  0
LINE
  5
60C
100
AcDbEntity
  8
0
100
AcDbLine
 62
7
  6
CONTINUOUS
 10
1375.2371048847
 20
440.6763379521
 11
1376.5173930796
 21
434.855992264
  0
LINE
  5
60D
100
AcDbEntity
  8
0
100
AcDbLine
 62
7
  6
CONTINUOUS
 10
1376.1295959444
 20
440.1099518673
 11
1376.7201461056
 21
437.4252390832
  0
LINE
  5
60E
100
AcDbEntity
  8
0
100
AcDbLine
 62
7
  6
CONTINUOUS
 10
1377.8784634177
 20
437.9555063944
 11
1377.6114073674
 21
439.169575646
  0
LINE
  5
60F
100
AcDbEntity
  8
0
100
AcDbLine
 62
7
  6
CONTINUOUS
 10
1379.2896694798
 20
437.2297647605
 11
1382.6782631246
 21
421.8248063402
  0
LINE
  5
610
100
AcDbEntity
  8
0
100
AcDbLine
 62
7
  6
CONTINUOUS
 10
1369.2915457616
 20
483.3035618537
 11
1369.3165178015
 21
483.169248332
  0
LINE
  5
611
100
AcDbEntity
  8
0
100
AcDbLine
 62
7
  6
CONTINUOUS
 10
1369.2915457616
 20
483.3035618537
 11
1369.3122729284
 21
483.1684500319
  0
LINE
  5
612
100
AcDbEntity
  8
0
100
AcDbLine
 62
7
  6
CONTINUOUS
 10
1391.2812140072
 20
424.3826267175
 11
1389.4745150915
 21
432.5960995007
  0
LINE
  5
613
100
AcDbEntity
  8
0
100
AcDbLine
 62
7
  6
CONTINUOUS
 10
1391.4997786865
 20
431.6345989285
 11
1392.6315186674
 21
426.4895714701
  0
LINE
  5
614
100
AcDbEntity
  8
0
100
AcDbLine
 62
7
  6
CONTINUOUS
 10
1613.982917938
 20
407.0624721953
 11
1615.8736385109
 21
407.0203227046
  0
LINE
  5
615
100
AcDbEntity
  8
0
100
AcDbLine
 62
7
  6
CONTINUOUS
 10
1574.5206509662
 20
382.6295614143
 11
1542.855656216
 21
392.3630024558
  0
LINE
  5
616
100
AcDbEntity
  8
0
100
AcDbLine
 62
7
  6
CONTINUOUS
 10
1574.3666239824
 20
383.3297867971
 11
1542.7016292321
 21
393.0632278385
  0
LINE
  5
617
100
AcDbEntity
  8
02___PRT_ALL_AXES
100
AcDbLine
 62
7
  6
CONTINUOUS
 10
1591.9664839788
 20
396.5200165494
 11
1593.2456491698
 21
396.1268164536
  0
LINE
  5
618
100
AcDbEntity
  8
02___PRT_ALL_AXES
100
AcDbLine
 62
7
  6
CONTINUOUS
 10
1594.5364501448
 20
404.7836847694
 11
1596.4125590916
 21
404.2069912956
  0
LINE
  5
619
100
AcDbEntity
  8
02___PRT_ALL_AXES
100
AcDbLine
 62
7
  6
CONTINUOUS
 10
1588.855138905
 20
410.6645692808
 11
1590.134304096
 21
410.271369185
  0
LINE
  5
61A
100
AcDbEntity
  8
02___PRT_ALL_AXES
100
AcDbLine
 62
7
  6
CONTINUOUS
 10
1515.8171935662
 20
564.4593070691
 11
1440.291825153
 21
522.5952785498
  0
LINE
  5
61B
100
AcDbEntity
  8
0
100
AcDbLine
 62
7
  6
CONTINUOUS
 10
1606.5628003794
 20
405.9722018701
 11
1607.5526138404
 21
405.6679450389
  0
LINE
  5
61C
100
AcDbEntity
  8
0
100
AcDbLine
 62
7
  6
CONTINUOUS
 10
1611.1091996947
 20
404.5746930426
 11
1616.7961219073
 21
402.8266011039
  0
LINE
  5
61D
100
AcDbEntity
  8
02___PRT_ALL_AXES
100
AcDbLine
 62
7
  6
CONTINUOUS
 10
1596.828247421
 20
412.2393983667
 11
1598.7043563678
 21
411.6627048929
  0
LINE
  5
61E
100
AcDbEntity
  8
0
100
AcDbLine
 62
7
  6
CONTINUOUS
 10
1603.749557322
 20
410.2079459343
 11
1613.9828788498
 21
407.062345168
  0
LINE
  5
61F
100
AcDbEntity
  8
0
100
AcDbLine
 62
7
  6
CONTINUOUS
 10
1612.7656127345
 20
409.1267041301
 11
1616.293993031
 21
408.0421221853
  0
LINE
  5
620
100
AcDbEntity
  8
02___PRT_ALL_AXES
100
AcDbLine
 62
7
  6
CONTINUOUS
 10
1611.8621414089
 20
410.4745099098
 11
1614.0302692541
 21
409.8080533158
  0
LINE
  5
621
100
AcDbEntity
  8
0
100
AcDbLine
 62
9
  6
CONTINUOUS
 10
1615.0398878325
 20
409.9938632539
 11
1615.9244854565
 21
409.7219485138
  0
LINE
  5
622
100
AcDbEntity
  8
0
100
AcDbLine
 62
9
  6
CONTINUOUS
 10
1613.6597964531
 20
411.4845622874
 11
1615.3003212145
 21
410.9802845774
  0
LINE
  5
623
100
AcDbEntity
  8
0
100
AcDbLine
 62
7
  6
CONTINUOUS
 10
1613.5249633902
 20
411.8487911936
 11
1615.9104660874
 21
411.1155161674
  0
LINE
  5
624
100
AcDbEntity
  8
0
100
AcDbLine
 62
9
  6
CONTINUOUS
 10
1610.9233521804
 20
414.6837738905
 11
1613.0412760106
 21
414.0327494108
  0
LINE
  5
625
100
AcDbEntity
  8
0
100
AcDbLine
 62
9
  6
CONTINUOUS
 10
1610.8882055041
 20
415.8700678603
 11
1612.7639548919
 21
415.2934849106
  0
LINE
  5
626
100
AcDbEntity
  8
0
100
AcDbLine
 62
9
  6
CONTINUOUS
 10
1442.2138252406
 20
454.0786444838
 11
1444.2759529546
 21
444.703961349
  0
LINE
  5
627
100
AcDbEntity
  8
0
100
AcDbLine
 62
7
  6
CONTINUOUS
 10
1611.568428361
 20
476.8551966587
 11
1610.5813684404
 21
476.7779921707
  0
LINE
  5
628
100
AcDbEntity
  8
0
100
AcDbLine
 62
9
  6
CONTINUOUS
 10
1611.6733592068
 20
422.2984746915
 11
1612.6270466092
 21
422.005322579
  0
LINE
  5
629
100
AcDbEntity
  8
0
100
AcDbLine
 62
9
  6
CONTINUOUS
 10
1612.1010471309
 20
423.8255710166
 11
1612.8744368027
 21
423.5878402722
  0
LINE
  5
62A
100
AcDbEntity
  8
02___PRT_ALL_AXES
100
AcDbLine
 62
7
  6
CONTINUOUS
 10
1601.693869183
 20
428.1069546604
 11
1604.0712071795
 21
427.3761893656
  0
LINE
  5
62B
100
AcDbEntity
  8
02___PRT_ALL_AXES
100
AcDbLine
 62
7
  6
CONTINUOUS
 10
1607.6277930337
 20
426.2829373694
 11
1611.9271907108
 21
424.9613538942
  0
LINE
  5
62C
100
AcDbEntity
  8
02___PRT_ALL_AXES
100
AcDbLine
 62
7
  6
CONTINUOUS
 10
1612.7754158678
 20
426.9707836749
 11
1613.3801407293
 21
426.784898478
  0
LINE
  5
62D
100
AcDbEntity
  8
0
100
AcDbLine
 62
7
  6
CONTINUOUS
 10
1600.7713857866
 20
432.3006762612
 11
1611.0047073145
 21
429.1550754949
  0
LINE
  5
62E
100
AcDbEntity
  8
02___PRT_ALL_AXES
100
AcDbLine
 62
7
  6
CONTINUOUS
 10
1440.3996440417
 20
522.1051207818
 11
1440.291825153
 21
522.5952785498
  0
LINE
  5
62F
100
AcDbEntity
  8
0
100
AcDbLine
 62
7
  6
CONTINUOUS
 10
1601.7694788242
 20
433.6287884484
 11
1612.002800352
 21
430.4831876821
  0
LINE
  5
630
100
AcDbEntity
  8
0
100
AcDbLine
 62
7
  6
CONTINUOUS
 10
1566.2988907938
 20
445.0753463071
 11
1575.9830134186
 21
442.0985627216
  0
LINE
  5
631
100
AcDbEntity
  8
02___PRT_ALL_AXES
100
AcDbLine
 62
7
  6
CONTINUOUS
 10
1597.5515418119
 20
435.5119688669
 11
1599.4276507587
 21
434.9352753931
  0
LINE
  5
632
100
AcDbEntity
  8
02___PRT_ALL_AXES
100
AcDbLine
 62
7
  6
CONTINUOUS
 10
1613.7958290588
 20
434.817305549
 11
1615.6719380056
 21
434.2406120752
  0
LINE
  5
633
100
AcDbEntity
  8
02___PRT_ALL_AXES
100
AcDbLine
 62
7
  6
CONTINUOUS
 10
1599.8433390882
 20
442.9676824642
 11
1601.719448035
 21
442.3909889904
  0
LINE
  5
634
100
AcDbEntity
  8
0
100
AcDbLine
 62
7
  6
CONTINUOUS
 10
1586.6177228828
 20
451.5001640752
 11
1598.6417923231
 21
447.8041087971
  0
LINE
  5
635
100
AcDbEntity
  8
02___PRT_ALL_AXES
100
AcDbLine
 62
7
  6
CONTINUOUS
 10
1613.8074648429
 20
443.8673739607
 11
1615.0866300338
 21
443.4741738649
  0
LINE
  5
636
100
AcDbEntity
  8
0
100
AcDbLine
 62
7
  6
CONTINUOUS
 10
1574.5206509662
 20
382.6295614143
 11
1575.0429903191
 21
382.0883856246
  0
LINE
  5
637
100
AcDbEntity
  8
02___PRT_ALL_AXES
100
AcDbLine
 62
7
  6
CONTINUOUS
 10
1440.3996440417
 20
522.1051207818
 11
1487.3437789345
 21
473.3624611869
  0
LINE
  5
638
100
AcDbEntity
  8
02___PRT_ALL_AXES
100
AcDbLine
 62
7
  6
CONTINUOUS
 10
1440.291825153
 20
522.5952785498
 11
1487.2359600458
 21
473.8526189548
  0
LINE
  5
639
100
AcDbEntity
  8
0
100
AcDbLine
 62
7
  6
CONTINUOUS
 10
1502.0461161317
 20
395.9550285541
 11
1501.9444983257
 21
396.3023696354
  0
LINE
  5
63A
100
AcDbEntity
  8
0
100
AcDbLine
 62
7
  6
CONTINUOUS
 10
1501.8490875131
 20
413.0549202817
 11
1501.818985502
 21
413.1592060655
  0
LINE
  5
63B
100
AcDbEntity
  8
0
100
AcDbLine
 62
9
  6
CONTINUOUS
 10
1479.4824755285
 20
462.2761485894
 11
1477.0394117867
 21
473.38261319
  0
LINE
  5
63C
100
AcDbEntity
  8
0
100
AcDbLine
 62
7
  6
CONTINUOUS
 10
1491.0947218457
 20
423.5058596035
 11
1495.7629154107
 21
402.2836844752
  0
LINE
  5
63D
100
AcDbEntity
  8
0
100
AcDbLine
 62
7
  6
CONTINUOUS
 10
1493.7657326908
 20
424.0598583208
 11
1499.4398460635
 21
398.2646495285
  0
LINE
  5
63E
100
AcDbEntity
  8
0
100
AcDbLine
 62
7
  6
CONTINUOUS
 10
1501.3834212873
 20
398.8425112855
 11
1501.9422778839
 21
396.3018812969
  0
LINE
  5
63F
100
AcDbEntity
  8
02___PRT_ALL_AXES
100
AcDbLine
 62
9
  6
CONTINUOUS
 10
1517.7207290533
 20
515.0084251222
 11
1538.8258381464
 21
529.7134060602
  0
LINE
  5
640
100
AcDbEntity
  8
0
100
AcDbLine
 62
7
  6
CONTINUOUS
 10
1567.1876141427
 20
417.7998801444
 11
1566.6652747898
 21
418.3410559341
  0
LINE
  5
641
100
AcDbEntity
  8
0
100
AcDbLine
 62
7
  6
CONTINUOUS
 10
1516.5010294619
 20
416.9628858282
 11
1518.7521551489
 21
411.0686520019
  0
LINE
  5
642
100
AcDbEntity
  8
0
100
AcDbLine
 62
7
  6
CONTINUOUS
 10
1514.9607596234
 20
423.9651396557
 11
1517.2118853104
 21
418.0709058293
  0
LINE
  5
643
100
AcDbEntity
  8
02___PRT_ALL_AXES
100
AcDbLine
 62
7
  6
CONTINUOUS
 10
1487.3437789345
 20
473.3624611869
 11
1487.2359600458
 21
473.8526189548
  0
LINE
  5
644
100
AcDbEntity
  8
0
100
AcDbLine
 62
7
  6
CONTINUOUS
 10
1498.1559942704
 20
425.3651663114
 11
1503.8301076431
 21
399.5699575191
  0
LINE
  5
645
100
AcDbEntity
  8
0
100
AcDbLine
 62
7
  6
CONTINUOUS
 10
1499.0729957357
 20
425.6378082299
 11
1501.8179360387
 21
413.1589761045
  0
LINE
  5
646
100
AcDbEntity
  8
0
100
AcDbLine
 62
7
  6
CONTINUOUS
 10
1501.9561567252
 20
426.4950266461
 11
1504.7478892816
 21
413.8034712513
  0
LINE
  5
647
100
AcDbEntity
  8
0
100
AcDbLine
 62
7
  6
CONTINUOUS
 10
1507.2619100625
 20
407.6523843255
 11
1509.1102338688
 21
399.2496797326
  0
LINE
  5
648
100
AcDbEntity
  8
0
100
AcDbLine
 62
7
  6
CONTINUOUS
 10
1504.0678068006
 20
427.1228602425
 11
1508.5097043025
 21
406.9294545122
  0
LINE
  5
649
100
AcDbEntity
  8
0
100
AcDbLine
 62
7
  6
CONTINUOUS
 10
1511.3842093161
 20
399.9257757392
 11
1511.7087886936
 21
398.4501984528
  0
LINE
  5
64A
100
AcDbEntity
  8
0
100
AcDbLine
 62
7
  6
CONTINUOUS
 10
1508.4580683803
 20
428.4281682332
 11
1512.8999658821
 21
408.2347625028
  0
LINE
  5
64B
100
AcDbEntity
  8
0
100
AcDbLine
 62
7
  6
CONTINUOUS
 10
1477.0394117867
 20
473.38261319
 11
1442.2138252406
 21
454.0786444838
  0
LINE
  5
64C
100
AcDbEntity
  8
02___PRT_ALL_AXES
100
AcDbLine
 62
7
  6
CONTINUOUS
 10
1487.2359600458
 20
473.8526189548
 11
1562.761328459
 21
515.7166474741
  0
LINE
  5
64D
100
AcDbEntity
  8
02___PRT_ALL_AXES
100
AcDbLine
 62
7
  6
CONTINUOUS
 10
1487.3437789345
 20
473.3624611869
 11
1562.8691473477
 21
515.2264897062
  0
LINE
  5
64E
100
AcDbEntity
  8
0
100
AcDbLine
 62
7
  6
CONTINUOUS
 10
1379.2896694798
 20
437.2297647605
 11
1380.2283270016
 21
437.5088454352
  0
LINE
  5
64F
100
AcDbEntity
  8
02___PRT_ALL_AXES
100
AcDbLine
 62
9
  6
CONTINUOUS
 10
1489.0442261111
 20
506.4823571978
 11
1464.6235958651
 21
507.5949304532
  0
LINE
  5
650
100
AcDbEntity
  8
0
100
AcDbLine
 62
7
  6
CONTINUOUS
 10
1528.491309801
 20
421.4244925462
 11
1526.240184114
 21
427.3187263726
  0
LINE
  5
651
100
AcDbEntity
  8
0
100
AcDbLine
 62
7
  6
CONTINUOUS
 10
1509.8682096111
 20
428.928024003
 11
1513.575395619
 21
412.0747059913
  0
LINE
  5
652
100
AcDbEntity
  8
0
100
AcDbLine
 62
7
  6
CONTINUOUS
 10
1516.5010294619
 20
416.9628858282
 11
1514.9607596234
 21
423.9651396557
  0
LINE
  5
653
100
AcDbEntity
  8
0
100
AcDbLine
 62
7
  6
CONTINUOUS
 10
1518.7521551489
 20
411.0686520019
 11
1517.2118853104
 21
418.0709058293
  0
LINE
  5
654
100
AcDbEntity
  8
0
100
AcDbLine
 62
7
  6
CONTINUOUS
 10
1450.0378477227
 20
445.9548678847
 11
1484.8634342688
 21
465.2588365908
  0
LINE
  5
655
100
AcDbEntity
  8
0
100
AcDbLine
 62
7
  6
CONTINUOUS
 10
1528.491309801
 20
421.4244925462
 11
1531.8799034457
 21
406.0195341259
  0
LINE
  5
656
100
AcDbEntity
  8
0
100
AcDbLine
 62
7
  6
CONTINUOUS
 10
1391.2812140072
 20
424.3826267175
 11
1382.6782631246
 21
421.8248063402
  0
LINE
  5
657
100
AcDbEntity
  8
02___PRT_ALL_AXES
100
AcDbLine
 62
7
  6
CONTINUOUS
 10
1542.7016292321
 20
393.0632278385
 11
1542.855656216
 21
392.3630024558
  0
LINE
  5
658
100
AcDbEntity
  8
0
100
AcDbLine
 62
7
  6
CONTINUOUS
 10
1544.1487682047
 20
419.6523238069
 11
1547.5373618494
 21
404.2473653866
  0
LINE
  5
659
100
AcDbEntity
  8
0
100
AcDbLine
 62
7
  6
CONTINUOUS
 10
1547.7680252783
 20
448.0815932155
 11
1552.4754294667
 21
426.6811618296
  0
LINE
  5
65A
100
AcDbEntity
  8
02___PRT_ALL_AXES
100
AcDbLine
 62
7
  6
CONTINUOUS
 10
1538.7180192578
 20
530.2035638281
 11
1539.5246598115
 21
527.5047804668
  0
LINE
  5
65B
100
AcDbEntity
  8
0
100
AcDbLine
 62
7
  6
CONTINUOUS
 10
1566.6652747898
 20
418.3410559341
 11
1574.5206509662
 21
382.6295614143
  0
LINE
  5
65C
100
AcDbEntity
  8
0
100
AcDbLine
 62
7
  6
CONTINUOUS
 10
1567.1876141427
 20
417.7998801444
 11
1575.0429903191
 21
382.0883856246
  0
LINE
  5
65D
100
AcDbEntity
  8
0
100
AcDbLine
 62
7
  6
CONTINUOUS
 10
1526.240184114
 20
427.3187263726
 11
1514.9607596234
 21
423.9651396557
  0
LINE
  5
65E
100
AcDbEntity
  8
0
100
AcDbLine
 62
7
  6
CONTINUOUS
 10
1517.2118853104
 20
418.0709058293
 11
1528.491309801
 21
421.4244925462
  0
LINE
  5
65F
100
AcDbEntity
  8
0
100
AcDbLine
 62
7
  6
CONTINUOUS
 10
1512.7457511806
 20
415.8463704091
 11
1516.5010294619
 21
416.9628858282
  0
LINE
  5
660
100
AcDbEntity
  8
02___PRT_ALL_AXES
100
AcDbLine
 62
7
  6
CONTINUOUS
 10
1562.761328459
 20
515.7166474741
 11
1515.8171935662
 21
564.4593070691
  0
LINE
  5
661
100
AcDbEntity
  8
0
100
AcDbLine
 62
7
  6
CONTINUOUS
 10
1566.2698800487
 20
462.3384189591
 11
1569.2139585648
 21
448.9542803219
  0
LINE
  5
662
100
AcDbEntity
  8
0
100
AcDbLine
 62
7
  6
CONTINUOUS
 10
1572.5944197738
 20
457.5035211419
 11
1575.9830134186
 21
442.0985627216
  0
LINE
  5
663
100
AcDbEntity
  8
02___PRT_ALL_AXES
100
AcDbLine
 62
7
  6
CONTINUOUS
 10
1562.8691473477
 20
515.2264897062
 11
1562.761328459
 21
515.7166474741
  0
LINE
  5
664
100
AcDbEntity
  8
0
100
AcDbLine
 62
7
  6
CONTINUOUS
 10
1569.2139585648
 20
448.9542803219
 11
1552.4754294667
 21
426.6811618296
  0
LINE
  5
665
100
AcDbEntity
  8
0
100
AcDbLine
 62
7
  6
CONTINUOUS
 10
1518.7521551489
 20
411.0686520019
 11
1513.4464495523
 21
409.4911651516
  0
LINE
  5
666
100
AcDbEntity
  8
0
100
AcDbLine
 62
7
  6
CONTINUOUS
 10
1508.2838477643
 20
407.9562257763
 11
1507.2619100625
 21
407.6523843255
  0
LINE
  5
667
100
AcDbEntity
  8
0
100
AcDbLine
 62
7
  6
CONTINUOUS
 10
1512.8999658821
 20
408.2347625028
 11
1508.5097043025
 21
406.9294545122
  0
LINE
  5
668
100
AcDbEntity
  8
0
100
AcDbLine
 62
7
  6
CONTINUOUS
 10
1503.8301076431
 20
399.5699575191
 11
1499.4398460635
 21
398.2646495285
  0
LINE
  5
669
100
AcDbEntity
  8
02___PRT_ALL_AXES
100
AcDbLine
 62
7
  6
CONTINUOUS
 10
1588.855138905
 20
410.6645692808
 11
1591.9664839788
 21
396.5200165494
  0
LINE
  5
66A
100
AcDbEntity
  8
0
100
AcDbLine
 62
7
  6
CONTINUOUS
 10
1576.0686482691
 20
472.3204631325
 11
1577.2185729721
 21
467.0927657177
  0
LINE
  5
66B
100
AcDbEntity
  8
02___PRT_ALL_AXES
100
AcDbLine
 62
7
  6
CONTINUOUS
 10
1590.134304096
 20
410.271369185
 11
1593.2456491698
 21
396.1268164536
  0
LINE
  5
66C
100
AcDbEntity
  8
02___PRT_ALL_AXES
100
AcDbLine
 62
7
  6
CONTINUOUS
 10
1589.0514423515
 20
433.6458320462
 11
1592.9175196462
 21
416.0701749394
  0
LINE
  5
66D
100
AcDbEntity
  8
02___PRT_ALL_AXES
100
AcDbLine
 62
7
  6
CONTINUOUS
 10
1596.3854075884
 20
400.3047350083
 11
1596.9068185279
 21
397.9343375264
  0
LINE
  5
66E
100
AcDbEntity
  8
0
100
AcDbLine
 62
7
  6
CONTINUOUS
 10
1531.8799034457
 20
406.0195341259
 11
1509.1102338688
 21
399.2496797326
  0
LINE
  5
66F
100
AcDbEntity
  8
0
100
AcDbLine
 62
7
  6
CONTINUOUS
 10
1572.5149107635
 20
535.6482240087
 11
1574.6991193004
 21
528.350321632
  0
LINE
  5
670
100
AcDbEntity
  8
0
100
AcDbLine
 62
7
  6
CONTINUOUS
 10
1573.5500980157
 20
547.1463126743
 11
1575.8071592869
 21
539.6056499198
  0
LINE
  5
671
100
AcDbEntity
  8
0
100
AcDbLine
 62
7
  6
CONTINUOUS
 10
1600.7713857866
 20
432.3006762612
 11
1601.693869183
 21
428.1069546604
  0
LINE
  5
672
100
AcDbEntity
  8
0
100
AcDbLine
 62
7
  6
CONTINUOUS
 10
1605.7675187691
 20
409.5876486968
 11
1606.5628003794
 21
405.9722018701
  0
LINE
  5
673
100
AcDbEntity
  8
02___PRT_ALL_AXES
100
AcDbLine
 62
7
  6
CONTINUOUS
 10
1542.7016292321
 20
393.0632278385
 11
1586.6177228828
 21
451.5001640752
  0
LINE
  5
674
100
AcDbEntity
  8
0
100
AcDbLine
 62
7
  6
CONTINUOUS
 10
1611.0047073145
 20
429.1550754949
 11
1611.9271907108
 21
424.9613538942
  0
LINE
  5
675
100
AcDbEntity
  8
0
100
AcDbLine
 62
7
  6
CONTINUOUS
 10
1615.8736385109
 20
407.0203227046
 11
1616.7961219073
 21
402.8266011039
  0
LINE
  5
676
100
AcDbEntity
  8
0
100
AcDbLine
 62
7
  6
CONTINUOUS
 10
1612.5049292283
 20
425.2676666007
 11
1612.8744368027
 21
423.5878402722
  0
LINE
  5
677
100
AcDbEntity
  8
0
100
AcDbLine
 62
7
  6
CONTINUOUS
 10
1615.9244854565
 20
409.7219485138
 11
1616.293993031
 21
408.0421221853
  0
LINE
  5
678
100
AcDbEntity
  8
02___PRT_ALL_AXES
100
AcDbLine
 62
7
  6
CONTINUOUS
 10
1605.879006807
 20
456.0374254089
 11
1609.7450841017
 21
438.4617683021
  0
LINE
  5
679
100
AcDbEntity
  8
02___PRT_ALL_AXES
100
AcDbLine
 62
7
  6
CONTINUOUS
 10
1613.2594579814
 20
422.484997651
 11
1613.7343829834
 21
420.3259308891
  0
LINE
  5
67A
100
AcDbEntity
  8
0
100
AcDbLine
 62
7
  6
CONTINUOUS
 10
1612.002800352
 20
430.4831876821
 11
1613.3734833215
 21
424.2518963658
  0
LINE
  5
67B
100
AcDbEntity
  8
0
100
AcDbLine
 62
7
  6
CONTINUOUS
 10
1616.4235319753
 20
410.3860046074
 11
1617.7942149448
 21
404.1547132911
  0
LINE
  5
67C
100
AcDbEntity
  8
02___PRT_ALL_AXES
100
AcDbLine
 62
7
  6
CONTINUOUS
 10
1618.1979751076
 20
429.3296211335
 11
1615.0866300338
 21
443.4741738649
  0
LINE
  5
67D
100
AcDbEntity
  8
0
100
AcDbLine
 62
7
  6
CONTINUOUS
 10
1604.9817123343
 20
456.2403213709
 11
1588.2431832362
 21
433.9672028785
  0
LINE
  5
67E
100
AcDbEntity
  8
0
100
AcDbLine
 62
7
  6
CONTINUOUS
 10
1589.0514423515
 20
433.6458320462
 11
1605.879006807
 21
456.0374254089
  0
LINE
  5
67F
100
AcDbEntity
  8
0
100
AcDbLine
 62
7
  6
CONTINUOUS
 10
1600.7713857866
 20
432.3006762612
 11
1601.7694788242
 21
433.6287884484
  0
LINE
  5
680
100
AcDbEntity
  8
0
100
AcDbLine
 62
7
  6
CONTINUOUS
 10
1611.568428361
 20
476.8551966587
 11
1619.4238045374
 21
441.1437021389
  0
LINE
  5
681
100
AcDbEntity
  8
02___PRT_ALL_AXES
100
AcDbLine
 62
7
  6
CONTINUOUS
 10
1605.2716411548
 20
432.552265593
 11
1605.5209216897
 21
432.8839706585
  0
LINE
  5
682
100
AcDbEntity
  8
02___PRT_ALL_AXES
100
AcDbLine
 62
7
  6
CONTINUOUS
 10
1613.8074648429
 20
443.8673739607
 11
1605.6812375763
 21
433.0542121982
  0
LINE
  5
683
100
AcDbEntity
  8
02___PRT_ALL_AXES
100
AcDbLine
 62
7
  6
CONTINUOUS
 10
1601.5221359029
 20
427.5199048615
 11
1588.855138905
 21
410.6645692808
  0
LINE
  5
684
100
AcDbEntity
  8
0
100
AcDbLine
 62
7
  6
CONTINUOUS
 10
1615.0866300338
 20
443.4741738649
 11
1607.5118937891
 21
433.3948534575
  0
LINE
  5
685
100
AcDbEntity
  8
0
100
AcDbLine
 62
7
  6
CONTINUOUS
 10
1600.7022040459
 20
424.3335419375
 11
1590.134304096
 21
410.271369185
  0
LINE
  5
686
100
AcDbEntity
  8
02___PRT_ALL_AXES
100
AcDbLine
 62
7
  6
CONTINUOUS
 10
1598.6560728697
 20
420.1705425954
 11
1605.1436776135
 21
428.8032718122
  0
LINE
  5
687
100
AcDbEntity
  8
02___PRT_ALL_AXES
100
AcDbLine
 62
7
  6
CONTINUOUS
 10
1601.4540401065
 20
418.0678349739
 11
1607.9416448503
 21
426.7005641906
  0
LINE
  5
688
100
AcDbEntity
  8
0
100
AcDbLine
 62
7
  6
CONTINUOUS
 10
1612.002800352
 20
430.4831876821
 11
1611.0047073145
 21
429.1550754949
  0
LINE
  5
689
100
AcDbEntity
  8
0
100
AcDbLine
 62
7
  6
CONTINUOUS
 10
1593.2456491698
 20
396.1268164536
 11
1603.8135491197
 21
410.1889892062
  0
LINE
  5
68A
100
AcDbEntity
  8
0
100
AcDbLine
 62
7
  6
CONTINUOUS
 10
1613.3490899396
 20
422.8774536061
 11
1618.1979751076
 21
429.3296211335
  0
LINE
  5
68B
100
AcDbEntity
  8
0
100
AcDbLine
 62
7
  6
CONTINUOUS
 10
1613.7343829834
 20
420.3259308891
 11
1612.2134864684
 21
418.3021504185
  0
LINE
  5
68C
100
AcDbEntity
  8
0
100
AcDbLine
 62
7
  6
CONTINUOUS
 10
1605.6837741629
 20
409.6133907881
 11
1596.9068185279
 21
397.9343375264
  0
LINE
  5
68D
100
AcDbEntity
  8
02___PRT_ALL_AXES
100
AcDbLine
 62
7
  6
CONTINUOUS
 10
1603.1382580997
 20
399.7939839576
 11
1609.6258628436
 21
408.4267131744
  0
LINE
  5
68E
100
AcDbEntity
  8
02___PRT_ALL_AXES
100
AcDbLine
 62
7
  6
CONTINUOUS
 10
1605.9362253366
 20
397.6912763361
 11
1612.4238300804
 21
406.3240055529
  0
LINE
  5
68F
100
AcDbEntity
  8
0
100
AcDbLine
 62
7
  6
CONTINUOUS
 10
1616.7961219073
 20
402.8266011039
 11
1617.7942149448
 21
404.1547132911
  0
LWPOLYLINE
  5
690
100
AcDbEntity
  8
0
100
AcDbPolyline
 62
7
  6
CONTINUOUS
 90
2
 70
1
 43
1.25
 10
1603.7290981857
 20
58.7446566652
 42
1.0
 10
1616.4290981857
 20
58.7446566652
 42
1.0
  0
LWPOLYLINE
  5
691
100
AcDbEntity
  8
0
100
AcDbPolyline
 62
7
  6
CONTINUOUS
 90
2
 70
1
 43
1.25
 10
1606.9040981857
 20
58.7446566652
 42
1.0
 10
1613.2540981857
 20
58.7446566652
 42
1.0
  0
ARC
  5
692
100
AcDbEntity
  8
0
100
AcDbCircle
 62
7
  6
CONTINUOUS
 10
1921.730403809
 20
219.4546247554
 40
1.1312511807
100
AcDbArc
 50
90.0
 51
180.0
  0
ARC
  5
693
100
AcDbEntity
  8
0
100
AcDbCircle
 62
7
  6
CONTINUOUS
 10
1837.936368753
 20
219.6595290382
 40
1.1312511807
100
AcDbArc
 50
90.0
 51
180.0
  0
ARC
  5
694
100
AcDbEntity
  8
0
100
AcDbCircle
 62
7
  6
CONTINUOUS
 10
1947.7979309258
 20
221.7171271126
 40
1.1312511762
100
AcDbArc
 50
270.0
 51
360.0
  0
ARC
  5
695
100
AcDbEntity
  8
0
100
AcDbCircle
 62
7
  6
CONTINUOUS
 10
1896.9769229858
 20
210.4337936158
 40
1.1312511762
100
AcDbArc
 50
0.0
 51
89.9999995368
  0
ARC
  5
696
100
AcDbEntity
  8
0
100
AcDbCircle
 62
7
  6
CONTINUOUS
 10
1871.6498589978
 20
205.8613932226
 40
1.1312511762
100
AcDbArc
 50
90.0
 51
180.0
  0
ARC
  5
697
100
AcDbEntity
  8
0
100
AcDbCircle
 62
7
  6
CONTINUOUS
 10
1871.6498589978
 20
203.718082947
 40
1.1312511762
100
AcDbArc
 50
180.0
 51
270.0
  0
ARC
  5
698
100
AcDbEntity
  8
0
100
AcDbCircle
 62
7
  6
CONTINUOUS
 10
1907.0159333622
 20
221.6719926014
 40
1.1312511762
100
AcDbArc
 50
270.0
 51
360.0
  0
ARC
  5
699
100
AcDbEntity
  8
0
100
AcDbCircle
 62
7
  6
CONTINUOUS
 10
1907.0159333622
 20
223.9804069226
 40
1.1312511762
100
AcDbArc
 50
359.9999995369
 51
90.0
  0
ARC
  5
69A
100
AcDbEntity
  8
0
100
AcDbCircle
 62
7
  6
CONTINUOUS
 10
1837.9363687486
 20
208.3792164738
 40
1.1312511762
100
AcDbArc
 50
180.0
 51
270.0
  0
ARC
  5
69B
100
AcDbEntity
  8
0
100
AcDbCircle
 62
7
  6
CONTINUOUS
 10
1881.654491601
 20
217.2690495478
 40
1.1312511762
100
AcDbArc
 50
180.0
 51
270.0
  0
ARC
  5
69C
100
AcDbEntity
  8
0
100
AcDbCircle
 62
7
  6
CONTINUOUS
 10
1921.7304038042
 20
208.221894211
 40
1.1312511762
100
AcDbArc
 50
180.0
 51
270.0
  0
ARC
  5
69D
100
AcDbEntity
  8
0
100
AcDbCircle
 62
7
  6
CONTINUOUS
 10
1947.7979309306
 20
223.9804069318
 40
1.1312511716
100
AcDbArc
 50
0.000000539
 51
89.9999999245
  0
ARC
  5
69E
100
AcDbEntity
  8
0
100
AcDbCircle
 62
7
  6
CONTINUOUS
 10
1947.7979309318
 20
203.6803363994
 40
1.1312511701
100
AcDbArc
 50
270.1250535673
 51
360.0
  0
ARC
  5
69F
100
AcDbEntity
  8
0
100
AcDbCircle
 62
7
  6
CONTINUOUS
 10
1947.7979309306
 20
205.9593918634
 40
1.1312511716
100
AcDbArc
 50
0.0
 51
90.0
  0
ARC
  5
6A0
100
AcDbEntity
  8
0
100
AcDbCircle
 62
7
  6
CONTINUOUS
 10
1881.6544915966
 20
219.4094902534
 40
1.1312511716
100
AcDbArc
 50
90.0
 51
180.0
  0
ARC
  5
6A1
100
AcDbEntity
  8
0
100
AcDbCircle
 62
7
  6
CONTINUOUS
 10
1860.538363807
 20
208.3792164918
 40
1.1312511716
100
AcDbArc
 50
270.0
 51
360.0
  0
ARC
  5
6A2
100
AcDbEntity
  8
0
100
AcDbCircle
 62
7
  6
CONTINUOUS
 10
1860.538363807
 20
219.6595290474
 40
1.1312511716
100
AcDbArc
 50
0.0000004631
 51
90.0000004631
  0
ARC
  5
6A3
100
AcDbEntity
  8
0
100
AcDbCircle
 62
7
  6
CONTINUOUS
 10
1896.9769229902
 20
208.1238955706
 40
1.1312511716
100
AcDbArc
 50
270.0
 51
360.0
  0
ARC
  5
6A4
100
AcDbEntity
  8
0
100
AcDbCircle
 62
7
  6
CONTINUOUS
 10
1851.3646223802
 20
209.427268945
 40
0.4350966066
100
AcDbArc
 50
90.0000000001
 51
180.0
  0
ARC
  5
6A5
100
AcDbEntity
  8
0
100
AcDbCircle
 62
7
  6
CONTINUOUS
 10
1851.463578277
 20
200.4007547054
 40
0.435096602
100
AcDbArc
 50
180.0
 51
270.0
  0
ARC
  5
6A6
100
AcDbEntity
  8
0
100
AcDbCircle
 62
7
  6
CONTINUOUS
 10
1858.2384749534
 20
200.4007547054
 40
0.435096602
100
AcDbArc
 50
270.0
 51
360.0
  0
ARC
  5
6A7
100
AcDbEntity
  8
0
100
AcDbCircle
 62
7
  6
CONTINUOUS
 10
1858.1049926382
 20
209.4272689586
 40
0.4350965928
100
AcDbArc
 50
0.0
 51
89.9999987958
  0
CIRCLE
  5
6A8
100
AcDbEntity
  8
0
100
AcDbCircle
 62
7
  6
CONTINUOUS
 10
677.6667397638
 20
717.0467789305
 40
0.103627445
  0
CIRCLE
  5
6A9
100
AcDbEntity
  8
0
100
AcDbCircle
 62
7
  6
CONTINUOUS
 10
858.3389012214
 20
1144.8282366352
 40
130.0
  0
CIRCLE
  5
6AA
100
AcDbEntity
  8
0
100
AcDbCircle
 62
9
  6
CONTINUOUS
 10
858.3389012214
 20
1144.8282366352
 40
109.1627736971
  0
CIRCLE
  5
6AB
100
AcDbEntity
  8
0
100
AcDbCircle
 62
7
  6
CONTINUOUS
 10
858.3389012214
 20
1144.8282366352
 40
108.7
  0
CIRCLE
  5
6AC
100
AcDbEntity
  8
0
100
AcDbCircle
 62
7
  6
CONTINUOUS
 10
858.3389012214
 20
1144.8282366352
 40
105.2
  0
ARC
  5
6AD
100
AcDbEntity
  8
0
100
AcDbCircle
 62
7
  6
CONTINUOUS
 10
858.3389012214
 20
1097.8282366352
 40
95.5
100
AcDbArc
 50
280.1683776237
 51
297.7496080069
  0
ARC
  5
6AE
100
AcDbEntity
  8
0
100
AcDbCircle
 62
7
  6
CONTINUOUS
 10
858.3389012214
 20
1097.8282366352
 40
95.5
100
AcDbArc
 50
242.2503919931
 51
259.8316223763
  0
ARC
  5
6AF
100
AcDbEntity
  8
02___PRT_ALL_AXES
100
AcDbCircle
 62
7
  6
CONTINUOUS
 10
858.3389012214
 20
1097.8282366352
 40
94.5
100
AcDbArc
 50
280.2221793906
 51
297.7496080069
  0
ARC
  5
6B0
100
AcDbEntity
  8
02___PRT_ALL_AXES
100
AcDbCircle
 62
7
  6
CONTINUOUS
 10
858.3389012214
 20
1097.8282366352
 40
94.5
100
AcDbArc
 50
242.2503919931
 51
259.7778206094
  0
CIRCLE
  5
6B1
100
AcDbEntity
  8
02___PRT_ALL_AXES
100
AcDbCircle
 62
7
  6
CONTINUOUS
 10
888.8859141686
 20
1128.7062020242
 40
38.9
  0
CIRCLE
  5
6B2
100
AcDbEntity
  8
0
100
AcDbCircle
 62
7
  6
CONTINUOUS
 10
888.8859141686
 20
1128.7062020242
 40
15.0
  0
ARC
  5
6B3
100
AcDbEntity
  8
0
100
AcDbCircle
 62
7
  6
CONTINUOUS
 10
784.0410409577
 20
1132.4512232538
 40
7.5
100
AcDbArc
 50
62.2
 51
242.2
  0
ARC
  5
6B4
100
AcDbEntity
  8
0
100
AcDbCircle
 62
7
  6
CONTINUOUS
 10
820.7511514292
 20
1113.0961776797
 40
7.5
100
AcDbArc
 50
242.2
 51
62.2
  0
ARC
  5
6B5
100
AcDbEntity
  8
0
100
AcDbCircle
 62
7
  6
CONTINUOUS
 10
749.1761275243
 20
835.8606743458
 40
55.0
100
AcDbArc
 50
90.0
 51
112.2630033414
  0
ARC
  5
6B6
100
AcDbEntity
  8
0
100
AcDbCircle
 62
7
  6
CONTINUOUS
 10
967.5016749184
 20
835.8606743458
 40
55.0
100
AcDbArc
 50
67.7369966586
 51
90.0
  0
ARC
  5
6B7
100
AcDbEntity
  8
0
100
AcDbCircle
 62
7
  6
CONTINUOUS
 10
866.9243540341
 20
806.4606743458
 40
16.0
100
AcDbArc
 50
126.8048087637
 51
233.1951912363
  0
ARC
  5
6B8
100
AcDbEntity
  8
0
100
AcDbCircle
 62
7
  6
CONTINUOUS
 10
866.9243540341
 20
806.4606743458
 40
15.0
100
AcDbArc
 50
124.9152062474
 51
235.0847937526
  0
ARC
  5
6B9
100
AcDbEntity
  8
0
100
AcDbCircle
 62
7
  6
CONTINUOUS
 10
859.3389012214
 20
810.3616948602
 40
5.0
100
AcDbArc
 50
112.619864948
 51
216.8811429293
  0
ARC
  5
6BA
100
AcDbEntity
  8
0
100
AcDbCircle
 62
7
  6
CONTINUOUS
 10
859.3389012214
 20
802.5596538313
 40
5.0
100
AcDbArc
 50
143.1188570707
 51
247.380135052
  0
ARC
  5
6BB
100
AcDbEntity
  8
0
100
AcDbCircle
 62
7
  6
CONTINUOUS
 10
859.3389012214
 20
802.5596538313
 40
4.0
100
AcDbArc
 50
143.1188570707
 51
247.380135052
  0
ARC
  5
6BC
100
AcDbEntity
  8
0
100
AcDbCircle
 62
7
  6
CONTINUOUS
 10
859.3389012214
 20
810.3616948602
 40
4.0
100
AcDbArc
 50
112.619864948
 51
216.8811429293
  0
CIRCLE
  5
6BD
100
AcDbEntity
  8
02___PRT_ALL_AXES
100
AcDbCircle
 62
7
  6
CONTINUOUS
 10
858.3389012214
 20
833.6606743458
 40
3.9
  0
CIRCLE
  5
6BE
100
AcDbEntity
  8
02___PRT_ALL_AXES
100
AcDbCircle
 62
7
  6
CONTINUOUS
 10
841.3389012214
 20
806.4606743458
 40
3.9
  0
CIRCLE
  5
6BF
100
AcDbEntity
  8
02___PRT_ALL_AXES
100
AcDbCircle
 62
7
  6
CONTINUOUS
 10
875.3389012214
 20
806.4606743458
 40
3.9
  0
ARC
  5
6C0
100
AcDbEntity
  8
0
100
AcDbCircle
 62
7
  6
CONTINUOUS
 10
856.8389012214
 20
816.3616948602
 40
2.5
100
AcDbArc
 50
292.619864948
 51
360.0
  0
ARC
  5
6C1
100
AcDbEntity
  8
0
100
AcDbCircle
 62
7
  6
CONTINUOUS
 10
854.1396667637
 20
806.4606743458
 40
2.5
100
AcDbArc
 50
323.1188570707
 51
36.8811429293
  0
ARC
  5
6C2
100
AcDbEntity
  8
0
100
AcDbCircle
 62
7
  6
CONTINUOUS
 10
856.8389012214
 20
796.5596538313
 40
2.5
100
AcDbArc
 50
0.0
 51
67.380135052
  0
ARC
  5
6C3
100
AcDbEntity
  8
0
100
AcDbCircle
 62
7
  6
CONTINUOUS
 10
862.3389012214
 20
806.4606743458
 40
2.5
100
AcDbArc
 50
90.0
 51
270.0
  0
ARC
  5
6C4
100
AcDbEntity
  8
0
100
AcDbCircle
 62
7
  6
CONTINUOUS
 10
856.8389012214
 20
816.3616948602
 40
1.5
100
AcDbArc
 50
292.6198649481
 51
360.0
  0
ARC
  5
6C5
100
AcDbEntity
  8
0
100
AcDbCircle
 62
7
  6
CONTINUOUS
 10
854.1396667637
 20
806.4606743458
 40
1.5
100
AcDbArc
 50
323.1188570705
 51
36.8811429294
  0
ARC
  5
6C6
100
AcDbEntity
  8
0
100
AcDbCircle
 62
7
  6
CONTINUOUS
 10
856.8389012214
 20
796.5596538313
 40
1.5
100
AcDbArc
 50
0.0
 51
67.380135052
  0
ARC
  5
6C7
100
AcDbEntity
  8
0
100
AcDbCircle
 62
7
  6
CONTINUOUS
 10
1223.021317885
 20
835.8606743458
 40
55.0
100
AcDbArc
 50
90.0
 51
112.2630033414
  0
ARC
  5
6C8
100
AcDbEntity
  8
0
100
AcDbCircle
 62
7
  6
CONTINUOUS
 10
1441.3468652791
 20
835.8606743458
 40
55.0
100
AcDbArc
 50
67.7369966586
 51
90.0
  0
CIRCLE
  5
6C9
100
AcDbEntity
  8
02___PRT_ALL_AXES
100
AcDbCircle
 62
7
  6
CONTINUOUS
 10
1183.6840915821
 20
821.0106743458
 40
3.9
  0
CIRCLE
  5
6CA
100
AcDbEntity
  8
02___PRT_ALL_AXES
100
AcDbCircle
 62
7
  6
CONTINUOUS
 10
1183.6840915821
 20
791.9106743458
 40
3.9
  0
ARC
  5
6CB
100
AcDbEntity
  8
0
100
AcDbCircle
 62
7
  6
CONTINUOUS
 10
1866.5719907842
 20
835.8606743458
 40
55.0
100
AcDbArc
 50
67.7369966586
 51
90.0
  0
ARC
  5
6CC
100
AcDbEntity
  8
0
100
AcDbCircle
 62
7
  6
CONTINUOUS
 10
1648.24644339
 20
835.8606743458
 40
55.0
100
AcDbArc
 50
90.0
 51
112.2630033414
  0
ARC
  5
6CD
100
AcDbEntity
  8
0
100
AcDbCircle
 62
7
  6
CONTINUOUS
 10
464.6676479146
 20
835.8606743458
 40
55.0
100
AcDbArc
 50
67.7369966586
 51
90.0
  0
ARC
  5
6CE
100
AcDbEntity
  8
0
100
AcDbCircle
 62
7
  6
CONTINUOUS
 10
246.3421005204
 20
835.8606743458
 40
55.0
100
AcDbArc
 50
90.0
 51
112.2630033414
  0
CIRCLE
  5
6CF
100
AcDbEntity
  8
02___PRT_ALL_AXES
100
AcDbCircle
 62
7
  6
CONTINUOUS
 10
504.0048742175
 20
821.0106743458
 40
1.75
  0
CIRCLE
  5
6D0
100
AcDbEntity
  8
02___PRT_ALL_AXES
100
AcDbCircle
 62
7
  6
CONTINUOUS
 10
504.0048742175
 20
791.9106743458
 40
1.75
  0
ARC
  5
6D1
100
AcDbEntity
  8
0
100
AcDbCircle
 62
7
  6
CONTINUOUS
 10
784.799795978
 20
419.4505348683
 40
9.75
100
AcDbArc
 50
277.0201275551
 51
7.6431480271
  0
ARC
  5
6D2
100
AcDbEntity
  8
0
100
AcDbCircle
 62
7
  6
CONTINUOUS
 10
784.799795978
 20
419.4505348683
 40
9.75
100
AcDbArc
 50
82.3568519729
 51
107.5135737496
  0
ARC
  5
6D3
100
AcDbEntity
  8
0
100
AcDbCircle
 62
7
  6
CONTINUOUS
 10
784.799795978
 20
419.4505348683
 40
9.75
100
AcDbArc
 50
162.4864262504
 51
172.9798724449
  0
ARC
  5
6D4
100
AcDbEntity
  8
0
100
AcDbCircle
 62
7
  6
CONTINUOUS
 10
784.799795978
 20
419.4505348683
 40
6.75
100
AcDbArc
 50
252.2660444507
 51
93.1896851042
  0
ARC
  5
6D5
100
AcDbEntity
  8
0
100
AcDbCircle
 62
7
  6
CONTINUOUS
 10
784.799795978
 20
419.4505348683
 40
6.75
100
AcDbArc
 50
176.8103148958
 51
197.7339555493
  0
CIRCLE
  5
6D6
100
AcDbEntity
  8
0
100
AcDbCircle
 62
7
  6
CONTINUOUS
 10
784.799795978
 20
419.4505348683
 40
5.0
  0
CIRCLE
  5
6D7
100
AcDbEntity
  8
0
100
AcDbCircle
 62
7
  6
CONTINUOUS
 10
784.799795978
 20
419.4505348683
 40
1.5
  0
ARC
  5
6D8
100
AcDbEntity
  8
0
100
AcDbCircle
 62
7
  6
CONTINUOUS
 10
784.799795978
 20
566.5287453551
 40
9.75
100
AcDbArc
 50
187.0201275551
 51
277.6431480271
  0
ARC
  5
6D9
100
AcDbEntity
  8
0
100
AcDbCircle
 62
7
  6
CONTINUOUS
 10
784.799795978
 20
566.5287453551
 40
9.75
100
AcDbArc
 50
352.3568519729
 51
17.5135737496
  0
ARC
  5
6DA
100
AcDbEntity
  8
0
100
AcDbCircle
 62
7
  6
CONTINUOUS
 10
784.799795978
 20
566.5287453551
 40
9.75
100
AcDbArc
 50
72.4864262504
 51
82.9798724449
  0
ARC
  5
6DB
100
AcDbEntity
  8
0
100
AcDbCircle
 62
7
  6
CONTINUOUS
 10
784.799795978
 20
566.5287453551
 40
6.75
100
AcDbArc
 50
162.2660444507
 51
3.1896851042
  0
ARC
  5
6DC
100
AcDbEntity
  8
0
100
AcDbCircle
 62
7
  6
CONTINUOUS
 10
784.799795978
 20
566.5287453551
 40
6.75
100
AcDbArc
 50
86.8103148958
 51
107.7339555493
  0
CIRCLE
  5
6DD
100
AcDbEntity
  8
0
100
AcDbCircle
 62
7
  6
CONTINUOUS
 10
784.799795978
 20
566.5287453551
 40
5.0
  0
CIRCLE
  5
6DE
100
AcDbEntity
  8
0
100
AcDbCircle
 62
7
  6
CONTINUOUS
 10
784.799795978
 20
566.5287453551
 40
1.5
  0
ARC
  5
6DF
100
AcDbEntity
  8
0
100
AcDbCircle
 62
7
  6
CONTINUOUS
 10
931.8780064648
 20
419.4505348683
 40
9.75
100
AcDbArc
 50
7.0201275551
 51
97.6431480271
  0
ARC
  5
6E0
100
AcDbEntity
  8
0
100
AcDbCircle
 62
7
  6
CONTINUOUS
 10
931.8780064648
 20
419.4505348683
 40
9.75
100
AcDbArc
 50
172.3568519729
 51
197.5135737496
  0
ARC
  5
6E1
100
AcDbEntity
  8
0
100
AcDbCircle
 62
7
  6
CONTINUOUS
 10
931.8780064648
 20
419.4505348683
 40
9.75
100
AcDbArc
 50
252.4864262504
 51
262.9798724449
  0
ARC
  5
6E2
100
AcDbEntity
  8
02___PRT_ALL_AXES
100
AcDbCircle
 62
7
  6
CONTINUOUS
 10
858.3389012214
 20
395.9896401117
 40
7.5
100
AcDbArc
 50
180.0
 51
360.0
  0
ARC
  5
6E3
100
AcDbEntity
  8
0
100
AcDbCircle
 62
7
  6
CONTINUOUS
 10
931.8780064648
 20
419.4505348683
 40
6.75
100
AcDbArc
 50
342.2660444507
 51
183.1896851042
  0
ARC
  5
6E4
100
AcDbEntity
  8
0
100
AcDbCircle
 62
7
  6
CONTINUOUS
 10
931.8780064648
 20
419.4505348683
 40
6.75
100
AcDbArc
 50
266.8103148958
 51
287.7339555493
  0
CIRCLE
  5
6E5
100
AcDbEntity
  8
0
100
AcDbCircle
 62
7
  6
CONTINUOUS
 10
931.8780064648
 20
419.4505348683
 40
5.0
  0
CIRCLE
  5
6E6
100
AcDbEntity
  8
02___PRT_ALL_AXES
100
AcDbCircle
 62
7
  6
CONTINUOUS
 10
858.3389012214
 20
395.9896401117
 40
4.0
  0
CIRCLE
  5
6E7
100
AcDbEntity
  8
0
100
AcDbCircle
 62
7
  6
CONTINUOUS
 10
931.8780064648
 20
419.4505348683
 40
1.5
  0
ARC
  5
6E8
100
AcDbEntity
  8
0
100
AcDbCircle
 62
7
  6
CONTINUOUS
 10
858.3389012214
 20
492.9896401117
 40
130.0
100
AcDbArc
 50
109.7992247771
 51
70.2007752229
  0
ARC
  5
6E9
100
AcDbEntity
  8
0
100
AcDbCircle
 62
7
  6
CONTINUOUS
 10
858.3389012214
 20
492.9896401117
 40
111.5
100
AcDbArc
 50
121.7872424655
 51
211.522143502
  0
ARC
  5
6EA
100
AcDbEntity
  8
0
100
AcDbCircle
 62
7
  6
CONTINUOUS
 10
858.3389012214
 20
492.9896401117
 40
111.5
100
AcDbArc
 50
113.2520994428
 51
121.5047944108
  0
ARC
  5
6EB
100
AcDbEntity
  8
0
100
AcDbCircle
 62
7
  6
CONTINUOUS
 10
858.3389012214
 20
492.9896401117
 40
111.5
100
AcDbArc
 50
212.3732679589
 51
301.5047944108
  0
ARC
  5
6EC
100
AcDbEntity
  8
0
100
AcDbCircle
 62
7
  6
CONTINUOUS
 10
858.3389012214
 20
492.9896401117
 40
111.5
100
AcDbArc
 50
301.7872424655
 51
31.522143502
  0
ARC
  5
6ED
100
AcDbEntity
  8
0
100
AcDbCircle
 62
7
  6
CONTINUOUS
 10
858.3389012214
 20
492.9896401117
 40
111.5
100
AcDbArc
 50
32.3732679589
 51
66.6890343633
  0
ARC
  5
6EE
100
AcDbEntity
  8
0
100
AcDbCircle
 62
7
  6
CONTINUOUS
 10
858.3389012214
 20
492.9896401117
 40
94.5
100
AcDbArc
 50
280.2221793906
 51
79.7778206094
  0
ARC
  5
6EF
100
AcDbEntity
  8
0
100
AcDbCircle
 62
7
  6
CONTINUOUS
 10
858.3389012214
 20
492.9896401117
 40
94.5
100
AcDbArc
 50
100.2221793906
 51
259.7778206094
  0
ARC
  5
6F0
100
AcDbEntity
  8
0
100
AcDbCircle
 62
7
  6
CONTINUOUS
 10
858.3389012214
 20
539.9896401117
 40
95.5
100
AcDbArc
 50
62.2503919931
 51
79.8316223763
  0
ARC
  5
6F1
100
AcDbEntity
  8
0
100
AcDbCircle
 62
7
  6
CONTINUOUS
 10
858.3389012214
 20
539.9896401117
 40
95.5
100
AcDbArc
 50
100.1683776237
 51
117.7496080069
  0
ARC
  5
6F2
100
AcDbEntity
  8
0
100
AcDbCircle
 62
7
  6
CONTINUOUS
 10
931.8780064648
 20
566.5287453551
 40
9.75
100
AcDbArc
 50
97.0201275551
 51
187.6431480271
  0
ARC
  5
6F3
100
AcDbEntity
  8
0
100
AcDbCircle
 62
7
  6
CONTINUOUS
 10
931.8780064648
 20
566.5287453551
 40
9.75
100
AcDbArc
 50
262.3568519729
 51
287.5135737496
  0
ARC
  5
6F4
100
AcDbEntity
  8
0
100
AcDbCircle
 62
7
  6
CONTINUOUS
 10
931.8780064648
 20
566.5287453551
 40
9.75
100
AcDbArc
 50
342.4864262504
 51
352.9798724449
  0
ARC
  5
6F5
100
AcDbEntity
  8
0
100
AcDbCircle
 62
7
  6
CONTINUOUS
 10
931.8780064648
 20
566.5287453551
 40
6.75
100
AcDbArc
 50
72.2660444507
 51
273.1896851042
  0
ARC
  5
6F6
100
AcDbEntity
  8
0
100
AcDbCircle
 62
7
  6
CONTINUOUS
 10
931.8780064648
 20
566.5287453551
 40
6.75
100
AcDbArc
 50
356.8103148958
 51
17.7339555493
  0
CIRCLE
  5
6F7
100
AcDbEntity
  8
0
100
AcDbCircle
 62
7
  6
CONTINUOUS
 10
931.8780064648
 20
566.5287453551
 40
5.0
  0
CIRCLE
  5
6F8
100
AcDbEntity
  8
02___PRT_ALL_AXES
100
AcDbCircle
 62
7
  6
CONTINUOUS
 10
931.8780064648
 20
566.5287453551
 40
1.5
  0
ARC
  5
6F9
100
AcDbEntity
  8
0
100
AcDbCircle
 62
7
  6
CONTINUOUS
 10
1449.9002666038
 20
606.0394317265
 40
186.2119863951
100
AcDbArc
 50
283.5566300755
 51
284.9667459406
  0
ARC
  5
6FA
100
AcDbEntity
  8
0
100
AcDbCircle
 62
7
  6
CONTINUOUS
 10
1450.1284142058
 20
605.1967401983
 40
185.3389614246
100
AcDbArc
 50
284.9658878463
 51
286.8731611751
  0
ARC
  5
6FB
100
AcDbEntity
  8
0
100
AcDbCircle
 62
7
  6
CONTINUOUS
 10
1450.4846441878
 20
604.0162550443
 40
184.1058994114
100
AcDbArc
 50
286.8737046553
 51
288.3011942365
  0
ARC
  5
6FC
100
AcDbEntity
  8
0
100
AcDbCircle
 62
7
  6
CONTINUOUS
 10
1455.8575849062
 20
578.9756514698
 40
159.5128817201
100
AcDbArc
 50
283.7720775317
 51
285.4208990141
  0
ARC
  5
6FD
100
AcDbEntity
  8
0
100
AcDbCircle
 62
7
  6
CONTINUOUS
 10
1456.0636255136
 20
578.2421051464
 40
158.7509564254
100
AcDbArc
 50
285.4196115642
 51
287.6511698851
  0
ARC
  5
6FE
100
AcDbEntity
  8
0
100
AcDbCircle
 62
7
  6
CONTINUOUS
 10
1456.5672696949
 20
576.6577138262
 40
157.0884423424
100
AcDbArc
 50
287.651347898
 51
289.3172447834
  0
ARC
  5
6FF
100
AcDbEntity
  8
0
100
AcDbCircle
 62
7
  6
CONTINUOUS
 10
1456.9397396307
 20
575.5819229093
 40
155.9500045015
100
AcDbArc
 50
289.3188501479
 51
289.5772211198
  0
ARC
  5
700
100
AcDbEntity
  8
0
100
AcDbCircle
 62
7
  6
CONTINUOUS
 10
1530.5099448872
 20
468.1155505945
 40
96.6123568544
100
AcDbArc
 50
311.0890931078
 51
313.4128404573
  0
ARC
  5
701
100
AcDbEntity
  8
0
100
AcDbCircle
 62
7
  6
CONTINUOUS
 10
1406.0465971068
 20
499.3648307185
 40
64.2638463832
100
AcDbArc
 50
200.9030220975
 51
201.5237922939
  0
ARC
  5
702
100
AcDbEntity
  8
0
100
AcDbCircle
 62
7
  6
CONTINUOUS
 10
1406.0509118659
 20
498.6073416532
 40
64.1035564171
100
AcDbArc
 50
200.2625429609
 51
200.9029510453
  0
ARC
  5
703
100
AcDbEntity
  8
0
100
AcDbCircle
 62
7
  6
CONTINUOUS
 10
1405.4729748427
 20
499.1527873304
 40
63.6523226488
100
AcDbArc
 50
193.3555428405
 51
200.9089389036
  0
ARC
  5
704
100
AcDbEntity
  8
0
100
AcDbCircle
 62
7
  6
CONTINUOUS
 10
1535.1100847003
 20
527.6233675067
 40
63.6214177073
100
AcDbArc
 50
12.4236004936
 51
20.9090156612
  0
ARC
  5
705
100
AcDbEntity
  8
0
100
AcDbCircle
 62
7
  6
CONTINUOUS
 10
1535.5601229196
 20
527.7426495302
 40
63.1562587116
100
AcDbArc
 50
11.757309353
 51
12.4057568812
  0
ARC
  5
706
100
AcDbEntity
  8
0
100
AcDbCircle
 62
7
  6
CONTINUOUS
 10
1404.9778468665
 20
499.0190079504
 40
63.1396850782
100
AcDbArc
 50
192.4057690218
 51
193.3412140532
  0
ARC
  5
707
100
AcDbEntity
  8
0
100
AcDbCircle
 62
7
  6
CONTINUOUS
 10
1525.9764195353
 20
517.590392013
 40
53.3986988411
100
AcDbArc
 50
18.5461962295
 51
20.9036695819
  0
ARC
  5
708
100
AcDbEntity
  8
0
100
AcDbCircle
 62
7
  6
CONTINUOUS
 10
1420.4554473834
 20
494.5992023045
 40
52.5184035156
100
AcDbArc
 50
200.913809279
 51
205.3558910673
  0
ARC
  5
709
100
AcDbEntity
  8
0
100
AcDbCircle
 62
7
  6
CONTINUOUS
 10
1525.0220868542
 20
514.0917140195
 40
51.5814656869
100
AcDbArc
 50
16.0068794335
 51
20.9052637338
  0
ARC
  5
70A
100
AcDbEntity
  8
0
100
AcDbCircle
 62
7
  6
CONTINUOUS
 10
1524.3479274367
 20
517.2826725627
 40
51.55353186
100
AcDbArc
 50
359.1386564865
 51
12.3969841623
  0
ARC
  5
70B
100
AcDbEntity
  8
0
100
AcDbCircle
 62
7
  6
CONTINUOUS
 10
1525.2972658739
 20
514.1746442081
 40
51.2940876587
100
AcDbArc
 50
13.5125003825
 51
16.0025974026
  0
ARC
  5
70C
100
AcDbEntity
  8
0
100
AcDbCircle
 62
7
  6
CONTINUOUS
 10
1419.8817026745
 20
490.995314703
 40
51.1715451733
100
AcDbArc
 50
188.798122638
 51
189.8982716939
  0
ARC
  5
70D
100
AcDbEntity
  8
0
100
AcDbCircle
 62
7
  6
CONTINUOUS
 10
1635.1574579813
 20
417.2900583064
 40
35.1684094323
100
AcDbArc
 50
162.0868971881
 51
166.818810255
  0
ARC
  5
70E
100
AcDbEntity
  8
0
100
AcDbCircle
 62
7
  6
CONTINUOUS
 10
1634.051485825
 20
417.5533033421
 40
34.0315475786
100
AcDbArc
 50
166.8257355095
 51
168.5078357124
  0
ARC
  5
70F
100
AcDbEntity
  8
0
100
AcDbCircle
 62
7
  6
CONTINUOUS
 10
1643.9663467244
 20
414.5878983602
 40
33.2246988812
100
AcDbArc
 50
162.024410955
 51
163.873753711
  0
ARC
  5
710
100
AcDbEntity
  8
0
100
AcDbCircle
 62
7
  6
CONTINUOUS
 10
1643.7173002001
 20
414.65551477
 40
32.966671326
100
AcDbArc
 50
163.8664228432
 51
166.6382686525
  0
ARC
  5
711
100
AcDbEntity
  8
0
100
AcDbCircle
 62
7
  6
CONTINUOUS
 10
1643.6487326144
 20
414.6905675739
 40
32.890903198
100
AcDbArc
 50
161.2414185104
 51
162.0237808428
  0
ARC
  5
712
100
AcDbEntity
  8
0
100
AcDbCircle
 62
7
  6
CONTINUOUS
 10
1632.3981335143
 20
417.8819709893
 40
32.3458608258
100
AcDbArc
 50
168.4948599582
 51
171.7490260608
  0
ARC
  5
713
100
AcDbEntity
  8
02___PRT_ALL_AXES
100
AcDbCircle
 62
7
  6
CONTINUOUS
 10
1482.2769309002
 20
514.9395602363
 40
19.1897107999
100
AcDbArc
 50
200.9039424327
 51
202.3168672735
  0
ARC
  5
714
100
AcDbEntity
  8
02___PRT_ALL_AXES
100
AcDbCircle
 62
7
  6
CONTINUOUS
 10
1482.1349014288
 20
514.8852348055
 40
19.0376462815
100
AcDbArc
 50
193.9197745174
 51
200.9037218657
  0
ARC
  5
715
100
AcDbEntity
  8
02___PRT_ALL_AXES
100
AcDbCircle
 62
7
  6
CONTINUOUS
 10
1520.9999645084
 20
523.4300385728
 40
18.9684537085
100
AcDbArc
 50
10.8969911236
 51
12.4053797494
  0
ARC
  5
716
100
AcDbEntity
  8
02___PRT_ALL_AXES
100
AcDbCircle
 62
7
  6
CONTINUOUS
 10
1482.0673063302
 20
514.8659673269
 40
18.967401327
100
AcDbArc
 50
192.4055049338
 51
193.9124015391
  0
ARC
  5
717
100
AcDbEntity
  8
02___PRT_ALL_AXES
100
AcDbCircle
 62
7
  6
CONTINUOUS
 10
1521.1311152254
 20
522.9559081841
 40
18.9411456042
100
AcDbArc
 50
13.8828785839
 51
20.9015266789
  0
ARC
  5
718
100
AcDbEntity
  8
02___PRT_ALL_AXES
100
AcDbCircle
 62
7
  6
CONTINUOUS
 10
1610.3514574203
 20
406.455999074
 40
6.7990305741
100
AcDbArc
 50
46.8868480583
 51
47.5080831083
  0
ARC
  5
719
100
AcDbEntity
  8
0
100
AcDbCircle
 62
7
  6
CONTINUOUS
 10
1608.2495147826
 20
423.7563490756
 40
5.1756881731
100
AcDbArc
 50
335.5527960667
 51
338.2722469397
  0
SPLINE
  5
71A
100
AcDbEntity
  8
0
100
AcDbSpline
 62
7
  6
CONTINUOUS
 70
0
 71
3
 72
13
 73
9
 74
0
 42
0.0000001
 43
0.0000001
 44
0.0000000001
 40
0.0
 40
0.0
 40
0.0
 40
0.0
 40
0.1317357684
 40
0.2713541552
 40
0.4178991716
 40
0.5930152361
 40
0.7698067128
 40
1.0
 40
1.0
 40
1.0
 40
1.0
 10
1917.3855966356
 20
225.1116581034
 30
0.0
 10
1916.7463016845
 20
225.0640429911
 30
0.0
 10
1915.4294585992
 20
224.9659636516
 30
0.0
 10
1913.6448739631
 20
223.8601332983
 30
0.0
 10
1912.3637551598
 20
222.0036432912
 30
0.0
 10
1911.5307055239
 20
219.7335646777
 30
0.0
 10
1911.0614810999
 20
216.9585849069
 30
0.0
 10
1911.0182782237
 20
214.9977354702
 30
0.0
 10
1910.9958871737
 20
213.8885203282
 30
0.0
  0
SPLINE
  5
71B
100
AcDbEntity
  8
0
100
AcDbSpline
 62
7
  6
CONTINUOUS
 70
0
 71
3
 72
13
 73
9
 74
0
 42
0.0000001
 43
0.0000001
 44
0.0000000001
 40
0.0
 40
0.0
 40
0.0
 40
0.0
 40
0.2249509061
 40
0.4029463322
 40
0.5792549365
 40
0.726797924
 40
0.8673671114
 40
1.0
 40
1.0
 40
1.0
 40
1.0
 10
1910.9978726379
 20
213.7163910296
 30
0.0
 10
1911.0198223984
 20
212.6397829893
 30
0.0
 10
1911.0669237825
 20
210.7118803264
 30
0.0
 10
1911.5307051399
 20
207.9690675931
 30
0.0
 10
1912.3637647519
 20
205.6992428719
 30
0.0
 10
1913.6448435959
 20
203.8419649812
 30
0.0
 10
1915.4295644318
 20
202.7387780212
 30
0.0
 10
1916.7460864714
 20
202.6344743151
 30
0.0
 10
1917.3855966356
 20
202.5868431917
 30
0.0
  0
SPLINE
  5
71C
100
AcDbEntity
  8
0
100
AcDbSpline
 62
7
  6
CONTINUOUS
 70
0
 71
3
 72
13
 73
9
 74
0
 42
0.0000001
 43
0.0000001
 44
0.0000000001
 40
0.0
 40
0.0
 40
0.0
 40
0.0
 40
0.1604571392
 40
0.3334692485
 40
0.4767982758
 40
0.6242014838
 40
0.7505998515
 40
1.0
 40
1.0
 40
1.0
 40
1.0
 10
1903.0921172002
 20
202.5868317709
 30
0.0
 10
1903.622237601
 20
202.6123561221
 30
0.0
 10
1904.7239576531
 20
202.6654019475
 30
0.0
 10
1906.2054590508
 20
203.3086019168
 30
0.0
 10
1907.321819168
 20
204.3897673816
 30
0.0
 10
1907.9509320007
 20
205.629281817
 30
0.0
 10
1908.4332634252
 20
207.2921031294
 30
0.0
 10
1908.4528364498
 20
208.536479713
 30
0.0
 10
1908.4658261602
 20
209.3623150713
 30
0.0
  0
SPLINE
  5
71D
100
AcDbEntity
  8
0
100
AcDbSpline
 62
7
  6
CONTINUOUS
 70
0
 71
3
 72
13
 73
9
 74
0
 42
0.0000001
 43
0.0000001
 44
0.0000000001
 40
0.0
 40
0.0
 40
0.0
 40
0.0
 40
0.2494001485
 40
0.3757985162
 40
0.5232017242
 40
0.6665307515
 40
0.8395428608
 40
1.0
 40
1.0
 40
1.0
 40
1.0
 10
1908.4658261602
 20
209.3623150713
 30
0.0
 10
1908.4528364498
 20
210.1881504386
 30
0.0
 10
1908.4332634252
 20
211.4325270131
 30
0.0
 10
1907.9509320007
 20
213.0953483438
 30
0.0
 10
1907.321819168
 20
214.3348627792
 30
0.0
 10
1906.2054590508
 20
215.4160282257
 30
0.0
 10
1904.7239576531
 20
216.0592281951
 30
0.0
 10
1903.622237601
 20
216.1122740387
 30
0.0
 10
1903.0921172002
 20
216.1377983717
 30
0.0
  0
SPLINE
  5
71E
100
AcDbEntity
  8
0
100
AcDbSpline
 62
7
  6
CONTINUOUS
 70
0
 71
3
 72
13
 73
9
 74
0
 42
0.0000001
 43
0.0000001
 44
0.0000000001
 40
0.0
 40
0.0
 40
0.0
 40
0.0
 40
0.1133740464
 40
0.2392044088
 40
0.3655787964
 40
0.4912154373
 40
0.7445390876
 40
1.0
 40
1.0
 40
1.0
 40
1.0
 10
1875.2496877224
 20
225.1116580988
 30
0.0
 10
1874.8867965518
 20
225.0937840111
 30
0.0
 10
1874.1211436549
 20
225.0560720154
 30
0.0
 10
1872.9838420128
 20
224.7162802622
 30
0.0
 10
1871.9664148549
 20
224.030134875
 30
0.0
 10
1870.9271039469
 20
222.7662289111
 30
0.0
 10
1870.2731035968
 20
220.7820647067
 30
0.0
 10
1870.202177155
 20
219.1552005375
 30
0.0
 10
1870.1665649875
 20
218.3383514453
 30
0.0
  0
SPLINE
  5
71F
100
AcDbEntity
  8
0
100
AcDbSpline
 62
7
  6
CONTINUOUS
 70
0
 71
3
 72
13
 73
9
 74
0
 42
0.0000001
 43
0.0000001
 44
0.0000000001
 40
0.0
 40
0.0
 40
0.0
 40
0.0
 40
0.2554609124
 40
0.5087845627
 40
0.6344212036
 40
0.7607955912
 40
0.8866259536
 40
1.0
 40
1.0
 40
1.0
 40
1.0
 10
1870.1665649875
 20
218.3383514453
 30
0.0
 10
1870.202177155
 20
217.5215023439
 30
0.0
 10
1870.2731035968
 20
215.8946381656
 30
0.0
 10
1870.9271039469
 20
213.9104739704
 30
0.0
 10
1871.9664148549
 20
212.6465680064
 30
0.0
 10
1872.9838420128
 20
211.9604226284
 30
0.0
 10
1874.1211436549
 20
211.620630866
 30
0.0
 10
1874.8867965518
 20
211.5829188703
 30
0.0
 10
1875.2496877224
 20
211.5650447918
 30
0.0
  0
SPLINE
  5
720
100
AcDbEntity
  8
0
100
AcDbSpline
 62
7
  6
CONTINUOUS
 70
0
 71
3
 72
12
 73
8
 74
0
 42
0.0000001
 43
0.0000001
 44
0.0000000001
 40
0.0
 40
0.0
 40
0.0
 40
0.0
 40
0.2415790084
 40
0.4893269843
 40
0.7378634303
 40
0.8656387112
 40
1.0
 40
1.0
 40
1.0
 40
1.0
 10
1862.1299231248
 20
202.58683178
 30
0.0
 10
1862.7496810054
 20
202.6060993493
 30
0.0
 10
1864.005022955
 20
202.6451265265
 30
0.0
 10
1865.8420848973
 20
203.3002716688
 30
0.0
 10
1866.9577687792
 20
204.5370123267
 30
0.0
 10
1867.4493020669
 20
205.7727450231
 30
0.0
 10
1867.4581602163
 20
206.4496767787
 30
0.0
 10
1867.4627005689
 20
206.7966463799
 30
0.0
  0
SPLINE
  5
721
100
AcDbEntity
  8
0
100
AcDbSpline
 62
7
  6
CONTINUOUS
 70
0
 71
3
 72
12
 73
8
 74
0
 42
0.0000001
 43
0.0000001
 44
0.0000000001
 40
0.0
 40
0.0
 40
0.0
 40
0.0
 40
0.1343612888
 40
0.2621365697
 40
0.5106730157
 40
0.7584209916
 40
1.0
 40
1.0
 40
1.0
 40
1.0
 10
1867.4627005689
 20
220.8754245672
 30
0.0
 10
1867.4581602163
 20
221.2223941867
 30
0.0
 10
1867.4493020669
 20
221.8993259423
 30
0.0
 10
1866.9577687792
 20
223.1350586388
 30
0.0
 10
1865.8420848973
 20
224.3717992966
 30
0.0
 10
1864.005022955
 20
225.0269444298
 30
0.0
 10
1862.7496810054
 20
225.0659715979
 30
0.0
 10
1862.1299231248
 20
225.0852391763
 30
0.0
  0
SPLINE
  5
722
100
AcDbEntity
  8
0
100
AcDbSpline
 62
7
  6
CONTINUOUS
 70
0
 71
3
 72
12
 73
8
 74
0
 42
0.0000001
 43
0.0000001
 44
0.0000000001
 40
0.0
 40
0.0
 40
0.0
 40
0.0
 40
0.1341799809
 40
0.290831959
 40
0.5815217441
 40
0.760783857
 40
1.0
 40
1.0
 40
1.0
 40
1.0
 10
1833.4511993586
 20
225.0852391763
 30
0.0
 10
1832.8256654784
 20
224.9783294942
 30
0.0
 10
1831.469835486
 20
224.7466052638
 30
0.0
 10
1829.1875132851
 20
223.0414876478
 30
0.0
 10
1828.1064896712
 20
220.1727984917
 30
0.0
 10
1827.4739924154
 20
216.9208749503
 30
0.0
 10
1827.4265128264
 20
214.9539633617
 30
0.0
 10
1827.3993718982
 20
213.8296110318
 30
0.0
  0
SPLINE
  5
723
100
AcDbEntity
  8
0
100
AcDbSpline
 62
7
  6
CONTINUOUS
 70
0
 71
3
 72
12
 73
8
 74
0
 42
0.0000001
 43
0.0000001
 44
0.0000000001
 40
0.0
 40
0.0
 40
0.0
 40
0.0
 40
0.2392679579
 40
0.4185688994
 40
0.7093216488
 40
0.8660075581
 40
1.0
 40
1.0
 40
1.0
 40
1.0
 10
1827.3993718982
 20
213.8296110318
 30
0.0
 10
1827.4265236712
 20
212.7053025199
 30
0.0
 10
1827.4740222066
 20
210.7384675946
 30
0.0
 10
1828.106382979
 20
207.4859922128
 30
0.0
 10
1829.1880670823
 20
204.619973763
 30
0.0
 10
1831.4680130593
 20
202.9093192905
 30
0.0
 10
1832.8254629479
 20
202.6885832768
 30
0.0
 10
1833.4511993586
 20
202.58683178
 30
0.0
  0
SPLINE
  5
724
100
AcDbEntity
  8
02___PRT_ALL_AXES
100
AcDbSpline
 62
7
  6
CONTINUOUS
 70
0
 71
3
 72
12
 73
8
 74
0
 42
0.0000001
 43
0.0000001
 44
0.0000000001
 40
0.0
 40
0.0
 40
0.0
 40
0.0
 40
0.3766578359
 40
0.6937648925
 40
0.8151817751
 40
0.9066800868
 40
1.0
 40
1.0
 40
1.0
 40
1.0
 10
1191.9991142521
 20
806.4606743458
 30
0.0
 10
1191.9991142521
 20
806.9737343744
 30
0.0
 10
1191.9557016124
 20
807.9224765002
 30
0.0
 10
1191.8123754247
 20
809.0146749567
 30
0.0
 10
1191.6244691718
 20
809.7315995741
 30
0.0
 10
1191.4971000283
 20
810.089492185
 30
0.0
 10
1191.3087213927
 20
810.3831612098
 30
0.0
 10
1191.1840915821
 20
810.3581504782
 30
0.0
  0
SPLINE
  5
725
100
AcDbEntity
  8
02___PRT_ALL_AXES
100
AcDbSpline
 62
7
  6
CONTINUOUS
 70
0
 71
3
 72
12
 73
8
 74
0
 42
0.0000001
 43
0.0000001
 44
0.0000000001
 40
0.0
 40
0.0
 40
0.0
 40
0.0
 40
0.0932746321
 40
0.1847672624
 40
0.3062194182
 40
0.6232919566
 40
1.0
 40
1.0
 40
1.0
 40
1.0
 10
1191.1840915821
 20
802.5631982133
 30
0.0
 10
1191.3086613141
 20
802.5381995383
 30
0.0
 10
1191.4970321302
 20
802.8317104314
 30
0.0
 10
1191.6244643463
 20
803.1895761985
 30
0.0
 10
1191.8122238044
 20
803.906534588
 30
0.0
 10
1191.9557697531
 20
804.9987640253
 30
0.0
 10
1191.9991142521
 20
805.9475443015
 30
0.0
 10
1191.9991142521
 20
806.4606743458
 30
0.0
  0
SPLINE
  5
726
100
AcDbEntity
  8
02___PRT_ALL_AXES
100
AcDbSpline
 62
7
  6
CONTINUOUS
 70
0
 71
3
 72
12
 73
8
 74
0
 42
0.0000001
 43
0.0000001
 44
0.0000000001
 40
0.0
 40
0.0
 40
0.0
 40
0.0
 40
0.0932749758
 40
0.1847672461
 40
0.3062201178
 40
0.6232926401
 40
1.0
 40
1.0
 40
1.0
 40
1.0
 10
496.5048742175
 20
810.3581504782
 30
0.0
 10
496.3803040235
 20
810.3831492459
 30
0.0
 10
496.1919330948
 20
810.0896382439
 30
0.0
 10
496.0645009053
 20
809.7317713299
 30
0.0
 10
495.8767425452
 20
809.0148121358
 30
0.0
 10
495.7331953619
 20
807.9225829002
 30
0.0
 10
495.6898515475
 20
806.9738034715
 30
0.0
 10
495.6898515475
 20
806.4606743458
 30
0.0
  0
SPLINE
  5
727
100
AcDbEntity
  8
02___PRT_ALL_AXES
100
AcDbSpline
 62
7
  6
CONTINUOUS
 70
0
 71
3
 72
12
 73
8
 74
0
 42
0.0000001
 43
0.0000001
 44
0.0000000001
 40
0.0
 40
0.0
 40
0.0
 40
0.0
 40
0.3766578523
 40
0.6937645962
 40
0.8151821819
 40
0.906680919
 40
1.0
 40
1.0
 40
1.0
 40
1.0
 10
495.6898515475
 20
806.4606743458
 30
0.0
 10
495.6898515475
 20
805.9476142788
 30
0.0
 10
495.7332643542
 20
804.9988725538
 30
0.0
 10
495.8765903201
 20
803.9066734437
 30
0.0
 10
496.0644970813
 20
803.1897477414
 30
0.0
 10
496.1918666138
 20
802.831854807
 30
0.0
 10
496.3802455144
 20
802.538187704
 30
0.0
 10
496.5048742175
 20
802.5631982133
 30
0.0
  0
SPLINE
  5
728
100
AcDbEntity
  8
0
100
AcDbSpline
 62
7
  6
CONTINUOUS
 70
0
 71
3
 72
9
 73
5
 74
0
 42
0.0000001
 43
0.0000001
 44
0.0000000001
 40
0.0
 40
0.0
 40
0.0
 40
0.0
 40
0.4828539404
 40
1.0
 40
1.0
 40
1.0
 40
1.0
 10
1346.1662605564
 20
475.736082771
 30
0.0
 10
1348.7587242342
 20
468.9481067854
 30
0.0
 10
1356.6047447683
 20
455.7540238362
 30
0.0
 10
1368.0009405493
 20
445.5980798357
 30
0.0
 10
1374.3961088033
 20
441.1635644583
 30
0.0
  0
SPLINE
  5
729
100
AcDbEntity
  8
0
100
AcDbSpline
 62
7
  6
CONTINUOUS
 70
0
 71
3
 72
11
 73
7
 74
0
 42
0.0000001
 43
0.0000001
 44
0.0000000001
 40
0.0
 40
0.0
 40
0.0
 40
0.0
 40
0.468853666
 40
0.5982466577
 40
0.7306401477
 40
1.0
 40
1.0
 40
1.0
 40
1.0
 10
1374.3961088033
 20
441.1635644583
 30
0.0
 10
1390.2032643919
 20
430.2026214861
 30
0.0
 10
1414.742258589
 20
422.2228460936
 30
0.0
 10
1444.5648868807
 20
419.7321275598
 30
0.0
 10
1466.3949436038
 20
419.9694330273
 30
0.0
 10
1482.8064439622
 20
422.4250860852
 30
0.0
 10
1493.5495334272
 20
425.0155510284
 30
0.0
  0
SPLINE
  5
72A
100
AcDbEntity
  8
0
100
AcDbSpline
 62
7
  6
CONTINUOUS
 70
0
 71
3
 72
13
 73
9
 74
0
 42
0.0000001
 43
0.0000001
 44
0.0000000001
 40
0.0
 40
0.0
 40
0.0
 40
0.0
 40
0.2888068899
 40
0.5535536313
 40
0.674630258
 40
0.7881692374
 40
0.8957450267
 40
1.0
 40
1.0
 40
1.0
 40
1.0
 10
1508.296151001
 20
429.222628507
 30
0.0
 10
1522.4754538154
 20
433.9125263924
 30
0.0
 10
1548.6974506685
 20
446.2236990542
 30
0.0
 10
1575.5338804678
 20
469.4722330112
 30
0.0
 10
1589.9862349707
 20
491.0447512934
 30
0.0
 10
1596.765216863
 20
507.5392484549
 30
0.0
 10
1599.5209560247
 20
524.2927186295
 30
0.0
 10
1598.5539732723
 20
535.3451496888
 30
0.0
 10
1597.3957540281
 20
540.610501648
 30
0.0
  0
SPLINE
  5
72B
100
AcDbEntity
  8
0
100
AcDbSpline
 62
7
  6
CONTINUOUS
 70
0
 71
3
 72
9
 73
5
 74
0
 42
0.0000001
 43
0.0000001
 44
0.0000000001
 40
0.0
 40
0.0
 40
0.0
 40
0.0
 40
0.2455517007
 40
1.0
 40
1.0
 40
1.0
 40
1.0
 10
1444.8386831218
 20
419.967494273
 30
0.0
 10
1448.8591289929
 20
419.6405249017
 30
0.0
 10
1465.2842212647
 20
419.0137425101
 30
0.0
 10
1481.7941106563
 20
421.0982795814
 30
0.0
 10
1493.8312466766
 20
424.0486995008
 30
0.0
  0
SPLINE
  5
72C
100
AcDbEntity
  8
0
100
AcDbSpline
 62
7
  6
CONTINUOUS
 70
0
 71
3
 72
9
 73
5
 74
0
 42
0.0000001
 43
0.0000001
 44
0.0000000001
 40
0.0
 40
0.0
 40
0.0
 40
0.0
 40
0.2528098427
 40
1.0
 40
1.0
 40
1.0
 40
1.0
 10
1509.1950012859
 20
428.6472723555
 30
0.0
 10
1511.039225511
 20
429.3031467101
 30
0.0
 10
1518.2844337238
 20
432.0345498647
 30
0.0
 10
1525.3246603837
 20
435.3144278495
 30
0.0
 10
1530.4105302292
 20
438.0715117662
 30
0.0
  0
SPLINE
  5
72D
100
AcDbEntity
  8
02___PRT_ALL_AXES
100
AcDbSpline
 62
7
  6
CONTINUOUS
 70
0
 71
3
 72
11
 73
7
 74
0
 42
0.0000001
 43
0.0000001
 44
0.0000000001
 40
0.0
 40
0.0
 40
0.0
 40
0.0
 40
0.184140901
 40
0.3762244878
 40
0.5990755451
 40
1.0
 40
1.0
 40
1.0
 40
1.0
 10
1601.4540608354
 20
418.0678235304
 30
0.0
 10
1601.317965649
 20
417.8869504401
 30
0.0
 10
1600.7964911002
 20
417.7422505911
 30
0.0
 10
1600.0856256747
 20
417.9477676088
 30
0.0
 10
1599.2207535013
 20
418.4534062352
 30
0.0
 10
1598.6685742916
 20
419.0965916462
 30
0.0
 10
1598.5626970986
 20
419.5779222297
 30
0.0
  0
SPLINE
  5
72E
100
AcDbEntity
  8
02___PRT_ALL_AXES
100
AcDbSpline
 62
7
  6
CONTINUOUS
 70
0
 71
3
 72
11
 73
7
 74
0
 42
0.0000001
 43
0.0000001
 44
0.0000000001
 40
0.0
 40
0.0
 40
0.0
 40
0.0
 40
0.184140901
 40
0.3762244878
 40
0.5990755451
 40
1.0
 40
1.0
 40
1.0
 40
1.0
 10
1605.9362460655
 20
397.6912648926
 30
0.0
 10
1605.800150879
 20
397.5103918024
 30
0.0
 10
1605.2786763303
 20
397.3656919533
 30
0.0
 10
1604.5678109047
 20
397.571208971
 30
0.0
 10
1603.7029387314
 20
398.0768475975
 30
0.0
 10
1603.1507595217
 20
398.7200330085
 30
0.0
 10
1603.0448823287
 20
399.2013635919
 30
0.0
  0
SPLINE
  5
72F
100
AcDbEntity
  8
02___PRT_ALL_AXES
100
AcDbSpline
 62
7
  6
CONTINUOUS
 70
0
 71
3
 72
12
 73
8
 74
0
 42
0.0000001
 43
0.0000001
 44
0.0000000001
 40
0.0
 40
0.0
 40
0.0
 40
0.0
 40
0.0848222114
 40
0.181394083
 40
0.3582472245
 40
0.5683749943
 40
1.0
 40
1.0
 40
1.0
 40
1.0
 10
1605.5209309772
 20
432.8839652752
 30
0.0
 10
1605.6408535322
 20
433.0435753135
 30
0.0
 10
1605.9911540056
 20
433.3191815666
 30
0.0
 10
1606.8277643136
 20
433.5191356945
 30
0.0
 10
1607.9821641312
 20
433.3547999978
 30
0.0
 10
1609.7496825858
 20
432.5714083994
 30
0.0
 10
1610.9323525182
 20
431.5118394191
 30
0.0
 10
1611.474452953
 20
430.6526732664
 30
0.0
  0
SPLINE
  5
730
100
AcDbEntity
  8
02___PRT_ALL_AXES
100
AcDbSpline
 62
7
  6
CONTINUOUS
 70
0
 71
3
 72
8
 73
4
 74
0
 42
0.0000001
 43
0.0000001
 44
0.0000000001
 40
0.0
 40
0.0
 40
0.0
 40
0.0
 40
1.0
 40
1.0
 40
1.0
 40
1.0
 10
1613.427911414
 20
412.5241528403
 30
0.0
 10
1613.976547115
 20
412.2448065626
 30
0.0
 10
1614.4901419466
 20
411.885290403
 30
0.0
 10
1614.9441086657
 20
411.4694181952
 30
0.0
  0
SPLINE
  5
731
100
AcDbEntity
  8
0
100
AcDbSpline
 62
7
  6
CONTINUOUS
 70
0
 71
3
 72
9
 73
5
 74
0
 42
0.0000001
 43
0.0000001
 44
0.0000000001
 40
0.0
 40
0.0
 40
0.0
 40
0.0
 40
0.2096592547
 40
1.0
 40
1.0
 40
1.0
 40
1.0
 10
1615.9104606519
 20
411.1154978719
 30
0.0
 10
1615.9718231219
 20
411.0966483054
 30
0.0
 10
1616.2482797943
 20
410.9465834397
 30
0.0
 10
1616.3715464946
 20
410.6223369186
 30
0.0
 10
1616.4235319753
 20
410.3860046074
 30
0.0
  0
SPLINE
  5
732
100
AcDbEntity
  8
0
100
AcDbSpline
 62
7
  6
CONTINUOUS
 70
0
 71
3
 72
9
 73
5
 74
0
 42
0.0000001
 43
0.0000001
 44
0.0000000001
 40
0.0
 40
0.0
 40
0.0
 40
0.0
 40
0.2237525924
 40
1.0
 40
1.0
 40
1.0
 40
1.0
 10
1614.0302716563
 20
409.8080628698
 30
0.0
 10
1614.1212214716
 20
409.7801149703
 30
0.0
 10
1614.5475203091
 20
409.7127826477
 30
0.0
 10
1614.9751936325
 20
409.8964979491
 30
0.0
 10
1615.250559
 20
410.0785164958
 30
0.0
  0
SPLINE
  5
733
100
AcDbEntity
  8
02___PRT_ALL_AXES
100
AcDbSpline
 62
7
  6
CONTINUOUS
 70
0
 71
3
 72
12
 73
8
 74
0
 42
0.0000001
 43
0.0000001
 44
0.0000000001
 40
0.0
 40
0.0
 40
0.0
 40
0.0
 40
0.1624128687
 40
0.2823284864
 40
0.4238598365
 40
0.7320906591
 40
1.0
 40
1.0
 40
1.0
 40
1.0
 10
1599.4276469861
 20
434.9352628587
 30
0.0
 10
1599.8250658102
 20
434.8131580371
 30
0.0
 10
1600.6053747158
 20
435.2158006772
 30
0.0
 10
1601.2790004667
 20
436.031929394
 30
0.0
 10
1602.0269848316
 20
437.3045942988
 30
0.0
 10
1602.5792880141
 20
439.0679933944
 30
0.0
 10
1602.6671645391
 20
440.5831539687
 30
0.0
 10
1602.51983082
 20
441.2529509568
 30
0.0
  0
SPLINE
  5
734
100
AcDbEntity
  8
0
100
AcDbSpline
 62
7
  6
CONTINUOUS
 70
0
 71
3
 72
9
 73
5
 74
0
 42
0.0000001
 43
0.0000001
 44
0.0000000001
 40
0.0
 40
0.0
 40
0.0
 40
0.0
 40
0.2460419527
 40
1.0
 40
1.0
 40
1.0
 40
1.0
 10
1572.5944197738
 20
457.5035211419
 30
0.0
 10
1572.3730343973
 20
456.7823313467
 30
0.0
 10
1571.4141709255
 20
453.8695072553
 30
0.0
 10
1570.22342031
 20
451.0339943689
 30
0.0
 10
1569.2139585648
 20
448.9542803219
 30
0.0
  0
SPLINE
  5
735
100
AcDbEntity
  8
02___PRT_ALL_AXES
100
AcDbSpline
 62
7
  6
CONTINUOUS
 70
0
 71
3
 72
12
 73
8
 74
0
 42
0.0000001
 43
0.0000001
 44
0.0000000001
 40
0.0
 40
0.0
 40
0.0
 40
0.0
 40
0.1624128687
 40
0.2823284864
 40
0.4238598365
 40
0.7320906591
 40
1.0
 40
1.0
 40
1.0
 40
1.0
 10
1596.4125553189
 20
404.2069787613
 30
0.0
 10
1596.8099741431
 20
404.0848739396
 30
0.0
 10
1597.5902830487
 20
404.4875165797
 30
0.0
 10
1598.2639087995
 20
405.3036452965
 30
0.0
 10
1599.0118931644
 20
406.5763102013
 30
0.0
 10
1599.564196347
 20
408.3397092969
 30
0.0
 10
1599.652072872
 20
409.8548698712
 30
0.0
 10
1599.5047391528
 20
410.5246668593
 30
0.0
  0
SPLINE
  5
736
100
AcDbEntity
  8
0
100
AcDbSpline
 62
7
  6
CONTINUOUS
 70
0
 71
3
 72
9
 73
5
 74
0
 42
0.0000001
 43
0.0000001
 44
0.0000000001
 40
0.0
 40
0.0
 40
0.0
 40
0.0
 40
0.2463541052
 40
1.0
 40
1.0
 40
1.0
 40
1.0
 10
1552.4754294667
 20
426.6811618296
 30
0.0
 10
1551.8248155969
 20
426.0664658507
 30
0.0
 10
1549.148147082
 20
423.6092644944
 30
0.0
 10
1546.3331105251
 20
421.3034928037
 30
0.0
 10
1544.1487682047
 20
419.6523238069
 30
0.0
  0
SPLINE
  5
737
100
AcDbEntity
  8
0
100
AcDbSpline
 62
7
  6
CONTINUOUS
 70
0
 71
3
 72
16
 73
12
 74
0
 42
0.0000001
 43
0.0000001
 44
0.0000000001
 40
0.0
 40
0.0
 40
0.0
 40
0.0
 40
0.1338457724
 40
0.2735080719
 40
0.4140288331
 40
0.5502931579
 40
0.6779825968
 40
0.794586098
 40
0.9004614202
 40
0.9506896916
 40
1.0
 40
1.0
 40
1.0
 40
1.0
 10
1547.5373618494
 20
404.2473653866
 30
0.0
 10
1541.1269076941
 20
399.4016307883
 30
0.0
 10
1526.8705660952
 20
390.9728195531
 30
0.0
 10
1503.3035939609
 20
382.6484893993
 30
0.0
 10
1478.4545015735
 20
378.7717653299
 30
0.0
 10
1454.0283860367
 20
379.6210557245
 30
0.0
 10
1431.6668369619
 20
385.1781794189
 30
0.0
 10
1412.877252429
 20
395.1438314567
 30
0.0
 10
1401.1167466302
 20
407.0190431285
 30
0.0
 10
1395.1266016696
 20
417.8718486557
 30
0.0
 10
1393.26756397
 20
423.5982008485
 30
0.0
 10
1392.6315909604
 20
426.4895873229
 30
0.0
  0
SPLINE
  5
738
100
AcDbEntity
  8
02___PRT_ALL_AXES
100
AcDbSpline
 62
7
  6
CONTINUOUS
 70
0
 71
3
 72
12
 73
8
 74
0
 42
0.0000001
 43
0.0000001
 44
0.0000000001
 40
0.0
 40
0.0
 40
0.0
 40
0.0
 40
0.1624128687
 40
0.2823284864
 40
0.4238598365
 40
0.7320906591
 40
1.0
 40
1.0
 40
1.0
 40
1.0
 10
1613.3801369567
 20
426.7848859436
 30
0.0
 10
1613.7775557808
 20
426.6627811219
 30
0.0
 10
1614.5578646864
 20
427.065423762
 30
0.0
 10
1615.2314904373
 20
427.8815524788
 30
0.0
 10
1615.9794748022
 20
429.1542173837
 30
0.0
 10
1616.5317779847
 20
430.9176164792
 30
0.0
 10
1616.6196545097
 20
432.4327770536
 30
0.0
 10
1616.4723207906
 20
433.1025740416
 30
0.0
  0
SPLINE
  5
739
100
AcDbEntity
  8
0
100
AcDbSpline
 62
7
  6
CONTINUOUS
 70
0
 71
3
 72
12
 73
8
 74
0
 42
0.0000001
 43
0.0000001
 44
0.0000000001
 40
0.0
 40
0.0
 40
0.0
 40
0.0
 40
0.2805067475
 40
0.5547603366
 40
0.7942757267
 40
0.9000639611
 40
1.0
 40
1.0
 40
1.0
 40
1.0
 10
1450.0378477227
 20
445.9548678847
 30
0.0
 10
1448.9760241961
 20
445.3662946498
 30
0.0
 10
1446.6416300667
 20
444.5940758732
 30
0.0
 10
1443.1473156478
 20
444.6157591911
 30
0.0
 10
1440.56415545
 20
445.6944123447
 30
0.0
 10
1439.2473910643
 20
447.1421956219
 30
0.0
 10
1438.8939861913
 20
447.983117463
 30
0.0
 10
1438.8010473139
 20
448.4055391289
 30
0.0
  0
SPLINE
  5
73A
100
AcDbEntity
  8
0
100
AcDbSpline
 62
7
  6
CONTINUOUS
 70
0
 71
3
 72
15
 73
11
 74
0
 42
0.0000001
 43
0.0000001
 44
0.0000000001
 40
0.0
 40
0.0
 40
0.0
 40
0.0
 40
0.1031992414
 40
0.2189333336
 40
0.3508791931
 40
0.4939190861
 40
0.6384026398
 40
0.7741501557
 40
0.8943847509
 40
1.0
 40
1.0
 40
1.0
 40
1.0
 10
1511.7085085703
 20
398.4501359614
 30
0.0
 10
1511.8041317563
 20
398.0133993693
 30
0.0
 10
1511.7335826986
 20
397.0153202823
 30
0.0
 10
1510.9029561036
 20
395.6917759196
 30
0.0
 10
1509.5472139936
 20
394.6347738249
 30
0.0
 10
1507.8396993003
 20
393.9524990994
 30
0.0
 10
1505.9993657783
 20
393.7235981547
 30
0.0
 10
1504.2590188841
 20
393.9828527956
 30
0.0
 10
1502.8313777258
 20
394.7101220863
 30
0.0
 10
1502.2093625738
 20
395.5275923133
 30
0.0
 10
1502.0461161317
 20
395.9550285541
 30
0.0
  0
SPLINE
  5
73B
100
AcDbEntity
  8
0
100
AcDbSpline
 62
7
  6
CONTINUOUS
 70
0
 71
3
 72
8
 73
4
 74
0
 42
0.0000001
 43
0.0000001
 44
0.0000000001
 40
0.0
 40
0.0
 40
0.0
 40
0.0
 40
1.0
 40
1.0
 40
1.0
 40
1.0
 10
1500.2050610478
 20
415.9004757914
 30
0.0
 10
1500.4875355221
 20
416.0922407815
 30
0.0
 10
1500.7874930526
 20
416.2600021677
 30
0.0
 10
1501.097327673
 20
416.4034181642
 30
0.0
  0
SPLINE
  5
73C
100
AcDbEntity
  8
0
100
AcDbSpline
 62
7
  6
CONTINUOUS
 70
0
 71
3
 72
9
 73
5
 74
0
 42
0.0000001
 43
0.0000001
 44
0.0000000001
 40
0.0
 40
0.0
 40
0.0
 40
0.0
 40
0.2638165609
 40
1.0
 40
1.0
 40
1.0
 40
1.0
 10
1504.0540808717
 20
417.0507264065
 30
0.0
 10
1504.2689261502
 20
417.0502599394
 30
0.0
 10
1505.0818695609
 20
417.0093638684
 30
0.0
 10
1505.8932848338
 20
416.8062596235
 30
0.0
 10
1506.4335949147
 20
416.5464499175
 30
0.0
  0
SPLINE
  5
73D
100
AcDbEntity
  8
0
100
AcDbSpline
 62
7
  6
CONTINUOUS
 70
0
 71
3
 72
11
 73
7
 74
0
 42
0.0000001
 43
0.0000001
 44
0.0000000001
 40
0.0
 40
0.0
 40
0.0
 40
0.0
 40
0.2177101806
 40
0.4525959438
 40
0.7136001756
 40
1.0
 40
1.0
 40
1.0
 40
1.0
 10
1488.2762121955
 20
470.9319419458
 30
0.0
 10
1488.386270475
 20
470.4317099324
 30
0.0
 10
1488.3863298328
 20
469.3310144991
 30
0.0
 10
1487.7288354215
 20
467.7497629422
 30
0.0
 10
1486.5189047564
 20
466.3318995149
 30
0.0
 10
1485.4527533034
 20
465.5854986037
 30
0.0
 10
1484.8634342688
 20
465.2588365908
 30
0.0
  0
SPLINE
  5
73E
100
AcDbEntity
  8
02___PRT_ALL_AXES
100
AcDbSpline
 62
7
  6
CONTINUOUS
 70
0
 71
3
 72
19
 73
15
 74
0
 42
0.0000001
 43
0.0000001
 44
0.0000000001
 40
0.0
 40
0.0
 40
0.0
 40
0.0
 40
0.0509250551
 40
0.1037815007
 40
0.1599229789
 40
0.2200478772
 40
0.3516053297
 40
0.4939769599
 40
0.6377572806
 40
0.7730349528
 40
0.8354088198
 40
0.8936849388
 40
0.9482128961
 40
1.0
 40
1.0
 40
1.0
 40
1.0
 10
1539.6263912308
 20
527.0159085716
 30
0.0
 10
1539.9487374279
 20
525.3415156356
 30
0.0
 10
1540.1373239856
 20
521.8224372111
 30
0.0
 10
1539.0214894495
 20
516.531894535
 30
0.0
 10
1536.5846424212
 20
511.3692172072
 30
0.0
 10
1531.569753812
 20
504.6996711869
 30
0.0
 10
1522.5459368591
 20
497.7440653689
 30
0.0
 10
1509.4075990269
 20
492.5235319272
 30
0.0
 10
1495.2592543928
 20
490.7453916409
 30
0.0
 10
1483.7563328016
 20
492.4005243583
 30
0.0
 10
1475.8038527663
 20
495.7009691442
 30
0.0
 10
1470.8691347768
 20
498.9469267962
 30
0.0
 10
1466.9902491753
 20
502.9272273013
 30
0.0
 10
1465.1829899217
 20
506.0485451689
 30
0.0
 10
1464.5245683866
 20
507.6526798497
 30
0.0
  0
SPLINE
  5
73F
100
AcDbEntity
  8
0
100
AcDbSpline
 62
7
  6
CONTINUOUS
 70
0
 71
3
 72
11
 73
7
 74
0
 42
0.0000001
 43
0.0000001
 44
0.0000000001
 40
0.0
 40
0.0
 40
0.0
 40
0.0
 40
0.2337508894
 40
0.4748132706
 40
0.7290548403
 40
1.0
 40
1.0
 40
1.0
 40
1.0
 10
1575.8073450475
 20
539.6056907869
 30
0.0
 10
1576.7679354631
 20
535.2399885406
 30
0.0
 10
1577.5794880684
 20
526.081435255
 30
0.0
 10
1575.3389099286
 20
512.1928711627
 30
0.0
 10
1569.7906559841
 20
498.5136552293
 30
0.0
 10
1564.2111920604
 20
490.0817363281
 30
0.0
 10
1560.9986686585
 20
486.0164220885
 30
0.0
  0
SPLINE
  5
740
100
AcDbEntity
  8
0
100
AcDbSpline
 62
7
  6
CONTINUOUS
 70
0
 71
3
 72
15
 73
11
 74
0
 42
0.0000001
 43
0.0000001
 44
0.0000000001
 40
0.0
 40
0.0
 40
0.0
 40
0.0
 40
0.12105606
 40
0.2517930581
 40
0.3883842967
 40
0.5258377498
 40
0.6589998693
 40
0.7835459584
 40
0.8970331724
 40
1.0
 40
1.0
 40
1.0
 40
1.0
 10
1560.9986686585
 20
486.0164220885
 30
0.0
 10
1555.619389768
 20
479.2091692416
 30
0.0
 10
1542.4035984915
 20
466.6003477266
 30
0.0
 10
1518.3481776636
 20
452.2331985638
 30
0.0
 10
1490.8418723919
 20
442.4567469269
 30
0.0
 10
1461.8304036255
 20
437.963979928
 30
0.0
 10
1433.3407334193
 20
439.066844992
 30
0.0
 10
1407.3443217949
 20
445.7467508971
 30
0.0
 10
1385.6536833302
 20
457.627308607
 30
0.0
 10
1374.733542196
 20
469.1496550423
 30
0.0
 10
1370.7737260467
 20
475.3769686682
 30
0.0
  0
SPLINE
  5
741
100
AcDbEntity
  8
0
100
AcDbSpline
 62
7
  6
CONTINUOUS
 70
0
 71
3
 72
9
 73
5
 74
0
 42
0.0000001
 43
0.0000001
 44
0.0000000001
 40
0.0
 40
0.0
 40
0.0
 40
0.0
 40
0.2527836013
 40
1.0
 40
1.0
 40
1.0
 40
1.0
 10
1370.7737260467
 20
475.3769686682
 30
0.0
 10
1370.2677403059
 20
476.1726954847
 30
0.0
 10
1368.3431891591
 20
479.3687840469
 30
0.0
 10
1366.7355381146
 20
482.7567968766
 30
0.0
 10
1365.7410400277
 20
485.3607404492
 30
0.0
  0
SPLINE
  5
742
100
AcDbEntity
  8
0
100
AcDbSpline
 62
7
  6
CONTINUOUS
 70
0
 71
3
 72
9
 73
5
 74
0
 42
0.0000001
 43
0.0000001
 44
0.0000000001
 40
0.0
 40
0.0
 40
0.0
 40
0.0
 40
0.4913359318
 40
1.0
 40
1.0
 40
1.0
 40
1.0
 10
1577.2184741265
 20
467.0927440387
 30
0.0
 10
1578.1062540798
 20
463.0561071804
 30
0.0
 10
1578.7900770295
 20
454.5560366667
 30
0.0
 10
1577.2386791352
 20
446.1890465439
 30
0.0
 10
1575.9830134186
 20
442.0985627216
 30
0.0
  0
SPLINE
  5
743
100
AcDbEntity
  8
0
100
AcDbSpline
 62
7
  6
CONTINUOUS
 70
0
 71
3
 72
20
 73
16
 74
0
 42
0.0000001
 43
0.0000001
 44
0.0000000001
 40
0.0
 40
0.0
 40
0.0
 40
0.0
 40
0.0509170686
 40
0.1036674262
 40
0.1596638185
 40
0.2196743181
 40
0.3511975514
 40
0.4218250103
 40
0.4941200659
 40
0.6381520569
 40
0.7734723116
 40
0.8357618945
 40
0.8939007514
 40
0.9482891269
 40
1.0
 40
1.0
 40
1.0
 40
1.0
 10
1343.3124322664
 20
485.4544779557
 30
0.0
 10
1342.0762950636
 20
491.074050827
 30
0.0
 10
1341.1457139498
 20
502.9234271387
 30
0.0
 10
1344.5490264024
 20
520.8291384098
 30
0.0
 10
1352.5011755031
 20
538.3419072397
 30
0.0
 10
1369.1654806938
 20
561.0039660846
 30
0.0
 10
1393.0175958071
 20
579.5969488577
 30
0.0
 10
1420.9425314346
 20
593.2065483222
 30
0.0
 10
1451.8313333338
 20
603.3827710334
 30
0.0
 10
1491.7228919763
 20
608.347803015
 30
0.0
 10
1530.5544541191
 20
602.5848169326
 30
0.0
 10
1557.2824220966
 20
591.216237842
 30
0.0
 10
1573.7690775062
 20
580.0730937486
 30
0.0
 10
1586.603629513
 20
566.4397895776
 30
0.0
 10
1592.4570094969
 20
555.7879362386
 30
0.0
 10
1594.5419257384
 20
550.3288968313
 30
0.0
  0
SPLINE
  5
744
100
AcDbEntity
  8
02___PRT_ALL_AXES
100
AcDbSpline
 62
7
  6
CONTINUOUS
 70
0
 71
3
 72
9
 73
5
 74
0
 42
0.0000001
 43
0.0000001
 44
0.0000000001
 40
0.0
 40
0.0
 40
0.0
 40
0.0
 40
0.2811962086
 40
1.0
 40
1.0
 40
1.0
 40
1.0
 10
1598.5626970986
 20
419.5779222297
 30
0.0
 10
1598.5504162809
 20
419.633752319
 30
0.0
 10
1598.520602431
 20
419.8339058336
 30
0.0
 10
1598.5681942421
 20
420.0537892212
 30
0.0
 10
1598.6560521407
 20
420.1705540389
 30
0.0
  0
SPLINE
  5
745
100
AcDbEntity
  8
0
100
AcDbSpline
 62
7
  6
CONTINUOUS
 70
0
 71
3
 72
9
 73
5
 74
0
 42
0.0000001
 43
0.0000001
 44
0.0000000001
 40
0.0
 40
0.0
 40
0.0
 40
0.0
 40
0.7437507393
 40
1.0
 40
1.0
 40
1.0
 40
1.0
 10
1513.4464495523
 20
409.4911651516
 30
0.0
 10
1513.3463820288
 20
409.1661833983
 30
0.0
 10
1513.1728093016
 20
408.7401641117
 30
0.0
 10
1512.9576636321
 20
408.3367256117
 30
0.0
 10
1512.8999658821
 20
408.2347625028
 30
0.0
  0
SPLINE
  5
746
100
AcDbEntity
  8
02___PRT_ALL_AXES
100
AcDbSpline
 62
7
  6
CONTINUOUS
 70
0
 71
3
 72
9
 73
5
 74
0
 42
0.0000001
 43
0.0000001
 44
0.0000000001
 40
0.0
 40
0.0
 40
0.0
 40
0.0
 40
0.2811962086
 40
1.0
 40
1.0
 40
1.0
 40
1.0
 10
1603.0448823287
 20
399.2013635919
 30
0.0
 10
1603.032601511
 20
399.2571936812
 30
0.0
 10
1603.0027876611
 20
399.4573471958
 30
0.0
 10
1603.0503794721
 20
399.6772305834
 30
0.0
 10
1603.1382373708
 20
399.7939954011
 30
0.0
  0
SPLINE
  5
747
100
AcDbEntity
  8
0
100
AcDbSpline
 62
7
  6
CONTINUOUS
 70
0
 71
3
 72
9
 73
5
 74
0
 42
0.0000001
 43
0.0000001
 44
0.0000000001
 40
0.0
 40
0.0
 40
0.0
 40
0.0
 40
0.5293515317
 40
1.0
 40
1.0
 40
1.0
 40
1.0
 10
1499.4398460635
 20
398.2646495285
 30
0.0
 10
1498.5327039507
 20
398.6588898116
 30
0.0
 10
1496.9075612886
 20
399.7010007338
 30
0.0
 10
1495.9521006473
 20
401.4248549949
 30
0.0
 10
1495.7633532136
 20
402.2837796134
 30
0.0
  0
SPLINE
  5
748
100
AcDbEntity
  8
0
100
AcDbSpline
 62
7
  6
CONTINUOUS
 70
0
 71
3
 72
9
 73
5
 74
0
 42
0.0000001
 43
0.0000001
 44
0.0000000001
 40
0.0
 40
0.0
 40
0.0
 40
0.0
 40
0.5297029669
 40
1.0
 40
1.0
 40
1.0
 40
1.0
 10
1378.431636962
 20
432.7828477445
 30
0.0
 10
1377.9597853759
 20
432.9839662466
 30
0.0
 10
1377.113731251
 20
433.5187476765
 30
0.0
 10
1376.6155534626
 20
434.4112973696
 30
0.0
 10
1376.5174827654
 20
434.8560134013
 30
0.0
  0
SPLINE
  5
749
100
AcDbEntity
  8
0
100
AcDbSpline
 62
7
  6
CONTINUOUS
 70
0
 71
3
 72
9
 73
5
 74
0
 42
0.0000001
 43
0.0000001
 44
0.0000000001
 40
0.0
 40
0.0
 40
0.0
 40
0.0
 40
0.4606815287
 40
1.0
 40
1.0
 40
1.0
 40
1.0
 10
1613.3734833215
 20
424.2518963658
 30
0.0
 10
1613.454486248
 20
423.8836472201
 30
0.0
 10
1613.4337362388
 20
423.0463138482
 30
0.0
 10
1613.2210165229
 20
422.2503324781
 30
0.0
 10
1613.0574877207
 20
421.8403260354
 30
0.0
  0
SPLINE
  5
74A
100
AcDbEntity
  8
0
100
AcDbSpline
 62
7
  6
CONTINUOUS
 70
0
 71
3
 72
8
 73
4
 74
0
 42
0.0000001
 43
0.0000001
 44
0.0000000001
 40
0.0
 40
0.0
 40
0.0
 40
0.0
 40
1.0
 40
1.0
 40
1.0
 40
1.0
 10
1613.0706929584
 20
416.2448967423
 30
0.0
 10
1613.1892971493
 20
416.1995661444
 30
0.0
 10
1613.2909648604
 20
416.1048733575
 30
0.0
 10
1613.3623251454
 20
415.999851803
 30
0.0
  0
SPLINE
  5
74B
100
AcDbEntity
  8
0
100
AcDbSpline
 62
7
  6
CONTINUOUS
 70
0
 71
3
 72
9
 73
5
 74
0
 42
0.0000001
 43
0.0000001
 44
0.0000000001
 40
0.0
 40
0.0
 40
0.0
 40
0.0
 40
0.425663723
 40
1.0
 40
1.0
 40
1.0
 40
1.0
 10
1613.3623251454
 20
415.999851803
 30
0.0
 10
1613.5132691003
 20
415.7777062669
 30
0.0
 10
1613.6521904443
 20
415.1288283612
 30
0.0
 10
1613.598441141
 20
414.5000749945
 30
0.0
 10
1613.5328948229
 20
414.1436709094
 30
0.0
  0
SPLINE
  5
74C
100
AcDbEntity
  8
0
100
AcDbSpline
 62
7
  6
CONTINUOUS
 70
0
 71
3
 72
13
 73
9
 74
0
 42
0.0000001
 43
0.0000001
 44
0.0000000001
 40
0.0
 40
0.0
 40
0.0
 40
0.0
 40
0.3287634732
 40
0.6126526931
 40
0.7313452351
 40
0.8334323413
 40
0.9211015944
 40
1.0
 40
1.0
 40
1.0
 40
1.0
 10
1611.6430218688
 20
422.2740505768
 30
0.0
 10
1611.2498064532
 20
420.6177511362
 30
0.0
 10
1610.7549817617
 20
417.4702285435
 30
0.0
 10
1610.8610659424
 20
413.6451604621
 30
0.0
 10
1611.5081524842
 20
411.1015602259
 30
0.0
 10
1612.1958564517
 20
409.6455080385
 30
0.0
 10
1613.1092587131
 20
408.5681952933
 30
0.0
 10
1613.8861908304
 20
408.1382244911
 30
0.0
 10
1614.2766887557
 20
408.0181718167
 30
0.0
  0
SPLINE
  5
74D
100
AcDbEntity
  8
0
100
AcDbSpline
 62
7
  6
CONTINUOUS
 70
0
 71
3
 72
10
 73
6
 74
0
 42
0.0000001
 43
0.0000001
 44
0.0000000001
 40
0.0
 40
0.0
 40
0.0
 40
0.0
 40
0.3347342637
 40
0.6202499622
 40
1.0
 40
1.0
 40
1.0
 40
1.0
 10
1613.5328948229
 20
414.1436709094
 30
0.0
 10
1613.4591718489
 20
413.7428067597
 30
0.0
 10
1613.3829318244
 20
412.9778778474
 30
0.0
 10
1613.4461092563
 20
411.7992691711
 30
0.0
 10
1613.882143161
 20
410.899919111
 30
0.0
 10
1614.3240956668
 20
410.7639342946
 30
0.0
  0
SPLINE
  5
74E
100
AcDbEntity
  8
0
100
AcDbSpline
 62
7
  6
CONTINUOUS
 70
0
 71
3
 72
12
 73
8
 74
0
 42
0.0000001
 43
0.0000001
 44
0.0000000001
 40
0.0
 40
0.0
 40
0.0
 40
0.0
 40
0.3138881205
 40
0.6082244918
 40
0.7341935061
 40
0.8410921496
 40
1.0
 40
1.0
 40
1.0
 40
1.0
 10
1612.9611663323
 20
421.6143668771
 30
0.0
 10
1612.7123963911
 20
421.0675845802
 30
0.0
 10
1612.3452235064
 20
419.9539766096
 30
0.0
 10
1612.1655574486
 20
418.5482210386
 30
0.0
 10
1612.2548202723
 20
417.5354253043
 30
0.0
 10
1612.4423120762
 20
416.816446518
 30
0.0
 10
1612.7866190817
 20
416.3534699604
 30
0.0
 10
1613.0706929584
 20
416.2448967423
 30
0.0
  0
SPLINE
  5
74F
100
AcDbEntity
  8
0
100
AcDbSpline
 62
7
  6
CONTINUOUS
 70
0
 71
3
 72
9
 73
5
 74
0
 42
0.0000001
 43
0.0000001
 44
0.0000000001
 40
0.0
 40
0.0
 40
0.0
 40
0.0
 40
0.2899073205
 40
1.0
 40
1.0
 40
1.0
 40
1.0
 10
1615.250559
 20
410.0785164958
 30
0.0
 10
1615.2813039606
 20
410.0988391424
 30
0.0
 10
1615.3906658701
 20
410.1618152268
 30
0.0
 10
1615.5303728425
 20
410.1862255106
 30
0.0
 10
1615.616665503
 20
410.159722489
 30
0.0
  0
SPLINE
  5
750
100
AcDbEntity
  8
02___PRT_ALL_AXES
100
AcDbSpline
 62
7
  6
CONTINUOUS
 70
0
 71
3
 72
9
 73
5
 74
0
 42
0.0000001
 43
0.0000001
 44
0.0000000001
 40
0.0
 40
0.0
 40
0.0
 40
0.0
 40
0.3088843338
 40
1.0
 40
1.0
 40
1.0
 40
1.0
 10
1602.51983082
 20
441.2529509568
 30
0.0
 10
1602.4883595139
 20
441.396023338
 30
0.0
 10
1602.3636358982
 20
441.8446692134
 30
0.0
 10
1602.0327683485
 20
442.2947366827
 30
0.0
 10
1601.7194518076
 20
442.3910015248
 30
0.0
  0
SPLINE
  5
751
100
AcDbEntity
  8
0
100
AcDbSpline
 62
7
  6
CONTINUOUS
 70
0
 71
3
 72
9
 73
5
 74
0
 42
0.0000001
 43
0.0000001
 44
0.0000000001
 40
0.0
 40
0.0
 40
0.0
 40
0.0
 40
0.2563076909
 40
1.0
 40
1.0
 40
1.0
 40
1.0
 10
1575.0429903191
 20
382.0883856246
 30
0.0
 10
1576.7711324196
 20
383.0478074527
 30
0.0
 10
1583.4201326925
 20
386.9552607232
 30
0.0
 10
1589.6846623925
 20
391.5298710118
 30
0.0
 10
1594.0066566036
 20
395.2999265968
 30
0.0
  0
SPLINE
  5
752
100
AcDbEntity
  8
0
100
AcDbSpline
 62
7
  6
CONTINUOUS
 70
0
 71
3
 72
9
 73
5
 74
0
 42
0.0000001
 43
0.0000001
 44
0.0000000001
 40
0.0
 40
0.0
 40
0.0
 40
0.0
 40
0.2533120823
 40
1.0
 40
1.0
 40
1.0
 40
1.0
 10
1613.7343829834
 20
420.3259308891
 30
0.0
 10
1614.0079631886
 20
420.8880193503
 30
0.0
 10
1615.0556559561
 20
423.1225127531
 30
0.0
 10
1615.9718518026
 20
425.4190434939
 30
0.0
 10
1616.5725969261
 20
427.1610680569
 30
0.0
  0
SPLINE
  5
753
100
AcDbEntity
  8
0
100
AcDbSpline
 62
7
  6
CONTINUOUS
 70
0
 71
3
 72
9
 73
5
 74
0
 42
0.0000001
 43
0.0000001
 44
0.0000000001
 40
0.0
 40
0.0
 40
0.0
 40
0.0
 40
0.2536354913
 40
1.0
 40
1.0
 40
1.0
 40
1.0
 10
1617.8554875885
 20
431.411692877
 30
0.0
 10
1618.0645910514
 20
432.2191722749
 30
0.0
 10
1618.816412289
 20
435.4210142102
 30
0.0
 10
1619.269894487
 20
438.6940116292
 30
0.0
 10
1619.4238045374
 20
441.1437021389
 30
0.0
  0
SPLINE
  5
754
100
AcDbEntity
  8
02___PRT_ALL_AXES
100
AcDbSpline
 62
7
  6
CONTINUOUS
 70
0
 71
3
 72
9
 73
5
 74
0
 42
0.0000001
 43
0.0000001
 44
0.0000000001
 40
0.0
 40
0.0
 40
0.0
 40
0.0
 40
0.2422799948
 40
1.0
 40
1.0
 40
1.0
 40
1.0
 10
1588.2431832362
 20
433.9672028785
 30
0.0
 10
1586.6768928679
 20
432.487381381
 30
0.0
 10
1580.0020995367
 20
426.6033909972
 30
0.0
 10
1572.55719186
 20
421.6121028258
 30
0.0
 10
1566.6652747898
 20
418.3410559341
 30
0.0
  0
SPLINE
  5
755
100
AcDbEntity
  8
02___PRT_ALL_AXES
100
AcDbSpline
 62
7
  6
CONTINUOUS
 70
0
 71
3
 72
9
 73
5
 74
0
 42
0.0000001
 43
0.0000001
 44
0.0000000001
 40
0.0
 40
0.0
 40
0.0
 40
0.0
 40
0.4884941821
 40
1.0
 40
1.0
 40
1.0
 40
1.0
 10
1610.5813684404
 20
476.7779921707
 30
0.0
 10
1610.3629815837
 20
473.3020644524
 30
0.0
 10
1609.1453219051
 20
466.219259378
 30
0.0
 10
1606.5741592248
 20
459.5211135188
 30
0.0
 10
1604.9817123343
 20
456.2403213709
 30
0.0
  0
SPLINE
  5
756
100
AcDbEntity
  8
02___PRT_ALL_AXES
100
AcDbSpline
 62
7
  6
CONTINUOUS
 70
0
 71
3
 72
9
 73
5
 74
0
 42
0.0000001
 43
0.0000001
 44
0.0000000001
 40
0.0
 40
0.0
 40
0.0
 40
0.0
 40
0.3088843338
 40
1.0
 40
1.0
 40
1.0
 40
1.0
 10
1599.5047391528
 20
410.5246668593
 30
0.0
 10
1599.4732678468
 20
410.6677392405
 30
0.0
 10
1599.3485442311
 20
411.1163851159
 30
0.0
 10
1599.0176766813
 20
411.5664525852
 30
0.0
 10
1598.7043601405
 20
411.6627174273
 30
0.0
  0
SPLINE
  5
757
100
AcDbEntity
  8
02___PRT_ALL_AXES
100
AcDbSpline
 62
7
  6
CONTINUOUS
 70
0
 71
3
 72
9
 73
5
 74
0
 42
0.0000001
 43
0.0000001
 44
0.0000000001
 40
0.0
 40
0.0
 40
0.0
 40
0.0
 40
0.3088843338
 40
1.0
 40
1.0
 40
1.0
 40
1.0
 10
1616.4723207906
 20
433.1025740416
 30
0.0
 10
1616.4408494845
 20
433.2456464228
 30
0.0
 10
1616.3161258688
 20
433.6942922983
 30
0.0
 10
1615.9852583191
 20
434.1443597675
 30
0.0
 10
1615.6719417782
 20
434.2406246096
 30
0.0
  0
SPLINE
  5
758
100
AcDbEntity
  8
0
100
AcDbSpline
 62
7
  6
CONTINUOUS
 70
0
 71
3
 72
19
 73
15
 74
0
 42
0.0000001
 43
0.0000001
 44
0.0000000001
 40
0.0
 40
0.0
 40
0.0
 40
0.0
 40
0.0515614562
 40
0.1057296262
 40
0.163562826
 40
0.2254696104
 40
0.3599570865
 40
0.5034099294
 40
0.6460703541
 40
0.7784628551
 40
0.8391005942
 40
0.8957243844
 40
0.9489442126
 40
1.0
 40
1.0
 40
1.0
 40
1.0
 10
1573.2080321908
 20
532.4972097863
 30
0.0
 10
1571.5466459173
 20
536.847299712
 30
0.0
 10
1566.9051820218
 20
545.3369867829
 30
0.0
 10
1556.7533875939
 20
556.2420726056
 30
0.0
 10
1543.7194854866
 20
565.2047547545
 30
0.0
 10
1522.5769842514
 20
574.4401486786
 30
0.0
 10
1491.7618793028
 20
579.3734177093
 30
0.0
 10
1453.6104771953
 20
575.1513848773
 30
0.0
 10
1417.8933136732
 20
561.6078730649
 30
0.0
 10
1393.0900660105
 20
543.2450727295
 30
0.0
 10
1379.0177324326
 20
525.47520437
 30
0.0
 10
1371.9804244258
 20
511.6465272461
 30
0.0
 10
1368.4593204483
 20
497.4086491882
 30
0.0
 10
1368.5984676018
 20
487.8620605345
 30
0.0
 10
1369.2915457616
 20
483.3035618537
 30
0.0
  0
SPLINE
  5
759
100
AcDbEntity
  8
02___PRT_ALL_AXES
100
AcDbSpline
 62
7
  6
CONTINUOUS
 70
0
 71
3
 72
12
 73
8
 74
0
 42
0.0000001
 43
0.0000001
 44
0.0000000001
 40
0.0
 40
0.0
 40
0.0
 40
0.0
 40
0.1624128687
 40
0.2823284864
 40
0.4238598365
 40
0.7320906591
 40
1.0
 40
1.0
 40
1.0
 40
1.0
 10
1598.7043601405
 20
411.6627174273
 30
0.0
 10
1598.3069413163
 20
411.7848222489
 30
0.0
 10
1597.5266324107
 20
411.3821796088
 30
0.0
 10
1596.8530066599
 20
410.566050892
 30
0.0
 10
1596.105022295
 20
409.2933859872
 30
0.0
 10
1595.5527191124
 20
407.5299868916
 30
0.0
 10
1595.4648425874
 20
406.0148263173
 30
0.0
 10
1595.6121763065
 20
405.3450293292
 30
0.0
  0
SPLINE
  5
75A
100
AcDbEntity
  8
02___PRT_ALL_AXES
100
AcDbSpline
 62
7
  6
CONTINUOUS
 70
0
 71
3
 72
12
 73
8
 74
0
 42
0.0000001
 43
0.0000001
 44
0.0000000001
 40
0.0
 40
0.0
 40
0.0
 40
0.0
 40
0.1624075408
 40
0.2823227547
 40
0.4238612328
 40
0.7321086732
 40
1.0
 40
1.0
 40
1.0
 40
1.0
 10
1596.8282330289
 20
412.2393509427
 30
0.0
 10
1596.4307504857
 20
412.3612057481
 30
0.0
 10
1595.6505262942
 20
411.9590232667
 30
0.0
 10
1594.9768288888
 20
411.1427851997
 30
0.0
 10
1594.2288518488
 20
409.8700899131
 30
0.0
 10
1593.676610912
 20
408.1066247858
 30
0.0
 10
1593.5887431224
 20
406.5914766861
 30
0.0
 10
1593.7360673598
 20
405.921722803
 30
0.0
  0
SPLINE
  5
75B
100
AcDbEntity
  8
02___PRT_ALL_AXES
100
AcDbSpline
 62
7
  6
CONTINUOUS
 70
0
 71
3
 72
9
 73
5
 74
0
 42
0.0000001
 43
0.0000001
 44
0.0000000001
 40
0.0
 40
0.0
 40
0.0
 40
0.0
 40
0.2811962086
 40
1.0
 40
1.0
 40
1.0
 40
1.0
 10
1601.5474158776
 20
418.6604553396
 30
0.0
 10
1601.5596966952
 20
418.6046252503
 30
0.0
 10
1601.5895105452
 20
418.4044717357
 30
0.0
 10
1601.5419187341
 20
418.1845883481
 30
0.0
 10
1601.4540608354
 20
418.0678235304
 30
0.0
  0
SPLINE
  5
75C
100
AcDbEntity
  8
0
100
AcDbSpline
 62
7
  6
CONTINUOUS
 70
0
 71
3
 72
16
 73
12
 74
0
 42
0.0000001
 43
0.0000001
 44
0.0000000001
 40
0.0
 40
0.0
 40
0.0
 40
0.0
 40
0.106377514
 40
0.2281496924
 40
0.3657416738
 40
0.5114190939
 40
0.6541001204
 40
0.7838906723
 40
0.8967733435
 40
0.9488641181
 40
1.0
 40
1.0
 40
1.0
 40
1.0
 10
1517.7207290533
 20
515.0084251222
 30
0.0
 10
1517.2135709244
 20
516.3363423578
 30
0.0
 10
1515.2430258035
 20
518.8699662076
 30
0.0
 10
1510.7385312117
 20
521.0459934521
 30
0.0
 10
1505.2881496038
 20
521.7155946553
 30
0.0
 10
1499.5962908725
 20
520.8295439266
 30
0.0
 10
1494.4311189581
 20
518.5154489283
 30
0.0
 10
1490.4823097724
 20
515.0719032748
 30
0.0
 10
1488.6582968969
 20
511.404237584
 30
0.0
 10
1488.4898716915
 20
508.4869864446
 30
0.0
 10
1488.800434193
 20
507.1206896457
 30
0.0
 10
1489.0442261111
 20
506.4823571978
 30
0.0
  0
SPLINE
  5
75D
100
AcDbEntity
  8
0
100
AcDbSpline
 62
7
  6
CONTINUOUS
 70
0
 71
3
 72
16
 73
12
 74
0
 42
0.0000001
 43
0.0000001
 44
0.0000000001
 40
0.0
 40
0.0
 40
0.0
 40
0.0
 40
0.106377514
 40
0.2281496924
 40
0.3657416738
 40
0.5114190939
 40
0.6541001204
 40
0.7838906723
 40
0.8967733435
 40
0.9488641181
 40
1.0
 40
1.0
 40
1.0
 40
1.0
 10
1489.0442261111
 20
506.4823571978
 30
0.0
 10
1489.5513842401
 20
505.1544399623
 30
0.0
 10
1491.521929361
 20
502.6208161125
 30
0.0
 10
1496.0264239528
 20
500.4447888679
 30
0.0
 10
1501.4768055607
 20
499.7751876647
 30
0.0
 10
1507.168664292
 20
500.6612383935
 30
0.0
 10
1512.3338362063
 20
502.9753333918
 30
0.0
 10
1516.2826453921
 20
506.4188790453
 30
0.0
 10
1518.1066582675
 20
510.086544736
 30
0.0
 10
1518.275083473
 20
513.0037958754
 30
0.0
 10
1517.9645209714
 20
514.3700926743
 30
0.0
 10
1517.7207290533
 20
515.0084251222
 30
0.0
  0
SPLINE
  5
75E
100
AcDbEntity
  8
02___PRT_ALL_AXES
100
AcDbSpline
 62
7
  6
CONTINUOUS
 70
0
 71
3
 72
19
 73
15
 74
0
 42
0.0000001
 43
0.0000001
 44
0.0000000001
 40
0.0
 40
0.0
 40
0.0
 40
0.0
 40
0.0516660612
 40
0.1059704694
 40
0.164002614
 40
0.2261465991
 40
0.3611646072
 40
0.5049994275
 40
0.647653486
 40
0.779557894
 40
0.8398280963
 40
0.8960892306
 40
0.9490267185
 40
1.0
 40
1.0
 40
1.0
 40
1.0
 10
1538.8258381464
 20
529.7134060602
 30
0.0
 10
1538.2057652676
 20
531.3369735751
 30
0.0
 10
1536.4647040892
 20
534.5024144574
 30
0.0
 10
1532.6640200524
 20
538.567270766
 30
0.0
 10
1527.7732316975
 20
541.8887658337
 30
0.0
 10
1519.8509846908
 20
545.3012718169
 30
0.0
 10
1508.3187684091
 20
547.0633708576
 30
0.0
 10
1494.0897535247
 20
545.3706317094
 30
0.0
 10
1480.8401503973
 20
540.1867318984
 30
0.0
 10
1471.7211389574
 20
533.2235260453
 30
0.0
 10
1466.6444200581
 20
526.5259209413
 30
0.0
 10
1464.1750070401
 20
521.3363306028
 30
0.0
 10
1463.0388214024
 20
516.0150229996
 30
0.0
 10
1463.2281166712
 20
512.4749088266
 30
0.0
 10
1463.5510733021
 20
510.7909544265
 30
0.0
  0
SPLINE
  5
75F
100
AcDbEntity
  8
02___PRT_ALL_AXES
100
AcDbSpline
 62
7
  6
CONTINUOUS
 70
0
 71
3
 72
9
 73
5
 74
0
 42
0.0000001
 43
0.0000001
 44
0.0000000001
 40
0.0
 40
0.0
 40
0.0
 40
0.0
 40
0.2811962086
 40
1.0
 40
1.0
 40
1.0
 40
1.0
 10
1606.0296011076
 20
398.2838967018
 30
0.0
 10
1606.0418819253
 20
398.2280666125
 30
0.0
 10
1606.0716957752
 20
398.0279130979
 30
0.0
 10
1606.0241039642
 20
397.8080297103
 30
0.0
 10
1605.9362460655
 20
397.6912648926
 30
0.0
  0
SPLINE
  5
760
100
AcDbEntity
  8
0
100
AcDbSpline
 62
7
  6
CONTINUOUS
 70
0
 71
3
 72
9
 73
5
 74
0
 42
0.0000001
 43
0.0000001
 44
0.0000000001
 40
0.0
 40
0.0
 40
0.0
 40
0.0
 40
0.245571499
 40
1.0
 40
1.0
 40
1.0
 40
1.0
 10
1513.5753551569
 20
412.0746973607
 30
0.0
 10
1513.6211391716
 20
411.8665625073
 30
0.0
 10
1513.7511958026
 20
411.0067817495
 30
0.0
 10
1513.6391178012
 20
410.1168793007
 30
0.0
 10
1513.4464495523
 20
409.4911651516
 30
0.0
  0
SPLINE
  5
761
100
AcDbEntity
  8
02___PRT_ALL_AXES
100
AcDbSpline
 62
7
  6
CONTINUOUS
 70
0
 71
3
 72
9
 73
5
 74
0
 42
0.0000001
 43
0.0000001
 44
0.0000000001
 40
0.0
 40
0.0
 40
0.0
 40
0.0
 40
0.2818273357
 40
1.0
 40
1.0
 40
1.0
 40
1.0
 10
1608.0350206214
 20
427.2931845563
 30
0.0
 10
1608.0473299427
 20
427.2372248861
 30
0.0
 10
1608.0774369549
 20
427.0370635279
 30
0.0
 10
1608.0293328027
 20
426.8173096561
 30
0.0
 10
1607.9416130094
 20
426.7005875646
 30
0.0
  0
SPLINE
  5
762
100
AcDbEntity
  8
02___PRT_ALL_AXES
100
AcDbSpline
 62
7
  6
CONTINUOUS
 70
0
 71
3
 72
9
 73
5
 74
0
 42
0.0000001
 43
0.0000001
 44
0.0000000001
 40
0.0
 40
0.0
 40
0.0
 40
0.0
 40
0.2751627315
 40
1.0
 40
1.0
 40
1.0
 40
1.0
 10
1612.1467229663
 20
407.6367581592
 30
0.0
 10
1612.1931835754
 20
407.5783860655
 30
0.0
 10
1612.3523964513
 20
407.3595184796
 30
0.0
 10
1612.4749860108
 20
407.1085624441
 30
0.0
 10
1612.5172058515
 20
406.9166259186
 30
0.0
  0
SPLINE
  5
763
100
AcDbEntity
  8
02___PRT_ALL_AXES
100
AcDbSpline
 62
7
  6
CONTINUOUS
 70
0
 71
3
 72
9
 73
5
 74
0
 42
0.0000001
 43
0.0000001
 44
0.0000000001
 40
0.0
 40
0.0
 40
0.0
 40
0.0
 40
0.2816373663
 40
1.0
 40
1.0
 40
1.0
 40
1.0
 10
1612.5172058515
 20
406.9166259186
 30
0.0
 10
1612.5295066712
 20
406.8607048975
 30
0.0
 10
1612.5595166
 20
406.6605453213
 30
0.0
 10
1612.5115906728
 20
406.4407426946
 30
0.0
 10
1612.4238236469
 20
406.3240108253
 30
0.0
  0
SPLINE
  5
764
100
AcDbEntity
  8
0
100
AcDbSpline
 62
7
  6
CONTINUOUS
 70
0
 71
3
 72
9
 73
5
 74
0
 42
0.0000001
 43
0.0000001
 44
0.0000000001
 40
0.0
 40
0.0
 40
0.0
 40
0.0
 40
0.2420936021
 40
1.0
 40
1.0
 40
1.0
 40
1.0
 10
1508.1688880676
 20
408.4836316184
 30
0.0
 10
1508.1047831065
 20
408.407634633
 30
0.0
 10
1507.829229906
 20
408.1028626442
 30
0.0
 10
1507.5144523345
 20
407.8343289807
 30
0.0
 10
1507.2619100625
 20
407.6523843255
 30
0.0
  0
SPLINE
  5
765
100
AcDbEntity
  8
0
100
AcDbSpline
 62
7
  6
CONTINUOUS
 70
0
 71
3
 72
9
 73
5
 74
0
 42
0.0000001
 43
0.0000001
 44
0.0000000001
 40
0.0
 40
0.0
 40
0.0
 40
0.0
 40
0.2365160369
 40
1.0
 40
1.0
 40
1.0
 40
1.0
 10
1507.4406246819
 20
412.0355095054
 30
0.0
 10
1507.1197153138
 20
411.6431513566
 30
0.0
 10
1505.4828226517
 20
410.2268222843
 30
0.0
 10
1503.1199243697
 20
409.7268799895
 30
0.0
 10
1501.5055725519
 20
409.9935682928
 30
0.0
  0
SPLINE
  5
766
100
AcDbEntity
  8
0
100
AcDbSpline
 62
7
  6
CONTINUOUS
 70
0
 71
3
 72
9
 73
5
 74
0
 42
0.0000001
 43
0.0000001
 44
0.0000000001
 40
0.0
 40
0.0
 40
0.0
 40
0.0
 40
0.2905542147
 40
1.0
 40
1.0
 40
1.0
 40
1.0
 10
1615.3003212145
 20
410.9802845774
 30
0.0
 10
1615.3516791278
 20
411.0142325383
 30
0.0
 10
1615.5338168882
 20
411.1195009184
 30
0.0
 10
1615.7667672491
 20
411.1596381804
 30
0.0
 10
1615.9104606519
 20
411.1154978719
 30
0.0
  0
SPLINE
  5
767
100
AcDbEntity
  8
0
100
AcDbSpline
 62
9
  6
CONTINUOUS
 70
0
 71
3
 72
21
 73
17
 74
0
 42
0.0000001
 43
0.0000001
 44
0.0000000001
 40
0.0
 40
0.0
 40
0.0
 40
0.0
 40
0.0509793164
 40
0.1029178323
 40
0.1576037603
 40
0.2161964226
 40
0.2791081551
 40
0.3460784121
 40
0.4883236063
 40
0.5614513878
 40
0.633900984
 40
0.771072693
 40
0.8342286376
 40
0.8930635174
 40
0.9479480901
 40
1.0
 40
1.0
 40
1.0
 40
1.0
 10
1365.2986823182
 20
485.2292191167
 30
0.0
 10
1363.5244953939
 20
489.8746605705
 30
0.0
 10
1361.2500199617
 20
499.8162110263
 30
0.0
 10
1362.1710553399
 20
515.3477200651
 30
0.0
 10
1367.3009526771
 20
530.7986329525
 30
0.0
 10
1376.3432980637
 20
545.5637929129
 30
0.0
 10
1388.9008626864
 20
559.1363758897
 30
0.0
 10
1410.0715459777
 20
575.3120679123
 30
0.0
 10
1435.6253871328
 20
586.7440389392
 30
0.0
 10
1463.0852885635
 20
592.8932428018
 30
0.0
 10
1490.6226208598
 20
595.2158280319
 30
0.0
 10
1517.5397643238
 20
591.9237423906
 30
0.0
 10
1541.1250447738
 20
582.4863773833
 30
0.0
 10
1555.7019321423
 20
573.01215354
 30
0.0
 10
1567.0388445524
 20
561.271506466
 30
0.0
 10
1572.1809403029
 20
552.0210145145
 30
0.0
 10
1573.9924557252
 20
547.2778340068
 30
0.0
  0
SPLINE
  5
768
100
AcDbEntity
  8
02___PRT_ALL_AXES
100
AcDbSpline
 62
7
  6
CONTINUOUS
 70
0
 71
3
 72
11
 73
7
 74
0
 42
0.0000001
 43
0.0000001
 44
0.0000000001
 40
0.0
 40
0.0
 40
0.0
 40
0.0
 40
0.1841329905
 40
0.3762360043
 40
0.5990827272
 40
1.0
 40
1.0
 40
1.0
 40
1.0
 10
1605.1436840471
 20
428.8032665398
 30
0.0
 10
1605.279709524
 20
428.9841830971
 30
0.0
 10
1605.801217406
 20
429.1290781775
 30
0.0
 10
1606.512055349
 20
428.923279186
 30
0.0
 10
1607.3769339042
 20
428.4176940422
 30
0.0
 10
1607.9291441279
 20
427.7745119599
 30
0.0
 10
1608.0350206214
 20
427.2931845563
 30
0.0
  0
SPLINE
  5
769
100
AcDbEntity
  8
0
100
AcDbSpline
 62
7
  6
CONTINUOUS
 70
0
 71
3
 72
13
 73
9
 74
0
 42
0.0000001
 43
0.0000001
 44
0.0000000001
 40
0.0
 40
0.0
 40
0.0
 40
0.0
 40
0.1040857271
 40
0.2207788684
 40
0.3538231561
 40
0.4980529837
 40
0.7778185714
 40
1.0
 40
1.0
 40
1.0
 40
1.0
 10
1504.7477732371
 20
413.8034459162
 30
0.0
 10
1504.776403059
 20
413.6723770475
 30
0.0
 10
1504.7553731561
 20
413.3729003188
 30
0.0
 10
1504.5061014158
 20
412.9760161414
 30
0.0
 10
1504.0992012207
 20
412.6581469945
 30
0.0
 10
1503.4256650498
 20
412.3928921184
 30
0.0
 10
1502.5574945336
 20
412.3561462118
 30
0.0
 10
1501.9512622161
 20
412.7873911986
 30
0.0
 10
1501.8490875131
 20
413.0549202817
 30
0.0
  0
SPLINE
  5
76A
100
AcDbEntity
  8
02___PRT_ALL_AXES
100
AcDbSpline
 62
7
  6
CONTINUOUS
 70
0
 71
3
 72
11
 73
7
 74
0
 42
0.0000001
 43
0.0000001
 44
0.0000000001
 40
0.0
 40
0.0
 40
0.0
 40
0.0
 40
0.184140901
 40
0.3762244878
 40
0.5990755451
 40
1.0
 40
1.0
 40
1.0
 40
1.0
 10
1598.6560521407
 20
420.1705540389
 30
0.0
 10
1598.7921473272
 20
420.3514271291
 30
0.0
 10
1599.3136218759
 20
420.4961269782
 30
0.0
 10
1600.0244873015
 20
420.2906099605
 30
0.0
 10
1600.8893594749
 20
419.784971334
 30
0.0
 10
1601.4415386845
 20
419.141785923
 30
0.0
 10
1601.5474158776
 20
418.6604553396
 30
0.0
  0
SPLINE
  5
76B
100
AcDbEntity
  8
0
100
AcDbSpline
 62
7
  6
CONTINUOUS
 70
0
 71
3
 72
9
 73
5
 74
0
 42
0.0000001
 43
0.0000001
 44
0.0000000001
 40
0.0
 40
0.0
 40
0.0
 40
0.0
 40
0.2400383532
 40
1.0
 40
1.0
 40
1.0
 40
1.0
 10
1614.2766887557
 20
408.0181718167
 30
0.0
 10
1614.4322782425
 20
407.9703381849
 30
0.0
 10
1615.0966297024
 20
407.8225188424
 30
0.0
 10
1615.7989036429
 20
407.8990409411
 30
0.0
 10
1616.293993031
 20
408.0421221853
 30
0.0
  0
SPLINE
  5
76C
100
AcDbEntity
  8
0
100
AcDbSpline
 62
7
  6
CONTINUOUS
 70
0
 71
3
 72
12
 73
8
 74
0
 42
0.0000001
 43
0.0000001
 44
0.0000000001
 40
0.0
 40
0.0
 40
0.0
 40
0.0
 40
0.2805067475
 40
0.5547603366
 40
0.7942757267
 40
0.9000639611
 40
1.0
 40
1.0
 40
1.0
 40
1.0
 10
1477.0394117867
 20
473.38261319
 30
0.0
 10
1478.1012353133
 20
473.9711864248
 30
0.0
 10
1480.4356294427
 20
474.7434052015
 30
0.0
 10
1483.9299438615
 20
474.7217218836
 30
0.0
 10
1486.5131040594
 20
473.6430687299
 30
0.0
 10
1487.8298684451
 20
472.1952854527
 30
0.0
 10
1488.1832733181
 20
471.3543636116
 30
0.0
 10
1488.2762121955
 20
470.9319419458
 30
0.0
  0
SPLINE
  5
76D
100
AcDbEntity
  8
0
100
AcDbSpline
 62
7
  6
CONTINUOUS
 70
0
 71
3
 72
12
 73
8
 74
0
 42
0.0000001
 43
0.0000001
 44
0.0000000001
 40
0.0
 40
0.0
 40
0.0
 40
0.0
 40
0.313917619
 40
0.6082241249
 40
0.7341930105
 40
0.8410732219
 40
1.0
 40
1.0
 40
1.0
 40
1.0
 10
1612.6270466092
 20
422.005322579
 30
0.0
 10
1612.3160559119
 20
421.3217825703
 30
0.0
 10
1611.8571384391
 20
419.9297715247
 30
0.0
 10
1611.6324744962
 20
418.1725750999
 30
0.0
 10
1611.7441999298
 20
416.9067194881
 30
0.0
 10
1611.9784341842
 20
416.0079715445
 30
0.0
 10
1612.4088213384
 20
415.4292171827
 30
0.0
 10
1612.7639548919
 20
415.2934849106
 30
0.0
  0
SPLINE
  5
76E
100
AcDbEntity
  8
0
100
AcDbSpline
 62
7
  6
CONTINUOUS
 70
0
 71
3
 72
11
 73
7
 74
0
 42
0.0000001
 43
0.0000001
 44
0.0000000001
 40
0.0
 40
0.0
 40
0.0
 40
0.0
 40
0.3304553996
 40
0.6123002269
 40
0.8317022246
 40
1.0
 40
1.0
 40
1.0
 40
1.0
 10
1613.0412760106
 20
414.0327494108
 30
0.0
 10
1612.9491193458
 20
413.5316531981
 30
0.0
 10
1612.8441659454
 20
412.5876708124
 30
0.0
 10
1612.9461346967
 20
411.3017007221
 30
0.0
 10
1613.2914699524
 20
410.3061793475
 30
0.0
 10
1613.7822347025
 20
409.8842819562
 30
0.0
 10
1614.0302716563
 20
409.8080628698
 30
0.0
  0
SPLINE
  5
76F
100
AcDbEntity
  8
02___PRT_ALL_AXES
100
AcDbSpline
 62
7
  6
CONTINUOUS
 70
0
 71
3
 72
11
 73
7
 74
0
 42
0.0000001
 43
0.0000001
 44
0.0000000001
 40
0.0
 40
0.0
 40
0.0
 40
0.0
 40
0.184140901
 40
0.3762244878
 40
0.5990755451
 40
1.0
 40
1.0
 40
1.0
 40
1.0
 10
1603.1382373708
 20
399.7939954011
 30
0.0
 10
1603.2743325573
 20
399.9748684914
 30
0.0
 10
1603.795807106
 20
400.1195683404
 30
0.0
 10
1604.5066725316
 20
399.9140513227
 30
0.0
 10
1605.3715447049
 20
399.4084126963
 30
0.0
 10
1605.9237239146
 20
398.7652272853
 30
0.0
 10
1606.0296011076
 20
398.2838967018
 30
0.0
  0
SPLINE
  5
770
100
AcDbEntity
  8
0
100
AcDbSpline
 62
7
  6
CONTINUOUS
 70
0
 71
3
 72
13
 73
9
 74
0
 42
0.0000001
 43
0.0000001
 44
0.0000000001
 40
0.0
 40
0.0
 40
0.0
 40
0.0
 40
0.3252219137
 40
0.6135977873
 40
0.7345175336
 40
0.8374108075
 40
0.9238951726
 40
1.0
 40
1.0
 40
1.0
 40
1.0
 10
1611.9271907108
 20
424.9613538942
 30
0.0
 10
1611.282110559
 20
422.9646224517
 30
0.0
 10
1610.3914444836
 20
419.0861920383
 30
0.0
 10
1610.2062890254
 20
414.3015294776
 30
0.0
 10
1610.8007910563
 20
411.0362349809
 30
0.0
 10
1611.534971444
 20
409.1559224601
 30
0.0
 10
1612.5773898307
 20
407.7597436437
 30
0.0
 10
1613.5134990025
 20
407.2065502734
 30
0.0
 10
1613.9828700027
 20
407.0623162412
 30
0.0
  0
SPLINE
  5
771
100
AcDbEntity
  8
0
100
AcDbSpline
 62
7
  6
CONTINUOUS
 70
0
 71
3
 72
9
 73
5
 74
0
 42
0.0000001
 43
0.0000001
 44
0.0000000001
 40
0.0
 40
0.0
 40
0.0
 40
0.0
 40
0.2237496648
 40
1.0
 40
1.0
 40
1.0
 40
1.0
 10
1614.3240956668
 20
410.7639342946
 30
0.0
 10
1614.39684557
 20
410.7415498029
 30
0.0
 10
1614.7379047296
 20
410.687773308
 30
0.0
 10
1615.080030467
 20
410.8346707623
 30
0.0
 10
1615.3003212145
 20
410.9802845774
 30
0.0
  0
SPLINE
  5
772
100
AcDbEntity
  8
0
100
AcDbSpline
 62
7
  6
CONTINUOUS
 70
0
 71
3
 72
9
 73
5
 74
0
 42
0.0000001
 43
0.0000001
 44
0.0000000001
 40
0.0
 40
0.0
 40
0.0
 40
0.0
 40
0.4631326161
 40
1.0
 40
1.0
 40
1.0
 40
1.0
 10
1612.8744368027
 20
423.5878402722
 30
0.0
 10
1612.9281380482
 20
423.3437078858
 30
0.0
 10
1612.9032324135
 20
422.7901584258
 30
0.0
 10
1612.7470456383
 20
422.2690736752
 30
0.0
 10
1612.6270466092
 20
422.005322579
 30
0.0
  0
SPLINE
  5
773
100
AcDbEntity
  8
0
100
AcDbSpline
 62
7
  6
CONTINUOUS
 70
0
 71
3
 72
9
 73
5
 74
0
 42
0.0000001
 43
0.0000001
 44
0.0000000001
 40
0.0
 40
0.0
 40
0.0
 40
0.0
 40
0.3846347015
 40
1.0
 40
1.0
 40
1.0
 40
1.0
 10
1612.7639548919
 20
415.2934849106
 30
0.0
 10
1612.9254459496
 20
415.2317629246
 30
0.0
 10
1613.1418332348
 20
414.7413127887
 30
0.0
 10
1613.0913050917
 20
414.3047794713
 30
0.0
 10
1613.0412760106
 20
414.0327494108
 30
0.0
  0
SPLINE
  5
774
100
AcDbEntity
  8
0
100
AcDbSpline
 62
7
  6
CONTINUOUS
 70
0
 71
3
 72
9
 73
5
 74
0
 42
0.0000001
 43
0.0000001
 44
0.0000000001
 40
0.0
 40
0.0
 40
0.0
 40
0.0
 40
0.2096478421
 40
1.0
 40
1.0
 40
1.0
 40
1.0
 10
1615.616665503
 20
410.159722489
 30
0.0
 10
1615.653485508
 20
410.1484139793
 30
0.0
 10
1615.81938297
 20
410.058364499
 30
0.0
 10
1615.893290359
 20
409.863765217
 30
0.0
 10
1615.9244854565
 20
409.7219485138
 30
0.0
  0
SPLINE
  5
775
100
AcDbEntity
  8
02___PRT_ALL_AXES
100
AcDbSpline
 62
7
  6
CONTINUOUS
 70
0
 71
3
 72
12
 73
8
 74
0
 42
0.0000001
 43
0.0000001
 44
0.0000000001
 40
0.0
 40
0.0
 40
0.0
 40
0.0
 40
0.1624128687
 40
0.2823284864
 40
0.4238598365
 40
0.7320906591
 40
1.0
 40
1.0
 40
1.0
 40
1.0
 10
1615.6719417782
 20
434.2406246096
 30
0.0
 10
1615.274522954
 20
434.3627294313
 30
0.0
 10
1614.4942140485
 20
433.9600867912
 30
0.0
 10
1613.8205882976
 20
433.1439580744
 30
0.0
 10
1613.0726039327
 20
431.8712931695
 30
0.0
 10
1612.5203007501
 20
430.107894074
 30
0.0
 10
1612.4324242252
 20
428.5927334996
 30
0.0
 10
1612.5797579443
 20
427.9229365116
 30
0.0
  0
SPLINE
  5
776
100
AcDbEntity
  8
02___PRT_ALL_AXES
100
AcDbSpline
 62
7
  6
CONTINUOUS
 70
0
 71
3
 72
10
 73
6
 74
0
 42
0.0000001
 43
0.0000001
 44
0.0000000001
 40
0.0
 40
0.0
 40
0.0
 40
0.0
 40
0.3745891086
 40
0.6693671357
 40
1.0
 40
1.0
 40
1.0
 40
1.0
 10
1613.7958098704
 20
434.817242192
 30
0.0
 10
1613.2282449752
 20
434.9912819117
 30
0.0
 10
1612.1547873163
 20
434.1209881965
 30
0.0
 10
1611.4012146328
 20
432.8176173652
 30
0.0
 10
1611.0346235344
 20
431.8696931405
 30
0.0
 10
1610.8953629888
 20
431.3645501193
 30
0.0
  0
SPLINE
  5
777
100
AcDbEntity
  8
0
100
AcDbSpline
 62
9
  6
CONTINUOUS
 70
0
 71
3
 72
9
 73
5
 74
0
 42
0.0000001
 43
0.0000001
 44
0.0000000001
 40
0.0
 40
0.0
 40
0.0
 40
0.0
 40
0.2478546201
 40
1.0
 40
1.0
 40
1.0
 40
1.0
 10
1365.2986823182
 20
485.2292191167
 30
0.0
 10
1365.6299392396
 20
484.3618727208
 30
0.0
 10
1367.056516449
 20
480.8973584229
 30
0.0
 10
1368.8403614064
 20
477.5813311545
 30
0.0
 10
1370.3522391079
 20
475.2038276385
 30
0.0
  0
SPLINE
  5
778
100
AcDbEntity
  8
0
100
AcDbSpline
 62
9
  6
CONTINUOUS
 70
0
 71
3
 72
20
 73
16
 74
0
 42
0.0000001
 43
0.0000001
 44
0.0000000001
 40
0.0
 40
0.0
 40
0.0
 40
0.0
 40
0.0535018622
 40
0.1104954059
 40
0.1715339633
 40
0.2365617929
 40
0.3756587575
 40
0.520096025
 40
0.6597607453
 40
0.7252226593
 40
0.7867363528
 40
0.8441820623
 40
0.8980390788
 40
0.9494298441
 40
1.0
 40
1.0
 40
1.0
 40
1.0
 10
1370.3522391079
 20
475.2038276385
 30
0.0
 10
1373.0452227885
 20
470.9689757303
 30
0.0
 10
1379.7686307304
 20
462.9244229698
 30
0.0
 10
1392.6880880381
 20
453.1480594148
 30
0.0
 10
1408.2278521191
 20
445.6111079955
 30
0.0
 10
1432.225641989
 20
438.7112350834
 30
0.0
 10
1465.3648821004
 20
437.0842253834
 30
0.0
 10
1504.5721094784
 20
445.4099990323
 30
0.0
 10
1534.2840933262
 20
460.3706109905
 30
0.0
 10
1553.5747488935
 20
476.439796848
 30
0.0
 10
1564.8768961522
 20
489.6623312535
 30
0.0
 10
1572.9036483132
 20
503.8787079471
 30
0.0
 10
1577.3267443195
 20
518.6369733525
 30
0.0
 10
1577.9111334263
 20
533.4032386283
 30
0.0
 10
1575.6848914665
 20
542.8464457225
 30
0.0
 10
1573.9924557252
 20
547.2778340068
 30
0.0
  0
SPLINE
  5
779
100
AcDbEntity
  8
02___PRT_ALL_AXES
100
AcDbSpline
 62
7
  6
CONTINUOUS
 70
0
 71
3
 72
9
 73
5
 74
0
 42
0.0000001
 43
0.0000001
 44
0.0000000001
 40
0.0
 40
0.0
 40
0.0
 40
0.0
 40
0.3088843338
 40
1.0
 40
1.0
 40
1.0
 40
1.0
 10
1598.6272679737
 20
436.0733134267
 30
0.0
 10
1598.6587392798
 20
435.9302410456
 30
0.0
 10
1598.7834628954
 20
435.4815951701
 30
0.0
 10
1599.1143304452
 20
435.0315277008
 30
0.0
 10
1599.4276469861
 20
434.9352628587
 30
0.0
  0
SPLINE
  5
77A
100
AcDbEntity
  8
02___PRT_ALL_AXES
100
AcDbSpline
 62
7
  6
CONTINUOUS
 70
0
 71
3
 72
9
 73
5
 74
0
 42
0.0000001
 43
0.0000001
 44
0.0000000001
 40
0.0
 40
0.0
 40
0.0
 40
0.0
 40
0.3090861808
 40
1.0
 40
1.0
 40
1.0
 40
1.0
 10
1596.7511590269
 20
436.6500069005
 30
0.0
 10
1596.7826514114
 20
436.5068386945
 30
0.0
 10
1596.9072197671
 20
436.0581593242
 30
0.0
 10
1597.2382664751
 20
435.6080604056
 30
0.0
 10
1597.551556204
 20
435.512016291
 30
0.0
  0
SPLINE
  5
77B
100
AcDbEntity
  8
02___PRT_ALL_AXES
100
AcDbSpline
 62
7
  6
CONTINUOUS
 70
0
 71
3
 72
12
 73
8
 74
0
 42
0.0000001
 43
0.0000001
 44
0.0000000001
 40
0.0
 40
0.0
 40
0.0
 40
0.0
 40
0.1624128687
 40
0.2823284864
 40
0.4238598365
 40
0.7320906591
 40
1.0
 40
1.0
 40
1.0
 40
1.0
 10
1601.7194518076
 20
442.3910015248
 30
0.0
 10
1601.3220329834
 20
442.5131063464
 30
0.0
 10
1600.5417240779
 20
442.1104637063
 30
0.0
 10
1599.868098327
 20
441.2943349895
 30
0.0
 10
1599.1201139621
 20
440.0216700847
 30
0.0
 10
1598.5678107795
 20
438.2582709891
 30
0.0
 10
1598.4799342546
 20
436.7431104148
 30
0.0
 10
1598.6272679737
 20
436.0733134267
 30
0.0
  0
SPLINE
  5
77C
100
AcDbEntity
  8
02___PRT_ALL_AXES
100
AcDbSpline
 62
7
  6
CONTINUOUS
 70
0
 71
3
 72
12
 73
8
 74
0
 42
0.0000001
 43
0.0000001
 44
0.0000000001
 40
0.0
 40
0.0
 40
0.0
 40
0.0
 40
0.1624075408
 40
0.2823227547
 40
0.4238612328
 40
0.7321086732
 40
1.0
 40
1.0
 40
1.0
 40
1.0
 10
1599.8433246961
 20
442.9676350402
 30
0.0
 10
1599.4458421529
 20
443.0894898456
 30
0.0
 10
1598.6656179613
 20
442.6873073642
 30
0.0
 10
1597.9919205559
 20
441.8710692972
 30
0.0
 10
1597.243943516
 20
440.5983740106
 30
0.0
 10
1596.6917025792
 20
438.8349088833
 30
0.0
 10
1596.6038347895
 20
437.3197607836
 30
0.0
 10
1596.7511590269
 20
436.6500069005
 30
0.0
  0
SPLINE
  5
77D
100
AcDbEntity
  8
0
100
AcDbSpline
 62
7
  6
CONTINUOUS
 70
0
 71
3
 72
11
 73
7
 74
0
 42
0.0000001
 43
0.0000001
 44
0.0000000001
 40
0.0
 40
0.0
 40
0.0
 40
0.0
 40
0.2177101806
 40
0.4525959438
 40
0.7136001756
 40
1.0
 40
1.0
 40
1.0
 40
1.0
 10
1438.8010473139
 20
448.4055391289
 30
0.0
 10
1438.6909890343
 20
448.9057711422
 30
0.0
 10
1438.6909296766
 20
450.0064665755
 30
0.0
 10
1439.3484240879
 20
451.5877181324
 30
0.0
 10
1440.558354753
 20
453.0055815597
 30
0.0
 10
1441.6245062059
 20
453.7519824709
 30
0.0
 10
1442.2138252406
 20
454.0786444838
 30
0.0
  0
SPLINE
  5
77E
100
AcDbEntity
  8
0
100
AcDbSpline
 62
7
  6
CONTINUOUS
 70
0
 71
3
 72
9
 73
5
 74
0
 42
0.0000001
 43
0.0000001
 44
0.0000000001
 40
0.0
 40
0.0
 40
0.0
 40
0.0
 40
0.2577244891
 40
1.0
 40
1.0
 40
1.0
 40
1.0
 10
1567.1876141427
 20
417.7998801444
 30
0.0
 10
1569.2186551175
 20
418.9274639492
 30
0.0
 10
1576.9703433785
 20
423.5275717507
 30
0.0
 10
1584.1919515326
 20
429.0468998835
 30
0.0
 10
1589.0514423515
 20
433.6458320462
 30
0.0
  0
SPLINE
  5
77F
100
AcDbEntity
  8
0
100
AcDbSpline
 62
7
  6
CONTINUOUS
 70
0
 71
3
 72
9
 73
5
 74
0
 42
0.0000001
 43
0.0000001
 44
0.0000000001
 40
0.0
 40
0.0
 40
0.0
 40
0.0
 40
0.5115502213
 40
1.0
 40
1.0
 40
1.0
 40
1.0
 10
1605.879006807
 20
456.0374254089
 30
0.0
 10
1607.4972129621
 20
459.362136007
 30
0.0
 10
1610.110054876
 20
466.1508224714
 30
0.0
 10
1611.3470411248
 20
473.3315137659
 30
0.0
 10
1611.568428361
 20
476.8551966587
 30
0.0
  0
SPLINE
  5
780
100
AcDbEntity
  8
02___PRT_ALL_AXES
100
AcDbSpline
 62
7
  6
CONTINUOUS
 70
0
 71
3
 72
19
 73
15
 74
0
 42
0.0000001
 43
0.0000001
 44
0.0000000001
 40
0.0
 40
0.0
 40
0.0
 40
0.0
 40
0.0509493787
 40
0.1037130625
 40
0.1597288067
 40
0.2197588625
 40
0.3513249288
 40
0.4939599305
 40
0.638037483
 40
0.7734003605
 40
0.8357097925
 40
0.8938665596
 40
0.9482733613
 40
1.0
 40
1.0
 40
1.0
 40
1.0
 10
1463.5427626755
 20
510.7912163549
 30
0.0
 10
1463.1727713221
 20
512.4732707168
 30
0.0
 10
1462.8938201981
 20
516.0193484533
 30
0.0
 10
1463.9132934412
 20
521.37757597
 30
0.0
 10
1466.2923975406
 20
526.6175587542
 30
0.0
 10
1471.2809111109
 20
533.3996622812
 30
0.0
 10
1480.3627953463
 20
540.4795674356
 30
0.0
 10
1493.6389036959
 20
545.7814828568
 30
0.0
 10
1507.9496173391
 20
547.56468417
 30
0.0
 10
1519.5717179925
 20
545.8400007661
 30
0.0
 10
1527.5690010578
 20
542.4381351196
 30
0.0
 10
1532.5023336303
 20
539.1038449245
 30
0.0
 10
1536.342650291
 20
535.0243250037
 30
0.0
 10
1538.0941671101
 20
531.8370267897
 30
0.0
 10
1538.7180192578
 20
530.2035638281
 30
0.0
  0
SPLINE
  5
781
100
AcDbEntity
  8
0
100
AcDbSpline
 62
7
  6
CONTINUOUS
 70
0
 71
3
 72
20
 73
16
 74
0
 42
0.0000001
 43
0.0000001
 44
0.0000000001
 40
0.0
 40
0.0
 40
0.0
 40
0.0
 40
0.051734405
 40
0.1061780239
 40
0.1643711961
 40
0.2266917804
 40
0.3619801678
 40
0.5058856088
 40
0.5781128088
 40
0.6486896351
 40
0.780206811
 40
0.8402568546
 40
0.8963060314
 40
0.9490944965
 40
1.0
 40
1.0
 40
1.0
 40
1.0
 10
1346.2641709829
 20
475.7872252694
 30
0.0
 10
1348.4002586014
 20
470.3710028525
 30
0.0
 10
1354.3376074505
 20
459.8157737446
 30
0.0
 10
1367.2308912527
 20
446.3278951543
 30
0.0
 10
1383.7223998317
 20
435.3148008699
 30
0.0
 10
1410.3879210587
 20
424.0960706876
 30
0.0
 10
1449.0481396902
 20
418.4373710498
 30
0.0
 10
1488.7430497652
 20
423.3993657112
 30
0.0
 10
1519.4816611008
 20
433.5119591319
 30
0.0
 10
1547.2940906517
 20
447.0279209677
 30
0.0
 10
1571.0821152494
 20
465.4834522432
 30
0.0
 10
1587.7829822883
 20
487.9832416361
 30
0.0
 10
1595.8174781202
 20
505.3843338013
 30
0.0
 10
1599.3595462781
 20
523.1924472872
 30
0.0
 10
1598.5586996744
 20
535.0030426282
 30
0.0
 10
1597.391330828
 20
540.6117887023
 30
0.0
  0
SPLINE
  5
782
100
AcDbEntity
  8
02___PRT_ALL_AXES
100
AcDbSpline
 62
7
  6
CONTINUOUS
 70
0
 71
3
 72
9
 73
5
 74
0
 42
0.0000001
 43
0.0000001
 44
0.0000000001
 40
0.0
 40
0.0
 40
0.0
 40
0.0
 40
0.3088843338
 40
1.0
 40
1.0
 40
1.0
 40
1.0
 10
1595.6121763065
 20
405.3450293292
 30
0.0
 10
1595.6436476126
 20
405.2019569481
 30
0.0
 10
1595.7683712283
 20
404.7533110726
 30
0.0
 10
1596.0992387781
 20
404.3032436033
 30
0.0
 10
1596.4125553189
 20
404.2069787613
 30
0.0
  0
SPLINE
  5
783
100
AcDbEntity
  8
02___PRT_ALL_AXES
100
AcDbSpline
 62
7
  6
CONTINUOUS
 70
0
 71
3
 72
9
 73
5
 74
0
 42
0.0000001
 43
0.0000001
 44
0.0000000001
 40
0.0
 40
0.0
 40
0.0
 40
0.0
 40
0.3088843338
 40
1.0
 40
1.0
 40
1.0
 40
1.0
 10
1612.5797579443
 20
427.9229365116
 30
0.0
 10
1612.6112292504
 20
427.7798641304
 30
0.0
 10
1612.735952866
 20
427.3312182549
 30
0.0
 10
1613.0668204158
 20
426.8811507857
 30
0.0
 10
1613.3801369567
 20
426.7848859436
 30
0.0
  0
SPLINE
  5
784
100
AcDbEntity
  8
0
100
AcDbSpline
 62
7
  6
CONTINUOUS
 70
0
 71
3
 72
19
 73
15
 74
0
 42
0.0000001
 43
0.0000001
 44
0.0000000001
 40
0.0
 40
0.0
 40
0.0
 40
0.0
 40
0.0514765953
 40
0.105526082
 40
0.1631963334
 40
0.2249007663
 40
0.3589444891
 40
0.5020711132
 40
0.6447226466
 40
0.7775077175
 40
0.838446444
 40
0.8953820183
 40
0.9488487953
 40
1.0
 40
1.0
 40
1.0
 40
1.0
 10
1575.8605027734
 20
536.6429319332
 30
0.0
 10
1574.1571850529
 20
541.1028130423
 30
0.0
 10
1569.410151039
 20
549.8077303969
 30
0.0
 10
1559.0409172358
 20
561.0094096851
 30
0.0
 10
1545.7311946489
 20
570.2407581026
 30
0.0
 10
1524.1354150471
 20
579.7993084001
 30
0.0
 10
1492.6145299071
 20
585.0318163709
 30
0.0
 10
1453.4842802152
 20
580.9745779742
 30
0.0
 10
1416.6867110681
 20
567.3885741597
 30
0.0
 10
1390.9487058144
 20
548.8186439334
 30
0.0
 10
1376.1244079063
 20
530.7575128975
 30
0.0
 10
1368.5547076407
 20
516.6509689651
 30
0.0
 10
1364.5341625319
 20
502.0783680533
 30
0.0
 10
1364.3677030963
 20
492.246776908
 30
0.0
 10
1364.9265835695
 20
487.5359114385
 30
0.0
  0
SPLINE
  5
785
100
AcDbEntity
  8
0
100
AcDbSpline
 62
7
  6
CONTINUOUS
 70
0
 71
3
 72
11
 73
7
 74
0
 42
0.0000001
 43
0.0000001
 44
0.0000000001
 40
0.0
 40
0.0
 40
0.0
 40
0.0
 40
0.3202384453
 40
0.5903396753
 40
0.8115331417
 40
1.0
 40
1.0
 40
1.0
 40
1.0
 10
1600.1047959907
 20
417.9676161507
 30
0.0
 10
1600.1348647815
 20
417.0013196304
 30
0.0
 10
1600.308608798
 20
415.2182351864
 30
0.0
 10
1601.0080404729
 20
412.8507568359
 30
0.0
 10
1602.1185371925
 20
411.0779854878
 30
0.0
 10
1603.205738614
 20
410.3752085842
 30
0.0
 10
1603.7495593025
 20
410.2079510424
 30
0.0
  0
SPLINE
  5
786
100
AcDbEntity
  8
0
100
AcDbSpline
 62
7
  6
CONTINUOUS
 70
0
 71
3
 72
19
 73
15
 74
0
 42
0.0000001
 43
0.0000001
 44
0.0000000001
 40
0.0
 40
0.0
 40
0.0
 40
0.0
 40
0.051729476
 40
0.1061338479
 40
0.1642920096
 40
0.2266018774
 40
0.3619665092
 40
0.5060456507
 40
0.6486820115
 40
0.7802488021
 40
0.8402792038
 40
0.8962941974
 40
0.9490621175
 40
1.0
 40
1.0
 40
1.0
 40
1.0
 10
1572.5149107635
 20
535.6482240087
 30
0.0
 10
1570.8276886228
 20
540.0659612644
 30
0.0
 10
1566.0910524995
 20
548.6857767595
 30
0.0
 10
1555.7047183086
 20
559.7178815811
 30
0.0
 10
1542.3635076347
 20
568.7354230468
 30
0.0
 10
1520.7353626696
 20
577.9351648694
 30
0.0
 10
1489.3045436469
 20
582.5991688536
 30
0.0
 10
1450.6025452143
 20
577.776490456
 30
0.0
 10
1414.698982424
 20
563.4374228998
 30
0.0
 10
1390.1379195238
 20
544.2903622807
 30
0.0
 10
1376.6481466185
 20
525.9483619928
 30
0.0
 10
1370.2134881437
 20
511.777250355
 30
0.0
 10
1367.458828428
 20
497.2870008716
 30
0.0
 10
1368.2118726705
 20
487.6977188758
 30
0.0
 10
1369.2125320711
 20
483.1499048486
 30
0.0
  0
SPLINE
  5
787
100
AcDbEntity
  8
02___PRT_ALL_AXES
100
AcDbSpline
 62
7
  6
CONTINUOUS
 70
0
 71
3
 72
9
 73
5
 74
0
 42
0.0000001
 43
0.0000001
 44
0.0000000001
 40
0.0
 40
0.0
 40
0.0
 40
0.0
 40
0.3090861808
 40
1.0
 40
1.0
 40
1.0
 40
1.0
 10
1593.7360673598
 20
405.921722803
 30
0.0
 10
1593.7675597442
 20
405.778554597
 30
0.0
 10
1593.8921281
 20
405.3298752267
 30
0.0
 10
1594.223174808
 20
404.8797763082
 30
0.0
 10
1594.5364645369
 20
404.7837321935
 30
0.0
  0
SPLINE
  5
788
100
AcDbEntity
  8
0
100
AcDbSpline
 62
7
  6
CONTINUOUS
 70
0
 71
3
 72
19
 73
15
 74
0
 42
0.0000001
 43
0.0000001
 44
0.0000000001
 40
0.0
 40
0.0
 40
0.0
 40
0.0
 40
0.050936854
 40
0.1037050041
 40
0.1597199252
 40
0.2197503101
 40
0.3513172943
 40
0.4939536926
 40
0.6380331151
 40
0.77339776
 40
0.8357078809
 40
0.8938659544
 40
0.9482705887
 40
1.0
 40
1.0
 40
1.0
 40
1.0
 10
1363.4837929959
 20
492.9013623366
 30
0.0
 10
1362.4498611653
 20
497.6003874797
 30
0.0
 10
1361.6718702612
 20
507.5086363185
 30
0.0
 10
1364.518081252
 20
522.4808904026
 30
0.0
 10
1371.1666517406
 20
537.1235760929
 30
0.0
 10
1385.105236344
 20
556.0758349279
 30
0.0
 10
1410.4834297679
 20
575.8599945826
 30
0.0
 10
1447.5815714485
 20
590.6760141389
 30
0.0
 10
1487.5712064976
 20
595.6595492828
 30
0.0
 10
1520.0477217791
 20
590.8400066703
 30
0.0
 10
1542.3955294896
 20
581.3344031272
 30
0.0
 10
1556.1806748568
 20
572.016846624
 30
0.0
 10
1566.9124755426
 20
560.6176110878
 30
0.0
 10
1571.8067439888
 20
551.7110228261
 30
0.0
 10
1573.5500980157
 20
547.1463126743
 30
0.0
  0
ENDSEC
  0
SECTION
  2
OBJECTS
  0
DICTIONARY
  5
C
100
AcDbDictionary
280
0
281
1
  3
ACAD_GROUP
350
D
  3
ACAD_MLINESTYLE
350
17
  3
ACAD_LAYOUT
350
1A
  3
ACAD_PLOTSETTINGS
350
19
  3
ACAD_PLOTSTYLENAME
350
E
  3
ACAD_TABLESTYLE
350
       789
  0
DICTIONARY
  5
D
102
{ACAD_REACTORS
330
C
102
}
100
AcDbDictionary
280
0
281
1
  0
ACDBDICTIONARYWDFLT
  5
E
102
{ACAD_REACTORS
330
C
102
}
100
AcDbDictionary
281
1
  3
Normal
350
F
100
AcDbDictionaryWithDefault
340
F
  0
DICTIONARY
  5
17
102
{ACAD_REACTORS
330
C
102
}
100
AcDbDictionary
280
0
281
1
  3
Standard
350
18
  0
DICTIONARY
  5
789
330
C
100
AcDbDictionary
281
1
  3
Standard
350
       78C
  3
Standard1
350
       78D
  0
DICTIONARY
  5
19
102
{ACAD_REACTORS
330
C
102
}
100
AcDbDictionary
281
1
  0
DICTIONARY
  5
1A
102
{ACAD_REACTORS
330
C
102
}
100
AcDbDictionary
281
1
  3
Model
350
78A
  3
Layout1
350
78B
  0
ACDBPLACEHOLDER
  5
F
102
{ACAD_REACTORS
330
E
102
}
  0
MLINESTYLE
  5
18
102
{ACAD_REACTORS
330
17
102
}
100
AcDbMlineStyle
  2
STANDARD
 70
0
  3

 62
256
 51
90.0
 52
90.0
 71
2
 49
0.5
 62
256
  6
BYLAYER
 49
-0.5
 62
256
  6
BYLAYER
  0
LAYOUT
  5
78A
102
{ACAD_REACTORS
330
1A
102
}
100
AcDbPlotSettings
  1

  2
none_device
  4

  6

 40
0.0
 41
0.0
 42
0.0
 43
0.0
 44
431.8
 45
279.4
 46
0.0
 47
0.0
 48
0.0
 49
0.0
140
0.0
141
0.0
142
1.0
143
1.0
 70
1024
 72
1
 73
0
 74
0
  7

 75
0
147
1.0
148
0.0
149
0.0
100
AcDbLayout
  1
Model
 70
0
 71
0
 10
0.0
 20
0.0
 11
431.8
 21
279.4
 12
0.0
 22
0.0
 32
0.0
 14
0.0
 24
0.0
 34
0.0
 15
0.0
 25
0.0
 35
0.0
146
0.0
 13
0.0
 23
0.0
 33
0.0
 16
1.0
 26
0.0
 36
0.0
 17
0.0
 27
1.0
 37
0.0
 76
0
330
208
345
0
346
0
  0
LAYOUT
  5
78B
102
{ACAD_REACTORS
330
1A
102
}
100
AcDbPlotSettings
  1

  2
none_device
  4

  6

 40
0.0
 41
0.0
 42
0.0
 43
0.0
 44
431.8
 45
279.4
 46
0.0
 47
0.0
 48
0.0
 49
0.0
140
0.0
141
0.0
142
1.0
143
1.0
 70
0
 72
1
 73
0
 74
0
  7

 75
0
147
1.0
148
0.0
149
0.0
100
AcDbLayout
  1
Layout1
 70
0
 71
1
 10
0.0
 20
0.0
 11
431.8
 21
279.4
 12
0.0
 22
0.0
 32
0.0
 14
0.0
 24
0.0
 34
0.0
 15
0.0
 25
0.0
 35
0.0
146
0.0
 13
0.0
 23
0.0
 33
0.0
 16
1.0
 26
0.0
 36
0.0
 17
0.0
 27
1.0
 37
0.0
 76
0
330
209
345
0
346
0
  0
TABLESTYLE
  5
78C
102
{ACAD_REACTORS
330
789
330
371
330
372
330
373
330
374
330
375
330
376
330
377
330
378
330
379
330
37A
330
37B
330
37C
330
37D
330
37E
102
}
330
789
100
AcDbTableStyle
  3
Standard
 70
0
 71
0
 40
0.06
 41
0.06
280
1
281
1
  7
Standard
140
0.18
170
1
 62
0
 63
7
283
0
  7
Standard
140
0.18
170
1
 62
0
 63
7
283
0
  7
Standard
140
0.18
170
1
 62
0
 63
7
283
0
  0
TABLESTYLE
  5
78D
102
{ACAD_REACTORS
330
789
102
}
330
789
100
AcDbTableStyle
  3
Standard1
 70
1
 71
0
 40
0.06
 41
0.06
280
1
281
1
  7
Standard
140
0.18
170
1
 62
0
 63
7
283
0
  7
Standard
140
0.18
170
1
 62
0
 63
7
283
0
  7
Standard
140
0.18
170
1
 62
0
 63
7
283
0
  0
ENDSEC
  0
EOF
