  0
SECTION
  2
HEADER
  9
$ACADVER
  1
AC1015
  9
$ACADMAINTVER
 70
     6
  9
$DWGCODEPAGE
  3
ANSI_1252
  9
$INSBASE
 10
0.0
 20
0.0
 30
0.0
  9
$EXTMIN
 10
0.0
 20
0.0
 30
0.0
  9
$EXTMAX
 10
863.6
 20
558.8
 30
0.0
  9
$LIMMIN
 10
0.0
 20
0.0
  9
$LIMMAX
 10
863.6
 20
558.8
  9
$ORTHOMODE
 70
     0
  9
$REGENMODE
 70
     1
  9
$FILLMODE
 70
     1
  9
$QTEXTMODE
 70
     0
  9
$MIRRTEXT
 70
     1
  9
$LTSCALE
 40
2.0
  9
$ATTMODE
 70
     1
  9
$TEXTSIZE
 40
6.35
  9
$TRACEWID
 40
1.0
  9
$TEXTSTYLE
  7
STANDARD
  9
$CLAYER
  8
0
  9
$CELTYPE
  6
ByLayer
  9
$CECOLOR
 62
   256
  9
$CELTSCALE
 40
1.0
  9
$DISPSILH
 70
     0
  9
$DIMSCALE
 40
1.0
  9
$DIMASZ
 40
4.0
  9
$DIMEXO
 40
1.524
  9
$DIMDLI
 40
3.75
  9
$DIMRND
 40
0.0
  9
$DIMDLE
 40
0.0
  9
$DIMEXE
 40
1.524
  9
$DIMTP
 40
0.0
  9
$DIMTM
 40
0.0
  9
$DIMTXT
 40
6.35
  9
$DIMCEN
 40
2.5
  9
$DIMTSZ
 40
0.0
  9
$DIMTOL
 70
     0
  9
$DIMLIM
 70
     0
  9
$DIMTIH
 70
     1
  9
$DIMTOH
 70
     1
  9
$DIMSE1
 70
     0
  9
$DIMSE2
 70
     0
  9
$DIMTAD
 70
     0
  9
$DIMZIN
 70
     1
  9
$DIMBLK
  1

  9
$DIMASO
 70
     1
  9
$DIMSHO
 70
     1
  9
$DIMPOST
  1

  9
$DIMAPOST
  1

  9
$DIMALT
 70
     0
  9
$DIMALTD
 70
     3
  9
$DIMALTF
 40
0.0393700787
  9
$DIMLFAC
 40
1.0
  9
$DIMTOFL
 70
     1
  9
$DIMTVP
 40
0.0
  9
$DIMTIX
 70
     0
  9
$DIMSOXD
 70
     0
  9
$DIMSAH
 70
     0
  9
$DIMBLK1
  1

  9
$DIMBLK2
  1

  9
$DIMSTYLE
  2
ISO-25
  9
$DIMCLRD
 70
     0
  9
$DIMCLRE
 70
     0
  9
$DIMCLRT
 70
     0
  9
$DIMTFAC
 40
1.0
  9
$DIMGAP
 40
3.048
  9
$DIMJUST
 70
     0
  9
$DIMSD1
 70
     0
  9
$DIMSD2
 70
     0
  9
$DIMTOLJ
 70
     0
  9
$DIMTZIN
 70
     1
  9
$DIMALTZ
 70
     0
  9
$DIMALTTZ
 70
     0
  9
$DIMUPT
 70
     0
  9
$DIMDEC
 70
     1
  9
$DIMTDEC
 70
     1
  9
$DIMALTU
 70
     2
  9
$DIMALTTD
 70
     3
  9
$DIMTXSTY
  7
STANDARD
  9
$DIMAUNIT
 70
     0
  9
$DIMADEC
 70
     0
  9
$DIMALTRND
 40
0.0
  9
$DIMAZIN
 70
     0
  9
$DIMDSEP
 70
    44
  9
$DIMATFIT
 70
     3
  9
$DIMFRAC
 70
     0
  9
$DIMLDRBLK
  1

  9
$DIMLUNIT
 70
     2
  9
$DIMLWD
 70
    -2
  9
$DIMLWE
 70
    -2
  9
$DIMTMOVE
 70
     0
  9
$LUNITS
 70
     2
  9
$LUPREC
 70
     2
  9
$SKETCHINC
 40
1.0
  9
$FILLETRAD
 40
10.0
  9
$AUNITS
 70
     0
  9
$AUPREC
 70
     0
  9
$MENU
  1
.
  9
$ELEVATION
 40
0.0
  9
$PELEVATION
 40
0.0
  9
$THICKNESS
 40
0.0
  9
$LIMCHECK
 70
     0
  9
$CHAMFERA
 40
0.0
  9
$CHAMFERB
 40
0.0
  9
$CHAMFERC
 40
0.0
  9
$CHAMFERD
 40
0.0
  9
$SKPOLY
 70
     0
  9
$TDCREATE
 40
2459564.466080521
  9
$TDUCREATE
 40
2459564.799413854
  9
$TDUPDATE
 40
2459564.466082662
  9
$TDUUPDATE
 40
2459564.799415995
  9
$TDINDWG
 40
0.0000000116
  9
$TDUSRTIMER
 40
0.0000000116
  9
$USRTIMER
 70
     1
  9
$ANGBASE
 50
0.0
  9
$ANGDIR
 70
     0
  9
$PDMODE
 70
     0
  9
$PDSIZE
 40
-1.0
  9
$PLINEWID
 40
0.0
  9
$SPLFRAME
 70
     0
  9
$SPLINETYPE
 70
     6
  9
$SPLINESEGS
 70
     8
  9
$HANDSEED
  5
3FB
  9
$SURFTAB1
 70
     6
  9
$SURFTAB2
 70
     6
  9
$SURFTYPE
 70
     6
  9
$SURFU
 70
     6
  9
$SURFV
 70
     6
  9
$UCSBASE
  2

  9
$UCSNAME
  2

  9
$UCSORG
 10
0.0
 20
0.0
 30
0.0
  9
$UCSXDIR
 10
1.0
 20
0.0
 30
0.0
  9
$UCSYDIR
 10
0.0
 20
1.0
 30
0.0
  9
$UCSORTHOREF
  2

  9
$UCSORTHOVIEW
 70
     0
  9
$UCSORGTOP
 10
0.0
 20
0.0
 30
0.0
  9
$UCSORGBOTTOM
 10
0.0
 20
0.0
 30
0.0
  9
$UCSORGLEFT
 10
0.0
 20
0.0
 30
0.0
  9
$UCSORGRIGHT
 10
0.0
 20
0.0
 30
0.0
  9
$UCSORGFRONT
 10
0.0
 20
0.0
 30
0.0
  9
$UCSORGBACK
 10
0.0
 20
0.0
 30
0.0
  9
$PUCSBASE
  2

  9
$PUCSNAME
  2

  9
$PUCSORG
 10
0.0
 20
0.0
 30
0.0
  9
$PUCSXDIR
 10
1.0
 20
0.0
 30
0.0
  9
$PUCSYDIR
 10
0.0
 20
1.0
 30
0.0
  9
$PUCSORTHOREF
  2

  9
$PUCSORTHOVIEW
 70
     0
  9
$PUCSORGTOP
 10
0.0
 20
0.0
 30
0.0
  9
$PUCSORGBOTTOM
 10
0.0
 20
0.0
 30
0.0
  9
$PUCSORGLEFT
 10
0.0
 20
0.0
 30
0.0
  9
$PUCSORGRIGHT
 10
0.0
 20
0.0
 30
0.0
  9
$PUCSORGFRONT
 10
0.0
 20
0.0
 30
0.0
  9
$PUCSORGBACK
 10
0.0
 20
0.0
 30
0.0
  9
$USERI1
 70
     0
  9
$USERI2
 70
     0
  9
$USERI3
 70
     0
  9
$USERI4
 70
     0
  9
$USERI5
 70
     0
  9
$USERR1
 40
0.0
  9
$USERR2
 40
0.0
  9
$USERR3
 40
0.0
  9
$USERR4
 40
0.0
  9
$USERR5
 40
0.0
  9
$WORLDVIEW
 70
     1
  9
$SHADEDGE
 70
     3
  9
$SHADEDIF
 70
    70
  9
$TILEMODE
 70
     1
  9
$MAXACTVP
 70
    64
  9
$PINSBASE
 10
0.0
 20
0.0
 30
0.0
  9
$PLIMCHECK
 70
     0
  9
$PEXTMIN
 10
1.0000000000E+20
 20
1.0000000000E+20
 30
1.0000000000E+20
  9
$PEXTMAX
 10
-1.0000000000E+20
 20
-1.0000000000E+20
 30
-1.0000000000E+20
  9
$PLIMMIN
 10
0.0
 20
0.0
  9
$PLIMMAX
 10
420.0
 20
297.0
  9
$UNITMODE
 70
     0
  9
$VISRETAIN
 70
     1
  9
$PLINEGEN
 70
     0
  9
$PSLTSCALE
 70
     1
  9
$TREEDEPTH
 70
  3020
  9
$CMLSTYLE
  2
Standard
  9
$CMLJUST
 70
     0
  9
$CMLSCALE
 40
20.0
  9
$PROXYGRAPHICS
 70
     1
  9
$MEASUREMENT
 70
     1
  9
$CELWEIGHT
370
    -1
  9
$ENDCAPS
280
     0
  9
$JOINSTYLE
280
     0
  9
$LWDISPLAY
290
     1
  9
$INSUNITS
 70
     4
  9
$HYPERLINKBASE
  1

  9
$STYLESHEET
  1

  9
$XEDIT
290
     1
  9
$CEPSNTYPE
380
     0
  9
$PSTYLEMODE
290
     1
  9
$FINGERPRINTGUID
  2
{ccbc14df-7bb4-41ee-9aa9-5564e725dc49}
  9
$VERSIONGUID
  2
{FAEB1C32-E019-11D5-929B-00C0DF256EC4}
  9
$EXTNAMES
290
     1
  9
$PSVPSCALE
 40
0.0
  9
$OLESTARTUP
290
     0
  0
ENDSEC
  0
SECTION
  2
CLASSES
  0
CLASS
  1
ACDBDICTIONARYWDFLT
  2
AcDbDictionaryWithDefault
  3
ObjectDBX Classes
 90
        0
280
     0
281
     0
  0
CLASS
  1
VISUALSTYLE
  2
AcDbVisualStyle
  3
ObjectDBX Classes
 90
     4095
280
     0
281
     0
  0
CLASS
  1
MATERIAL
  2
AcDbMaterial
  3
ObjectDBX Classes
 90
     1153
280
     0
281
     0
  0
CLASS
  1
SCALE
  2
AcDbScale
  3
ObjectDBX Classes
 90
     1153
280
     0
281
     0
  0
CLASS
  1
TABLESTYLE
  2
AcDbTableStyle
  3
ObjectDBX Classes
 90
     4095
280
     0
281
     0
  0
CLASS
  1
MLEADERSTYLE
  2
AcDbMLeaderStyle
  3
ACDB_MLEADERSTYLE_CLASS
 90
     4095
280
     0
281
     0
  0
CLASS
  1
SUN
  2
AcDbSun
  3
SCENEOE
 90
     1153
280
     0
281
     0
  0
CLASS
  1
ACDBPLACEHOLDER
  2
AcDbPlaceHolder
  3
ObjectDBX Classes
 90
        0
280
     0
281
     0
  0
CLASS
  1
LAYOUT
  2
AcDbLayout
  3
ObjectDBX Classes
 90
        0
280
     0
281
     0
  0
ENDSEC
  0
SECTION
  2
TABLES
  0
TABLE
  2
VPORT
  5
8
330
0
100
AcDbSymbolTable
 70
     1
  0
VPORT
  5
29
330
8
100
AcDbSymbolTableRecord
100
AcDbViewportTableRecord
  2
*Active
 70
     0
 10
0.0
 20
0.0
 11
1.0
 21
1.0
 12
431.8
 22
279.4
 13
0.0
 23
0.0
 14
10.0
 24
10.0
 15
10.0
 25
10.0
 16
0.0
 26
0.0
 36
1.0
 17
0.0
 27
0.0
 37
0.0
 40
558.8
 41
1.5454545455
 42
50.0
 43
0.0
 44
0.0
 50
0.0
 51
0.0
 71
     0
 72
  2000
 73
     1
 74
     3
 75
     0
 76
     0
 77
     0
 78
     0
281
     0
 65
     1
110
0.0
120
0.0
130
0.0
111
1.0
121
0.0
131
0.0
112
0.0
122
1.0
132
0.0
 79
     0
146
0.0
  0
ENDTAB
  0
TABLE
  2
LTYPE
  5
5
330
0
100
AcDbSymbolTable
 70
     6
  0
LTYPE
  5
14
330
5
100
AcDbSymbolTableRecord
100
AcDbLinetypeTableRecord
  2
ByBlock
 70
     0
  3

 72
    65
 73
     0
 40
0.0
  0
LTYPE
  5
15
330
5
100
AcDbSymbolTableRecord
100
AcDbLinetypeTableRecord
  2
ByLayer
 70
     0
  3

 72
    65
 73
     0
 40
0.0
  0
LTYPE
  5
16
330
5
100
AcDbSymbolTableRecord
100
AcDbLinetypeTableRecord
  2
Continuous
 70
     0
  3
Solid line
 72
    65
 73
     0
 40
0.0
  0
LTYPE
  5
6E
330
5
100
AcDbSymbolTableRecord
100
AcDbLinetypeTableRecord
  2
HIDDEN
 70
     0
  3
Hidden __ __ __ __ __ __ __ __ __ __ __ __ __ __
 72
    65
 73
     2
 40
1.905
 49
1.27
 74
     0
 49
-0.635
 74
     0
  0
LTYPE
  5
6F
330
5
100
AcDbSymbolTableRecord
100
AcDbLinetypeTableRecord
  2
PHANTOM
 70
     0
  3
Phantom ______  __  __  ______  __  __  ______
 72
    65
 73
     6
 40
12.7
 49
6.35
 74
     0
 49
-1.27
 74
     0
 49
1.27
 74
     0
 49
-1.27
 74
     0
 49
1.27
 74
     0
 49
-1.27
 74
     0
  0
LTYPE
  5
70
330
5
100
AcDbSymbolTableRecord
100
AcDbLinetypeTableRecord
  2
CENTER
 70
     0
  3
Center ____ _ ____ _ ____ _ ____ _ ____ _ ____
 72
    65
 73
     4
 40
10.16
 49
6.35
 74
     0
 49
-1.27
 74
     0
 49
1.27
 74
     0
 49
-1.27
 74
     0
  0
LTYPE
  5
71
330
5
100
AcDbSymbolTableRecord
100
AcDbLinetypeTableRecord
  2
CENTERX2
 70
     0
  3
Center (2x) ________  __  ________  __  _____
 72
    65
 73
     4
 40
20.32
 49
12.7
 74
     0
 49
-2.54
 74
     0
 49
2.54
 74
     0
 49
-2.54
 74
     0
  0
LTYPE
  5
72
330
5
100
AcDbSymbolTableRecord
100
AcDbLinetypeTableRecord
  2
DOT2
 70
     0
  3
Dot (.5x) ........................................
 72
    65
 73
     2
 40
0.635
 49
0.0
 74
     0
 49
-0.635
 74
     0
  0
ENDTAB
  0
TABLE
  2
LAYER
  5
2
330
0
100
AcDbSymbolTable
 70
     6
  0
LAYER
  5
10
330
2
100
AcDbSymbolTableRecord
100
AcDbLayerTableRecord
  2
0
 70
     0
 62
     7
  6
Continuous
370
    -3
390
F
  0
LAYER
  5
73
330
2
100
AcDbSymbolTableRecord
100
AcDbLayerTableRecord
  2
SLD-0
 70
     0
 62
   179
  6
Continuous
370
    -3
390
F
  0
LAYER
  5
74
330
2
100
AcDbSymbolTableRecord
100
AcDbLayerTableRecord
  2
WIRE_BOND
 70
     0
 62
     6
  6
Continuous
370
   100
390
F
  0
LAYER
  5
75
330
2
100
AcDbSymbolTableRecord
100
AcDbLayerTableRecord
  2
HIGHLIGHT-BLUE
 70
     0
 62
     5
  6
Continuous
370
    70
390
F
  0
LAYER
  5
76
330
2
100
AcDbSymbolTableRecord
100
AcDbLayerTableRecord
  2
MANUAL_DIM
 70
     0
 62
   114
  6
Continuous
370
    -3
390
F
  0
LAYER
  5
77
330
2
100
AcDbSymbolTableRecord
100
AcDbLayerTableRecord
  2
TORQUE_9-10
 70
     0
 62
   155
  6
Continuous
370
    -3
390
F
  0
ENDTAB
  0
TABLE
  2
STYLE
  5
3
330
0
100
AcDbSymbolTable
 70
     4
  0
STYLE
  5
11
330
3
100
AcDbSymbolTableRecord
100
AcDbTextStyleTableRecord
  2
STANDARD
 70
     0
 40
0.0
 41
1.0
 50
0.0
 71
     0
 42
6.35
  3
GOTHIC.TTF
  4

1001
ACAD
1000
CENTURY GOTHIC
1071
       34
  0
STYLE
  5
E9
330
3
100
AcDbSymbolTableRecord
100
AcDbTextStyleTableRecord
  2
SLDTEXTSTYLE0
 70
     0
 40
0.0
 41
0.913
 50
0.0
 71
     0
 42
6.35
  3
GOTHIC.TTF
  4

1001
ACAD
1000
Century Gothic
1071
      290
  0
STYLE
  5
EE
330
3
100
AcDbSymbolTableRecord
100
AcDbTextStyleTableRecord
  2
SLDTEXTSTYLE1
 70
     0
 40
0.0
 41
0.9412371134
 50
0.0
 71
     0
 42
6.35
  3
GOTHIC.TTF
  4

1001
ACAD
1000
Century Gothic
1071
      290
  0
STYLE
  5
F4
330
3
100
AcDbSymbolTableRecord
100
AcDbTextStyleTableRecord
  2
SLDTEXTSTYLE2
 70
     0
 40
0.0
 41
0.9412371134
 50
0.0
 71
     0
 42
6.35
  3
GOTHIC.TTF
  4
bigfont
1001
ACAD
1000
Century Gothic
1071
      290
  0
ENDTAB
  0
TABLE
  2
VIEW
  5
6
330
0
100
AcDbSymbolTable
 70
     0
  0
ENDTAB
  0
TABLE
  2
UCS
  5
7
330
0
100
AcDbSymbolTable
 70
     0
  0
ENDTAB
  0
TABLE
  2
APPID
  5
9
330
0
100
AcDbSymbolTable
 70
     1
  0
APPID
  5
12
330
9
100
AcDbSymbolTableRecord
100
AcDbRegAppTableRecord
  2
ACAD
 70
     0
  0
ENDTAB
  0
TABLE
  2
DIMSTYLE
  5
A
330
0
100
AcDbSymbolTable
 70
     4
100
AcDbDimStyleTable
  0
DIMSTYLE
105
27
330
A
100
AcDbSymbolTableRecord
100
AcDbDimStyleTableRecord
  2
ISO-25
 70
     0
 41
2.5
 42
0.625
 43
3.75
 44
1.25
 73
     0
 74
     0
 77
     1
 78
     8
140
2.5
141
2.5
143
0.0393700787
147
0.625
171
     3
172
     1
178
     0
271
     2
272
     2
274
     3
278
    44
283
     0
284
     8
340
11
  0
DIMSTYLE
105
17E
102
{ACAD_REACTORS
330
17D
330
192
330
1A7
330
1BB
102
}
330
A
100
AcDbSymbolTableRecord
100
AcDbDimStyleTableRecord
  2
SLDDIMSTYLE0
 70
     0
 41
4.0
 44
0.0
 45
0.000000001
 78
    12
 79
     3
140
4.7625
143
0.0393700787
147
1.190625
148
0.000000001
170
     1
173
     1
178
     0
271
     1
272
     1
276
     2
284
    12
340
E9
  0
DIMSTYLE
105
3DB
102
{ACAD_REACTORS
330
3DA
102
}
330
A
100
AcDbSymbolTableRecord
100
AcDbDimStyleTableRecord
  2
SLDDIMSTYLE1
 70
     0
 41
4.0
 44
0.0
 78
    12
 79
     3
140
4.7625
143
0.0393700787
144
2.0
147
1.190625
148
0.000000001
170
     1
171
     3
173
     1
178
     0
272
     1
276
     2
284
    12
340
E9
  0
DIMSTYLE
105
3E6
102
{ACAD_REACTORS
330
3E5
102
}
330
A
100
AcDbSymbolTableRecord
100
AcDbDimStyleTableRecord
  2
SLDDIMSTYLE2
 70
     0
 41
4.0
 44
0.0
 45
0.000000001
 78
     4
 79
     1
140
4.7625
143
0.0393700787
147
1.190625
148
0.000000001
170
     1
173
     1
178
     0
271
     1
272
     1
276
     2
284
    12
340
E9
  0
ENDTAB
  0
TABLE
  2
BLOCK_RECORD
  5
1
330
0
100
AcDbSymbolTable
 70
     9
  0
BLOCK_RECORD
  5
1F
330
1
100
AcDbSymbolTableRecord
100
AcDbBlockTableRecord
  2
*Model_Space
340
22
  0
BLOCK_RECORD
  5
1B
330
1
100
AcDbSymbolTableRecord
100
AcDbBlockTableRecord
  2
*Paper_Space
340
1E
  0
BLOCK_RECORD
  5
23
330
1
100
AcDbSymbolTableRecord
100
AcDbBlockTableRecord
  2
*Paper_Space0
340
26
  0
BLOCK_RECORD
  5
78
330
1
100
AcDbSymbolTableRecord
100
AcDbBlockTableRecord
  2
QSC Logo
340
0
  0
BLOCK_RECORD
  5
EB
330
1
100
AcDbSymbolTableRecord
100
AcDbBlockTableRecord
  2
SW_NOTE_0
340
0
102
{BLKREFS
331
F6
102
}
  0
BLOCK_RECORD
  5
17F
330
1
100
AcDbSymbolTableRecord
100
AcDbBlockTableRecord
  2
_D
340
0
  0
BLOCK_RECORD
  5
193
330
1
100
AcDbSymbolTableRecord
100
AcDbBlockTableRecord
  2
_D_1
340
0
  0
BLOCK_RECORD
  5
1A8
330
1
100
AcDbSymbolTableRecord
100
AcDbBlockTableRecord
  2
_D_2
340
0
  0
BLOCK_RECORD
  5
1BC
330
1
100
AcDbSymbolTableRecord
100
AcDbBlockTableRecord
  2
_D_3
340
0
  0
BLOCK_RECORD
  5
3DC
330
1
100
AcDbSymbolTableRecord
100
AcDbBlockTableRecord
  2
_D_4
340
0
  0
BLOCK_RECORD
  5
3E7
330
1
100
AcDbSymbolTableRecord
100
AcDbBlockTableRecord
  2
_D_5
340
0
  0
ENDTAB
  0
ENDSEC
  0
SECTION
  2
BLOCKS
  0
BLOCK
  5
20
330
1F
100
AcDbEntity
  8
0
100
AcDbBlockBegin
  2
*Model_Space
 70
     0
 10
0.0
 20
0.0
 30
0.0
  3
*Model_Space
  1

  0
ENDBLK
  5
21
330
1F
100
AcDbEntity
  8
0
100
AcDbBlockEnd
  0
BLOCK
  5
1C
330
1B
100
AcDbEntity
 67
     1
  8
0
100
AcDbBlockBegin
  2
*Paper_Space
 70
     0
 10
0.0
 20
0.0
 30
0.0
  3
*Paper_Space
  1

  0
ENDBLK
  5
1D
330
1B
100
AcDbEntity
 67
     1
  8
0
100
AcDbBlockEnd
  0
BLOCK
  5
24
330
23
100
AcDbEntity
  8
0
100
AcDbBlockBegin
  2
*Paper_Space0
 70
     0
 10
0.0
 20
0.0
 30
0.0
  3
*Paper_Space0
  1

  0
ENDBLK
  5
25
330
23
100
AcDbEntity
  8
0
100
AcDbBlockEnd
  0
BLOCK
  5
79
330
78
100
AcDbEntity
  8
0
100
AcDbBlockBegin
  2
QSC Logo
 70
     0
 10
0.0
 20
0.0
 30
0.0
  3
QSC Logo
  1

  0
ARC
  5
7B
330
78
100
AcDbEntity
  8
SLD-0
  6
Continuous
370
    25
100
AcDbCircle
 10
60.1992795138
 20
10.8757345045
 30
0.0
 40
0.565625588076033
100
AcDbArc
 50
270.0
 51
0.0
  0
ARC
  5
7C
330
78
100
AcDbEntity
  8
SLD-0
  6
Continuous
370
    25
100
AcDbCircle
 10
60.1992795161
 20
12.0073744142
 30
0.0
 40
0.5656255857900288
100
AcDbArc
 50
0.000000539
 51
89.9999999245
  0
ARC
  5
7D
330
78
100
AcDbEntity
  8
SLD-0
  6
Continuous
370
    25
100
AcDbCircle
 10
60.1992795169
 20
1.857339148
 30
0.0
 40
0.5656255850413672
100
AcDbArc
 50
270.1250535673
 51
0.0
  0
ARC
  5
7E
330
78
100
AcDbEntity
  8
SLD-0
  6
Continuous
370
    25
100
AcDbCircle
 10
60.1992795161
 20
2.99686688
 30
0.0
 40
0.5656255857900412
100
AcDbArc
 50
0.0
 51
90.0
  0
ARC
  5
7F
330
78
100
AcDbEntity
  8
SLD-0
  6
Continuous
370
    25
100
AcDbCircle
 10
47.1655159553
 20
9.7444833261
 30
0.0
 40
0.565625590361968
100
AcDbArc
 50
90.0
 51
180.0
  0
ARC
  5
80
330
78
100
AcDbEntity
  8
SLD-0
  6
Continuous
370
    25
100
AcDbCircle
 10
34.7887755437
 20
5.2340677561
 30
0.0
 40
0.5656255880763794
100
AcDbArc
 50
0.0
 51
89.9999995368
  0
ARC
  5
81
330
78
100
AcDbEntity
  8
SLD-0
  6
Continuous
370
    25
100
AcDbCircle
 10
22.1252435498
 20
2.9478675597
 30
0.0
 40
0.5656255880759771
100
AcDbArc
 50
90.0
 51
180.0
  0
ARC
  5
82
330
78
100
AcDbEntity
  8
SLD-0
  6
Continuous
370
    25
100
AcDbCircle
 10
22.1252435498
 20
1.8762124218
 30
0.0
 40
0.5656255880760186
100
AcDbArc
 50
180.0
 51
270.0
  0
ARC
  5
83
330
78
100
AcDbEntity
  8
SLD-0
  6
Continuous
370
    25
100
AcDbCircle
 10
27.1275598492
 20
9.7219160751
 30
0.0
 40
0.565625585790027
100
AcDbArc
 50
90.0
 51
180.0
  0
ARC
  5
84
330
78
100
AcDbEntity
  8
SLD-0
  6
Continuous
370
    25
100
AcDbCircle
 10
39.808280732
 20
10.8531672489
 30
0.0
 40
0.5656255880761591
100
AcDbArc
 50
270.0
 51
0.0
  0
ARC
  5
85
330
78
100
AcDbEntity
  8
SLD-0
  6
Continuous
370
    25
100
AcDbCircle
 10
39.808280732
 20
12.0073744096
 30
0.0
 40
0.5656255880761591
100
AcDbArc
 50
359.9999995369
 51
90.0
  0
ARC
  5
86
330
78
100
AcDbEntity
  8
SLD-0
  6
Continuous
370
    25
100
AcDbCircle
 10
12.0321031895
 20
0.217548301
 30
0.0
 40
0.2175483009960733
100
AcDbArc
 50
180.0
 51
270.0
  0
ARC
  5
87
330
78
100
AcDbEntity
  8
SLD-0
  6
Continuous
370
    25
100
AcDbCircle
 10
15.4195515276
 20
0.217548301
 30
0.0
 40
0.2175483009960455
100
AcDbArc
 50
270.0
 51
0.0
  0
ARC
  5
88
330
78
100
AcDbEntity
  8
SLD-0
  6
Continuous
370
    25
100
AcDbCircle
 10
5.2684984251
 20
4.2067791851
 30
0.0
 40
0.5656255880762124
100
AcDbArc
 50
180.0
 51
270.0
  0
ARC
  5
89
330
78
100
AcDbEntity
  8
SLD-0
  6
Continuous
370
    25
100
AcDbCircle
 10
11.9826252409
 20
4.7308054208
 30
0.0
 40
0.2175483032820367
100
AcDbArc
 50
90.0000000001
 51
180.0
  0
ARC
  5
8A
330
78
100
AcDbEntity
  8
SLD-0
  6
Continuous
370
    25
100
AcDbCircle
 10
15.35281037
 20
4.7308054276
 30
0.0
 40
0.2175482964241411
100
AcDbArc
 50
360.0
 51
89.9999987958
  0
ARC
  5
8B
330
78
100
AcDbEntity
  8
SLD-0
  6
Continuous
370
    25
100
AcDbCircle
 10
16.5694959544
 20
4.2067791942
 30
0.0
 40
0.5656255857899861
100
AcDbArc
 50
270.0
 51
0.0
  0
ARC
  5
8C
330
78
100
AcDbEntity
  8
SLD-0
  6
Continuous
370
    25
100
AcDbCircle
 10
5.2684984274
 20
9.8469354674
 30
0.0
 40
0.5656255903621616
100
AcDbArc
 50
90.0
 51
180.0
  0
ARC
  5
8D
330
78
100
AcDbEntity
  8
SLD-0
  6
Continuous
370
    25
100
AcDbCircle
 10
16.5694959544
 20
9.846935472
 30
0.0
 40
0.5656255857899861
100
AcDbArc
 50
0.0000004631
 51
90.0000004631
  0
ARC
  5
8E
330
78
100
AcDbEntity
  8
SLD-0
  6
Continuous
370
    25
100
AcDbCircle
 10
27.1275598515
 20
8.6516957222
 30
0.0
 40
0.5656255880759762
100
AcDbArc
 50
180.0
 51
270.0
  0
ARC
  5
8F
330
78
100
AcDbEntity
  8
SLD-0
  6
Continuous
370
    25
100
AcDbCircle
 10
34.788775546
 20
4.0791187335
 30
0.0
 40
0.5656255857899879
100
AcDbArc
 50
270.0
 51
0.0
  0
ARC
  5
90
330
78
100
AcDbEntity
  8
SLD-0
  6
Continuous
370
    25
100
AcDbCircle
 10
47.165515953
 20
4.1281180539
 30
0.0
 40
0.5656255880759771
100
AcDbArc
 50
180.0
 51
270.0
  0
LINE
  5
91
330
78
100
AcDbEntity
  8
SLD-0
  6
Continuous
370
    25
100
AcDbLine
 10
60.7649051019
 20
10.8757345045
 30
0.0
 11
60.7649051019
 21
12.0073744195
 31
0.0
  0
LINE
  5
92
330
78
100
AcDbEntity
  8
SLD-0
  6
Continuous
370
    25
100
AcDbLine
 10
60.1992795169
 20
12.573
 30
0.0
 11
44.9931123687
 21
12.573
 31
0.0
  0
LINE
  5
93
330
78
100
AcDbEntity
  8
SLD-0
  6
Continuous
370
    25
100
AcDbLine
 10
41.7982576378
 20
6.9614311124
 30
0.0
 11
41.7992503698
 21
6.8753664631
 31
0.0
  0
LINE
  5
94
330
78
100
AcDbEntity
  8
SLD-0
  6
Continuous
370
    25
100
AcDbLine
 10
44.9931123687
 20
1.3105925442
 30
0.0
 11
60.2005140483
 21
1.2917149102
 31
0.0
  0
LINE
  5
95
330
78
100
AcDbEntity
  8
SLD-0
  6
Continuous
370
    25
100
AcDbLine
 10
60.7649051019
 20
1.857339148
 30
0.0
 11
60.7649051019
 21
2.99686688
 31
0.0
  0
LINE
  5
96
330
78
100
AcDbEntity
  8
SLD-0
  6
Continuous
370
    25
100
AcDbLine
 10
60.1992795161
 20
3.5624924658
 30
0.0
 11
47.165515953
 21
3.5624924658
 31
0.0
  0
LINE
  5
97
330
78
100
AcDbEntity
  8
SLD-0
  6
Continuous
370
    25
100
AcDbLine
 10
46.5998903649
 20
4.1281180539
 30
0.0
 11
46.5998903649
 21
9.7444833261
 31
0.0
  0
LINE
  5
98
330
78
100
AcDbEntity
  8
SLD-0
  6
Continuous
370
    25
100
AcDbLine
 10
47.1655159553
 20
10.3101089164
 30
0.0
 11
60.1992795138
 21
10.3101089164
 31
0.0
  0
LINE
  5
99
330
78
100
AcDbEntity
  8
SLD-0
  6
Continuous
370
    25
100
AcDbLine
 10
23.9251579121
 20
5.7996933442
 30
0.0
 11
34.7887755483
 21
5.7996933442
 31
0.0
  0
LINE
  5
9A
330
78
100
AcDbEntity
  8
SLD-0
  6
Continuous
370
    25
100
AcDbLine
 10
35.3544011318
 20
5.2340677561
 30
0.0
 11
35.3544011318
 21
4.0791187335
 31
0.0
  0
LINE
  5
9B
330
78
100
AcDbEntity
  8
SLD-0
  6
Continuous
370
    25
100
AcDbLine
 10
34.788775546
 20
3.5134931478
 30
0.0
 11
22.1252435498
 21
3.5134931478
 31
0.0
  0
LINE
  5
9C
330
78
100
AcDbEntity
  8
SLD-0
  6
Continuous
370
    25
100
AcDbLine
 10
21.5596179617
 20
2.9478675597
 30
0.0
 11
21.5596179617
 21
1.8762124218
 31
0.0
  0
LINE
  5
9D
330
78
100
AcDbEntity
  8
SLD-0
  6
Continuous
370
    25
100
AcDbLine
 10
22.1252435498
 20
1.3105868337
 30
0.0
 11
37.846372651
 21
1.3105868337
 31
0.0
  0
LINE
  5
9E
330
78
100
AcDbEntity
  8
SLD-0
  6
Continuous
370
    25
100
AcDbLine
 10
37.846372651
 20
8.0860701342
 30
0.0
 11
27.1275598515
 21
8.0860701342
 31
0.0
  0
LINE
  5
9F
330
78
100
AcDbEntity
  8
SLD-0
  6
Continuous
370
    25
100
AcDbLine
 10
26.5619342634
 20
8.6516957222
 30
0.0
 11
26.5619342634
 21
9.7219160751
 31
0.0
  0
LINE
  5
A0
330
78
100
AcDbEntity
  8
SLD-0
  6
Continuous
370
    25
100
AcDbLine
 10
27.1275598492
 20
10.2875416608
 30
0.0
 11
39.808280732
 21
10.2875416608
 31
0.0
  0
LINE
  5
A1
330
78
100
AcDbEntity
  8
SLD-0
  6
Continuous
370
    25
100
AcDbLine
 10
40.3739063201
 20
10.8531672489
 30
0.0
 11
40.3739063201
 21
12.0073744051
 31
0.0
  0
LINE
  5
A2
330
78
100
AcDbEntity
  8
SLD-0
  6
Continuous
370
    25
100
AcDbLine
 10
39.808280732
 20
12.5729999977
 30
0.0
 11
23.9251579121
 21
12.5729999977
 31
0.0
  0
LINE
  5
A3
330
78
100
AcDbEntity
  8
SLD-0
  6
Continuous
370
    25
100
AcDbLine
 10
3.0259137302
 20
1.3105868383
 30
0.0
 11
11.8145548885
 21
1.3105868383
 31
0.0
  0
LINE
  5
A4
330
78
100
AcDbEntity
  8
SLD-0
  6
Continuous
370
    25
100
AcDbLine
 10
11.8145548885
 20
1.3105868383
 30
0.0
 11
11.8145548885
 21
0.217548301
 31
0.0
  0
LINE
  5
A5
330
78
100
AcDbEntity
  8
SLD-0
  6
Continuous
370
    25
100
AcDbLine
 10
12.0321031895
 20
0.0
 30
0.0
 11
15.4195515276
 21
0.0
 31
0.0
  0
LINE
  5
A6
330
78
100
AcDbEntity
  8
SLD-0
  6
Continuous
370
    25
100
AcDbLine
 10
15.6370998286
 20
0.217548301
 30
0.0
 11
15.6370998286
 21
1.3105868383
 31
0.0
  0
LINE
  5
A7
330
78
100
AcDbEntity
  8
SLD-0
  6
Continuous
370
    25
100
AcDbLine
 10
15.6370998286
 20
1.3105868383
 30
0.0
 11
17.3652756133
 21
1.3105868383
 31
0.0
  0
LINE
  5
A8
330
78
100
AcDbEntity
  8
SLD-0
  6
Continuous
370
    25
100
AcDbLine
 10
20.0316643354
 20
3.4154941383
 30
0.0
 11
20.0316643354
 21
10.4548832319
 31
0.0
  0
LINE
  5
A9
330
78
100
AcDbEntity
  8
SLD-0
  6
Continuous
370
    25
100
AcDbLine
 10
17.3652756133
 20
12.5597905365
 30
0.0
 11
3.0259137302
 21
12.5597905365
 31
0.0
  0
LINE
  5
AA
330
78
100
AcDbEntity
  8
SLD-0
  6
Continuous
370
    25
100
AcDbLine
 10
17.1351215402
 20
4.2067791942
 30
0.0
 11
17.1351215402
 21
9.8469354765
 31
0.0
  0
LINE
  5
AB
330
78
100
AcDbEntity
  8
SLD-0
  6
Continuous
370
    25
100
AcDbLine
 10
5.2684984251
 20
3.641153597
 30
0.0
 11
11.7650769377
 21
3.641153597
 31
0.0
  0
LINE
  5
AC
330
78
100
AcDbEntity
  8
SLD-0
  6
Continuous
370
    25
100
AcDbLine
 10
11.7650769377
 20
3.641153597
 30
0.0
 11
11.7650769377
 21
4.7308054208
 31
0.0
  0
LINE
  5
AD
330
78
100
AcDbEntity
  8
SLD-0
  6
Continuous
370
    25
100
AcDbLine
 10
11.9826252409
 20
4.948353724
 30
0.0
 11
15.3528103746
 21
4.948353724
 31
0.0
  0
LINE
  5
AE
330
78
100
AcDbEntity
  8
SLD-0
  6
Continuous
370
    25
100
AcDbLine
 10
15.5703586664
 20
3.6411536085
 30
0.0
 11
16.5694959544
 21
3.6411536085
 31
0.0
  0
LINE
  5
AF
330
78
100
AcDbEntity
  8
SLD-0
  6
Continuous
370
    25
100
AcDbLine
 10
15.5703586664
 20
3.6411536085
 30
0.0
 11
15.5703586664
 21
4.7308054276
 31
0.0
  0
LINE
  5
B0
330
78
100
AcDbEntity
  8
SLD-0
  6
Continuous
370
    25
100
AcDbLine
 10
4.7028728371
 20
4.2067791851
 30
0.0
 11
4.7028728371
 21
9.8469354674
 31
0.0
  0
LINE
  5
B1
330
78
100
AcDbEntity
  8
SLD-0
  6
Continuous
370
    25
100
AcDbLine
 10
5.2684984274
 20
10.4125610577
 30
0.0
 11
16.5694959498
 21
10.4125610577
 31
0.0
  0
SPLINE
  5
B2
330
78
100
AcDbEntity
  8
SLD-0
  6
Continuous
370
    25
100
AcDbSpline
210
0.0
220
0.0
230
1.0
 70
     8
 71
     3
 72
    13
 73
     9
 74
     0
 42
0.00000001
 43
0.00000001
 40
0.0
 40
0.0
 40
0.0
 40
0.0
 40
0.1310616762
 40
0.2699656353
 40
0.4157607805
 40
0.5899807757
 40
0.76586761
 40
0.9948829976
 40
0.9948829976
 40
0.9948829976
 40
0.9948829976
 10
44.99311236868792
 20
12.57299999999997
 30
0.0
 10
44.67346489317598
 20
12.54919244385597
 30
0.0
 10
44.01504335048406
 20
12.500152774092
 30
0.0
 10
43.12275103245616
 20
11.94723759747601
 30
0.0
 10
42.48219163082384
 20
11.01899259392404
 30
0.0
 10
42.065666812872
 20
9.883953287171995
 30
0.0
 10
41.83105460086806
 20
8.496463401756
 30
0.0
 10
41.80945316274004
 20
7.516038683411982
 30
0.0
 10
41.79825763775996
 20
6.961431112415998
 30
0.0
  0
SPLINE
  5
B3
330
78
100
AcDbEntity
  8
SLD-0
  6
Continuous
370
    25
100
AcDbSpline
210
0.0
220
0.0
230
1.0
 70
     8
 71
     3
 72
    13
 73
     9
 74
     0
 42
0.00000001
 43
0.00000001
 40
0.0
 40
0.0
 40
0.0
 40
0.0
 40
0.2222860645
 40
0.3981728988
 40
0.572392894
 40
0.7181880393
 40
0.8570919984
 40
0.9881536746
 40
0.9881536746
 40
0.9881536746
 40
0.9881536746
 10
41.79925036983584
 20
6.875366463107991
 30
0.0
 10
41.81022525009598
 20
6.337062442944019
 30
0.0
 10
41.83377594213616
 20
5.373111111516005
 30
0.0
 10
42.06566662084826
 20
4.001704744860016
 30
0.0
 10
42.48219642685186
 20
2.866792384260047
 30
0.0
 10
43.12273584884402
 20
1.938153438900053
 30
0.0
 10
44.01509626681205
 20
1.386559958904049
 30
0.0
 10
44.673357286584
 20
1.334408105879981
 30
0.0
 10
44.99311236868792
 20
1.310592544163991
 30
0.0
  0
SPLINE
  5
B4
330
78
100
AcDbEntity
  8
SLD-0
  6
Continuous
370
    25
100
AcDbSpline
210
0.0
220
0.0
230
1.0
 70
     8
 71
     3
 72
    13
 73
     9
 74
     0
 42
0.00000001
 43
0.00000001
 40
0.0
 40
0.0
 40
0.0
 40
0.0
 40
0.1604571392
 40
0.3334692485
 40
0.4767982758
 40
0.6242014838
 40
0.7505998515
 40
1.0
 40
1.0
 40
1.0
 40
1.0
 10
37.84637265102003
 20
1.310586833736069
 30
0.0
 10
38.111432851404
 20
1.323349009380026
 30
0.0
 10
38.66229287744388
 20
1.349871922044041
 30
0.0
 10
39.40304357628016
 20
1.671471906732017
 30
0.0
 10
39.96122363492422
 20
2.212054639128047
 30
0.0
 10
40.27578005127624
 20
2.831811856812
 30
0.0
 10
40.51694576350801
 20
3.663222513012002
 30
0.0
 10
40.52673227581188
 20
4.285410804828055
 30
0.0
 10
40.53322713099633
 20
4.698328483943998
 30
0.0
  0
SPLINE
  5
B5
330
78
100
AcDbEntity
  8
SLD-0
  6
Continuous
370
    25
100
AcDbSpline
210
0.0
220
0.0
230
1.0
 70
     8
 71
     3
 72
    13
 73
     9
 74
     0
 42
0.00000001
 43
0.00000001
 40
0.0
 40
0.0
 40
0.0
 40
0.0
 40
0.2494001485
 40
0.3757985162
 40
0.5232017242
 40
0.6665307515
 40
0.8395428608
 40
1.0
 40
1.0
 40
1.0
 40
1.0
 10
40.53322713099633
 20
4.698328483943998
 30
0.0
 10
40.52673227581188
 20
5.111246167632019
 30
0.0
 10
40.51694576350801
 20
5.733434454875994
 30
0.0
 10
40.27578005127624
 20
6.564845120219973
 30
0.0
 10
39.96122363492422
 20
7.184602337903994
 30
0.0
 10
39.40304357628016
 20
7.725185061155979
 30
0.0
 10
38.66229287744388
 20
8.04678504584401
 30
0.0
 10
38.111432851404
 20
8.073307967652003
 30
0.0
 10
37.84637265102003
 20
8.086070134152024
 30
0.0
  0
SPLINE
  5
B6
330
78
100
AcDbEntity
  8
SLD-0
  6
Continuous
370
    25
100
AcDbSpline
210
0.0
220
0.0
230
1.0
 70
     8
 71
     3
 72
    13
 73
     9
 74
     0
 42
0.00000001
 43
0.00000001
 40
0.0
 40
0.0
 40
0.0
 40
0.0
 40
0.1133740464
 40
0.2392044088
 40
0.3655787964
 40
0.4912154373
 40
0.7445390876
 40
1.0
 40
1.0
 40
1.0
 40
1.0
 10
23.92515791209809
 20
12.57299999771398
 30
0.0
 10
23.74371232680589
 20
12.564062953866
 30
0.0
 10
23.36088587833812
 20
12.54520695601803
 30
0.0
 10
22.79223505729805
 20
12.37531107940203
 30
0.0
 10
22.28352147833418
 20
12.03223838581805
 30
0.0
 10
21.76386602437802
 20
11.40028540385406
 30
0.0
 10
21.43686584932197
 20
10.40820330166212
 30
0.0
 10
21.40140262840212
 20
9.594771217074124
 30
0.0
 10
21.38359654463401
 20
9.186346670958107
 30
0.0
  0
SPLINE
  5
B7
330
78
100
AcDbEntity
  8
SLD-0
  6
Continuous
370
    25
100
AcDbSpline
210
0.0
220
0.0
230
1.0
 70
     8
 71
     3
 72
    13
 73
     9
 74
     0
 42
0.00000001
 43
0.00000001
 40
0.0
 40
0.0
 40
0.0
 40
0.0
 40
0.2554609124
 40
0.5087845627
 40
0.6344212036
 40
0.7607955912
 40
0.8866259536
 40
1.0
 40
1.0
 40
1.0
 40
1.0
 10
21.38359654463401
 20
9.186346670958107
 30
0.0
 10
21.40140262840212
 20
8.777922120270093
 30
0.0
 10
21.43686584932197
 20
7.964490031110036
 30
0.0
 10
21.76386602437791
 20
6.972407933490049
 30
0.0
 10
22.28352147833418
 20
6.340454951526089
 30
0.0
 10
22.79223505729805
 20
5.99738226251409
 30
0.0
 10
23.36088587833812
 20
5.827486381326144
 30
0.0
 10
23.74371232680589
 20
5.808630383478161
 30
0.0
 10
23.92515791209809
 20
5.799693344202134
 30
0.0
  0
SPLINE
  5
B8
330
78
100
AcDbEntity
  8
SLD-0
  6
Continuous
370
    25
100
AcDbSpline
210
0.0
220
0.0
230
1.0
 70
     8
 71
     3
 72
    12
 73
     8
 74
     0
 42
0.00000001
 43
0.00000001
 40
0.0
 40
0.0
 40
0.0
 40
0.0
 40
0.2415790084
 40
0.4893269843
 40
0.7378634303
 40
0.8656387112
 40
1.0
 40
1.0
 40
1.0
 40
1.0
 10
17.36527561329587
 20
1.310586838308064
 30
0.0
 10
17.67515455360796
 20
1.32022062295202
 30
0.0
 10
18.30282552838786
 20
1.339734211560001
 30
0.0
 10
19.22135649955209
 20
1.667306782728029
 30
0.0
 10
19.77919844050796
 20
2.285677111644041
 30
0.0
 10
20.02496508435619
 20
2.903543459855995
 30
0.0
 10
20.02939415906419
 20
3.242009337660015
 30
0.0
 10
20.03166433537234
 20
3.415494138264058
 30
0.0
  0
SPLINE
  5
B9
330
78
100
AcDbEntity
  8
SLD-0
  6
Continuous
370
    25
100
AcDbSpline
210
0.0
220
0.0
230
1.0
 70
     8
 71
     3
 72
    12
 73
     8
 74
     0
 42
0.00000001
 43
0.00000001
 40
0.0
 40
0.0
 40
0.0
 40
0.0
 40
0.1343612888
 40
0.2621365697
 40
0.5106730157
 40
0.7584209916
 40
1.0
 40
1.0
 40
1.0
 40
1.0
 10
20.03166433537234
 20
10.45488323192401
 30
0.0
 10
20.02939415906419
 20
10.62836804167197
 30
0.0
 10
20.02496508435619
 20
10.966833919476
 30
0.0
 10
19.77919844050796
 20
11.58470026768804
 30
0.0
 10
19.22135649955209
 20
12.203070596604
 30
0.0
 10
18.30282552838786
 20
12.5306431632
 30
0.0
 10
17.67515455360796
 20
12.55015674723599
 30
0.0
 10
17.36527561329587
 20
12.55979053645198
 30
0.0
  0
SPLINE
  5
BA
330
78
100
AcDbEntity
  8
SLD-0
  6
Continuous
370
    25
100
AcDbSpline
210
0.0
220
0.0
230
1.0
 70
     8
 71
     3
 72
    12
 73
     8
 74
     0
 42
0.00000001
 43
0.00000001
 40
0.0
 40
0.0
 40
0.0
 40
0.0
 40
0.1341799809
 40
0.290831959
 40
0.5815217441
 40
0.760783857
 40
1.0
 40
1.0
 40
1.0
 40
1.0
 10
3.02591373022798
 20
12.55979053645198
 30
0.0
 10
2.713146790103982
 20
12.50633569543196
 30
0.0
 10
2.035231793891812
 20
12.39047358019199
 30
0.0
 10
0.8940706934400522
 20
11.53791477223201
 30
0.0
 10
0.3535588864800321
 20
10.10357019413996
 30
0.0
 10
0.0373102586279095
 20
8.477608423463984
 30
0.0
 10
0.0135704640958911
 20
7.494152629139994
 30
0.0
 10
0.0
 20
6.931976464188041
 30
0.0
  0
SPLINE
  5
BB
330
78
100
AcDbEntity
  8
SLD-0
  6
Continuous
370
    25
100
AcDbSpline
210
0.0
220
0.0
230
1.0
 70
     8
 71
     3
 72
    12
 73
     8
 74
     0
 42
0.00000001
 43
0.00000001
 40
0.0
 40
0.0
 40
0.0
 40
0.0
 40
0.2392679579
 40
0.4185688994
 40
0.7093216488
 40
0.8660075581
 40
1.0
 40
1.0
 40
1.0
 40
1.0
 10
0.0
 20
6.931976464188041
 30
0.0
 10
0.0135758864880375
 20
6.369822208260004
 30
0.0
 10
0.0373251542040709
 20
5.386404745583995
 30
0.0
 10
0.353505540384047
 20
3.760167054707997
 30
0.0
 10
0.8943475920479838
 20
2.327157829800044
 30
0.0
 10
2.034320580575899
 20
1.471830593544013
 30
0.0
 10
2.713045524875946
 20
1.361462586696033
 30
0.0
 10
3.02591373022798
 20
1.310586838308064
 30
0.0
  0
ENDBLK
  5
7A
330
78
100
AcDbEntity
  8
0
100
AcDbBlockEnd
  0
BLOCK
  5
EC
330
EB
100
AcDbEntity
  8
0
100
AcDbBlockBegin
  2
SW_NOTE_0
 70
     0
 10
0.0
 20
0.0
 30
0.0
  3
SW_NOTE_0
  1

  0
MTEXT
  5
EF
330
EB
100
AcDbEntity
  8
0
  6
Continuous
 62
     0
370
     0
100
AcDbMText
 10
0.0
 20
3.3796386719
 30
0.0
 40
2.6458333333
 41
0.0
 71
     1
 72
     1
  1
THIS DOCUMENT CONTAINS CONFIDENTIAL OR PROPRIETARY 
  7
SLDTEXTSTYLE1
 73
     1
 44
1.0
  0
MTEXT
  5
F0
330
EB
100
AcDbEntity
  8
0
  6
Continuous
 62
     0
370
     0
100
AcDbMText
 10
0.0
 20
-0.1481390633
 30
0.0
 40
2.6458333333
 41
0.0
 71
     1
 72
     1
  1
INFORMATION WHICH IS THE PROPERTY OF QSC, LLC THAT MAY NOT BE 
  7
SLDTEXTSTYLE1
 73
     1
 44
1.0
  0
MTEXT
  5
F1
330
EB
100
AcDbEntity
  8
0
  6
Continuous
 62
     0
370
     0
100
AcDbMText
 10
0.0
 20
-3.6759167984
 30
0.0
 40
2.6458333333
 41
0.0
 71
     1
 72
     1
  1
DISCLOSED, REPRODUCED OR USED WITHOUT EXPRESS WRITTEN CONSENT 
  7
SLDTEXTSTYLE1
 73
     1
 44
1.0
  0
MTEXT
  5
F2
330
EB
100
AcDbEntity
  8
0
  6
Continuous
 62
     0
370
     0
100
AcDbMText
 10
0.0
 20
-7.2036945336
 30
0.0
 40
2.6458333333
 41
0.0
 71
     1
 72
     1
  1
FROM QSC, LLC. NO PORTION OF THIS DOCUMENT MAY BE REPRODUCED, 
  7
SLDTEXTSTYLE1
 73
     1
 44
1.0
  0
MTEXT
  5
F3
330
EB
100
AcDbEntity
  8
0
  6
Continuous
 62
     0
370
     0
100
AcDbMText
 10
0.0
 20
-10.7314722687
 30
0.0
 40
2.6458333333
 41
0.0
 71
     1
 72
     1
  1
REDISTRIBUTED, OR OTHERWISE DISCLOSED TO ANY THIRD PARTY WITHOUT 
  7
SLDTEXTSTYLE1
 73
     1
 44
1.0
  0
MTEXT
  5
F5
330
EB
100
AcDbEntity
  8
0
  6
Continuous
 62
     0
370
     0
100
AcDbMText
 10
0.0
 20
-14.2592500038
 30
0.0
 40
2.6458333333
 41
0.0
 71
     1
 72
     1
  1
QSC\U+2019S WRITTEN PERMISSION.
  7
SLDTEXTSTYLE2
 73
     1
 44
1.0
  0
ENDBLK
  5
ED
330
EB
100
AcDbEntity
  8
0
100
AcDbBlockEnd
  0
BLOCK
  5
180
330
17F
100
AcDbEntity
  8
0
100
AcDbBlockBegin
  2
_D
 70
     0
 10
0.0
 20
0.0
 30
0.0
  3
_D
  1

  0
SOLID
  5
182
330
17F
100
AcDbEntity
  8
SLD-0
 62
     7
100
AcDbTrace
 10
327.0332599901
 20
243.5982884133
 30
0.0
 11
326.5332599901
 21
239.5982884133
 31
0.0
 12
327.5332599901
 22
239.5982884133
 32
0.0
 13
327.5332599901
 23
239.5982884133
 33
0.0
  0
SOLID
  5
183
330
17F
100
AcDbEntity
  8
SLD-0
 62
     7
100
AcDbTrace
 10
327.0332599901
 20
132.504169636
 30
0.0
 11
327.5332599901
 21
136.504169636
 31
0.0
 12
326.5332599901
 22
136.504169636
 32
0.0
 13
326.5332599901
 23
136.504169636
 33
0.0
  0
LINE
  5
184
330
17F
100
AcDbEntity
  8
SLD-0
 62
     7
100
AcDbLine
 10
320.8772876211
 20
193.0857113257
 30
0.0
 11
319.4286938202
 21
193.0857113257
 31
0.0
  0
LINE
  5
185
330
17F
100
AcDbEntity
  8
SLD-0
 62
     7
100
AcDbLine
 10
319.4286938202
 20
193.0857113257
 30
0.0
 11
319.4286938202
 21
185.5186278626
 31
0.0
  0
LINE
  5
186
330
17F
100
AcDbEntity
  8
SLD-0
 62
     7
100
AcDbLine
 10
319.4286938202
 20
185.5186278626
 30
0.0
 11
320.8772876211
 21
185.5186278626
 31
0.0
  0
LINE
  5
187
330
17F
100
AcDbEntity
  8
SLD-0
 62
     7
100
AcDbLine
 10
333.1892323591
 20
193.0857113257
 30
0.0
 11
334.63782616
 21
193.0857113257
 31
0.0
  0
LINE
  5
188
330
17F
100
AcDbEntity
  8
SLD-0
 62
     7
100
AcDbLine
 10
334.63782616
 20
193.0857113257
 30
0.0
 11
334.63782616
 21
185.5186278626
 31
0.0
  0
LINE
  5
189
330
17F
100
AcDbEntity
  8
SLD-0
 62
     7
100
AcDbLine
 10
334.63782616
 20
185.5186278626
 30
0.0
 11
333.1892323591
 21
185.5186278626
 31
0.0
  0
LINE
  5
18A
330
17F
100
AcDbEntity
  8
SLD-0
 62
     7
100
AcDbLine
 10
291.8572349901
 20
243.5982884133
 30
0.0
 11
328.5572599901
 21
243.5982884133
 31
0.0
  0
LINE
  5
18B
330
17F
100
AcDbEntity
  8
SLD-0
 62
     7
100
AcDbLine
 10
231.5072349901
 20
132.504169636
 30
0.0
 11
328.5572599901
 21
132.504169636
 31
0.0
  0
LINE
  5
18C
330
17F
100
AcDbEntity
  8
SLD-0
 62
     7
100
AcDbLine
 10
327.0332599901
 20
243.5982884133
 30
0.0
 11
327.0332599901
 21
201.6185232132
 31
0.0
  0
LINE
  5
18D
330
17F
100
AcDbEntity
  8
SLD-0
 62
     7
100
AcDbLine
 10
327.0332599901
 20
132.504169636
 30
0.0
 11
327.0332599901
 21
184.5528975755
 31
0.0
  0
MTEXT
  5
18E
330
17F
100
AcDbEntity
  8
SLD-0
 62
     7
100
AcDbMText
 10
316.2250305437
 20
200.1347895924
 30
0.0
 40
4.7625
 41
0.0
 71
     1
 72
     1
  1
 
  7
SLDTEXTSTYLE0
 73
     1
 44
1.0
  0
MTEXT
  5
18F
330
17F
100
AcDbEntity
  8
SLD-0
 62
     7
100
AcDbMText
 10
319.1178083331
 20
200.134790058
 30
0.0
 40
4.7625
 41
0.0
 71
     1
 72
     1
  1
111.1
  7
SLDTEXTSTYLE0
 73
     1
 44
1.0
  0
MTEXT
  5
190
330
17F
100
AcDbEntity
  8
SLD-0
 62
     7
100
AcDbMText
 10
320.8772876211
 20
191.6019777048
 30
0.0
 40
4.7625
 41
0.0
 71
     1
 72
     1
  1
4.37
  7
SLDTEXTSTYLE0
 73
     1
 44
1.0
  0
MTEXT
  5
191
330
17F
100
AcDbEntity
  8
SLD-0
 62
     7
100
AcDbMText
 10
336.0864194952
 20
200.1347895924
 30
0.0
 40
4.7625
 41
0.0
 71
     1
 72
     1
  1
 
  7
SLDTEXTSTYLE0
 73
     1
 44
1.0
  0
ENDBLK
  5
181
330
17F
100
AcDbEntity
  8
0
100
AcDbBlockEnd
  0
BLOCK
  5
194
330
193
100
AcDbEntity
  8
0
100
AcDbBlockBegin
  2
_D_1
 70
     0
 10
0.0
 20
0.0
 30
0.0
  3
_D_1
  1

  0
SOLID
  5
196
330
193
100
AcDbEntity
  8
SLD-0
 62
     7
100
AcDbTrace
 10
315.0332599901
 20
145.2990998571
 30
0.0
 11
314.5332599901
 21
141.2990998571
 31
0.0
 12
315.5332599901
 22
141.2990998571
 32
0.0
 13
315.5332599901
 23
141.2990998571
 33
0.0
  0
SOLID
  5
197
330
193
100
AcDbEntity
  8
SLD-0
 62
     7
100
AcDbTrace
 10
315.0332599901
 20
132.504169636
 30
0.0
 11
315.5332599901
 21
136.504169636
 31
0.0
 12
314.5332599901
 22
136.504169636
 32
0.0
 13
314.5332599901
 23
136.504169636
 33
0.0
  0
LINE
  5
198
330
193
100
AcDbEntity
  8
SLD-0
 62
     7
100
AcDbLine
 10
326.2529072062
 20
114.3255177408
 30
0.0
 11
324.8043134053
 21
114.3255177408
 31
0.0
  0
LINE
  5
199
330
193
100
AcDbEntity
  8
SLD-0
 62
     7
100
AcDbLine
 10
324.8043134053
 20
114.3255177408
 30
0.0
 11
324.8043134053
 21
106.7584342778
 31
0.0
  0
LINE
  5
19A
330
193
100
AcDbEntity
  8
SLD-0
 62
     7
100
AcDbLine
 10
324.8043134053
 20
106.7584342778
 30
0.0
 11
326.2529072062
 21
106.7584342778
 31
0.0
  0
LINE
  5
19B
330
193
100
AcDbEntity
  8
SLD-0
 62
     7
100
AcDbLine
 10
335.0458933682
 20
114.3255177408
 30
0.0
 11
336.4944871691
 21
114.3255177408
 31
0.0
  0
LINE
  5
19C
330
193
100
AcDbEntity
  8
SLD-0
 62
     7
100
AcDbLine
 10
336.4944871691
 20
114.3255177408
 30
0.0
 11
336.4944871691
 21
106.7584342778
 31
0.0
  0
LINE
  5
19D
330
193
100
AcDbEntity
  8
SLD-0
 62
     7
100
AcDbLine
 10
336.4944871691
 20
106.7584342778
 30
0.0
 11
335.0458933682
 21
106.7584342778
 31
0.0
  0
LINE
  5
19E
330
193
100
AcDbEntity
  8
SLD-0
 62
     7
100
AcDbLine
 10
280.5072349901
 20
145.2990998571
 30
0.0
 11
316.5572599901
 21
145.2990998571
 31
0.0
  0
LINE
  5
19F
330
193
100
AcDbEntity
  8
SLD-0
 62
     7
100
AcDbLine
 10
231.5072349901
 20
132.504169636
 30
0.0
 11
316.5572599901
 21
132.504169636
 31
0.0
  0
LINE
  5
1A0
330
193
100
AcDbEntity
  8
SLD-0
 62
     7
100
AcDbLine
 10
319.0332599901
 20
114.3255168095
 30
0.0
 11
315.0332599901
 21
114.3255168095
 31
0.0
  0
LINE
  5
1A1
330
193
100
AcDbEntity
  8
SLD-0
 62
     7
100
AcDbLine
 10
315.0332599901
 20
114.3255168095
 30
0.0
 11
315.0332599901
 21
132.504169636
 31
0.0
  0
LINE
  5
1A2
330
193
100
AcDbEntity
  8
SLD-0
 62
     7
100
AcDbLine
 10
315.0332599901
 20
145.2990998571
 30
0.0
 11
315.0332599901
 21
132.504169636
 31
0.0
  0
MTEXT
  5
1A3
330
193
100
AcDbEntity
  8
SLD-0
 62
     7
100
AcDbMText
 10
321.6006501288
 20
121.3745960075
 30
0.0
 40
4.7625
 41
0.0
 71
     1
 72
     1
  1
 
  7
SLDTEXTSTYLE0
 73
     1
 44
1.0
  0
MTEXT
  5
1A4
330
193
100
AcDbEntity
  8
SLD-0
 62
     7
100
AcDbMText
 10
324.4934279182
 20
121.3745964732
 30
0.0
 40
4.7625
 41
0.0
 71
     1
 72
     1
  1
12.8
  7
SLDTEXTSTYLE0
 73
     1
 44
1.0
  0
MTEXT
  5
1A5
330
193
100
AcDbEntity
  8
SLD-0
 62
     7
100
AcDbMText
 10
326.2529072062
 20
112.84178412
 30
0.0
 40
4.7625
 41
0.0
 71
     1
 72
     1
  1
.50
  7
SLDTEXTSTYLE0
 73
     1
 44
1.0
  0
MTEXT
  5
1A6
330
193
100
AcDbEntity
  8
SLD-0
 62
     7
100
AcDbMText
 10
337.9430814357
 20
121.3745960075
 30
0.0
 40
4.7625
 41
0.0
 71
     1
 72
     1
  1
 
  7
SLDTEXTSTYLE0
 73
     1
 44
1.0
  0
ENDBLK
  5
195
330
193
100
AcDbEntity
  8
0
100
AcDbBlockEnd
  0
BLOCK
  5
1A9
330
1A8
100
AcDbEntity
  8
0
100
AcDbBlockBegin
  2
_D_2
 70
     0
 10
0.0
 20
0.0
 30
0.0
  3
_D_2
  1

  0
SOLID
  5
1AB
330
1A8
100
AcDbEntity
  8
SLD-0
 62
     7
100
AcDbTrace
 10
93.0832349901
 20
106.484540238
 30
0.0
 11
97.0832349901
 21
105.984540238
 31
0.0
 12
97.0832349901
 22
106.984540238
 32
0.0
 13
97.0832349901
 23
106.984540238
 33
0.0
  0
SOLID
  5
1AC
330
1A8
100
AcDbEntity
  8
SLD-0
 62
     7
100
AcDbTrace
 10
243.5832349901
 20
106.484540238
 30
0.0
 11
239.5832349901
 21
106.984540238
 31
0.0
 12
239.5832349901
 22
105.984540238
 32
0.0
 13
239.5832349901
 23
105.984540238
 33
0.0
  0
LINE
  5
1AD
330
1A8
100
AcDbEntity
  8
SLD-0
 62
     7
100
AcDbLine
 10
163.9489786502
 20
106.4845411694
 30
0.0
 11
162.5003848493
 21
106.4845411694
 31
0.0
  0
LINE
  5
1AE
330
1A8
100
AcDbEntity
  8
SLD-0
 62
     7
100
AcDbLine
 10
162.5003848493
 20
106.4845411694
 30
0.0
 11
162.5003848493
 21
98.9174577063
 31
0.0
  0
LINE
  5
1AF
330
1A8
100
AcDbEntity
  8
SLD-0
 62
     7
100
AcDbLine
 10
162.5003848493
 20
98.9174577063
 30
0.0
 11
163.9489786502
 21
98.9174577063
 31
0.0
  0
LINE
  5
1B0
330
1A8
100
AcDbEntity
  8
SLD-0
 62
     7
100
AcDbLine
 10
176.2609233882
 20
106.4845411694
 30
0.0
 11
177.7095171891
 21
106.4845411694
 31
0.0
  0
LINE
  5
1B1
330
1A8
100
AcDbEntity
  8
SLD-0
 62
     7
100
AcDbLine
 10
177.7095171891
 20
106.4845411694
 30
0.0
 11
177.7095171891
 21
98.9174577063
 31
0.0
  0
LINE
  5
1B2
330
1A8
100
AcDbEntity
  8
SLD-0
 62
     7
100
AcDbLine
 10
177.7095171891
 20
98.9174577063
 30
0.0
 11
176.2609233882
 21
98.9174577063
 31
0.0
  0
LINE
  5
1B3
330
1A8
100
AcDbEntity
  8
SLD-0
 62
     7
100
AcDbLine
 10
93.0832349901
 20
132.680169636
 30
0.0
 11
93.0832349901
 21
104.960540238
 31
0.0
  0
LINE
  5
1B4
330
1A8
100
AcDbEntity
  8
SLD-0
 62
     7
100
AcDbLine
 10
243.5832349901
 20
132.680169636
 30
0.0
 11
243.5832349901
 21
104.960540238
 31
0.0
  0
LINE
  5
1B5
330
1A8
100
AcDbEntity
  8
SLD-0
 62
     7
100
AcDbLine
 10
93.0832349901
 20
106.484540238
 30
0.0
 11
158.4409248599
 21
106.484540238
 31
0.0
  0
LINE
  5
1B6
330
1A8
100
AcDbEntity
  8
SLD-0
 62
     7
100
AcDbLine
 10
243.5832349901
 20
106.484540238
 30
0.0
 11
181.7689771785
 21
106.484540238
 31
0.0
  0
MTEXT
  5
1B7
330
1A8
100
AcDbEntity
  8
SLD-0
 62
     7
100
AcDbMText
 10
159.2967215728
 20
113.5336194361
 30
0.0
 40
4.7625
 41
0.0
 71
     1
 72
     1
  1
 
  7
SLDTEXTSTYLE0
 73
     1
 44
1.0
  0
MTEXT
  5
1B8
330
1A8
100
AcDbEntity
  8
SLD-0
 62
     7
100
AcDbMText
 10
162.1894993621
 20
113.5336199017
 30
0.0
 40
4.7625
 41
0.0
 71
     1
 72
     1
  1
150.5
  7
SLDTEXTSTYLE0
 73
     1
 44
1.0
  0
MTEXT
  5
1B9
330
1A8
100
AcDbEntity
  8
SLD-0
 62
     7
100
AcDbMText
 10
163.9489786502
 20
105.0008075485
 30
0.0
 40
4.7625
 41
0.0
 71
     1
 72
     1
  1
5.93
  7
SLDTEXTSTYLE0
 73
     1
 44
1.0
  0
MTEXT
  5
1BA
330
1A8
100
AcDbEntity
  8
SLD-0
 62
     7
100
AcDbMText
 10
179.1581105243
 20
113.5336194361
 30
0.0
 40
4.7625
 41
0.0
 71
     1
 72
     1
  1
 
  7
SLDTEXTSTYLE0
 73
     1
 44
1.0
  0
ENDBLK
  5
1AA
330
1A8
100
AcDbEntity
  8
0
100
AcDbBlockEnd
  0
BLOCK
  5
1BD
330
1BC
100
AcDbEntity
  8
0
100
AcDbBlockBegin
  2
_D_3
 70
     0
 10
0.0
 20
0.0
 30
0.0
  3
_D_3
  1

  0
SOLID
  5
1BF
330
1BC
100
AcDbEntity
  8
SLD-0
 62
     7
100
AcDbTrace
 10
41.6332349901
 20
75.5104508637
 30
0.0
 11
45.6332349901
 21
75.0104508637
 31
0.0
 12
45.6332349901
 22
76.0104508637
 32
0.0
 13
45.6332349901
 23
76.0104508637
 33
0.0
  0
SOLID
  5
1C0
330
1BC
100
AcDbEntity
  8
SLD-0
 62
     7
100
AcDbTrace
 10
295.0332349901
 20
75.5104508637
 30
0.0
 11
291.0332349901
 21
76.0104508637
 31
0.0
 12
291.0332349901
 22
75.0104508637
 32
0.0
 13
291.0332349901
 23
75.0104508637
 33
0.0
  0
LINE
  5
1C1
330
1BC
100
AcDbEntity
  8
SLD-0
 62
     7
100
AcDbLine
 10
163.9489786502
 20
75.510451795
 30
0.0
 11
162.5003848493
 21
75.510451795
 31
0.0
  0
LINE
  5
1C2
330
1BC
100
AcDbEntity
  8
SLD-0
 62
     7
100
AcDbLine
 10
162.5003848493
 20
75.510451795
 30
0.0
 11
162.5003848493
 21
67.943368332
 31
0.0
  0
LINE
  5
1C3
330
1BC
100
AcDbEntity
  8
SLD-0
 62
     7
100
AcDbLine
 10
162.5003848493
 20
67.943368332
 30
0.0
 11
163.9489786502
 21
67.943368332
 31
0.0
  0
LINE
  5
1C4
330
1BC
100
AcDbEntity
  8
SLD-0
 62
     7
100
AcDbLine
 10
176.2609233882
 20
75.510451795
 30
0.0
 11
177.7095171891
 21
75.510451795
 31
0.0
  0
LINE
  5
1C5
330
1BC
100
AcDbEntity
  8
SLD-0
 62
     7
100
AcDbLine
 10
177.7095171891
 20
75.510451795
 30
0.0
 11
177.7095171891
 21
67.943368332
 31
0.0
  0
LINE
  5
1C6
330
1BC
100
AcDbEntity
  8
SLD-0
 62
     7
100
AcDbLine
 10
177.7095171891
 20
67.943368332
 30
0.0
 11
176.2609233882
 21
67.943368332
 31
0.0
  0
LINE
  5
1C7
330
1BC
100
AcDbEntity
  8
SLD-0
 62
     7
100
AcDbLine
 10
41.6332349901
 20
153.5140866407
 30
0.0
 11
41.6332349901
 21
73.9864508637
 31
0.0
  0
LINE
  5
1C8
330
1BC
100
AcDbEntity
  8
SLD-0
 62
     7
100
AcDbLine
 10
295.0332349901
 20
153.5140866407
 30
0.0
 11
295.0332349901
 21
146.8230998571
 31
0.0
  0
LINE
  5
1C9
330
1BC
100
AcDbEntity
  8
SLD-0
 62
     7
100
AcDbLine
 10
295.0332349901
 20
143.7750998571
 30
0.0
 11
295.0332349901
 21
134.028169636
 31
0.0
  0
LINE
  5
1CA
330
1BC
100
AcDbEntity
  8
SLD-0
 62
     7
100
AcDbLine
 10
295.0332349901
 20
130.980169636
 30
0.0
 11
295.0332349901
 21
73.9864508637
 31
0.0
  0
LINE
  5
1CB
330
1BC
100
AcDbEntity
  8
SLD-0
 62
     7
100
AcDbLine
 10
41.6332349901
 20
75.5104508637
 30
0.0
 11
158.4409248599
 21
75.5104508637
 31
0.0
  0
LINE
  5
1CC
330
1BC
100
AcDbEntity
  8
SLD-0
 62
     7
100
AcDbLine
 10
295.0332349901
 20
75.5104508637
 30
0.0
 11
181.7689771785
 21
75.5104508637
 31
0.0
  0
MTEXT
  5
1CD
330
1BC
100
AcDbEntity
  8
SLD-0
 62
     7
100
AcDbMText
 10
159.2967215728
 20
82.5595300617
 30
0.0
 40
4.7625
 41
0.0
 71
     1
 72
     1
  1
 
  7
SLDTEXTSTYLE0
 73
     1
 44
1.0
  0
MTEXT
  5
1CE
330
1BC
100
AcDbEntity
  8
SLD-0
 62
     7
100
AcDbMText
 10
162.1894993621
 20
82.5595305274
 30
0.0
 40
4.7625
 41
0.0
 71
     1
 72
     1
  1
253.4
  7
SLDTEXTSTYLE0
 73
     1
 44
1.0
  0
MTEXT
  5
1CF
330
1BC
100
AcDbEntity
  8
SLD-0
 62
     7
100
AcDbMText
 10
163.9489786502
 20
74.0267181742
 30
0.0
 40
4.7625
 41
0.0
 71
     1
 72
     1
  1
9.98
  7
SLDTEXTSTYLE0
 73
     1
 44
1.0
  0
MTEXT
  5
1D0
330
1BC
100
AcDbEntity
  8
SLD-0
 62
     7
100
AcDbMText
 10
179.1581105243
 20
82.5595300617
 30
0.0
 40
4.7625
 41
0.0
 71
     1
 72
     1
  1
 
  7
SLDTEXTSTYLE0
 73
     1
 44
1.0
  0
ENDBLK
  5
1BE
330
1BC
100
AcDbEntity
  8
0
100
AcDbBlockEnd
  0
BLOCK
  5
3DD
330
3DC
100
AcDbEntity
  8
0
100
AcDbBlockBegin
  2
_D_4
 70
     0
 10
0.0
 20
0.0
 30
0.0
  3
_D_4
  1

  0
ARC
  5
3DF
330
3DC
100
AcDbEntity
  8
SLD-0
 62
     7
100
AcDbCircle
 10
383.8181217792
 20
155.8047717355
 30
0.0
 40
29.10507023125663
100
AcDbArc
 50
34.999999993
 51
85.3755871977
  0
ARC
  5
3E0
330
3DC
100
AcDbEntity
  8
SLD-0
 62
     7
100
AcDbCircle
 10
383.8181217792
 20
155.8047717355
 30
0.0
 40
29.10507023125666
100
AcDbArc
 50
111.6762994181
 51
180.0
  0
SOLID
  5
3E1
330
3DC
100
AcDbEntity
  8
SLD-0
 62
     7
100
AcDbTrace
 10
407.6595995604
 20
172.4987541956
 30
0.0
 11
405.5361119067
 21
175.925239302
 31
0.0
 12
404.7580075006
 22
175.2971043378
 32
0.0
 13
404.7580075006
 23
175.2971043378
 33
0.0
  0
SOLID
  5
3E2
330
3DC
100
AcDbEntity
  8
SLD-0
 62
     7
100
AcDbTrace
 10
354.713051548
 20
155.8047717355
 30
0.0
 11
355.4848289137
 21
159.7613308084
 31
0.0
 12
354.4871596844
 22
159.8295664962
 32
0.0
 13
354.4871596844
 23
159.8295664962
 33
0.0
  0
LINE
  5
3E3
330
3DC
100
AcDbEntity
  8
SLD-0
 62
     7
100
AcDbLine
 10
366.3029854253
 20
155.8047717355
 30
0.0
 11
353.189051548
 21
155.8047717355
 31
0.0
  0
MTEXT
  5
3E4
330
3DC
100
AcDbEntity
  8
SLD-0
 62
     7
100
AcDbMText
 10
373.0678035648
 20
186.9047414753
 30
0.0
 40
4.7625
 41
0.0
 71
     1
 72
     1
  1
145°
  7
SLDTEXTSTYLE0
 73
     1
 44
1.0
  0
ENDBLK
  5
3DE
330
3DC
100
AcDbEntity
  8
0
100
AcDbBlockEnd
  0
BLOCK
  5
3E8
330
3E7
100
AcDbEntity
  8
0
100
AcDbBlockBegin
  2
_D_5
 70
     0
 10
0.0
 20
0.0
 30
0.0
  3
_D_5
  1

  0
SOLID
  5
3EA
330
3E7
100
AcDbEntity
  8
SLD-0
 62
     7
100
AcDbTrace
 10
385.038534633
 20
110.1042230178
 30
0.0
 11
389.038534633
 21
109.6042230178
 31
0.0
 12
389.038534633
 22
110.6042230178
 32
0.0
 13
389.038534633
 23
110.6042230178
 33
0.0
  0
SOLID
  5
3EB
330
3E7
100
AcDbEntity
  8
SLD-0
 62
     7
100
AcDbTrace
 10
522.0871472881
 20
110.1042230178
 30
0.0
 11
518.0871472881
 21
110.6042230178
 31
0.0
 12
518.0871472881
 22
109.6042230178
 32
0.0
 13
518.0871472881
 23
109.6042230178
 33
0.0
  0
LINE
  5
3EC
330
3E7
100
AcDbEntity
  8
SLD-0
 62
     7
100
AcDbLine
 10
450.9358068999
 20
110.1042239491
 30
0.0
 11
449.4872130991
 21
110.1042239491
 31
0.0
  0
LINE
  5
3ED
330
3E7
100
AcDbEntity
  8
SLD-0
 62
     7
100
AcDbLine
 10
449.4872130991
 20
110.1042239491
 30
0.0
 11
449.4872130991
 21
102.5371404861
 31
0.0
  0
LINE
  5
3EE
330
3E7
100
AcDbEntity
  8
SLD-0
 62
     7
100
AcDbLine
 10
449.4872130991
 20
102.5371404861
 30
0.0
 11
450.9358068999
 21
102.5371404861
 31
0.0
  0
LINE
  5
3EF
330
3E7
100
AcDbEntity
  8
SLD-0
 62
     7
100
AcDbLine
 10
463.247751638
 20
110.1042239491
 30
0.0
 11
464.6963454389
 21
110.1042239491
 31
0.0
  0
LINE
  5
3F0
330
3E7
100
AcDbEntity
  8
SLD-0
 62
     7
100
AcDbLine
 10
464.6963454389
 20
110.1042239491
 30
0.0
 11
464.6963454389
 21
102.5371404861
 31
0.0
  0
LINE
  5
3F1
330
3E7
100
AcDbEntity
  8
SLD-0
 62
     7
100
AcDbLine
 10
464.6963454389
 20
102.5371404861
 30
0.0
 11
463.247751638
 21
102.5371404861
 31
0.0
  0
LINE
  5
3F2
330
3E7
100
AcDbEntity
  8
SLD-0
 62
     7
100
AcDbLine
 10
385.038534633
 20
154.2807717355
 30
0.0
 11
385.038534633
 21
108.5802230178
 31
0.0
  0
LINE
  5
3F3
330
3E7
100
AcDbEntity
  8
SLD-0
 62
     7
100
AcDbLine
 10
522.0871472881
 20
136.1426639816
 30
0.0
 11
522.0871472881
 21
108.5802230178
 31
0.0
  0
LINE
  5
3F4
330
3E7
100
AcDbEntity
  8
SLD-0
 62
     7
100
AcDbLine
 10
385.038534633
 20
110.1042230178
 30
0.0
 11
445.4277531096
 21
110.1042230178
 31
0.0
  0
LINE
  5
3F5
330
3E7
100
AcDbEntity
  8
SLD-0
 62
     7
100
AcDbLine
 10
522.0871472881
 20
110.1042230178
 30
0.0
 11
468.7558054283
 21
110.1042230178
 31
0.0
  0
MTEXT
  5
3F6
330
3E7
100
AcDbEntity
  8
SLD-0
 62
     7
100
AcDbMText
 10
446.2835498226
 20
117.1533022158
 30
0.0
 40
4.7625
 41
0.0
 71
     1
 72
     1
  1
 
  7
SLDTEXTSTYLE0
 73
     1
 44
1.0
  0
MTEXT
  5
3F7
330
3E7
100
AcDbEntity
  8
SLD-0
 62
     7
100
AcDbMText
 10
449.1763276119
 20
117.1533026815
 30
0.0
 40
4.7625
 41
0.0
 71
     1
 72
     1
  1
137.0
  7
SLDTEXTSTYLE0
 73
     1
 44
1.0
  0
MTEXT
  5
3F8
330
3E7
100
AcDbEntity
  8
SLD-0
 62
     7
100
AcDbMText
 10
450.9358068999
 20
108.6204903283
 30
0.0
 40
4.7625
 41
0.0
 71
     1
 72
     1
  1
5.40
  7
SLDTEXTSTYLE0
 73
     1
 44
1.0
  0
MTEXT
  5
3F9
330
3E7
100
AcDbEntity
  8
SLD-0
 62
     7
100
AcDbMText
 10
466.1449387741
 20
117.1533022158
 30
0.0
 40
4.7625
 41
0.0
 71
     1
 72
     1
  1
 
  7
SLDTEXTSTYLE0
 73
     1
 44
1.0
  0
ENDBLK
  5
3E9
330
3E7
100
AcDbEntity
  8
0
100
AcDbBlockEnd
  0
ENDSEC
  0
SECTION
  2
ENTITIES
  0
LINE
  5
BC
330
1F
100
AcDbEntity
  8
0
  6
Continuous
 62
     7
370
    18
100
AcDbLine
 10
17.7770582316
 20
541.0189283994
 30
0.0
 11
845.8170582316
 21
541.0189283994
 31
0.0
  0
LINE
  5
BD
330
1F
100
AcDbEntity
  8
0
  6
Continuous
 62
     7
370
    18
100
AcDbLine
 10
17.7770582316
 20
541.0189283994
 30
0.0
 11
17.7770582316
 21
17.7789283994
 31
0.0
  0
LINE
  5
BE
330
1F
100
AcDbEntity
  8
0
  6
Continuous
 62
     7
370
    18
100
AcDbLine
 10
845.8170582316
 20
17.7789283994
 30
0.0
 11
17.7770582316
 21
17.7789283994
 31
0.0
  0
LINE
  5
BF
330
1F
100
AcDbEntity
  8
0
  6
Continuous
 62
     7
370
    18
100
AcDbLine
 10
845.8170582316
 20
17.7789283994
 30
0.0
 11
845.8170582316
 21
541.0189283994
 31
0.0
  0
LINE
  5
C0
330
1F
100
AcDbEntity
  8
0
  6
Continuous
 62
     7
370
    18
100
AcDbLine
 10
728.0448273613
 20
36.8289283994
 30
0.0
 11
728.0448273613
 21
17.7789283994
 31
0.0
  0
LINE
  5
C1
330
1F
100
AcDbEntity
  8
0
  6
Continuous
 62
     7
370
    18
100
AcDbLine
 10
728.0448273613
 20
24.1289283994
 30
0.0
 11
845.8170582316
 21
24.1289283994
 31
0.0
  0
LINE
  5
C2
330
1F
100
AcDbEntity
  8
0
  6
Continuous
 62
     7
370
    18
100
AcDbLine
 10
728.0448273613
 20
36.8289283994
 30
0.0
 11
845.8170582316
 21
36.8289283994
 31
0.0
  0
LINE
  5
C3
330
1F
100
AcDbEntity
  8
0
  6
Continuous
 62
     7
370
    18
100
AcDbLine
 10
737.2248385306
 20
36.8289283994
 30
0.0
 11
737.2248385306
 21
24.1289283994
 31
0.0
  0
LINE
  5
C4
330
1F
100
AcDbEntity
  8
0
  6
Continuous
 62
     7
370
    18
100
AcDbLine
 10
811.2044175569
 20
24.1289283994
 30
0.0
 11
811.2044175569
 21
17.7789283994
 31
0.0
  0
LINE
  5
C5
330
1F
100
AcDbEntity
  8
0
  6
Continuous
 62
     7
370
    18
100
AcDbLine
 10
751.7322172939
 20
24.1289283994
 30
0.0
 11
751.7322172939
 21
17.7789283994
 31
0.0
  0
LINE
  5
C6
330
1F
100
AcDbEntity
  8
0
  6
Continuous
 62
     7
370
    18
100
AcDbLine
 10
845.8170582316
 20
148.5889283994
 30
0.0
 11
852.1670582316
 21
148.5889283994
 31
0.0
  0
LINE
  5
C7
330
1F
100
AcDbEntity
  8
0
  6
Continuous
 62
     7
370
    18
100
AcDbLine
 10
848.9920582316
 20
277.5658412947
 30
0.0
 11
845.8170582316
 21
279.3989283994
 31
0.0
  0
LINE
  5
C8
330
1F
100
AcDbEntity
  8
0
  6
Continuous
 62
     7
370
    18
100
AcDbLine
 10
848.9920582316
 20
281.232015504
 30
0.0
 11
848.9920582316
 21
277.5658412947
 31
0.0
  0
LINE
  5
C9
330
1F
100
AcDbEntity
  8
0
  6
Continuous
 62
     7
370
    18
100
AcDbLine
 10
845.8170582316
 20
279.3989283994
 30
0.0
 11
848.9920582316
 21
281.232015504
 31
0.0
  0
LINE
  5
CA
330
1F
100
AcDbEntity
  8
0
  6
Continuous
 62
     7
370
    18
100
AcDbLine
 10
845.8170582316
 20
279.3989283994
 30
0.0
 11
852.1670582316
 21
279.3989283994
 31
0.0
  0
LINE
  5
CB
330
1F
100
AcDbEntity
  8
0
  6
Continuous
 62
     7
370
    18
100
AcDbLine
 10
845.8170582316
 20
410.2089283994
 30
0.0
 11
852.1670582316
 21
410.2089283994
 31
0.0
  0
LINE
  5
CC
330
1F
100
AcDbEntity
  8
0
  6
Continuous
 62
     7
370
    18
100
AcDbLine
 10
742.3120582316
 20
541.0189283994
 30
0.0
 11
742.3120582316
 21
547.3689283994
 31
0.0
  0
LINE
  5
CD
330
1F
100
AcDbEntity
  8
0
  6
Continuous
 62
     7
370
    18
100
AcDbLine
 10
535.3020582316
 20
17.7789283994
 30
0.0
 11
535.3020582316
 21
11.4289283994
 31
0.0
  0
LINE
  5
CE
330
1F
100
AcDbEntity
  8
0
  6
Continuous
 62
     7
370
    18
100
AcDbLine
 10
742.3120582316
 20
17.7789283994
 30
0.0
 11
742.3120582316
 21
11.4289283994
 31
0.0
  0
LINE
  5
CF
330
1F
100
AcDbEntity
  8
0
  6
Continuous
 62
     7
370
    18
100
AcDbLine
 10
638.8070582316
 20
17.7789283994
 30
0.0
 11
638.8070582316
 21
11.4289283994
 31
0.0
  0
LINE
  5
D0
330
1F
100
AcDbEntity
  8
0
  6
Continuous
 62
     7
370
    18
100
AcDbLine
 10
328.2920582316
 20
17.7789283994
 30
0.0
 11
328.2920582316
 21
11.4289283994
 31
0.0
  0
LINE
  5
D1
330
1F
100
AcDbEntity
  8
0
  6
Continuous
 62
     7
370
    18
100
AcDbLine
 10
224.7870582316
 20
17.7789283994
 30
0.0
 11
224.7870582316
 21
11.4289283994
 31
0.0
  0
LINE
  5
D2
330
1F
100
AcDbEntity
  8
0
  6
Continuous
 62
     7
370
    18
100
AcDbLine
 10
121.2820582316
 20
17.7789283994
 30
0.0
 11
121.2820582316
 21
11.4289283994
 31
0.0
  0
LINE
  5
D3
330
1F
100
AcDbEntity
  8
0
  6
Continuous
 62
     7
370
    18
100
AcDbLine
 10
638.8070582316
 20
541.0189283994
 30
0.0
 11
638.8070582316
 21
547.3689283994
 31
0.0
  0
LINE
  5
D4
330
1F
100
AcDbEntity
  8
0
  6
Continuous
 62
     7
370
    18
100
AcDbLine
 10
535.3020582316
 20
541.0189283994
 30
0.0
 11
535.3020582316
 21
547.3689283994
 31
0.0
  0
LINE
  5
D5
330
1F
100
AcDbEntity
  8
0
  6
Continuous
 62
     7
370
    18
100
AcDbLine
 10
433.6301453363
 20
544.1939283994
 30
0.0
 11
429.963971127
 21
544.1939283994
 31
0.0
  0
LINE
  5
D6
330
1F
100
AcDbEntity
  8
0
  6
Continuous
 62
     7
370
    18
100
AcDbLine
 10
431.7970582316
 20
541.0189283994
 30
0.0
 11
429.963971127
 21
544.1939283994
 31
0.0
  0
LINE
  5
D7
330
1F
100
AcDbEntity
  8
0
  6
Continuous
 62
     7
370
    18
100
AcDbLine
 10
431.7970582316
 20
541.0189283994
 30
0.0
 11
433.6301453363
 21
544.1939283994
 31
0.0
  0
LINE
  5
D8
330
1F
100
AcDbEntity
  8
0
  6
Continuous
 62
     7
370
    18
100
AcDbLine
 10
17.7770582316
 20
148.5889283994
 30
0.0
 11
11.4270582316
 21
148.5889283994
 31
0.0
  0
LINE
  5
D9
330
1F
100
AcDbEntity
  8
0
  6
Continuous
 62
     7
370
    18
100
AcDbLine
 10
17.7770582316
 20
279.3989283994
 30
0.0
 11
11.4270582316
 21
279.3989283994
 31
0.0
  0
LINE
  5
DA
330
1F
100
AcDbEntity
  8
0
  6
Continuous
 62
     7
370
    18
100
AcDbLine
 10
17.7770582316
 20
410.2089283994
 30
0.0
 11
11.4270582316
 21
410.2089283994
 31
0.0
  0
LINE
  5
DB
330
1F
100
AcDbEntity
  8
0
  6
Continuous
 62
     7
370
    18
100
AcDbLine
 10
17.7770582316
 20
279.3989283994
 30
0.0
 11
14.6020582316
 21
281.232015504
 31
0.0
  0
LINE
  5
DC
330
1F
100
AcDbEntity
  8
0
  6
Continuous
 62
     7
370
    18
100
AcDbLine
 10
14.6020582316
 20
281.232015504
 30
0.0
 11
14.6020582316
 21
277.5658412947
 31
0.0
  0
LINE
  5
DD
330
1F
100
AcDbEntity
  8
0
  6
Continuous
 62
     7
370
    18
100
AcDbLine
 10
14.6020582316
 20
277.5658412947
 30
0.0
 11
17.7770582316
 21
279.3989283994
 31
0.0
  0
LINE
  5
DE
330
1F
100
AcDbEntity
  8
0
  6
Continuous
 62
     7
370
    18
100
AcDbLine
 10
431.7970582316
 20
541.0189283994
 30
0.0
 11
431.7970582316
 21
547.3689283994
 31
0.0
  0
LINE
  5
DF
330
1F
100
AcDbEntity
  8
0
  6
Continuous
 62
     7
370
    18
100
AcDbLine
 10
328.2920582316
 20
541.0189283994
 30
0.0
 11
328.2920582316
 21
547.3689283994
 31
0.0
  0
LINE
  5
E0
330
1F
100
AcDbEntity
  8
0
  6
Continuous
 62
     7
370
    18
100
AcDbLine
 10
224.7870582316
 20
541.0189283994
 30
0.0
 11
224.7870582316
 21
547.3689283994
 31
0.0
  0
LINE
  5
E1
330
1F
100
AcDbEntity
  8
0
  6
Continuous
 62
     7
370
    18
100
AcDbLine
 10
121.2820582316
 20
541.0189283994
 30
0.0
 11
121.2820582316
 21
547.3689283994
 31
0.0
  0
LINE
  5
E2
330
1F
100
AcDbEntity
  8
0
  6
Continuous
 62
     7
370
    18
100
AcDbLine
 10
431.7970582316
 20
17.7789283994
 30
0.0
 11
431.7970582316
 21
11.4289283994
 31
0.0
  0
LINE
  5
E3
330
1F
100
AcDbEntity
  8
0
  6
Continuous
 62
     7
370
    18
100
AcDbLine
 10
431.7970582316
 20
17.7789283994
 30
0.0
 11
433.6301453363
 21
14.6039283994
 31
0.0
  0
LINE
  5
E4
330
1F
100
AcDbEntity
  8
0
  6
Continuous
 62
     7
370
    18
100
AcDbLine
 10
431.7970582316
 20
17.7789283994
 30
0.0
 11
429.963971127
 21
14.6039283994
 31
0.0
  0
LINE
  5
E5
330
1F
100
AcDbEntity
  8
0
  6
Continuous
 62
     7
370
    18
100
AcDbLine
 10
433.6301453363
 20
14.6039283994
 30
0.0
 11
429.963971127
 21
14.6039283994
 31
0.0
  0
LINE
  5
E6
330
1F
100
AcDbEntity
  8
0
  6
Continuous
 62
     7
370
    18
100
AcDbLine
 10
17.7770582316
 20
517.5004279921
 30
0.0
 11
149.8753518325
 21
517.5004279921
 31
0.0
  0
LINE
  5
E7
330
1F
100
AcDbEntity
  8
0
  6
Continuous
 62
     7
370
    18
100
AcDbLine
 10
149.8753518325
 20
541.0189283994
 30
0.0
 11
149.8753518325
 21
517.5004279921
 31
0.0
  0
LINE
  5
E8
330
1F
100
AcDbEntity
  8
0
  6
Continuous
 62
     7
370
    18
100
AcDbLine
 10
824.7215725591
 20
36.8289283994
 30
0.0
 11
824.7215725591
 21
24.1289283994
 31
0.0
  0
MTEXT
  5
EA
330
1F
100
AcDbEntity
  8
SLD-0
100
AcDbMText
 10
423.0598463091
 20
51.3935909923
 30
0.0
 40
10.5833333333
 41
0.0
 71
     2
 72
     1
  1
STAND WITH 10" TOUCHSCREEN CONTROLLER INSTALLED
  7
SLDTEXTSTYLE0
 73
     1
 44
1.0
  0
INSERT
  5
F6
330
1F
100
AcDbEntity
  8
0
  6
Continuous
 62
     7
370
     0
100
AcDbBlockReference
  2
SW_NOTE_0
 10
19.7731701097
 20
536.0083426113
 30
0.0
  0
MTEXT
  5
F7
330
1F
100
AcDbEntity
  8
0
  6
Continuous
 62
     7
370
     0
100
AcDbMText
 10
832.1383823192
 20
36.1262826977
 30
0.0
 40
2.6458333333
 41
0.0
 71
     1
 72
     1
  1
REV
  7
SLDTEXTSTYLE0
 73
     1
 44
1.0
  0
MTEXT
  5
F8
330
1F
100
AcDbEntity
  8
0
  6
Continuous
 62
     7
370
     0
100
AcDbMText
 10
274.9044892463
 20
546.7165399178
 30
0.0
 40
4.7625
 41
0.0
 71
     1
 72
     1
  1
6
  7
SLDTEXTSTYLE0
 73
     1
 44
1.0
  0
MTEXT
  5
F9
330
1F
100
AcDbEntity
  8
0
  6
Continuous
 62
     7
370
     0
100
AcDbMText
 10
769.6293302907
 20
21.8437228263
 30
0.0
 40
2.54
 41
0.0
 71
     1
 72
     1
  1
 FG-901525-2D
  7
SLDTEXTSTYLE0
 73
     1
 44
1.0
  0
MTEXT
  5
FA
330
1F
100
AcDbEntity
  8
0
  6
Continuous
 62
     7
370
     0
100
AcDbMText
 10
847.5215828392
 20
85.9414361542
 30
0.0
 40
4.7625
 41
0.0
 71
     1
 72
     1
  1
A
  7
SLDTEXTSTYLE0
 73
     1
 44
1.0
  0
MTEXT
  5
FB
330
1F
100
AcDbEntity
  8
0
  6
Continuous
 62
     7
370
     0
100
AcDbMText
 10
848.5673279065
 20
216.6712265686
 30
0.0
 40
4.7625
 41
0.0
 71
     1
 72
     1
  1
B
  7
SLDTEXTSTYLE0
 73
     1
 44
1.0
  0
MTEXT
  5
FC
330
1F
100
AcDbEntity
  8
0
  6
Continuous
 62
     7
370
     0
100
AcDbMText
 10
847.1136724834
 20
347.601157245
 30
0.0
 40
4.7625
 41
0.0
 71
     1
 72
     1
  1
C
  7
SLDTEXTSTYLE0
 73
     1
 44
1.0
  0
MTEXT
  5
FD
330
1F
100
AcDbEntity
  8
0
  6
Continuous
 62
     7
370
     0
100
AcDbMText
 10
847.6406414995
 20
478.3100785054
 30
0.0
 40
4.7625
 41
0.0
 71
     1
 72
     1
  1
D
  7
SLDTEXTSTYLE0
 73
     1
 44
1.0
  0
MTEXT
  5
FE
330
1F
100
AcDbEntity
  8
0
  6
Continuous
 62
     7
370
     0
100
AcDbMText
 10
792.5830446789
 20
546.7940520172
 30
0.0
 40
4.7625
 41
0.0
 71
     1
 72
     1
  1
1
  7
SLDTEXTSTYLE0
 73
     1
 44
1.0
  0
MTEXT
  5
FF
330
1F
100
AcDbEntity
  8
0
  6
Continuous
 62
     7
370
     0
100
AcDbMText
 10
688.894906649
 20
546.7526281102
 30
0.0
 40
4.7625
 41
0.0
 71
     1
 72
     1
  1
2
  7
SLDTEXTSTYLE0
 73
     1
 44
1.0
  0
MTEXT
  5
100
330
1F
100
AcDbEntity
  8
0
  6
Continuous
 62
     7
370
     0
100
AcDbMText
 10
585.3611054217
 20
546.6471015398
 30
0.0
 40
4.7625
 41
0.0
 71
     1
 72
     1
  1
3
  7
SLDTEXTSTYLE0
 73
     1
 44
1.0
  0
MTEXT
  5
101
330
1F
100
AcDbEntity
  8
0
  6
Continuous
 62
     7
370
     0
100
AcDbMText
 10
481.9144239716
 20
546.6593937128
 30
0.0
 40
4.7625
 41
0.0
 71
     1
 72
     1
  1
4
  7
SLDTEXTSTYLE0
 73
     1
 44
1.0
  0
MTEXT
  5
102
330
1F
100
AcDbEntity
  8
0
  6
Continuous
 62
     7
370
     0
100
AcDbMText
 10
378.4264775994
 20
546.6423769039
 30
0.0
 40
4.7625
 41
0.0
 71
     1
 72
     1
  1
5
  7
SLDTEXTSTYLE0
 73
     1
 44
1.0
  0
MTEXT
  5
103
330
1F
100
AcDbEntity
  8
0
  6
Continuous
 62
     7
370
     0
100
AcDbMText
 10
171.5249301416
 20
546.8422076892
 30
0.0
 40
4.7625
 41
0.0
 71
     1
 72
     1
  1
7
  7
SLDTEXTSTYLE0
 73
     1
 44
1.0
  0
MTEXT
  5
104
330
1F
100
AcDbEntity
  8
0
  6
Continuous
 62
     7
370
     0
100
AcDbMText
 10
769.2200957374
 20
32.047807006
 30
0.0
 40
6.35
 41
0.0
 71
     2
 72
     1
  1
FG-901525-2D
  7
SLDTEXTSTYLE0
 73
     1
 44
1.0
  0
MTEXT
  5
105
330
1F
100
AcDbEntity
  8
0
  6
Continuous
 62
     7
370
     0
100
AcDbMText
 10
823.5592003829
 20
23.0161842784
 30
0.0
 40
3.7041666667
 41
0.0
 71
     1
 72
     1
  1
3  OF  3
  7
SLDTEXTSTYLE0
 73
     1
 44
1.0
  0
MTEXT
  5
106
330
1F
100
AcDbEntity
  8
0
  6
Continuous
 62
     7
370
     0
100
AcDbMText
 10
746.7323009597
 20
22.8437594925
 30
0.0
 40
3.556
 41
0.0
 71
     2
 72
     1
  1
1:2
  7
SLDTEXTSTYLE0
 73
     1
 44
1.0
  0
MTEXT
  5
107
330
1F
100
AcDbEntity
  8
0
  6
Continuous
 62
     7
370
     0
100
AcDbMText
 10
67.944147644
 20
546.6480712239
 30
0.0
 40
4.7625
 41
0.0
 71
     1
 72
     1
  1
8
  7
SLDTEXTSTYLE0
 73
     1
 44
1.0
  0
MTEXT
  5
108
330
1F
100
AcDbEntity
  8
0
  6
Continuous
 62
     7
370
     0
100
AcDbMText
 10
835.0890379196
 20
32.1777370848
 30
0.0
 40
6.35
 41
0.0
 71
     2
 72
     1
  1
A
  7
SLDTEXTSTYLE0
 73
     1
 44
1.0
  0
MTEXT
  5
109
330
1F
100
AcDbEntity
  8
0
  6
Continuous
 62
     7
370
     0
100
AcDbMText
 10
67.7761843366
 20
16.7592836782
 30
0.0
 40
4.7625
 41
0.0
 71
     1
 72
     1
  1
8
  7
SLDTEXTSTYLE0
 73
     1
 44
1.0
  0
MTEXT
  5
10A
330
1F
100
AcDbEntity
  8
0
  6
Continuous
 62
     7
370
     0
100
AcDbMText
 10
171.3588469983
 20
16.8315671061
 30
0.0
 40
4.7625
 41
0.0
 71
     1
 72
     1
  1
7
  7
SLDTEXTSTYLE0
 73
     1
 44
1.0
  0
MTEXT
  5
10B
330
1F
100
AcDbEntity
  8
0
  6
Continuous
 62
     7
370
     0
100
AcDbMText
 10
274.8985307608
 20
16.9129951712
 30
0.0
 40
4.7625
 41
0.0
 71
     1
 72
     1
  1
6
  7
SLDTEXTSTYLE0
 73
     1
 44
1.0
  0
MTEXT
  5
10C
330
1F
100
AcDbEntity
  8
0
  6
Continuous
 62
     7
370
     0
100
AcDbMText
 10
378.4160175024
 20
16.7716636708
 30
0.0
 40
4.7625
 41
0.0
 71
     1
 72
     1
  1
5
  7
SLDTEXTSTYLE0
 73
     1
 44
1.0
  0
MTEXT
  5
10D
330
1F
100
AcDbEntity
  8
0
  6
Continuous
 62
     7
370
     0
100
AcDbMText
 10
481.8362164345
 20
16.8241970873
 30
0.0
 40
4.7625
 41
0.0
 71
     1
 72
     1
  1
4
  7
SLDTEXTSTYLE0
 73
     1
 44
1.0
  0
MTEXT
  5
10E
330
1F
100
AcDbEntity
  8
0
  6
Continuous
 62
     7
370
     0
100
AcDbMText
 10
585.2668238139
 20
16.7624653566
 30
0.0
 40
4.7625
 41
0.0
 71
     1
 72
     1
  1
3
  7
SLDTEXTSTYLE0
 73
     1
 44
1.0
  0
MTEXT
  5
10F
330
1F
100
AcDbEntity
  8
0
  6
Continuous
 62
     7
370
     0
100
AcDbMText
 10
688.8634389669
 20
16.8679362557
 30
0.0
 40
4.7625
 41
0.0
 71
     1
 72
     1
  1
2
  7
SLDTEXTSTYLE0
 73
     1
 44
1.0
  0
MTEXT
  5
110
330
1F
100
AcDbEntity
  8
0
  6
Continuous
 62
     7
370
     0
100
AcDbMText
 10
792.3915769235
 20
16.7025094057
 30
0.0
 40
4.7625
 41
0.0
 71
     1
 72
     1
  1
1
  7
SLDTEXTSTYLE0
 73
     1
 44
1.0
  0
MTEXT
  5
111
330
1F
100
AcDbEntity
  8
0
  6
Continuous
 62
     7
370
     0
100
AcDbMText
 10
811.8237811206
 20
23.008513856
 30
0.0
 40
2.6458333333
 41
0.0
 71
     1
 72
     1
  1
SHEET:
  7
SLDTEXTSTYLE0
 73
     1
 44
1.0
  0
MTEXT
  5
112
330
1F
100
AcDbEntity
  8
0
  6
Continuous
 62
     7
370
     0
100
AcDbMText
 10
731.1971915747
 20
30.4677761734
 30
0.0
 40
3.7041666667
 41
0.0
 71
     1
 72
     1
  1
B
  7
SLDTEXTSTYLE0
 73
     1
 44
1.0
  0
MTEXT
  5
113
330
1F
100
AcDbEntity
  8
0
  6
Continuous
 62
     7
370
     0
100
AcDbMText
 10
738.924532815
 20
35.7710989182
 30
0.0
 40
2.6458333333
 41
0.0
 71
     1
 72
     1
  1
DWG.  NO.
  7
SLDTEXTSTYLE0
 73
     1
 44
1.0
  0
MTEXT
  5
114
330
1F
100
AcDbEntity
  8
0
  6
Continuous
 62
     7
370
     0
100
AcDbMText
 10
752.8418251795
 20
23.008513856
 30
0.0
 40
2.6458333333
 41
0.0
 71
     1
 72
     1
  1
CAD FILE:
  7
SLDTEXTSTYLE0
 73
     1
 44
1.0
  0
MTEXT
  5
115
330
1F
100
AcDbEntity
  8
0
  6
Continuous
 62
     7
370
     0
100
AcDbMText
 10
729.3779100019
 20
35.7710989182
 30
0.0
 40
2.6458333333
 41
0.0
 71
     1
 72
     1
  1
SIZE
  7
SLDTEXTSTYLE0
 73
     1
 44
1.0
  0
MTEXT
  5
116
330
1F
100
AcDbEntity
  8
0
  6
Continuous
 62
     7
370
     0
100
AcDbMText
 10
729.6544009966
 20
23.008513856
 30
0.0
 40
2.6458333333
 41
0.0
 71
     1
 72
     1
  1
SCALE:  
  7
SLDTEXTSTYLE0
 73
     1
 44
1.0
  0
MTEXT
  5
117
330
1F
100
AcDbEntity
  8
0
  6
Continuous
 62
     7
370
     0
100
AcDbMText
 10
11.4696716321
 20
478.4508072522
 30
0.0
 40
4.7625
 41
0.0
 71
     1
 72
     1
  1
D
  7
SLDTEXTSTYLE0
 73
     1
 44
1.0
  0
MTEXT
  5
118
330
1F
100
AcDbEntity
  8
0
  6
Continuous
 62
     7
370
     0
100
AcDbMText
 10
11.4794853763
 20
347.6322123788
 30
0.0
 40
4.7625
 41
0.0
 71
     1
 72
     1
  1
C
  7
SLDTEXTSTYLE0
 73
     1
 44
1.0
  0
MTEXT
  5
119
330
1F
100
AcDbEntity
  8
0
  6
Continuous
 62
     7
370
     0
100
AcDbMText
 10
11.4785739269
 20
216.8638453104
 30
0.0
 40
4.7625
 41
0.0
 71
     1
 72
     1
  1
B
  7
SLDTEXTSTYLE0
 73
     1
 44
1.0
  0
MTEXT
  5
11A
330
1F
100
AcDbEntity
  8
0
  6
Continuous
 62
     7
370
     0
100
AcDbMText
 10
11.4973888207
 20
86.1195570852
 30
0.0
 40
4.7625
 41
0.0
 71
     1
 72
     1
  1
A
  7
SLDTEXTSTYLE0
 73
     1
 44
1.0
  0
LINE
  5
11B
330
1F
100
AcDbEntity
  8
0
  6
Continuous
 62
     7
370
    25
100
AcDbLine
 10
126.0832349901
 20
144.704169636
 30
0.0
 11
93.0884033513
 21
136.705422572
 31
0.0
  0
SPLINE
  5
11C
330
1F
100
AcDbEntity
  8
0
  6
Continuous
 62
     7
370
    25
100
AcDbSpline
210
0.0
220
0.0
230
1.0
 70
    24
 71
     3
 72
    13
 73
     9
 74
     0
 42
0.00000001
 43
0.00000001
 40
0.0
 40
0.0
 40
0.0
 40
0.0
 40
0.1930524301969767
 40
0.3750989396407141
 40
0.5462383937427877
 40
0.7068834145097934
 40
0.8577794334350217
 40
1.0
 40
1.0
 40
1.0
 40
1.0
 10
243.5832349901008
 20
136.704169635979
 30
0.0
 10
241.7732664496216
 20
137.1429498882164
 30
0.0
 10
238.2565156911666
 20
137.9954955266297
 30
0.0
 10
232.7498873842341
 20
139.3304357222497
 30
0.0
 10
227.2594809085114
 20
140.661443352728
 30
0.0
 10
221.7513796663318
 20
141.9967406235594
 30
0.0
 10
216.2616297934864
 20
143.3275890775825
 30
0.0
 10
212.4383133409942
 20
144.2544536721261
 30
0.0
 10
210.5832349901009
 20
144.704169635979
 30
0.0
  0
SPLINE
  5
11D
330
1F
100
AcDbEntity
  8
0
  6
Continuous
 62
     7
370
    25
100
AcDbSpline
210
0.0
220
0.0
230
1.0
 70
     8
 71
     3
 72
     9
 73
     5
 74
     0
 42
0.00000001
 43
0.00000001
 40
0.0
 40
0.0
 40
0.0
 40
0.0
 40
0.4996527734836894
 40
0.9999999999999999
 40
0.9999999999999999
 40
0.9999999999999999
 40
0.9999999999999999
 10
127.6390870891415
 20
144.8807322507551
 30
0.0
 10
127.6933858589546
 20
144.8517896159743
 30
0.0
 10
127.8020588668808
 20
144.7938641198762
 30
0.0
 10
127.9116622899652
 20
144.7340816359871
 30
0.0
 10
127.9665020587223
 20
144.704169635979
 30
0.0
  0
SPLINE
  5
11E
330
1F
100
AcDbEntity
  8
0
  6
Continuous
 62
     7
370
    25
100
AcDbSpline
210
0.0
220
0.0
230
1.0
 70
     8
 71
     3
 72
     9
 73
     5
 74
     0
 42
0.00000001
 43
0.00000001
 40
0.0
 40
0.0
 40
0.0
 40
0.0
 40
0.5003472265162763
 40
1.0
 40
1.0
 40
1.0
 40
1.0
 10
208.6999679214796
 20
144.704169635979
 30
0.0
 10
208.7548076902366
 20
144.7340816359871
 30
0.0
 10
208.8644111133211
 20
144.7938641198762
 30
0.0
 10
208.9730841212473
 20
144.8517896159742
 30
0.0
 10
209.0273828910604
 20
144.8807322507551
 30
0.0
  0
SPLINE
  5
11F
330
1F
100
AcDbEntity
  8
0
  6
Continuous
 62
     7
370
    25
100
AcDbSpline
210
0.0
220
0.0
230
1.0
 70
     8
 71
     3
 72
    13
 73
     9
 74
     0
 42
0.00000001
 43
0.00000001
 40
0.0
 40
0.0
 40
0.0
 40
0.0
 40
0.2309065517374363
 40
0.3497239131045055
 40
0.4712645980757915
 40
0.5955812496656633
 40
0.7233487043991527
 40
1.0
 40
1.0
 40
1.0
 40
1.0
 10
41.68831311510085
 20
154.4937985050342
 30
0.0
 10
41.76168709863403
 20
154.0570301637201
 30
0.0
 10
41.87281706202489
 20
153.3955143587539
 30
0.0
 10
42.36809223609106
 20
152.6501176219746
 30
0.0
 10
42.89258193898543
 20
152.1480791001194
 30
0.0
 10
43.58222166010645
 20
151.7435559680014
 30
0.0
 10
44.7180184972662
 20
151.3368935836344
 30
0.0
 10
45.67713252591894
 20
151.2874764639908
 30
0.0
 10
46.33323499010082
 20
151.2536716263986
 30
0.0
  0
LINE
  5
120
330
1F
100
AcDbEntity
  8
0
  6
Continuous
 62
     7
370
    25
100
AcDbLine
 10
46.3332349901
 20
151.2536716264
 30
0.0
 11
168.3332349901
 21
151.2536716264
 31
0.0
  0
LINE
  5
121
330
1F
100
AcDbEntity
  8
0
  6
Continuous
 62
     7
370
    25
100
AcDbLine
 10
168.3332349901
 20
151.2536716264
 30
0.0
 11
290.3332349901
 21
151.2536716264
 31
0.0
  0
SPLINE
  5
122
330
1F
100
AcDbEntity
  8
0
  6
Continuous
 62
     7
370
    25
100
AcDbSpline
210
0.0
220
0.0
230
1.0
 70
     8
 71
     3
 72
    14
 73
    10
 74
     0
 42
0.00000001
 43
0.00000001
 40
0.0
 40
0.0
 40
0.0
 40
0.0
 40
0.2920153137780145
 40
0.4220637554249479
 40
0.5456591311124347
 40
0.6637166844231104
 40
0.7771862938923882
 40
0.8877771691019943
 40
0.9999999999999999
 40
0.9999999999999999
 40
0.9999999999999999
 40
0.9999999999999999
 10
290.3332349901008
 20
151.2536716263986
 30
0.0
 10
290.9732883034611
 20
151.2852103913154
 30
0.0
 10
291.8983880922839
 20
151.3307948827247
 30
0.0
 10
292.9999429825608
 20
151.7200800621542
 30
0.0
 10
293.666438206643
 20
152.1006879961272
 30
0.0
 10
294.1944232511358
 20
152.5800476268275
 30
0.0
 10
294.5858474116864
 20
153.1409262964479
 30
0.0
 10
294.8554477856046
 20
153.7808589058609
 30
0.0
 10
294.9274271061419
 20
154.2544845440162
 30
0.0
 10
294.9636803656829
 20
154.4930318525647
 30
0.0
  0
SPLINE
  5
123
330
1F
100
AcDbEntity
  8
0
  6
Continuous
 62
     7
370
    25
100
AcDbSpline
210
0.0
220
0.0
230
1.0
 70
     8
 71
     3
 72
     9
 73
     5
 74
     0
 42
0.00000001
 43
0.00000001
 40
0.0
 40
0.0
 40
0.0
 40
0.0
 40
0.9304423343975056
 40
1.0
 40
1.0
 40
1.0
 40
1.0
 10
43.85043625317854
 20
148.4932408089655
 30
0.0
 10
44.32913104179414
 20
148.2947055448094
 30
0.0
 10
44.84361191924216
 20
148.0813282544428
 30
0.0
 10
45.36206080951341
 20
147.8992003952726
 30
0.0
 10
45.39812290405487
 20
147.8865320065475
 30
0.0
  0
SPLINE
  5
124
330
1F
100
AcDbEntity
  8
0
  6
Continuous
 62
     7
370
    25
100
AcDbSpline
210
0.0
220
0.0
230
1.0
 70
     8
 71
     3
 72
     9
 73
     5
 74
     0
 42
0.00000001
 43
0.00000001
 40
0.0
 40
0.0
 40
0.0
 40
0.0
 40
0.064636736633789
 40
1.0
 40
1.0
 40
1.0
 40
1.0
 10
291.2697311494564
 20
147.886873946801
 30
0.0
 10
291.3028880797529
 20
147.8985216594174
 30
0.0
 10
291.8158615376233
 20
148.0787243308863
 30
0.0
 10
292.3250085369168
 20
148.2897569878402
 30
0.0
 10
292.801245935709
 20
148.4871491825253
 30
0.0
  0
SPLINE
  5
125
330
1F
100
AcDbEntity
  8
0
  6
Continuous
 62
     7
370
    25
100
AcDbSpline
210
0.0
220
0.0
230
1.0
 70
     8
 71
     3
 72
    11
 73
     7
 74
     0
 42
0.00000001
 43
0.00000001
 40
0.0
 40
0.0
 40
0.0
 40
0.0
 40
0.1973866396575313
 40
0.4514078101517943
 40
0.763343899411793
 40
1.0
 40
1.0
 40
1.0
 40
1.0
 10
281.3853848999505
 20
145.587787278682
 30
0.0
 10
281.9538588588762
 20
145.6923802231546
 30
0.0
 10
283.2539143508396
 20
145.9315761084669
 30
0.0
 10
285.581132754317
 20
146.3605376053045
 30
0.0
 10
288.0246877393482
 20
146.8046393033741
 30
0.0
 10
289.717527036916
 20
147.3859916146521
 30
0.0
 10
290.4477976359118
 20
147.6367800392796
 30
0.0
  0
SPLINE
  5
126
330
1F
100
AcDbEntity
  8
0
  6
Continuous
 62
     7
370
    25
100
AcDbSpline
210
0.0
220
0.0
230
1.0
 70
     8
 71
     3
 72
    11
 73
     7
 74
     0
 42
0.00000001
 43
0.00000001
 40
0.0
 40
0.0
 40
0.0
 40
0.0
 40
0.2819499830487877
 40
0.5655021795523498
 40
0.8061329654440179
 40
0.9999999999999999
 40
0.9999999999999999
 40
0.9999999999999999
 40
0.9999999999999999
 10
45.40367778221543
 20
147.8969076529705
 30
0.0
 10
46.34600780237462
 20
147.5669543071904
 30
0.0
 10
48.23602274224221
 20
146.9051726175036
 30
0.0
 10
50.92532291116449
 20
146.38506094461
 30
0.0
 10
53.32073540592773
 20
145.9496930192365
 30
0.0
 10
54.67626580204416
 20
145.6994446894226
 30
0.0
 10
55.28108508025097
 20
145.587787278682
 30
0.0
  0
SPLINE
  5
127
330
1F
100
AcDbEntity
  8
0
  6
Continuous
 62
     7
370
    25
100
AcDbSpline
210
0.0
220
0.0
230
1.0
 70
     8
 71
     3
 72
     9
 73
     5
 74
     0
 42
0.00000001
 43
0.00000001
 40
0.0
 40
0.0
 40
0.0
 40
0.0
 40
0.5071646211635242
 40
1.0
 40
1.0
 40
1.0
 40
1.0
 10
279.4317267022747
 20
145.3183615932849
 30
0.0
 10
279.6402907361741
 20
145.3366638158748
 30
0.0
 10
280.0515261126103
 20
145.3727511568014
 30
0.0
 10
280.3291035559265
 20
145.3956037925845
 30
0.0
 10
280.4659035403596
 20
145.4068663799981
 30
0.0
  0
SPLINE
  5
128
330
1F
100
AcDbEntity
  8
0
  6
Continuous
 62
     7
370
    25
100
AcDbSpline
210
0.0
220
0.0
230
1.0
 70
     8
 71
     3
 72
     9
 73
     5
 74
     0
 42
0.00000001
 43
0.00000001
 40
0.0
 40
0.0
 40
0.0
 40
0.0
 40
0.4930305933250189
 40
1.0
 40
1.0
 40
1.0
 40
1.0
 10
56.20056643984044
 20
145.4068663799982
 30
0.0
 10
56.33833752717766
 20
145.3955080794777
 30
0.0
 10
56.6177747247927
 20
145.3724703599645
 30
0.0
 10
57.02718486304853
 20
145.3365646763853
 30
0.0
 10
57.23474327792681
 20
145.318361593285
 30
0.0
  0
SPLINE
  5
129
330
1F
100
AcDbEntity
  8
0
  6
Continuous
 62
     7
370
    25
100
AcDbSpline
210
0.0
220
0.0
230
1.0
 70
     8
 71
     3
 72
    12
 73
     8
 74
     0
 42
0.00000001
 43
0.00000001
 40
0.0
 40
0.0
 40
0.0
 40
0.0
 40
0.1279595323975206
 40
0.3630299861353766
 40
0.6035918949267862
 40
0.853078090475863
 40
1.0
 40
1.0
 40
1.0
 40
1.0
 10
46.06823093121082
 20
243.3556817731236
 30
0.0
 10
45.90364584437147
 20
243.3514838676161
 30
0.0
 10
45.43670664356413
 20
243.339574121233
 30
0.0
 10
44.6745165353897
 20
243.2099816422278
 30
0.0
 10
43.83940354700863
 20
242.9137551305186
 30
0.0
 10
43.18494018727625
 20
242.5398907354324
 30
0.0
 10
42.8832419841656
 20
242.2086035149681
 30
0.0
 10
42.77142268598838
 20
242.0858175516928
 30
0.0
  0
SPLINE
  5
12A
330
1F
100
AcDbEntity
  8
0
  6
Continuous
 62
     7
370
    25
100
AcDbSpline
210
0.0
220
0.0
230
1.0
 70
     8
 71
     3
 72
    13
 73
     9
 74
     0
 42
0.00000001
 43
0.00000001
 40
0.0
 40
0.0
 40
0.0
 40
0.0
 40
0.0519284338355145
 40
0.2530711232047655
 40
0.4697210391533546
 40
0.6976879301354807
 40
0.927264378929073
 40
1.0
 40
1.0
 40
1.0
 40
1.0
 10
293.9303797054492
 20
242.0495792112694
 30
0.0
 10
293.8952742989169
 20
242.0973967260955
 30
0.0
 10
293.7241895192404
 20
242.3304334516828
 30
0.0
 10
293.2745417262595
 20
242.6559107222228
 30
0.0
 10
292.5909351891686
 20
243.0174443565039
 30
0.0
 10
291.7743519222014
 20
243.2577561887765
 30
0.0
 10
291.087981323724
 20
243.3483264824948
 30
0.0
 10
290.6932149162564
 20
243.3542553101831
 30
0.0
 10
290.5982349843008
 20
243.3556817731236
 30
0.0
  0
LINE
  5
12B
330
1F
100
AcDbEntity
  8
0
  6
Continuous
 62
     7
370
    25
100
AcDbLine
 10
290.5982349843
 20
243.3556817732
 30
0.0
 11
46.0682309312
 21
243.3556817732
 31
0.0
  0
LINE
  5
12C
330
1F
100
AcDbEntity
  8
0
  6
Continuous
 62
     7
370
    25
100
AcDbLine
 10
231.5832349901
 20
134.204169636
 30
0.0
 11
105.0832349904
 21
134.204169636
 31
0.0
  0
LINE
  5
12D
330
1F
100
AcDbEntity
  8
0
  6
Continuous
 62
     7
370
    25
100
AcDbLine
 10
231.5832349901
 20
136.704169636
 30
0.0
 11
105.0832349904
 21
136.704169636
 31
0.0
  0
LINE
  5
12E
330
1F
100
AcDbEntity
  8
0
  6
Continuous
 62
     7
370
    25
100
AcDbLine
 10
105.0832349904
 20
134.204169636
 30
0.0
 11
93.0832349901
 21
134.204169636
 31
0.0
  0
LINE
  5
12F
330
1F
100
AcDbEntity
  8
0
  6
Continuous
 62
     7
370
    25
100
AcDbLine
 10
93.0832349901
 20
134.204169636
 30
0.0
 11
93.0832349901
 21
136.704169636
 31
0.0
  0
SPLINE
  5
130
330
1F
100
AcDbEntity
  8
0
  6
Continuous
 62
     7
370
    25
100
AcDbSpline
210
0.0
220
0.0
230
1.0
 70
    24
 71
     3
 72
    15
 73
    11
 74
     0
 42
0.00000001
 43
0.00000001
 40
0.0
 40
0.0
 40
0.0
 40
0.0
 40
0.1250000000000004
 40
0.2500000000000012
 40
0.3750000000000019
 40
0.5000000000000028
 40
0.6250000000000031
 40
0.7500000000000034
 40
0.8750000000000043
 40
1.0
 40
1.0
 40
1.0
 40
1.0
 10
105.0832349903865
 20
136.704169635979
 30
0.0
 10
104.2978409687758
 20
136.704169635979
 30
0.0
 10
102.7270529255544
 20
136.7041696359789
 30
0.0
 10
100.4614600639394
 20
136.7041696359789
 30
0.0
 10
98.37330962949456
 20
136.7041696359789
 30
0.0
 10
96.54365458122217
 20
136.7041696359789
 30
0.0
 10
95.03979374032535
 20
136.7041696359789
 30
0.0
 10
93.9307683116033
 20
136.7041696359789
 30
0.0
 10
93.21721661234821
 20
136.7041696359789
 30
0.0
 10
93.12789553084997
 20
136.704169635979
 30
0.0
 10
93.08323499010083
 20
136.704169635979
 30
0.0
  0
LINE
  5
131
330
1F
100
AcDbEntity
  8
0
  6
Continuous
 62
     7
370
    25
100
AcDbLine
 10
243.5832349901
 20
134.204169636
 30
0.0
 11
243.5832349901
 21
136.704169636
 31
0.0
  0
LINE
  5
132
330
1F
100
AcDbEntity
  8
0
  6
Continuous
 62
     7
370
    25
100
AcDbLine
 10
243.5832349901
 20
134.204169636
 30
0.0
 11
231.5832349901
 21
134.204169636
 31
0.0
  0
SPLINE
  5
133
330
1F
100
AcDbEntity
  8
0
  6
Continuous
 62
     7
370
    25
100
AcDbSpline
210
0.0
220
0.0
230
1.0
 70
    24
 71
     3
 72
    15
 73
    11
 74
     0
 42
0.00000001
 43
0.00000001
 40
0.0
 40
0.0
 40
0.0
 40
0.0
 40
0.1249999999999966
 40
0.2499999999999971
 40
0.3749999999999963
 40
0.4999999999999966
 40
0.6249999999999967
 40
0.7499999999999972
 40
0.8749999999999979
 40
1.0
 40
1.0
 40
1.0
 40
1.0
 10
243.5832349901008
 20
136.704169635979
 30
0.0
 10
243.5385744493224
 20
136.704169635979
 30
0.0
 10
243.4492533677655
 20
136.7041696359789
 30
0.0
 10
242.7357016684739
 20
136.7041696359789
 30
0.0
 10
241.6266762397528
 20
136.7041696359789
 30
0.0
 10
240.1228153988945
 20
136.7041696359789
 30
0.0
 10
238.2931603506908
 20
136.7041696359789
 30
0.0
 10
236.2050099163366
 20
136.7041696359789
 30
0.0
 10
233.9394170548249
 20
136.7041696359789
 30
0.0
 10
232.3686290116708
 20
136.704169635979
 30
0.0
 10
231.5832349900938
 20
136.704169635979
 30
0.0
  0
SPLINE
  5
134
330
1F
100
AcDbEntity
  8
0
  6
Continuous
 62
     7
370
    25
100
AcDbSpline
210
0.0
220
0.0
230
1.0
 70
    24
 71
     3
 72
    14
 73
    10
 74
     0
 42
0.00000001
 43
0.00000001
 40
0.0
 40
0.0
 40
0.0
 40
0.0
 40
0.1266453711266997
 40
0.2631942332043735
 40
0.4077826673719092
 40
0.5566857849465181
 40
0.7118345978139357
 40
0.8608013325188009
 40
1.0
 40
1.0
 40
1.0
 40
1.0
 10
135.0832349901009
 20
144.704169635979
 30
0.0
 10
134.4867625856905
 20
144.704169635979
 30
0.0
 10
133.2471744688116
 20
144.704169635979
 30
0.0
 10
131.4044810023584
 20
144.704169635979
 30
0.0
 10
129.6418424071401
 20
144.704169635979
 30
0.0
 10
128.0928841829485
 20
144.7041696359789
 30
0.0
 10
126.9310252808186
 20
144.704169635979
 30
0.0
 10
126.2114305255691
 20
144.704169635979
 30
0.0
 10
126.1249901328018
 20
144.704169635979
 30
0.0
 10
126.0832349901009
 20
144.704169635979
 30
0.0
  0
LINE
  5
135
330
1F
100
AcDbEntity
  8
0
  6
Continuous
 62
     7
370
    25
100
AcDbLine
 10
201.5832349901
 20
144.704169636
 30
0.0
 11
135.0832349901
 21
144.704169636
 31
0.0
  0
SPLINE
  5
136
330
1F
100
AcDbEntity
  8
0
  6
Continuous
 62
     7
370
    25
100
AcDbSpline
210
0.0
220
0.0
230
1.0
 70
    24
 71
     3
 72
    14
 73
    10
 74
     0
 42
0.00000001
 43
0.00000001
 40
0.0
 40
0.0
 40
0.0
 40
0.0
 40
0.1326627182286191
 40
0.2743449827971057
 40
0.4220599232186162
 40
0.5711838747092556
 40
0.7233859469369198
 40
0.8670906160005563
 40
1.0
 40
1.0
 40
1.0
 40
1.0
 10
210.5832349901009
 20
144.704169635979
 30
0.0
 10
210.5453438376444
 20
144.704169635979
 30
0.0
 10
210.4669853680784
 20
144.7041696359788
 30
0.0
 10
209.8141034051264
 20
144.7041696359789
 30
0.0
 10
208.7389135848788
 20
144.7041696359789
 30
0.0
 10
207.238308966405
 20
144.7041696359789
 30
0.0
 10
205.4419409568969
 20
144.7041696359789
 30
0.0
 10
203.5123283760463
 20
144.7041696359788
 30
0.0
 10
202.2093154299471
 20
144.7041696359789
 30
0.0
 10
201.5832349901009
 20
144.704169635979
 30
0.0
  0
LWPOLYLINE
  5
137
330
1F
100
AcDbEntity
  8
0
  6
Continuous
 62
     7
370
    25
100
AcDbPolyline
 90
        2
 70
   128
 43
0.0
 10
210.5832349901
 20
144.704169636
 10
210.5832349901
 20
144.704169636
  0
LWPOLYLINE
  5
138
330
1F
100
AcDbEntity
  8
0
  6
Continuous
 62
     7
370
    25
100
AcDbPolyline
 90
        2
 70
   128
 43
0.0
 10
93.0832349901
 20
136.704169636
 10
93.0832349901
 20
136.704169636
  0
LWPOLYLINE
  5
139
330
1F
100
AcDbEntity
  8
0
  6
Continuous
 62
     7
370
    25
100
AcDbPolyline
 90
        2
 70
   128
 43
0.0
 10
243.5832349901
 20
136.704169636
 10
243.5832349901
 20
136.704169636
  0
LINE
  5
13A
330
1F
100
AcDbEntity
  8
0
  6
Continuous
 62
     7
370
    25
100
AcDbLine
 10
219.8332349901
 20
132.504169636
 30
0.0
 11
116.8332349901
 21
132.504169636
 31
0.0
  0
LINE
  5
13B
330
1F
100
AcDbEntity
  8
0
  6
Continuous
 62
     7
370
    25
100
AcDbLine
 10
116.8332349901
 20
132.504169636
 30
0.0
 11
106.6832349901
 21
132.504169636
 31
0.0
  0
LINE
  5
13C
330
1F
100
AcDbEntity
  8
0
  6
Continuous
 62
     7
370
    25
100
AcDbLine
 10
106.6832349901
 20
132.504169636
 30
0.0
 11
106.6832349901
 21
134.204169636
 31
0.0
  0
LINE
  5
13D
330
1F
100
AcDbEntity
  8
0
  6
Continuous
 62
     7
370
    25
100
AcDbLine
 10
229.9832349901
 20
132.504169636
 30
0.0
 11
229.9832349901
 21
134.204169636
 31
0.0
  0
LINE
  5
13E
330
1F
100
AcDbEntity
  8
0
  6
Continuous
 62
     7
370
    25
100
AcDbLine
 10
229.9832349901
 20
132.504169636
 30
0.0
 11
219.8332349901
 21
132.504169636
 31
0.0
  0
SPLINE
  5
13F
330
1F
100
AcDbEntity
  8
0
  6
Continuous
 62
     7
370
    25
100
AcDbSpline
210
0.0
220
0.0
230
1.0
 70
     8
 71
     3
 72
    18
 73
    14
 74
     0
 42
0.00000001
 43
0.00000001
 40
0.0
 40
0.0
 40
0.0
 40
0.0
 40
0.0794502355363516
 40
0.1361116624766093
 40
0.2072897526532487
 40
0.2706437347292623
 40
0.364406092906802
 40
0.4507195687121125
 40
0.5297003507407068
 40
0.655273056919969
 40
0.7713199157327506
 40
0.8873349662947388
 40
1.0
 40
1.0
 40
1.0
 40
1.0
 10
127.5832349901009
 20
144.904169635979
 30
0.0
 10
127.593093302311
 20
144.8964103076284
 30
0.0
 10
127.6099822549374
 20
144.8831172686038
 30
0.0
 10
127.7376163640253
 20
144.8641889398915
 30
0.0
 10
127.9183359167916
 20
144.8459090070382
 30
0.0
 10
128.2212948341501
 20
144.8254849310973
 30
0.0
 10
128.6516113263045
 20
144.8030192772271
 30
0.0
 10
129.2409535785043
 20
144.7814695987032
 30
0.0
 10
130.0363392807568
 20
144.7602262531931
 30
0.0
 10
131.0964704484188
 20
144.7372697275616
 30
0.0
 10
132.4945926991329
 20
144.7199282587173
 30
0.0
 10
134.0029436530815
 20
144.7072211974723
 30
0.0
 10
135.0616409570385
 20
144.7060526463234
 30
0.0
 10
135.5832349901009
 20
144.7054769300122
 30
0.0
  0
LINE
  5
140
330
1F
100
AcDbEntity
  8
0
  6
Continuous
 62
     7
370
    25
100
AcDbLine
 10
127.5832349901
 20
144.904169636
 30
0.0
 11
127.5832349901
 21
145.2990998571
 31
0.0
  0
LINE
  5
141
330
1F
100
AcDbEntity
  8
0
  6
Continuous
 62
     7
370
    25
100
AcDbLine
 10
135.5832349901
 20
144.70547693
 30
0.0
 11
201.0832349901
 21
144.70547693
 31
0.0
  0
LINE
  5
142
330
1F
100
AcDbEntity
  8
0
  6
Continuous
 62
     7
370
    25
100
AcDbLine
 10
209.0832349901
 20
144.904169636
 30
0.0
 11
209.0832349901
 21
145.2990998571
 31
0.0
  0
SPLINE
  5
143
330
1F
100
AcDbEntity
  8
0
  6
Continuous
 62
     7
370
    25
100
AcDbSpline
210
0.0
220
0.0
230
1.0
 70
     8
 71
     3
 72
    18
 73
    14
 74
     0
 42
0.00000001
 43
0.00000001
 40
0.0
 40
0.0
 40
0.0
 40
0.0
 40
0.1226597451124303
 40
0.2489747298059184
 40
0.3753117152108559
 40
0.4423921902000046
 40
0.5122166017202409
 40
0.6030236584802512
 40
0.696422591950788
 40
0.7942677245108286
 40
0.8881001411902171
 40
0.979066359922539
 40
1.0
 40
1.0
 40
1.0
 40
1.0
 10
201.0832349901009
 20
144.7054769300221
 30
0.0
 10
201.6048246321562
 20
144.7060512429879
 30
0.0
 10
202.6635471990526
 20
144.7072169833484
 30
0.0
 10
204.1716658179642
 20
144.7199110393106
 30
0.0
 10
205.320384383646
 20
144.7342248166699
 30
0.0
 10
206.157064736052
 20
144.7498937370086
 30
0.0
 10
206.8116678399591
 20
144.7649245496389
 30
0.0
 10
207.4476889447971
 20
144.7828069900349
 30
0.0
 10
208.0300344785302
 20
144.804446041013
 30
0.0
 10
208.4926532879798
 20
144.8276647843828
 30
0.0
 10
208.8104525791215
 20
144.8514868006323
 30
0.0
 10
208.9861353265388
 20
144.8689771778805
 30
0.0
 10
209.0103691546688
 20
144.8788512993232
 30
0.0
 10
209.0149026924335
 20
144.8806984982971
 30
0.0
  0
LINE
  5
144
330
1F
100
AcDbEntity
  8
0
  6
Continuous
 62
     7
370
    25
100
AcDbLine
 10
127.5832349901
 20
144.904169636
 30
0.0
 11
127.9296451516
 21
144.704169636
 31
0.0
  0
LINE
  5
145
330
1F
100
AcDbEntity
  8
0
  6
Continuous
 62
     7
370
    25
100
AcDbLine
 10
208.7368248286
 20
144.704169636
 30
0.0
 11
209.0832349901
 21
144.904169636
 31
0.0
  0
SPLINE
  5
146
330
1F
100
AcDbEntity
  8
0
  6
Continuous
 62
     7
370
    25
100
AcDbSpline
210
0.0
220
0.0
230
1.0
 70
     8
 71
     3
 72
    12
 73
     8
 74
     0
 42
0.00000001
 43
0.00000001
 40
0.0
 40
0.0
 40
0.0
 40
0.0
 40
0.1888177457787661
 40
0.3742403006135578
 40
0.5600356552974627
 40
0.7782795978441096
 40
1.0
 40
1.0
 40
1.0
 40
1.0
 10
295.0332349901008
 20
240.9024791624639
 30
0.0
 10
295.0062617467461
 20
241.1734426627544
 30
0.0
 10
294.9528002743621
 20
241.7104973838867
 30
0.0
 10
294.4131440679885
 20
242.4681548493882
 30
0.0
 10
293.428265890091
 20
243.1134558339292
 30
0.0
 10
291.9915338583793
 20
243.5345706633323
 30
0.0
 10
290.8889054868367
 20
243.5769375733293
 30
0.0
 10
290.3332349901008
 20
243.5982884133138
 30
0.0
  0
LINE
  5
147
330
1F
100
AcDbEntity
  8
0
  6
Continuous
 62
     7
370
    25
100
AcDbLine
 10
295.0332349901
 20
197.9702829016
 30
0.0
 11
295.0332349901
 21
240.9024791625
 31
0.0
  0
LINE
  5
148
330
1F
100
AcDbEntity
  8
0
  6
Continuous
 62
     7
370
    25
100
AcDbLine
 10
295.0332349901
 20
197.9702829016
 30
0.0
 11
295.0332349901
 21
155.0380866407
 31
0.0
  0
SPLINE
  5
149
330
1F
100
AcDbEntity
  8
0
  6
Continuous
 62
     7
370
    25
100
AcDbSpline
210
0.0
220
0.0
230
1.0
 70
     8
 71
     3
 72
    12
 73
     8
 74
     0
 42
0.00000001
 43
0.00000001
 40
0.0
 40
0.0
 40
0.0
 40
0.0
 40
0.1888177457787665
 40
0.3742403006135567
 40
0.5600356552974617
 40
0.778279597844109
 40
1.0
 40
1.0
 40
1.0
 40
1.0
 10
295.0332349901008
 20
155.0380866407122
 30
0.0
 10
295.0062617467461
 20
154.7671231404216
 30
0.0
 10
294.9528002743621
 20
154.2300684192894
 30
0.0
 10
294.4131440679885
 20
153.4724109537879
 30
0.0
 10
293.4282658900909
 20
152.8271099692469
 30
0.0
 10
291.9915338583793
 20
152.4059951398438
 30
0.0
 10
290.8889054868367
 20
152.3636282298468
 30
0.0
 10
290.3332349901008
 20
152.3422773898622
 30
0.0
  0
LINE
  5
14A
330
1F
100
AcDbEntity
  8
0
  6
Continuous
 62
     7
370
    25
100
AcDbLine
 10
290.3332349901
 20
152.3422773899
 30
0.0
 11
168.3332349901
 21
152.3422773899
 31
0.0
  0
LINE
  5
14B
330
1F
100
AcDbEntity
  8
0
  6
Continuous
 62
     7
370
    25
100
AcDbLine
 10
46.3332349901
 20
152.3422773899
 30
0.0
 11
168.3332349901
 21
152.3422773899
 31
0.0
  0
SPLINE
  5
14C
330
1F
100
AcDbEntity
  8
0
  6
Continuous
 62
     7
370
    25
100
AcDbSpline
210
0.0
220
0.0
230
1.0
 70
     8
 71
     3
 72
    12
 73
     8
 74
     0
 42
0.00000001
 43
0.00000001
 40
0.0
 40
0.0
 40
0.0
 40
0.0
 40
0.1888177457787665
 40
0.3742403006135567
 40
0.5600356552974617
 40
0.778279597844109
 40
1.0
 40
1.0
 40
1.0
 40
1.0
 10
41.6332349901008
 20
155.0380866407122
 30
0.0
 10
41.66020823345551
 20
154.7671231404217
 30
0.0
 10
41.71366970583956
 20
154.2300684192894
 30
0.0
 10
42.25332591221315
 20
153.4724109537879
 30
0.0
 10
43.2382040901107
 20
152.8271099692469
 30
0.0
 10
44.67493612182238
 20
152.4059951398438
 30
0.0
 10
45.77756449336497
 20
152.3636282298468
 30
0.0
 10
46.33323499010082
 20
152.3422773898623
 30
0.0
  0
LINE
  5
14D
330
1F
100
AcDbEntity
  8
0
  6
Continuous
 62
     7
370
    25
100
AcDbLine
 10
41.6332349901
 20
197.9702829016
 30
0.0
 11
41.6332349901
 21
155.0380866407
 31
0.0
  0
LINE
  5
14E
330
1F
100
AcDbEntity
  8
0
  6
Continuous
 62
     7
370
    25
100
AcDbLine
 10
41.6332349901
 20
197.9702829016
 30
0.0
 11
41.6332349901
 21
240.9024791625
 31
0.0
  0
SPLINE
  5
14F
330
1F
100
AcDbEntity
  8
0
  6
Continuous
 62
     7
370
    25
100
AcDbSpline
210
0.0
220
0.0
230
1.0
 70
     8
 71
     3
 72
    12
 73
     8
 74
     0
 42
0.00000001
 43
0.00000001
 40
0.0
 40
0.0
 40
0.0
 40
0.0
 40
0.188817745778766
 40
0.3742403006135567
 40
0.560035655297463
 40
0.7782795978441098
 40
1.0
 40
1.0
 40
1.0
 40
1.0
 10
41.6332349901008
 20
240.9024791624639
 30
0.0
 10
41.66020823345551
 20
241.1734426627544
 30
0.0
 10
41.71366970583962
 20
241.7104973838867
 30
0.0
 10
42.25332591221309
 20
242.4681548493882
 30
0.0
 10
43.2382040901107
 20
243.1134558339292
 30
0.0
 10
44.67493612182238
 20
243.5345706633323
 30
0.0
 10
45.77756449336498
 20
243.5769375733293
 30
0.0
 10
46.33323499010082
 20
243.5982884133138
 30
0.0
  0
LINE
  5
150
330
1F
100
AcDbEntity
  8
0
  6
Continuous
 62
     7
370
    25
100
AcDbLine
 10
46.3332349901
 20
243.5982884133
 30
0.0
 11
168.3332349901
 21
243.5982884133
 31
0.0
  0
LINE
  5
151
330
1F
100
AcDbEntity
  8
0
  6
Continuous
 62
     7
370
    25
100
AcDbLine
 10
290.3332349901
 20
243.5982884133
 30
0.0
 11
168.3332349901
 21
243.5982884133
 31
0.0
  0
LWPOLYLINE
  5
152
330
1F
100
AcDbEntity
  8
0
  6
Continuous
 62
     7
370
    25
100
AcDbPolyline
 90
        9
 70
   128
 43
0.0
 10
46.0682309312
 20
152.7437808953
 10
45.3395685773
 20
152.7849447427
 10
44.6389083091
 20
152.9068543812
 10
43.9931761077
 20
153.104824892
 10
43.4271870994
 20
153.3712483791
 10
42.9626919244
 20
153.6958863375
 10
42.6175408719
 20
154.0662631124
 10
42.4049979032
 20
154.4681453322
 10
42.3332309254
 20
154.8860888884
  0
LINE
  5
153
330
1F
100
AcDbEntity
  8
0
  6
Continuous
 62
     7
370
    25
100
AcDbLine
 10
290.5982349843
 20
152.7437808953
 30
0.0
 11
46.0682309312
 21
152.7437808953
 31
0.0
  0
LWPOLYLINE
  5
154
330
1F
100
AcDbEntity
  8
0
  6
Continuous
 62
     7
370
    25
100
AcDbPolyline
 90
        9
 70
   128
 43
0.0
 10
294.3332349901
 20
154.8860888884
 10
294.2614680123
 20
154.4681453322
 10
294.0489250436
 20
154.0662631124
 10
293.7037739911
 20
153.6958863375
 10
293.2392788161
 20
153.3712483791
 10
292.6732898079
 20
153.104824892
 10
292.0275576064
 20
152.9068543813
 10
291.3268973382
 20
152.7849447427
 10
290.5982349843
 20
152.7437808953
  0
SPLINE
  5
155
330
1F
100
AcDbEntity
  8
0
  6
Continuous
 62
     7
370
    25
100
AcDbSpline
210
0.0
220
0.0
230
1.0
 70
     8
 71
     3
 72
     9
 73
     5
 74
     0
 42
0.00000001
 43
0.00000001
 40
0.0
 40
0.0
 40
0.0
 40
0.0
 40
0.1080735274004152
 40
1.0
 40
1.0
 40
1.0
 40
1.0
 10
41.69376889215987
 20
154.4946876863062
 30
0.0
 10
41.68772059417397
 20
154.5137563918322
 30
0.0
 10
41.63175593630253
 20
154.6901983567127
 30
0.0
 10
41.63253770759212
 20
154.874078802934
 30
0.0
 10
41.6332349901008
 20
155.0380866407122
 30
0.0
  0
LWPOLYLINE
  5
156
330
1F
100
AcDbEntity
  8
0
  6
Continuous
 62
     7
370
    25
100
AcDbPolyline
 90
        9
 70
   128
 43
0.0
 10
42.3332309254
 20
154.9371523077
 10
42.4049979032
 20
154.5192087514
 10
42.6175408719
 20
154.1173265317
 10
42.9626919244
 20
153.7469497567
 10
43.4271870994
 20
153.4223117984
 10
43.9931761077
 20
153.1558883112
 10
44.6389083091
 20
152.9579178005
 10
45.3395685773
 20
152.836008162
 10
46.0682309312
 20
152.7948443146
  0
LWPOLYLINE
  5
157
330
1F
100
AcDbEntity
  8
0
  6
Continuous
 62
     7
370
    25
100
AcDbPolyline
 90
        9
 70
   128
 43
0.0
 10
290.5982349843
 20
152.7948443146
 10
291.3268973382
 20
152.8360081619
 10
292.0275576064
 20
152.9579178005
 10
292.6732898079
 20
153.1558883112
 10
293.2392788161
 20
153.4223117984
 10
293.7037739911
 20
153.7469497567
 10
294.0489250436
 20
154.1173265317
 10
294.2614680123
 20
154.5192087514
 10
294.3332349901
 20
154.9371523077
  0
LINE
  5
158
330
1F
100
AcDbEntity
  8
0
  6
Continuous
 62
     7
370
    25
100
AcDbLine
 10
46.0682309312
 20
152.7948443146
 30
0.0
 11
290.5982349843
 21
152.7948443146
 31
0.0
  0
LINE
  5
159
330
1F
100
AcDbEntity
  8
0
  6
Continuous
 62
     7
370
    25
100
AcDbLine
 10
42.3332309254
 20
154.9371523077
 30
0.0
 11
42.3332309254
 21
154.8860888884
 31
0.0
  0
LINE
  5
15A
330
1F
100
AcDbEntity
  8
0
  6
Continuous
 62
     7
370
    25
100
AcDbLine
 10
294.3332349901
 20
154.9371523077
 30
0.0
 11
294.3332349901
 21
154.8860888884
 31
0.0
  0
LINE
  5
15B
330
1F
100
AcDbEntity
  8
0
  6
Continuous
 62
     7
370
    25
100
AcDbLine
 10
59.5432330887
 20
237.6501314738
 30
0.0
 11
59.5432330887
 21
159.437248613
 31
0.0
  0
LINE
  5
15C
330
1F
100
AcDbEntity
  8
0
  6
Continuous
 62
     7
370
    25
100
AcDbLine
 10
59.5432330887
 20
159.437248613
 30
0.0
 11
277.1232330887
 21
159.437248613
 31
0.0
  0
LINE
  5
15D
330
1F
100
AcDbEntity
  8
0
  6
Continuous
 62
     7
370
    25
100
AcDbLine
 10
277.1232330887
 20
159.437248613
 30
0.0
 11
277.1232330887
 21
237.6501314738
 31
0.0
  0
LINE
  5
15E
330
1F
100
AcDbEntity
  8
0
  6
Continuous
 62
     7
370
    25
100
AcDbLine
 10
277.1232330887
 20
237.6501314738
 30
0.0
 11
59.5432330887
 21
237.6501314738
 31
0.0
  0
LINE
  5
15F
330
1F
100
AcDbEntity
  8
0
  6
Continuous
 62
     7
370
    25
100
AcDbLine
 10
279.8332349901
 20
147.9270988727
 30
0.0
 11
289.8332349901
 21
147.9270988727
 31
0.0
  0
LINE
  5
160
330
1F
100
AcDbEntity
  8
0
  6
Continuous
 62
     7
370
    25
100
AcDbLine
 10
279.8332349901
 20
147.9270988727
 30
0.0
 11
56.8332349901
 21
147.9270988727
 31
0.0
  0
LINE
  5
161
330
1F
100
AcDbEntity
  8
0
  6
Continuous
 62
     7
370
    25
100
AcDbLine
 10
56.8332349901
 20
147.9270988727
 30
0.0
 11
46.8332349901
 21
147.9270988727
 31
0.0
  0
LINE
  5
162
330
1F
100
AcDbEntity
  8
0
  6
Continuous
 62
     7
370
    25
100
AcDbLine
 10
289.8332349901
 20
149.1558269392
 30
0.0
 11
46.8332349901
 21
149.1558269392
 31
0.0
  0
LINE
  5
163
330
1F
100
AcDbEntity
  8
0
  6
Continuous
 62
     7
370
    25
100
AcDbLine
 10
294.8332349901
 20
150.7949810545
 30
0.0
 11
294.8332349901
 21
152.0237091209
 31
0.0
  0
SPLINE
  5
164
330
1F
100
AcDbEntity
  8
0
  6
Continuous
 62
     7
370
    25
100
AcDbSpline
210
0.0
220
0.0
230
1.0
 70
     8
 71
     3
 72
    11
 73
     7
 74
     0
 42
0.00000001
 43
0.00000001
 40
0.0
 40
0.0
 40
0.0
 40
0.0
 40
0.249999999999999
 40
0.5000000000000017
 40
0.750000000000001
 40
1.0
 40
1.0
 40
1.0
 40
1.0
 10
289.8332349901008
 20
147.9270988727492
 30
0.0
 10
290.488420209132
 20
147.9702076525097
 30
0.0
 10
291.7987906471944
 20
148.0564252120308
 30
0.0
 10
293.451515332679
 20
148.7196207098894
 30
0.0
 10
294.6077613982909
 20
149.667584645259
 30
0.0
 10
294.7580771261642
 20
150.4191822514227
 30
0.0
 10
294.8332349901008
 20
150.7949810545045
 30
0.0
  0
LWPOLYLINE
  5
165
330
1F
100
AcDbEntity
  8
0
  6
Continuous
 62
     7
370
    25
100
AcDbPolyline
 90
        9
 70
   128
 43
0.0
 10
289.8332349901
 20
149.1558269392
 10
290.8086866002
 20
149.2109324911
 10
291.7466521519
 20
149.3741314716
 10
292.6110861552
 20
149.6391522351
 10
293.368768896
 20
149.9958101826
 10
293.9905830516
 20
150.4303991489
 10
294.4526326527
 20
150.926218124
 10
294.7371613921
 20
151.4642130626
 10
294.8332349901
 20
152.0237091209
  0
SPLINE
  5
166
330
1F
100
AcDbEntity
  8
0
  6
Continuous
 62
     7
370
    25
100
AcDbSpline
210
0.0
220
0.0
230
1.0
 70
     8
 71
     3
 72
    11
 73
     7
 74
     0
 42
0.00000001
 43
0.00000001
 40
0.0
 40
0.0
 40
0.0
 40
0.0
 40
0.2500000000000006
 40
0.5000000000000036
 40
0.7500000000000019
 40
1.0
 40
1.0
 40
1.0
 40
1.0
 10
46.83323499010082
 20
147.9270988727492
 30
0.0
 10
46.1780497710696
 20
147.9702076525097
 30
0.0
 10
44.86767933300717
 20
148.0564252120308
 30
0.0
 10
43.21495464752267
 20
148.7196207098894
 30
0.0
 10
42.05870858191069
 20
149.667584645259
 30
0.0
 10
41.90839285403747
 20
150.4191822514227
 30
0.0
 10
41.83323499010083
 20
150.7949810545045
 30
0.0
  0
LINE
  5
167
330
1F
100
AcDbEntity
  8
0
  6
Continuous
 62
     7
370
    25
100
AcDbLine
 10
41.8332349901
 20
150.7949810545
 30
0.0
 11
41.8332349901
 21
152.0237091209
 31
0.0
  0
LWPOLYLINE
  5
168
330
1F
100
AcDbEntity
  8
0
  6
Continuous
 62
     7
370
    25
100
AcDbPolyline
 90
        9
 70
   128
 43
0.0
 10
46.8332349901
 20
149.1558269392
 10
45.85778338
 20
149.2109324911
 10
44.9198178283
 20
149.3741314716
 10
44.055383825
 20
149.6391522351
 10
43.2977010842
 20
149.9958101826
 10
42.6758869286
 20
150.4303991489
 10
42.2138373275
 20
150.926218124
 10
41.9293085881
 20
151.4642130626
 10
41.8332349901
 20
152.0237091209
  0
LINE
  5
169
330
1F
100
AcDbEntity
  8
0
  6
Continuous
 62
     7
370
    25
100
AcDbLine
 10
41.8332349901
 20
153.9422903885
 30
0.0
 11
41.8332349901
 21
152.0237091209
 31
0.0
  0
LINE
  5
16A
330
1F
100
AcDbEntity
  8
0
  6
Continuous
 62
     7
370
    25
100
AcDbLine
 10
294.8332349901
 20
153.8177723376
 30
0.0
 11
294.8332349901
 21
152.0237091209
 31
0.0
  0
LINE
  5
16B
330
1F
100
AcDbEntity
  8
0
  6
Continuous
 62
     7
370
    25
100
AcDbLine
 10
294.3332349901
 20
154.9371523077
 30
0.0
 11
294.3332349901
 21
241.1055415988
 31
0.0
  0
LINE
  5
16C
330
1F
100
AcDbEntity
  8
0
  6
Continuous
 62
     7
370
    25
100
AcDbLine
 10
42.3332309254
 20
241.1055415988
 30
0.0
 11
42.3332309254
 21
154.9371523077
 31
0.0
  0
SPLINE
  5
16D
330
1F
100
AcDbEntity
  8
0
  6
Continuous
 62
     7
370
    25
100
AcDbSpline
210
0.0
220
0.0
230
1.0
 70
     8
 71
     3
 72
     9
 73
     5
 74
     0
 42
0.00000001
 43
0.00000001
 40
0.0
 40
0.0
 40
0.0
 40
0.0
 40
0.7596655093280351
 40
0.9999999999999999
 40
0.9999999999999999
 40
0.9999999999999999
 40
0.9999999999999999
 10
46.83323499010081
 20
147.4697235691006
 30
0.0
 10
46.45071336864778
 20
147.5567998267589
 30
0.0
 10
45.94717382821057
 20
147.6714242984365
 30
0.0
 10
45.50892764830112
 20
147.8561779918069
 30
0.0
 10
45.40360197586363
 20
147.9005806766029
 30
0.0
  0
LINE
  5
16E
330
1F
100
AcDbEntity
  8
0
  6
Continuous
 62
     7
370
    25
100
AcDbLine
 10
56.8332349901
 20
145.4461052112
 30
0.0
 11
279.8332349901
 21
145.4461052112
 31
0.0
  0
SPLINE
  5
16F
330
1F
100
AcDbEntity
  8
0
  6
Continuous
 62
     7
370
    25
100
AcDbSpline
210
0.0
220
0.0
230
1.0
 70
     8
 71
     3
 72
     9
 73
     5
 74
     0
 42
0.00000001
 43
0.00000001
 40
0.0
 40
0.0
 40
0.0
 40
0.0
 40
0.7589174081405691
 40
1.0
 40
1.0
 40
1.0
 40
1.0
 10
289.8332349901008
 20
147.4697235691006
 30
0.0
 10
290.2157442426697
 20
147.5568131117271
 30
0.0
 10
290.7197638480523
 20
147.6715680793854
 30
0.0
 10
291.1584257301187
 20
147.8565213984647
 30
0.0
 10
291.2641794735972
 20
147.9011104240013
 30
0.0
  0
LINE
  5
170
330
1F
100
AcDbEntity
  8
0
  6
Continuous
 62
     7
370
    25
100
AcDbLine
 10
281.4505682036
 20
145.6310879711
 30
0.0
 11
279.8332349901
 21
145.4461052112
 31
0.0
  0
LINE
  5
171
330
1F
100
AcDbEntity
  8
0
  6
Continuous
 62
     7
370
    25
100
AcDbLine
 10
55.195163176
 20
145.6142416587
 30
0.0
 11
56.8332349901
 21
145.4461052112
 31
0.0
  0
LINE
  5
172
330
1F
100
AcDbEntity
  8
0
  6
Continuous
 62
     7
370
    25
100
AcDbLine
 10
277.1232330887
 20
237.6009823511
 30
0.0
 11
59.5432330887
 21
237.6009823511
 31
0.0
  0
SPLINE
  5
173
330
1F
100
AcDbEntity
  8
0
  6
Continuous
 62
     7
370
    25
100
AcDbSpline
210
0.0
220
0.0
230
1.0
 70
     8
 71
     3
 72
     9
 73
     5
 74
     0
 42
0.00000001
 43
0.00000001
 40
0.0
 40
0.0
 40
0.0
 40
0.0
 40
0.1213690462230105
 40
1.0
 40
1.0
 40
1.0
 40
1.0
 10
281.7029364744953
 20
145.6462295303494
 30
0.0
 10
281.6383201756584
 20
145.6201778157828
 30
0.0
 10
281.1059249657775
 20
145.4055290616126
 30
0.0
 10
280.4284688783443
 20
145.3917120199084
 30
0.0
 10
279.8332349901008
 20
145.3795719393775
 30
0.0
  0
SPLINE
  5
174
330
1F
100
AcDbEntity
  8
0
  6
Continuous
 62
     7
370
    25
100
AcDbSpline
210
0.0
220
0.0
230
1.0
 70
     8
 71
     3
 72
     9
 73
     5
 74
     0
 42
0.00000001
 43
0.00000001
 40
0.0
 40
0.0
 40
0.0
 40
0.0
 40
0.1214747870980286
 40
0.9999999999999999
 40
0.9999999999999999
 40
0.9999999999999999
 40
0.9999999999999999
 10
54.96333914649544
 20
145.6463041030901
 30
0.0
 10
55.02801890420771
 20
145.6202256930254
 30
0.0
 10
55.56047308056342
 20
145.4055440237865
 30
0.0
 10
56.23800559425868
 20
145.3917182394795
 30
0.0
 10
56.83323499010082
 20
145.3795719393776
 30
0.0
  0
LWPOLYLINE
  5
175
330
1F
100
AcDbEntity
  8
0
  6
Continuous
 62
     7
370
    25
100
AcDbPolyline
 90
        4
 70
   128
 43
0.0
 10
279.8332349901
 20
145.3795719394
 10
248.6132349901
 20
145.3795625285
 10
217.3932349901
 20
145.3795625285
 10
168.3332349901
 20
145.3795625285
  0
LWPOLYLINE
  5
176
330
1F
100
AcDbEntity
  8
0
  6
Continuous
 62
     7
370
    25
100
AcDbPolyline
 90
        4
 70
   128
 43
0.0
 10
56.8332349901
 20
145.3795719394
 10
88.0532349901
 20
145.3795625285
 10
119.2732349901
 20
145.3795625285
 10
168.3332349901
 20
145.3795625285
  0
LINE
  5
177
330
1F
100
AcDbEntity
  8
0
  6
Continuous
 62
     7
370
    25
100
AcDbLine
 10
278.9832349901
 20
145.2990998571
 30
0.0
 11
279.4468018963
 21
145.3420086498
 31
0.0
  0
LINE
  5
178
330
1F
100
AcDbEntity
  8
0
  6
Continuous
 62
     7
370
    25
100
AcDbLine
 10
278.9832349901
 20
145.2990998571
 30
0.0
 11
168.3332349901
 21
145.2990998571
 31
0.0
  0
LINE
  5
179
330
1F
100
AcDbEntity
  8
0
  6
Continuous
 62
     7
370
    25
100
AcDbLine
 10
57.6832349901
 20
145.2990998571
 30
0.0
 11
168.3332349901
 21
145.2990998571
 31
0.0
  0
LINE
  5
17A
330
1F
100
AcDbEntity
  8
0
  6
Continuous
 62
     7
370
    25
100
AcDbLine
 10
57.6832349901
 20
145.2990998571
 30
0.0
 11
57.2281272046
 21
145.3510288403
 31
0.0
  0
ARC
  5
17B
330
1F
100
AcDbEntity
  8
0
  6
Continuous
 62
     7
370
    25
100
AcDbCircle
 10
43.8391952836
 20
241.0469897424
 30
0.0
 40
1.507102175742094
100
AcDbArc
 50
136.5570384108
 51
177.773462998
  0
ARC
  5
17C
330
1F
100
AcDbEntity
  8
0
  6
Continuous
 62
     7
370
    25
100
AcDbCircle
 10
292.8377461538
 20
241.0497628371
 30
0.0
 40
1.496528693254879
100
AcDbArc
 50
2.1360285762
 51
42.2081252292
  0
DIMENSION
  5
17D
330
1F
100
AcDbEntity
  8
SLD-0
 62
     7
100
AcDbDimension
  2
_D
 10
327.0332599901
 20
132.504169636
 30
0.0
 11
327.0332599901
 21
193.0857103944
 31
0.0
 70
   160
  1
<>
 71
     2
 42
-1.0
  3
SLDDIMSTYLE0
100
AcDbAlignedDimension
 13
290.3332349901
 23
243.5982884133
 33
0.0
 14
229.9832349901
 24
132.504169636
 34
0.0
 50
90.0
100
AcDbRotatedDimension
  0
DIMENSION
  5
192
330
1F
100
AcDbEntity
  8
SLD-0
 62
     7
100
AcDbDimension
  2
_D_1
 10
315.0332599901
 20
132.504169636
 30
0.0
 11
315.0332599901
 21
114.3255168095
 31
0.0
 70
   160
  1
<>
 71
     2
 42
-1.0
  3
SLDDIMSTYLE0
100
AcDbAlignedDimension
 13
278.9832349901
 23
145.2990998571
 33
0.0
 14
229.9832349901
 24
132.504169636
 34
0.0
 50
90.0
100
AcDbRotatedDimension
  0
DIMENSION
  5
1A7
330
1F
100
AcDbEntity
  8
SLD-0
 62
     7
100
AcDbDimension
  2
_D_2
 10
243.5832349901
 20
106.484540238
 30
0.0
 11
170.1049510192
 21
106.484540238
 31
0.0
 70
   160
  1
<>
 71
     2
 42
-1.0
  3
SLDDIMSTYLE0
100
AcDbAlignedDimension
 13
93.0832349901
 23
134.204169636
 33
0.0
 14
243.5832349901
 24
134.204169636
 34
0.0
100
AcDbRotatedDimension
  0
DIMENSION
  5
1BB
330
1F
100
AcDbEntity
  8
SLD-0
 62
     7
100
AcDbDimension
  2
_D_3
 10
295.0332349901
 20
75.5104508637
 30
0.0
 11
170.1049510192
 21
75.5104508637
 31
0.0
 70
   160
  1
<>
 71
     2
 42
-1.0
  3
SLDDIMSTYLE0
100
AcDbAlignedDimension
 13
41.6332349901
 23
155.0380866407
 33
0.0
 14
295.0332349901
 24
155.0380866407
 34
0.0
 50
0.0
100
AcDbRotatedDimension
  0
LINE
  5
1D1
330
1F
100
AcDbEntity
  8
SLD-0
  6
CENTERX2
 62
     7
370
    18
100
AcDbLine
 10
168.3332349901
 20
253.9835438742
 30
0.0
 11
168.3332349901
 21
124.2192054525
 31
0.0
  0
LINE
  5
1D2
330
1F
100
AcDbEntity
  8
0
  6
Continuous
 62
     7
370
    25
100
AcDbLine
 10
168.3332349901
 20
450.4538048002
 30
0.0
 11
46.3332349901
 21
450.4538048002
 31
0.0
  0
LINE
  5
1D3
330
1F
100
AcDbEntity
  8
0
  6
Continuous
 62
     7
370
    25
100
AcDbLine
 10
290.3332349901
 20
450.4538048002
 30
0.0
 11
168.3332349901
 21
450.4538048002
 31
0.0
  0
SPLINE
  5
1D4
330
1F
100
AcDbEntity
  8
0
  6
Continuous
 62
     7
370
    25
100
AcDbSpline
210
0.0
220
0.0
230
1.0
 70
     8
 71
     3
 72
    12
 73
     8
 74
     0
 42
0.00000001
 43
0.00000001
 40
0.0
 40
0.0
 40
0.0
 40
0.0
 40
0.243786158373582
 40
0.4884284096579576
 40
0.6143536714687439
 40
0.7418691648467612
 40
1.0
 40
1.0
 40
1.0
 40
1.0
 10
46.33323499010103
 20
450.453804800195
 30
0.0
 10
45.80373655796568
 20
450.4190122660075
 30
0.0
 10
44.74288027781573
 20
450.3493050182516
 30
0.0
 10
43.48718077382653
 20
449.7524513096865
 30
0.0
 10
42.6878684448121
 20
449.0361833574173
 30
0.0
 10
42.03208805765718
 20
448.1567170255357
 30
0.0
 10
41.83482611245165
 20
447.366810901151
 30
0.0
 10
41.70278961451896
 20
446.838090380573
 30
0.0
  0
SPLINE
  5
1D5
330
1F
100
AcDbEntity
  8
0
  6
Continuous
 62
     7
370
    25
100
AcDbSpline
210
0.0
220
0.0
230
1.0
 70
     8
 71
     3
 72
    13
 73
     9
 74
     0
 42
0.00000001
 43
0.00000001
 40
0.0
 40
0.0
 40
0.0
 40
0.0
 40
0.2578617811609792
 40
0.3836974732226502
 40
0.5082335488402772
 40
0.6314518438411765
 40
0.7535842649609369
 40
1.0
 40
1.0
 40
1.0
 40
1.0
 10
294.978156865101
 20
446.4407861268746
 30
0.0
 10
294.9153946735728
 20
446.9974846537604
 30
0.0
 10
294.8220047412035
 20
447.8258502112739
 30
0.0
 10
294.2471491895927
 20
448.8046031031849
 30
0.0
 10
293.6639071478958
 20
449.4293119117012
 30
0.0
 10
292.932547191262
 20
449.9077334523279
 30
0.0
 10
291.8304175927789
 20
450.3571811951979
 30
0.0
 10
290.9331553379575
 20
450.4150877682062
 30
0.0
 10
290.3332349901011
 20
450.453804800195
 30
0.0
  0
SPLINE
  5
1D6
330
1F
100
AcDbEntity
  8
0
  6
Continuous
 62
     7
370
    25
100
AcDbSpline
210
0.0
220
0.0
230
1.0
 70
     8
 71
     3
 72
     9
 73
     5
 74
     0
 42
0.00000001
 43
0.00000001
 40
0.0
 40
0.0
 40
0.0
 40
0.0
 40
0.5175020686714961
 40
1.0
 40
1.0
 40
1.0
 40
1.0
 10
56.83323499010103
 20
452.9580142270216
 30
0.0
 10
55.6140964151051
 20
452.9415361999418
 30
0.0
 10
53.25828249898762
 20
452.909694729004
 30
0.0
 10
51.02538814766886
 20
452.8869453413921
 30
0.0
 10
49.94802124228244
 20
452.8759688089304
 30
0.0
  0
LINE
  5
1D7
330
1F
100
AcDbEntity
  8
0
  6
Continuous
 62
     7
370
    25
100
AcDbLine
 10
279.8332349901
 20
452.9580831941
 30
0.0
 11
56.8332349901
 21
452.9580831941
 31
0.0
  0
SPLINE
  5
1D8
330
1F
100
AcDbEntity
  8
0
  6
Continuous
 62
     7
370
    25
100
AcDbSpline
210
0.0
220
0.0
230
1.0
 70
     8
 71
     3
 72
     9
 73
     5
 74
     0
 42
0.00000001
 43
0.00000001
 40
0.0
 40
0.0
 40
0.0
 40
0.0
 40
0.4224693474526184
 40
0.9999999999999999
 40
0.9999999999999999
 40
0.9999999999999999
 40
0.9999999999999999
 10
286.7036470550815
 20
452.8759685097523
 30
0.0
 10
285.7648577053975
 20
452.8845642541133
 30
0.0
 10
283.5427098611938
 20
452.9049106873229
 30
0.0
 10
281.1912659351422
 20
452.9385755754383
 30
0.0
 10
279.8332349901011
 20
452.9580180802396
 30
0.0
  0
SPLINE
  5
1D9
330
1F
100
AcDbEntity
  8
0
  6
Continuous
 62
     7
370
    25
100
AcDbSpline
210
0.0
220
0.0
230
1.0
 70
     8
 71
     3
 72
    10
 73
     6
 74
     0
 42
0.00000001
 43
0.00000001
 40
0.0
 40
0.0
 40
0.0
 40
0.0
 40
0.0873103968057817
 40
0.8107269747842846
 40
1.0
 40
1.0
 40
1.0
 40
1.0
 10
44.84402770651116
 20
320.2988279224789
 30
0.0
 10
44.87740036442063
 20
320.2859995083275
 30
0.0
 10
45.1872845818482
 20
320.1668803452412
 30
0.0
 10
45.61171249903988
 20
320.1280512729473
 30
0.0
 10
45.98981935672011
 20
320.1200484218991
 30
0.0
 10
46.06823093121104
 20
320.1183887954249
 30
0.0
  0
SPLINE
  5
1DA
330
1F
100
AcDbEntity
  8
0
  6
Continuous
 62
     7
370
    25
100
AcDbSpline
210
0.0
220
0.0
230
1.0
 70
     8
 71
     3
 72
    10
 73
     6
 74
     0
 42
0.00000001
 43
0.00000001
 40
0.0
 40
0.0
 40
0.0
 40
0.0
 40
0.3370671535289083
 40
0.9060268742235188
 40
1.0
 40
1.0
 40
1.0
 40
1.0
 10
290.598234984301
 20
320.1183887954249
 30
0.0
 10
290.7783769200059
 20
320.1262683458353
 30
0.0
 10
291.2625932941456
 20
320.1474483521158
 30
0.0
 10
291.8029959518435
 20
320.2424039008752
 30
0.0
 10
292.1169982541911
 20
320.3940053500315
 30
0.0
 10
292.1615092148558
 20
320.4154954030969
 30
0.0
  0
LINE
  5
1DB
330
1F
100
AcDbEntity
  8
0
  6
Continuous
 62
     7
370
    25
100
AcDbLine
 10
46.0682309312
 20
320.1183887954
 30
0.0
 11
290.5982349843
 21
320.1183887954
 31
0.0
  0
SPLINE
  5
1DC
330
1F
100
AcDbEntity
  8
0
  6
Continuous
 62
     7
370
    25
100
AcDbSpline
210
0.0
220
0.0
230
1.0
 70
     8
 71
     3
 72
    12
 73
     8
 74
     0
 42
0.00000001
 43
0.00000001
 40
0.0
 40
0.0
 40
0.0
 40
0.0
 40
0.0213136756272581
 40
0.2659852567204443
 40
0.510656837813629
 40
0.7553284189068141
 40
1.0
 40
1.0
 40
1.0
 40
1.0
 10
96.46795262282544
 20
452.9580831941136
 30
0.0
 10
96.51093008382381
 20
453.0112114697558
 30
0.0
 10
97.04726981221039
 20
453.6742288808754
 30
0.0
 10
98.39648534528271
 20
454.6546668033452
 30
0.0
 10
100.4552798729866
 20
455.789003949135
 30
0.0
 10
102.7285979730892
 20
456.49589467025
 30
0.0
 10
104.2983559844305
 20
456.5861038822304
 30
0.0
 10
105.0832349901012
 20
456.6312084882206
 30
0.0
  0
LINE
  5
1DD
330
1F
100
AcDbEntity
  8
0
  6
Continuous
 62
     7
370
    25
100
AcDbLine
 10
105.0832349901
 20
456.6312084882
 30
0.0
 11
231.5832349899
 21
456.6312084882
 31
0.0
  0
SPLINE
  5
1DE
330
1F
100
AcDbEntity
  8
0
  6
Continuous
 62
     7
370
    25
100
AcDbSpline
210
0.0
220
0.0
230
1.0
 70
     8
 71
     3
 72
    12
 73
     8
 74
     0
 42
0.00000001
 43
0.00000001
 40
0.0
 40
0.0
 40
0.0
 40
0.0
 40
0.2446715810912842
 40
0.4893431621825656
 40
0.7340147432738453
 40
0.9786863243651267
 40
1.0
 40
1.0
 40
1.0
 40
1.0
 10
231.5832349899378
 20
456.6312084882206
 30
0.0
 10
232.3681139956158
 20
456.5861038822404
 30
0.0
 10
233.9378720069719
 20
456.4958946702799
 30
0.0
 10
236.2111901071019
 20
455.7890039491833
 30
0.0
 10
238.2699846348354
 20
454.6546668034045
 30
0.0
 10
239.6192001679441
 20
453.6742288809182
 30
0.0
 10
240.1555398963535
 20
453.0112114697756
 30
0.0
 10
240.1985173573681
 20
452.9580831941136
 30
0.0
  0
LINE
  5
1DF
330
1F
100
AcDbEntity
  8
0
  6
Continuous
 62
     7
370
    25
100
AcDbLine
 10
290.5982349843
 20
449.3005264637
 30
0.0
 11
46.0682309312
 21
449.3005264637
 31
0.0
  0
ARC
  5
1E0
330
1F
100
AcDbEntity
  8
0
  6
Continuous
 62
     7
370
    25
100
AcDbCircle
 10
45.7610365851
 20
445.8659785222
 30
0.0
 40
3.448258680690047
100
AcDbArc
 50
84.8889262026
 51
173.7564536182
  0
ARC
  5
1E1
330
1F
100
AcDbEntity
  8
0
  6
Continuous
 62
     7
370
    25
100
AcDbCircle
 10
290.9054293302
 20
445.8659785219
 30
0.0
 40
3.448258680970448
100
AcDbArc
 50
6.2435463864
 51
95.1110737928
  0
SPLINE
  5
1E2
330
1F
100
AcDbEntity
  8
0
  6
Continuous
 62
     7
370
    25
100
AcDbSpline
210
0.0
220
0.0
230
1.0
 70
     8
 71
     3
 72
    12
 73
     8
 74
     0
 42
0.00000001
 43
0.00000001
 40
0.0
 40
0.0
 40
0.0
 40
0.0
 40
0.1888177457787661
 40
0.3742403006135578
 40
0.5600356552974627
 40
0.7782795978441096
 40
1.0
 40
1.0
 40
1.0
 40
1.0
 10
295.0332349901011
 20
446.0596714713148
 30
0.0
 10
295.0062617467464
 20
446.4466474541546
 30
0.0
 10
294.9528002743623
 20
447.213641083651
 30
0.0
 10
294.4131440679887
 20
448.2956880828003
 30
0.0
 10
293.4282658900912
 20
449.2172733976212
 30
0.0
 10
291.9915338583795
 20
449.8186877018429
 30
0.0
 10
290.8889054868369
 20
449.8791939199069
 30
0.0
 10
290.3332349901011
 20
449.9096860794731
 30
0.0
  0
LINE
  5
1E3
330
1F
100
AcDbEntity
  8
0
  6
Continuous
 62
     7
370
    25
100
AcDbLine
 10
295.0332349901
 20
384.7461409563
 30
0.0
 11
295.0332349901
 21
446.0596714713
 31
0.0
  0
LINE
  5
1E4
330
1F
100
AcDbEntity
  8
0
  6
Continuous
 62
     7
370
    25
100
AcDbLine
 10
295.0332349901
 20
384.7461409563
 30
0.0
 11
295.0332349901
 21
323.4326104413
 31
0.0
  0
SPLINE
  5
1E5
330
1F
100
AcDbEntity
  8
0
  6
Continuous
 62
     7
370
    25
100
AcDbSpline
210
0.0
220
0.0
230
1.0
 70
     8
 71
     3
 72
    12
 73
     8
 74
     0
 42
0.00000001
 43
0.00000001
 40
0.0
 40
0.0
 40
0.0
 40
0.0
 40
0.1888177457787665
 40
0.3742403006135567
 40
0.5600356552974617
 40
0.778279597844109
 40
1.0
 40
1.0
 40
1.0
 40
1.0
 10
295.0332349901011
 20
323.4326104412528
 30
0.0
 10
295.0062617467464
 20
323.0456344584131
 30
0.0
 10
294.9528002743623
 20
322.2786408289165
 30
0.0
 10
294.4131440679888
 20
321.1965938297674
 30
0.0
 10
293.4282658900912
 20
320.2750085149464
 30
0.0
 10
291.9915338583795
 20
319.6735942107247
 30
0.0
 10
290.8889054868369
 20
319.6130879926607
 30
0.0
 10
290.3332349901011
 20
319.5825958330946
 30
0.0
  0
LINE
  5
1E6
330
1F
100
AcDbEntity
  8
0
  6
Continuous
 62
     7
370
    25
100
AcDbLine
 10
290.3332349901
 20
319.5825958331
 30
0.0
 11
168.3332349901
 21
319.5825958331
 31
0.0
  0
LINE
  5
1E7
330
1F
100
AcDbEntity
  8
0
  6
Continuous
 62
     7
370
    25
100
AcDbLine
 10
46.3332349901
 20
319.5825958331
 30
0.0
 11
168.3332349901
 21
319.5825958331
 31
0.0
  0
SPLINE
  5
1E8
330
1F
100
AcDbEntity
  8
0
  6
Continuous
 62
     7
370
    25
100
AcDbSpline
210
0.0
220
0.0
230
1.0
 70
     8
 71
     3
 72
    12
 73
     8
 74
     0
 42
0.00000001
 43
0.00000001
 40
0.0
 40
0.0
 40
0.0
 40
0.0
 40
0.1888177457787665
 40
0.3742403006135567
 40
0.5600356552974617
 40
0.778279597844109
 40
1.0
 40
1.0
 40
1.0
 40
1.0
 10
41.63323499010102
 20
323.4326104412528
 30
0.0
 10
41.66020823345573
 20
323.0456344584131
 30
0.0
 10
41.71366970583978
 20
322.2786408289165
 30
0.0
 10
42.25332591221337
 20
321.1965938297674
 30
0.0
 10
43.23820409011092
 20
320.2750085149464
 30
0.0
 10
44.6749361218226
 20
319.6735942107247
 30
0.0
 10
45.77756449336519
 20
319.6130879926607
 30
0.0
 10
46.33323499010104
 20
319.5825958330946
 30
0.0
  0
LINE
  5
1E9
330
1F
100
AcDbEntity
  8
0
  6
Continuous
 62
     7
370
    25
100
AcDbLine
 10
41.6332349901
 20
384.7461409563
 30
0.0
 11
41.6332349901
 21
323.4326104413
 31
0.0
  0
LINE
  5
1EA
330
1F
100
AcDbEntity
  8
0
  6
Continuous
 62
     7
370
    25
100
AcDbLine
 10
41.6332349901
 20
384.7461409563
 30
0.0
 11
41.6332349901
 21
446.0596714713
 31
0.0
  0
SPLINE
  5
1EB
330
1F
100
AcDbEntity
  8
0
  6
Continuous
 62
     7
370
    25
100
AcDbSpline
210
0.0
220
0.0
230
1.0
 70
     8
 71
     3
 72
    12
 73
     8
 74
     0
 42
0.00000001
 43
0.00000001
 40
0.0
 40
0.0
 40
0.0
 40
0.0
 40
0.188817745778766
 40
0.3742403006135567
 40
0.560035655297463
 40
0.7782795978441098
 40
1.0
 40
1.0
 40
1.0
 40
1.0
 10
41.63323499010102
 20
446.0596714713148
 30
0.0
 10
41.66020823345573
 20
446.4466474541546
 30
0.0
 10
41.71366970583984
 20
447.213641083651
 30
0.0
 10
42.25332591221331
 20
448.2956880828003
 30
0.0
 10
43.23820409011092
 20
449.2172733976213
 30
0.0
 10
44.6749361218226
 20
449.8186877018428
 30
0.0
 10
45.7775644933652
 20
449.8791939199069
 30
0.0
 10
46.33323499010104
 20
449.9096860794731
 30
0.0
  0
LINE
  5
1EC
330
1F
100
AcDbEntity
  8
0
  6
Continuous
 62
     7
370
    25
100
AcDbLine
 10
46.3332349901
 20
449.9096860795
 30
0.0
 11
168.3332349901
 21
449.9096860795
 31
0.0
  0
LINE
  5
1ED
330
1F
100
AcDbEntity
  8
0
  6
Continuous
 62
     7
370
    25
100
AcDbLine
 10
290.3332349901
 20
449.9096860795
 30
0.0
 11
168.3332349901
 21
449.9096860795
 31
0.0
  0
ARC
  5
1EE
330
1F
100
AcDbEntity
  8
0
  6
Continuous
 62
     7
370
    25
100
AcDbCircle
 10
290.9054293305
 20
445.9017335132
 30
0.0
 40
3.448258680704686
100
AcDbArc
 50
6.2435463821
 51
95.1110737973
  0
LINE
  5
1EF
330
1F
100
AcDbEntity
  8
0
  6
Continuous
 62
     7
370
    25
100
AcDbLine
 10
46.0682309312
 20
449.3362814548
 30
0.0
 11
290.5982349843
 21
449.3362814548
 31
0.0
  0
ARC
  5
1F0
330
1F
100
AcDbEntity
  8
0
  6
Continuous
 62
     7
370
    25
100
AcDbCircle
 10
45.7610365853
 20
445.901733513
 30
0.0
 40
3.448258680970413
100
AcDbArc
 50
84.8889262072
 51
173.7564536136
  0
SPLINE
  5
1F1
330
1F
100
AcDbEntity
  8
0
  6
Continuous
 62
     7
370
    25
100
AcDbSpline
210
0.0
220
0.0
230
1.0
 70
     8
 71
     3
 72
     9
 73
     5
 74
     0
 42
0.00000001
 43
0.00000001
 40
0.0
 40
0.0
 40
0.0
 40
0.0
 40
0.1079033733804676
 40
0.9999999999999999
 40
0.9999999999999999
 40
0.9999999999999999
 40
0.9999999999999999
 10
294.9727319415566
 20
446.4400927144578
 30
0.0
 10
294.9787692178998
 20
446.4267641957753
 30
0.0
 10
295.0347199834235
 20
446.3032414710921
 30
0.0
 10
295.0339351433146
 20
446.1745112591407
 30
0.0
 10
295.0332349901011
 20
446.0596714713148
 30
0.0
  0
LINE
  5
1F2
330
1F
100
AcDbEntity
  8
0
  6
Continuous
 62
     7
370
    25
100
AcDbLine
 10
42.3332309254
 20
446.2409935734
 30
0.0
 11
42.3332309254
 21
446.2767485645
 31
0.0
  0
LINE
  5
1F3
330
1F
100
AcDbEntity
  8
0
  6
Continuous
 62
     7
370
    25
100
AcDbLine
 10
294.3332349901
 20
446.2409935734
 30
0.0
 11
294.3332349901
 21
446.2767485645
 31
0.0
  0
LINE
  5
1F4
330
1F
100
AcDbEntity
  8
0
  6
Continuous
 62
     7
370
    25
100
AcDbLine
 10
59.5432330887
 20
440.1944248456
 30
0.0
 11
59.5432330887
 21
328.4948520863
 31
0.0
  0
LINE
  5
1F5
330
1F
100
AcDbEntity
  8
0
  6
Continuous
 62
     7
370
    25
100
AcDbLine
 10
59.5432330887
 20
328.4948520863
 30
0.0
 11
277.1232330887
 21
328.4948520863
 31
0.0
  0
LINE
  5
1F6
330
1F
100
AcDbEntity
  8
0
  6
Continuous
 62
     7
370
    25
100
AcDbLine
 10
277.1232330887
 20
328.4948520863
 30
0.0
 11
277.1232330887
 21
440.1944248456
 31
0.0
  0
LINE
  5
1F7
330
1F
100
AcDbEntity
  8
0
  6
Continuous
 62
     7
370
    25
100
AcDbLine
 10
277.1232330887
 20
440.1944248456
 30
0.0
 11
59.5432330887
 21
440.1944248456
 31
0.0
  0
LINE
  5
1F8
330
1F
100
AcDbEntity
  8
0
  6
Continuous
 62
     7
370
    25
100
AcDbLine
 10
42.3332309254
 20
446.2409935734
 30
0.0
 11
42.3332309254
 21
323.1797801632
 31
0.0
  0
LINE
  5
1F9
330
1F
100
AcDbEntity
  8
0
  6
Continuous
 62
     7
370
    25
100
AcDbLine
 10
294.3332349901
 20
323.1797801632
 30
0.0
 11
294.3332349901
 21
446.2409935734
 31
0.0
  0
LINE
  5
1FA
330
1F
100
AcDbEntity
  8
0
  6
Continuous
 62
     7
370
    25
100
AcDbLine
 10
56.8332349901
 20
452.8759685098
 30
0.0
 11
46.8332349901
 21
452.8759685098
 31
0.0
  0
LINE
  5
1FB
330
1F
100
AcDbEntity
  8
0
  6
Continuous
 62
     7
370
    25
100
AcDbLine
 10
279.8332349901
 20
452.8759685098
 30
0.0
 11
56.8332349901
 21
452.8759685098
 31
0.0
  0
LINE
  5
1FC
330
1F
100
AcDbEntity
  8
0
  6
Continuous
 62
     7
370
    25
100
AcDbLine
 10
279.8332349901
 20
452.8759685098
 30
0.0
 11
289.8332349901
 21
452.8759685098
 31
0.0
  0
LINE
  5
1FD
330
1F
100
AcDbEntity
  8
0
  6
Continuous
 62
     7
370
    25
100
AcDbLine
 10
289.8332349901
 20
452.0156038552
 30
0.0
 11
46.8332349901
 21
452.0156038552
 31
0.0
  0
SPLINE
  5
1FE
330
1F
100
AcDbEntity
  8
0
  6
Continuous
 62
     7
370
    25
100
AcDbSpline
210
0.0
220
0.0
230
1.0
 70
     8
 71
     3
 72
    11
 73
     7
 74
     0
 42
0.00000001
 43
0.00000001
 40
0.0
 40
0.0
 40
0.0
 40
0.0
 40
0.2499999999999995
 40
0.4999999999999996
 40
0.7499999999999989
 40
1.0
 40
1.0
 40
1.0
 40
1.0
 10
289.8332349901011
 20
452.8759685097523
 30
0.0
 10
290.4884202091322
 20
452.8144027918642
 30
0.0
 10
291.7987906471947
 20
452.691271356088
 30
0.0
 10
293.4515153326792
 20
451.7441300277408
 30
0.0
 10
294.6077613982912
 20
450.3902972229793
 30
0.0
 10
294.7580771261644
 20
449.3169045998646
 30
0.0
 10
294.8332349901011
 20
448.7802082883073
 30
0.0
  0
LINE
  5
1FF
330
1F
100
AcDbEntity
  8
0
  6
Continuous
 62
     7
370
    25
100
AcDbLine
 10
294.8332349901
 20
448.7802082883
 30
0.0
 11
294.8332349901
 21
447.9198436338
 31
0.0
  0
ARC
  5
200
330
1F
100
AcDbEntity
  8
0
  6
Continuous
 62
     7
370
    25
100
AcDbCircle
 10
290.2444724005
 20
447.4178154532
 30
0.0
 40
4.616142805159096
100
AcDbArc
 50
6.2435463851
 51
95.1110737956
  0
LINE
  5
201
330
1F
100
AcDbEntity
  8
0
  6
Continuous
 62
     7
370
    25
100
AcDbLine
 10
41.8332349901
 20
448.7802082883
 30
0.0
 11
41.8332349901
 21
447.9198436338
 31
0.0
  0
SPLINE
  5
202
330
1F
100
AcDbEntity
  8
0
  6
Continuous
 62
     7
370
    25
100
AcDbSpline
210
0.0
220
0.0
230
1.0
 70
     8
 71
     3
 72
    11
 73
     7
 74
     0
 42
0.00000001
 43
0.00000001
 40
0.0
 40
0.0
 40
0.0
 40
0.0
 40
0.2499999999999992
 40
0.5000000000000014
 40
0.7500000000000007
 40
1.0
 40
1.0
 40
1.0
 40
1.0
 10
46.83323499010105
 20
452.8759685097523
 30
0.0
 10
46.17804977106982
 20
452.8144027918642
 30
0.0
 10
44.86767933300739
 20
452.691271356088
 30
0.0
 10
43.21495464752284
 20
451.7441300277409
 30
0.0
 10
42.05870858191096
 20
450.3902972229793
 30
0.0
 10
41.90839285403769
 20
449.3169045998646
 30
0.0
 10
41.83323499010105
 20
448.7802082883073
 30
0.0
  0
ARC
  5
203
330
1F
100
AcDbEntity
  8
0
  6
Continuous
 62
     7
370
    25
100
AcDbCircle
 10
46.4219975797
 20
447.4178154532
 30
0.0
 40
4.616142805159054
100
AcDbArc
 50
84.8889262044
 51
173.7564536149
  0
LINE
  5
204
330
1F
100
AcDbEntity
  8
0
  6
Continuous
 62
     7
370
    25
100
AcDbLine
 10
41.8332349901
 20
447.9198436338
 30
0.0
 11
41.8332349901
 21
447.2150439635
 31
0.0
  0
LINE
  5
205
330
1F
100
AcDbEntity
  8
0
  6
Continuous
 62
     7
370
    25
100
AcDbLine
 10
59.5432330887
 20
328.5292666725
 30
0.0
 11
277.1232330887
 21
328.5292666725
 31
0.0
  0
ARC
  5
206
330
1F
100
AcDbEntity
  8
0
  6
Continuous
 62
     7
370
    25
100
AcDbCircle
 10
45.5803742678
 20
323.4649758549
 30
0.0
 40
3.259643610716388
100
AcDbArc
 50
185.0193921054
 51
256.8290724931
  0
ARC
  5
207
330
1F
100
AcDbEntity
  8
0
  6
Continuous
 62
     7
370
    25
100
AcDbCircle
 10
291.2324992496
 20
323.3659139288
 30
0.0
 40
3.106317419611851
100
AcDbArc
 50
287.5968603395
 51
356.5647195495
  0
MTEXT
  5
208
330
1F
100
AcDbEntity
  8
SLD-0
 62
     7
100
AcDbMText
 10
153.3432361903
 20
304.8453213365
 30
0.0
 40
4.7625
 41
0.0
 71
     1
 72
     1
  1
TOP VIEW
  7
SLDTEXTSTYLE0
 73
     1
 44
1.0
  0
LINE
  5
209
330
1F
100
AcDbEntity
  8
0
  6
Continuous
 62
     7
370
    25
100
AcDbLine
 10
772.1816200292
 20
362.3254712911
 30
0.0
 11
772.1816200292
 21
364.3668233208
 31
0.0
  0
SPLINE
  5
20A
330
1F
100
AcDbEntity
  8
0
  6
Continuous
 62
     7
370
    25
100
AcDbSpline
210
0.0
220
0.0
230
1.0
 70
     8
 71
     3
 72
    13
 73
     9
 74
     0
 42
0.00000001
 43
0.00000001
 40
0.0
 40
0.0
 40
0.0
 40
0.0
 40
0.2575088283671506
 40
0.3829398779338952
 40
0.5070939073565884
 40
0.6301061996456873
 40
0.7523334278989444
 40
1.0
 40
1.0
 40
1.0
 40
1.0
 10
713.7169992811248
 20
301.8093627371616
 30
0.0
 10
714.2137210377168
 20
301.5818141857465
 30
0.0
 10
714.9523930671095
 20
301.243428061063
 30
0.0
 10
716.0898317423281
 20
301.2082546677727
 30
0.0
 10
716.9383097418138
 20
301.3556364920951
 30
0.0
 10
717.750253185664
 20
301.6921477447871
 30
0.0
 10
718.7512956378469
 20
302.336467401438
 30
0.0
 10
719.3098709781278
 20
303.0155944184071
 30
0.0
 10
719.6838714065075
 20
303.4703115835849
 30
0.0
  0
LINE
  5
20B
330
1F
100
AcDbEntity
  8
0
  6
Continuous
 62
     7
370
    25
100
AcDbLine
 10
719.6838714065
 20
303.4703115836
 30
0.0
 11
763.0390846122
 21
363.554633813
 31
0.0
  0
LINE
  5
20C
330
1F
100
AcDbEntity
  8
0
  6
Continuous
 62
     7
370
    25
100
AcDbLine
 10
627.4499719764
 20
351.6102575583
 30
0.0
 11
713.7169992811
 21
301.8093627372
 31
0.0
  0
LINE
  5
20D
330
1F
100
AcDbEntity
  8
0
  6
Continuous
 62
     7
370
    25
100
AcDbLine
 10
763.0390846122
 20
363.554633813
 30
0.0
 11
806.3942978178
 21
423.6389560423
 31
0.0
  0
SPLINE
  5
20E
330
1F
100
AcDbEntity
  8
0
  6
Continuous
 62
     7
370
    25
100
AcDbSpline
210
0.0
220
0.0
230
1.0
 70
     8
 71
     3
 72
    11
 73
     7
 74
     0
 42
0.00000001
 43
0.00000001
 40
0.0
 40
0.0
 40
0.0
 40
0.0
 40
0.2436627142610047
 40
0.4883637959826445
 40
0.7409258217727832
 40
1.0
 40
1.0
 40
1.0
 40
1.0
 10
806.3942978178411
 20
423.6389560423332
 30
0.0
 10
806.6546737544194
 20
424.0503295534605
 30
0.0
 10
807.1765352183512
 20
424.8748296419133
 30
0.0
 10
807.4979190199178
 20
426.3313288605691
 30
0.0
 10
807.3080428384928
 20
427.8185790213838
 30
0.0
 10
806.7377388578655
 20
428.6159621697269
 30
0.0
 10
806.4489574269178
 20
429.0197283267485
 30
0.0
  0
LINE
  5
20F
330
1F
100
AcDbEntity
  8
0
  6
Continuous
 62
     7
370
    25
100
AcDbLine
 10
805.806131916
 20
428.702541421
 30
0.0
 11
805.7808493194
 21
428.7296414544
 31
0.0
  0
LINE
  5
210
330
1F
100
AcDbEntity
  8
0
  6
Continuous
 62
     7
370
    25
100
AcDbLine
 10
807.960376795
 20
426.748875513
 30
0.0
 11
807.3520071135
 21
427.4009777844
 31
0.0
  0
LINE
  5
211
330
1F
100
AcDbEntity
  8
0
  6
Continuous
 62
     7
370
    25
100
AcDbLine
 10
541.1829446716
 20
401.4111523795
 30
0.0
 11
627.4499719764
 21
351.6102575583
 31
0.0
  0
LINE
  5
212
330
1F
100
AcDbEntity
  8
0
  6
Continuous
 62
     7
370
    25
100
AcDbLine
 10
539.775000124
 20
402.5136402115
 30
0.0
 11
541.1829446716
 21
401.4111523795
 31
0.0
  0
LINE
  5
213
330
1F
100
AcDbEntity
  8
0
  6
Continuous
 62
     7
370
    25
100
AcDbLine
 10
540.3925414413
 20
402.8579305799
 30
0.0
 11
540.4178240379
 21
402.8308305465
 31
0.0
  0
LINE
  5
214
330
1F
100
AcDbEntity
  8
0
  6
Continuous
 62
     7
370
    25
100
AcDbLine
 10
627.5049078317
 20
527.5361997286
 30
0.0
 11
540.4874893282
 21
406.9421067385
 31
0.0
  0
LINE
  5
215
330
1F
100
AcDbEntity
  8
0
  6
Continuous
 62
     7
370
    25
100
AcDbLine
 10
542.1977046964
 20
400.5675650034
 30
0.0
 11
542.8060743779
 21
399.915462732
 31
0.0
  0
SPLINE
  5
216
330
1F
100
AcDbEntity
  8
0
  6
Continuous
 62
     7
370
    25
100
AcDbSpline
210
0.0
220
0.0
230
1.0
 70
     8
 71
     3
 72
    10
 73
     6
 74
     0
 42
0.00000001
 43
0.00000001
 40
0.0
 40
0.0
 40
0.0
 40
0.0
 40
0.2162691459181368
 40
0.6373379521262226
 40
1.0
 40
1.0
 40
1.0
 40
1.0
 10
629.5575846280088
 20
529.0787499760642
 30
0.0
 10
629.3820827974016
 20
529.0182206435039
 30
0.0
 10
628.8648847623386
 20
528.8398427214299
 30
0.0
 10
628.1430122865303
 20
528.3059311210225
 30
0.0
 10
627.7067725396295
 20
527.7797046932864
 30
0.0
 10
627.504907831674
 20
527.536199728624
 30
0.0
  0
SPLINE
  5
217
330
1F
100
AcDbEntity
  8
0
  6
Continuous
 62
     7
370
    25
100
AcDbSpline
210
0.0
220
0.0
230
1.0
 70
     8
 71
     3
 72
    15
 73
    11
 74
     0
 42
0.00000001
 43
0.00000001
 40
0.0
 40
0.0
 40
0.0
 40
0.0
 40
0.0379670530265795
 40
0.17540033116564
 40
0.3128336093046996
 40
0.4502668874437601
 40
0.5877001655828202
 40
0.7251334437218793
 40
0.8625667218609399
 40
1.0
 40
1.0
 40
1.0
 40
1.0
 10
769.7469805389928
 20
368.5055150441729
 30
0.0
 10
769.8876876781892
 20
368.4102291277284
 30
0.0
 10
770.5377270371864
 20
367.9700269006005
 30
0.0
 10
771.322284926727
 20
367.027030370889
 30
0.0
 10
772.0316319061959
 20
365.7290913509578
 30
0.0
 10
772.257447812436
 20
364.3664178369701
 30
0.0
 10
772.0282970190935
 20
363.0061772262241
 30
0.0
 10
771.3356244753274
 20
361.7009394965568
 30
0.0
 10
770.2382515955367
 20
360.4848768075963
 30
0.0
 10
769.1906848007861
 20
359.807208702439
 30
0.0
 10
768.6669014034107
 20
359.4683746498603
 30
0.0
  0
LINE
  5
218
330
1F
100
AcDbEntity
  8
0
  6
Continuous
 62
     7
370
    25
100
AcDbLine
 10
768.6669014034
 20
359.4683746499
 30
0.0
 11
759.3414692976
 21
354.0849172853
 31
0.0
  0
LINE
  5
219
330
1F
100
AcDbEntity
  8
0
  6
Continuous
 62
     7
370
    25
100
AcDbLine
 10
768.6669014034
 20
357.4270226201
 30
0.0
 11
768.6669014034
 21
359.4683746499
 31
0.0
  0
LINE
  5
21A
330
1F
100
AcDbEntity
  8
0
  6
Continuous
 62
     7
370
    25
100
AcDbLine
 10
768.6669014034
 20
357.4270226201
 30
0.0
 11
756.8168364473
 21
350.5861257336
 31
0.0
  0
ARC
  5
21B
330
1F
100
AcDbEntity
  8
0
  6
Continuous
 62
     7
370
    25
100
AcDbCircle
 10
766.1832240789
 20
362.9192614819
 30
0.0
 40
6.027714389955628
100
AcDbArc
 50
294.333235592
 51
354.3466234504
  0
ARC
  5
21C
330
1F
100
AcDbEntity
  8
0
  6
Continuous
 62
     7
370
    25
100
AcDbCircle
 10
715.3472979197
 20
306.2293155318
 30
0.0
 40
2.663790916627507
100
AcDbArc
 50
246.3023728992
 51
327.7997371002
  0
ARC
  5
21D
330
1F
100
AcDbEntity
  8
0
  6
Continuous
 62
     7
370
    25
100
AcDbCircle
 10
713.1816851875
 20
297.3223049878
 30
0.0
 40
8.694638279567851
100
AcDbArc
 50
50.8298357104
 51
59.4477849033
  0
ARC
  5
21E
330
1F
100
AcDbEntity
  8
0
  6
Continuous
 62
     7
370
    25
100
AcDbCircle
 10
715.4161005688
 20
306.1143059161
 30
0.0
 40
3.84941757961073
100
AcDbArc
 50
246.3023728819
 51
327.7997367964
  0
ARC
  5
21F
330
1F
100
AcDbEntity
  8
0
  6
Continuous
 62
     7
370
    25
100
AcDbCircle
 10
715.8748103149
 20
302.5779053368
 30
0.0
 40
2.005861967298133
100
AcDbArc
 50
142.818294479
 51
179.6695444687
  0
LINE
  5
220
330
1F
100
AcDbEntity
  8
0
  6
Continuous
 62
     7
370
    25
100
AcDbLine
 10
805.456590723
 20
429.82294153
 30
0.0
 11
805.1380153421
 21
429.3814401643
 31
0.0
  0
SPLINE
  5
221
330
1F
100
AcDbEntity
  8
0
  6
Continuous
 62
     7
370
    25
100
AcDbSpline
210
0.0
220
0.0
230
1.0
 70
     8
 71
     3
 72
    11
 73
     7
 74
     0
 42
0.00000001
 43
0.00000001
 40
0.0
 40
0.0
 40
0.0
 40
0.0
 40
0.2812611974869779
 40
0.5588543674542744
 40
0.777684286840372
 40
0.9999999999999999
 40
0.9999999999999999
 40
0.9999999999999999
 40
0.9999999999999999
 10
806.0576211574784
 20
424.1315526145181
 30
0.0
 10
806.425324866138
 20
424.7240334476921
 30
0.0
 10
807.1559369283407
 20
425.9012683603308
 30
0.0
 10
807.2399583652915
 20
427.7165731618691
 30
0.0
 10
806.5651801293749
 20
429.0553168098388
 30
0.0
 10
805.8280620168043
 20
429.5657222689456
 30
0.0
 10
805.4565907229976
 20
429.8229415300477
 30
0.0
  0
LINE
  5
222
330
1F
100
AcDbEntity
  8
0
  6
Continuous
 62
     7
370
    25
100
AcDbLine
 10
806.0576211575
 20
424.1315526145
 30
0.0
 11
805.6687124278
 21
424.3560648453
 31
0.0
  0
LINE
  5
223
330
1F
100
AcDbEntity
  8
0
  6
Continuous
 62
     7
370
    25
100
AcDbLine
 10
762.7024079518
 20
364.0472303851
 30
0.0
 11
806.0576211575
 21
424.1315526145
 31
0.0
  0
LINE
  5
224
330
1F
100
AcDbEntity
  8
0
  6
Continuous
 62
     7
370
    25
100
AcDbLine
 10
762.7024079518
 20
364.0472303851
 30
0.0
 11
719.3471947461
 21
303.9629081558
 31
0.0
  0
LINE
  5
225
330
1F
100
AcDbEntity
  8
0
  6
Continuous
 62
     7
370
    25
100
AcDbLine
 10
719.3471947461
 20
303.9629081558
 30
0.0
 11
718.9582860165
 21
304.1874203865
 31
0.0
  0
SPLINE
  5
226
330
1F
100
AcDbEntity
  8
0
  6
Continuous
 62
     7
370
    25
100
AcDbSpline
210
0.0
220
0.0
230
1.0
 70
     8
 71
     3
 72
    11
 73
     7
 74
     0
 42
0.00000001
 43
0.00000001
 40
0.0
 40
0.0
 40
0.0
 40
0.0
 40
0.2812611974869755
 40
0.5588543674542733
 40
0.7776842868403715
 40
1.0
 40
1.0
 40
1.0
 40
1.0
 10
719.3471947461449
 20
303.9629081557698
 30
0.0
 10
718.8950405983977
 20
303.4191795233613
 30
0.0
 10
717.9966290062947
 20
302.3388132174278
 30
0.0
 10
716.1818550771071
 20
301.5226505623191
 30
0.0
 10
714.5400566653678
 20
301.5212381471457
 30
0.0
 10
713.716469089934
 20
301.9118089039057
 30
0.0
 10
713.3014214374721
 20
302.1086373658069
 30
0.0
  0
LINE
  5
227
330
1F
100
AcDbEntity
  8
0
  6
Continuous
 62
     7
370
    25
100
AcDbLine
 10
713.3014214375
 20
302.1086373658
 30
0.0
 11
713.6199968184
 21
302.5501387316
 31
0.0
  0
LINE
  5
228
330
1F
100
AcDbEntity
  8
0
  6
Continuous
 62
     7
370
    25
100
AcDbLine
 10
713.3014214375
 20
302.1086373658
 30
0.0
 11
627.0343941327
 21
351.909532187
 31
0.0
  0
LINE
  5
229
330
1F
100
AcDbEntity
  8
0
  6
Continuous
 62
     7
370
    25
100
AcDbLine
 10
540.767366828
 20
401.7104270082
 30
0.0
 11
627.0343941327
 21
351.909532187
 31
0.0
  0
LINE
  5
22A
330
1F
100
AcDbEntity
  8
0
  6
Continuous
 62
     7
370
    25
100
AcDbLine
 10
540.767366828
 20
401.7104270082
 30
0.0
 11
541.0859422089
 21
402.1519283739
 31
0.0
  0
SPLINE
  5
22B
330
1F
100
AcDbEntity
  8
0
  6
Continuous
 62
     7
370
    25
100
AcDbSpline
210
0.0
220
0.0
230
1.0
 70
     8
 71
     3
 72
    11
 73
     7
 74
     0
 42
0.00000001
 43
0.00000001
 40
0.0
 40
0.0
 40
0.0
 40
0.0
 40
0.2812611974869755
 40
0.5588543674542733
 40
0.7776842868403715
 40
1.0
 40
1.0
 40
1.0
 40
1.0
 10
540.1663363934739
 20
407.4018159237072
 30
0.0
 10
539.7986326848143
 20
406.8093350905332
 30
0.0
 10
539.0680206226117
 20
405.6321001778945
 30
0.0
 10
538.9839991856609
 20
403.8167953763563
 30
0.0
 10
539.6587774215775
 20
402.4780517283866
 30
0.0
 10
540.3958955341479
 20
401.9676462692798
 30
0.0
 10
540.7673668279547
 20
401.7104270081776
 30
0.0
  0
LINE
  5
22C
330
1F
100
AcDbEntity
  8
0
  6
Continuous
 62
     7
370
    25
100
AcDbLine
 10
540.1663363935
 20
407.4018159237
 30
0.0
 11
540.5552451231
 21
407.177303693
 31
0.0
  0
LINE
  5
22D
330
1F
100
AcDbEntity
  8
0
  6
Continuous
 62
     7
370
    25
100
AcDbLine
 10
583.5215495991
 20
467.4861381531
 30
0.0
 11
540.1663363935
 21
407.4018159237
 31
0.0
  0
LINE
  5
22E
330
1F
100
AcDbEntity
  8
0
  6
Continuous
 62
     7
370
    25
100
AcDbLine
 10
583.5215495991
 20
467.4861381531
 30
0.0
 11
626.8767628048
 21
527.5704603825
 31
0.0
  0
LINE
  5
22F
330
1F
100
AcDbEntity
  8
0
  6
Continuous
 62
     7
370
    25
100
AcDbLine
 10
626.8767628048
 20
527.5704603825
 30
0.0
 11
627.2656715345
 21
527.3459481517
 31
0.0
  0
SPLINE
  5
230
330
1F
100
AcDbEntity
  8
0
  6
Continuous
 62
     7
370
    25
100
AcDbSpline
210
0.0
220
0.0
230
1.0
 70
     8
 71
     3
 72
    11
 73
     7
 74
     0
 42
0.00000001
 43
0.00000001
 40
0.0
 40
0.0
 40
0.0
 40
0.0
 40
0.2812611974869777
 40
0.558854367454275
 40
0.7776842868403725
 40
1.0
 40
1.0
 40
1.0
 40
1.0
 10
626.8767628048075
 20
527.5704603824556
 30
0.0
 10
627.3289169525548
 20
528.1141890148641
 30
0.0
 10
628.2273285446578
 20
529.1945553207975
 30
0.0
 10
630.0421024738451
 20
530.0107179759061
 30
0.0
 10
631.6839008855845
 20
530.0121303910796
 30
0.0
 10
632.5074884610184
 20
529.6215596343196
 30
0.0
 10
632.9225361134804
 20
529.4247311724184
 30
0.0
  0
LINE
  5
231
330
1F
100
AcDbEntity
  8
0
  6
Continuous
 62
     7
370
    25
100
AcDbLine
 10
632.9225361135
 20
529.4247311724
 30
0.0
 11
632.6039607325
 21
528.9832298067
 31
0.0
  0
LINE
  5
232
330
1F
100
AcDbEntity
  8
0
  6
Continuous
 62
     7
370
    25
100
AcDbLine
 10
632.9225361135
 20
529.4247311724
 30
0.0
 11
719.1895634182
 21
479.6238363512
 31
0.0
  0
LINE
  5
233
330
1F
100
AcDbEntity
  8
0
  6
Continuous
 62
     7
370
    25
100
AcDbLine
 10
805.456590723
 20
429.82294153
 30
0.0
 11
719.1895634182
 21
479.6238363512
 31
0.0
  0
LWPOLYLINE
  5
234
330
1F
100
AcDbEntity
  8
0
  6
Continuous
 62
     7
370
    25
100
AcDbPolyline
 90
        3
 70
   128
 43
0.0
 10
540.9854402366
 20
402.380513569
 10
540.5117675855
 20
402.7355659858
 10
540.4178240379
 20
402.8308305465
  0
LINE
  5
235
330
1F
100
AcDbEntity
  8
0
  6
Continuous
 62
     7
370
    25
100
AcDbLine
 10
713.8942643061
 20
302.5623741225
 30
0.0
 11
540.9854402366
 21
402.380513569
 31
0.0
  0
ARC
  5
236
330
1F
100
AcDbEntity
  8
0
  6
Continuous
 62
     7
370
    25
100
AcDbCircle
 10
715.4413831655
 20
306.0872058827
 30
0.0
 40
3.849417579644202
100
AcDbArc
 50
246.3023728823
 51
327.799736796
  0
LINE
  5
237
330
1F
100
AcDbEntity
  8
0
  6
Continuous
 62
     7
370
    25
100
AcDbLine
 10
805.7161430953
 20
424.6300206043
 30
0.0
 11
718.6987245919
 21
304.0359276143
 31
0.0
  0
ARC
  5
238
330
1F
100
AcDbEntity
  8
0
  6
Continuous
 62
     7
370
    25
100
AcDbCircle
 10
803.2151856491
 20
426.7225378657
 30
0.0
 40
3.260892000206172
100
AcDbArc
 50
320.0812330322
 51
37.3870963109
  0
LINE
  5
239
330
1F
100
AcDbEntity
  8
0
  6
Continuous
 62
     7
370
    25
100
AcDbLine
 10
713.8689817095
 20
302.5894741559
 30
0.0
 11
713.8942643061
 21
302.5623741225
 31
0.0
  0
LINE
  5
23A
330
1F
100
AcDbEntity
  8
0
  6
Continuous
 62
     7
370
    25
100
AcDbLine
 10
718.6734419952
 20
304.0630276477
 30
0.0
 11
718.6987245919
 21
304.0359276143
 31
0.0
  0
LINE
  5
23B
330
1F
100
AcDbEntity
  8
0
  6
Continuous
 62
     7
370
    25
100
AcDbLine
 10
717.6013730761
 20
304.8098342051
 30
0.0
 11
804.6187915869
 21
425.4039271872
 31
0.0
  0
ARC
  5
23C
330
1F
100
AcDbEntity
  8
0
  6
Continuous
 62
     7
370
    25
100
AcDbCircle
 10
800.1991034269
 20
417.9163975629
 30
0.0
 40
8.694638768083184
100
AcDbArc
 50
50.8298360883
 51
59.4477847258
  0
LINE
  5
23D
330
1F
100
AcDbEntity
  8
0
  6
Continuous
 62
     7
370
    25
100
AcDbLine
 10
718.6734419952
 20
304.0630276477
 30
0.0
 11
805.6908604986
 21
424.6571206378
 31
0.0
  0
LINE
  5
23E
330
1F
100
AcDbEntity
  8
0
  6
Continuous
 62
     7
370
    25
100
AcDbLine
 10
804.2882741905
 20
428.5337238476
 30
0.0
 11
631.379450121
 21
528.3518632941
 31
0.0
  0
ARC
  5
23F
330
1F
100
AcDbEntity
  8
0
  6
Continuous
 62
     7
370
    25
100
AcDbCircle
 10
803.0652524432
 20
426.8222182812
 30
0.0
 40
2.103576359022037
100
AcDbArc
 50
317.6057340261
 51
54.4508463687
  0
LINE
  5
240
330
1F
100
AcDbEntity
  8
0
  6
Continuous
 62
     7
370
    25
100
AcDbLine
 10
541.3678700237
 20
403.6082769463
 30
0.0
 11
714.2766941006
 21
303.7901374919
 31
0.0
  0
ARC
  5
241
330
1F
100
AcDbEntity
  8
0
  6
Continuous
 62
     7
370
    25
100
AcDbCircle
 10
542.5908917658
 20
405.3197825049
 30
0.0
 40
2.103576349581724
100
AcDbArc
 50
137.6057337966
 51
234.4508463597
  0
LINE
  5
242
330
1F
100
AcDbEntity
  8
0
  6
Continuous
 62
     7
370
    25
100
AcDbLine
 10
628.0547711307
 20
527.3321665967
 30
0.0
 11
541.0373526347
 21
406.7380735987
 31
0.0
  0
ARC
  5
243
330
1F
100
AcDbEntity
  8
0
  6
Continuous
 62
     7
370
    25
100
AcDbCircle
 10
630.3088462913
 20
525.912685234
 30
0.0
 40
2.66379093938538
100
AcDbArc
 50
66.3023728646
 51
147.7997364925
  0
LINE
  5
244
330
1F
100
AcDbEntity
  8
0
  6
Continuous
 62
     7
370
    25
100
AcDbLine
 10
635.393688249
 20
515.2096344335
 30
0.0
 11
556.4101628953
 21
405.7494049185
 31
0.0
  0
LINE
  5
245
330
1F
100
AcDbEntity
  8
0
  6
Continuous
 62
     7
370
    25
100
AcDbLine
 10
556.4101628953
 20
405.7494049185
 30
0.0
 11
710.2624563459
 21
316.9323664333
 31
0.0
  0
LINE
  5
246
330
1F
100
AcDbEntity
  8
0
  6
Continuous
 62
     7
370
    25
100
AcDbLine
 10
710.2624563459
 20
316.9323664333
 30
0.0
 11
789.2459816995
 21
426.3925959482
 31
0.0
  0
LINE
  5
247
330
1F
100
AcDbEntity
  8
0
  6
Continuous
 62
     7
370
    25
100
AcDbLine
 10
789.2459816995
 20
426.3925959482
 30
0.0
 11
635.393688249
 21
515.2096344335
 31
0.0
  0
LINE
  5
248
330
1F
100
AcDbEntity
  8
0
  6
Continuous
 62
     7
370
    25
100
AcDbLine
 10
805.6908604986
 20
424.6571206378
 30
0.0
 11
805.7161430953
 21
424.6300206043
 31
0.0
  0
LINE
  5
249
330
1F
100
AcDbEntity
  8
0
  6
Continuous
 62
     7
370
    25
100
AcDbLine
 10
540.9601576399
 20
402.4076136024
 30
0.0
 11
713.8689817095
 21
302.5894741559
 31
0.0
  0
ARC
  5
24A
330
1F
100
AcDbEntity
  8
0
  6
Continuous
 62
     7
370
    25
100
AcDbCircle
 10
542.9659861144
 20
402.3960448457
 30
0.0
 40
2.005861836002476
100
AcDbArc
 50
142.8182935851
 51
179.6695462286
  0
ARC
  5
24B
330
1F
100
AcDbEntity
  8
0
  6
Continuous
 62
     7
370
    25
100
AcDbCircle
 10
716.8721237518
 20
305.4756956894
 30
0.0
 40
5.050106053773876
100
AcDbArc
 50
246.302372882
 51
327.7997367962
  0
LINE
  5
24C
330
1F
100
AcDbEntity
  8
0
  6
Continuous
 62
     7
370
    25
100
AcDbLine
 10
540.9601576399
 20
402.4076136024
 30
0.0
 11
540.9854402366
 21
402.380513569
 31
0.0
  0
LINE
  5
24D
330
1F
100
AcDbEntity
  8
0
  6
Continuous
 62
     7
370
    25
100
AcDbLine
 10
721.1454766205
 20
302.7845943509
 30
0.0
 11
807.1608294734
 21
421.9899631026
 31
0.0
  0
LINE
  5
24E
330
1F
100
AcDbEntity
  8
0
  6
Continuous
 62
     7
370
    25
100
AcDbLine
 10
721.8245569801
 20
302.0916716739
 30
0.0
 11
721.2161872986
 21
302.7437739453
 31
0.0
  0
SPLINE
  5
24F
330
1F
100
AcDbEntity
  8
0
  6
Continuous
 62
     7
370
    25
100
AcDbSpline
210
0.0
220
0.0
230
1.0
 70
     8
 71
     3
 72
    11
 73
     7
 74
     0
 42
0.00000001
 43
0.00000001
 40
0.0
 40
0.0
 40
0.0
 40
0.0
 40
0.249999999999999
 40
0.5000000000000017
 40
0.750000000000001
 40
1.0
 40
1.0
 40
1.0
 40
1.0
 10
715.3928832474475
 20
300.1190431739292
 30
0.0
 10
715.8997026953648
 20
299.9119253639196
 30
0.0
 10
716.9133415911998
 20
299.4976897439004
 30
0.0
 10
718.7517244797566
 20
299.7511939459937
 30
0.0
 10
720.5266182703107
 20
300.605900895734
 30
0.0
 10
721.391910743489
 20
301.5964147478378
 30
0.0
 10
721.8245569800781
 20
302.0916716738898
 30
0.0
  0
LINE
  5
250
330
1F
100
AcDbEntity
  8
0
  6
Continuous
 62
     7
370
    25
100
AcDbLine
 10
715.3928832474
 20
300.1190431739
 30
0.0
 11
714.7845135659
 21
300.7711454453
 31
0.0
  0
ARC
  5
251
330
1F
100
AcDbEntity
  8
0
  6
Continuous
 62
     7
370
    25
100
AcDbCircle
 10
716.8556231469
 20
305.4897957193
 30
0.0
 40
5.153169442626445
100
AcDbArc
 50
246.302372882
 51
327.7997367962
  0
LWPOLYLINE
  5
252
330
1F
100
AcDbEntity
  8
0
  6
Continuous
 62
     7
370
    25
100
AcDbPolyline
 90
        3
 70
   128
 43
0.0
 10
542.9575657376
 20
399.9647310318
 10
542.3234658041
 20
400.4400354712
 10
541.8629421845
 20
400.9926013578
  0
ARC
  5
253
330
1F
100
AcDbEntity
  8
0
  6
Continuous
 62
     7
370
    25
100
AcDbCircle
 10
803.88353822
 20
424.7503706195
 30
0.0
 40
4.365317263134892
100
AcDbArc
 50
320.0812330382
 51
37.387096305
  0
LINE
  5
254
330
1F
100
AcDbEntity
  8
0
  6
Continuous
 62
     7
370
    25
100
AcDbLine
 10
807.2315401515
 20
421.949142697
 30
0.0
 11
721.2161872986
 21
302.7437739453
 31
0.0
  0
LINE
  5
255
330
1F
100
AcDbEntity
  8
0
  6
Continuous
 62
     7
370
    25
100
AcDbLine
 10
714.7845135659
 20
300.7711454453
 30
0.0
 11
542.9575657376
 21
399.9647310318
 31
0.0
  0
LINE
  5
256
330
1F
100
AcDbEntity
  8
0
  6
Continuous
 62
     7
370
    25
100
AcDbLine
 10
543.0154885341
 20
400.0450040074
 30
0.0
 11
714.8424363625
 21
300.8514184209
 31
0.0
  0
LINE
  5
257
330
1F
100
AcDbEntity
  8
0
  6
Continuous
 62
     7
370
    25
100
AcDbLine
 10
807.839909833
 20
421.2970404256
 30
0.0
 11
807.2315401515
 21
421.949142697
 31
0.0
  0
LINE
  5
258
330
1F
100
AcDbEntity
  8
0
  6
Continuous
 62
     7
370
    25
100
AcDbLine
 10
807.839909833
 20
421.2970404256
 30
0.0
 11
804.3066192444
 21
416.4003889145
 31
0.0
  0
LINE
  5
259
330
1F
100
AcDbEntity
  8
0
  6
Continuous
 62
     7
370
    25
100
AcDbLine
 10
804.3066192444
 20
416.4003889145
 30
0.0
 11
725.3578475686
 21
306.9883231849
 31
0.0
  0
LINE
  5
25A
330
1F
100
AcDbEntity
  8
0
  6
Continuous
 62
     7
370
    25
100
AcDbLine
 10
721.8245569801
 20
302.0916716739
 30
0.0
 11
725.3578475686
 21
306.9883231849
 31
0.0
  0
LINE
  5
25B
330
1F
100
AcDbEntity
  8
0
  6
Continuous
 62
     7
370
    25
100
AcDbLine
 10
708.3218154356
 20
304.201083733
 30
0.0
 11
550.637003231
 21
395.2305882013
 31
0.0
  0
LINE
  5
25C
330
1F
100
AcDbEntity
  8
0
  6
Continuous
 62
     7
370
    25
100
AcDbLine
 10
550.637003231
 20
395.2305882013
 30
0.0
 11
543.5659354191
 21
399.3126287604
 31
0.0
  0
LINE
  5
25D
330
1F
100
AcDbEntity
  8
0
  6
Continuous
 62
     7
370
    25
100
AcDbLine
 10
543.5659354191
 20
399.3126287604
 30
0.0
 11
542.9575657376
 21
399.9647310318
 31
0.0
  0
LINE
  5
25E
330
1F
100
AcDbEntity
  8
0
  6
Continuous
 62
     7
370
    25
100
AcDbLine
 10
708.3218154356
 20
304.201083733
 30
0.0
 11
715.3928832474
 21
300.1190431739
 31
0.0
  0
LINE
  5
25F
330
1F
100
AcDbEntity
  8
0
  6
Continuous
 62
     7
370
    25
100
AcDbLine
 10
635.4180230362
 20
515.1835503426
 30
0.0
 11
556.4406286057
 21
405.7318174382
 31
0.0
  0
LINE
  5
260
330
1F
100
AcDbEntity
  8
0
  6
Continuous
 62
     7
370
    25
100
AcDbLine
 10
789.2398507764
 20
426.3840993377
 30
0.0
 11
635.4180230362
 21
515.1835503426
 31
0.0
  0
ARC
  5
261
330
1F
100
AcDbEntity
  8
0
  6
Continuous
 62
     7
370
    25
100
AcDbCircle
 10
805.502078505
 20
427.7814659653
 30
0.0
 40
1.428010096435135
100
AcDbArc
 50
101.6698069444
 51
148.2113443518
  0
ARC
  5
262
330
1F
100
AcDbEntity
  8
0
  6
Continuous
 62
     7
370
    25
100
AcDbCircle
 10
803.4458566536
 20
426.7066788874
 30
0.0
 40
3.039857115500446
100
AcDbArc
 50
317.605733947
 51
54.4508464461
  0
ARC
  5
263
330
1F
100
AcDbEntity
  8
0
  6
Continuous
 62
     7
370
    25
100
AcDbCircle
 10
632.5932544355
 20
527.5996054118
 30
0.0
 40
1.428010096435118
100
AcDbArc
 50
101.6698069444
 51
148.2113443518
  0
LINE
  5
264
330
1F
100
AcDbEntity
  8
0
  6
Continuous
 62
     7
370
    25
100
AcDbLine
 10
805.2132331208
 20
429.179958432
 30
0.0
 11
632.3044090513
 21
528.9980978785
 31
0.0
  0
SPLINE
  5
265
330
1F
100
AcDbEntity
  8
0
  6
Continuous
 62
     7
370
    25
100
AcDbSpline
210
0.0
220
0.0
230
1.0
 70
     8
 71
     3
 72
    11
 73
     7
 74
     0
 42
0.00000001
 43
0.00000001
 40
0.0
 40
0.0
 40
0.0
 40
0.0
 40
0.1139631014214497
 40
0.4093087342809664
 40
0.7046543671404821
 40
1.0
 40
1.0
 40
1.0
 40
1.0
 10
807.896046663761
 20
426.6843976953254
 30
0.0
 10
808.0510875933998
 20
426.5522761674934
 30
0.0
 10
808.6079310443117
 20
426.0777498106845
 30
0.0
 10
808.9421265589286
 20
424.7520661102588
 30
0.0
 10
808.8231230051452
 20
422.9702644680089
 30
0.0
 10
808.1676475570512
 20
421.8547817730389
 30
0.0
 10
807.8399098330042
 20
421.2970404255539
 30
0.0
  0
LINE
  5
266
330
1F
100
AcDbEntity
  8
0
  6
Continuous
 62
     7
370
    25
100
AcDbLine
 10
635.393688249
 20
515.2096344335
 30
0.0
 11
635.4180230362
 21
515.1835503426
 31
0.0
  0
ARC
  5
267
330
1F
100
AcDbEntity
  8
0
  6
Continuous
 62
     7
370
    25
100
AcDbCircle
 10
542.7275341069
 20
404.880893147
 30
0.0
 40
3.039857115342093
100
AcDbArc
 50
137.6057339453
 51
234.4508464493
  0
LINE
  5
268
330
1F
100
AcDbEntity
  8
0
  6
Continuous
 62
     7
370
    25
100
AcDbLine
 10
540.4874893282
 20
406.9421067385
 30
0.0
 11
540.482530262
 21
406.9304513966
 31
0.0
  0
LINE
  5
269
330
1F
100
AcDbEntity
  8
0
  6
Continuous
 62
     7
370
    25
100
AcDbLine
 10
543.5659354191
 20
399.3126287604
 30
0.0
 11
542.8704045091
 21
399.9799405497
 31
0.0
  0
ARC
  5
26A
330
1F
100
AcDbEntity
  8
0
  6
Continuous
 62
     7
370
    25
100
AcDbCircle
 10
630.8050918867
 20
526.0759662048
 30
0.0
 40
3.284327248980867
100
AcDbArc
 50
62.8380845665
 51
112.421384598
  0
SPLINE
  5
26B
330
1F
100
AcDbEntity
  8
0
  6
Continuous
 62
     8
370
    25
100
AcDbSpline
210
0.0
220
0.0
230
1.0
 70
     8
 71
     3
 72
    11
 73
     7
 74
     0
 42
0.00000001
 43
0.00000001
 40
0.0
 40
0.0
 40
0.0
 40
0.0
 40
0.04834293369241
 40
0.305933372393174
 40
0.6173824958593319
 40
1.0
 40
1.0
 40
1.0
 40
1.0
 10
719.6784986832829
 20
303.4742491944418
 30
0.0
 10
719.6820040097034
 20
303.476098209487
 30
0.0
 10
719.704187113856
 20
303.4877995144172
 30
0.0
 10
719.6679741698208
 20
303.5694558214931
 30
0.0
 10
719.5617352509611
 20
303.7266849857994
 30
0.0
 10
719.4234352609527
 20
303.8789623474783
 30
0.0
 10
719.3471947461449
 20
303.9629081557698
 30
0.0
  0
SPLINE
  5
26C
330
1F
100
AcDbEntity
  8
0
  6
Continuous
 62
     8
370
    25
100
AcDbSpline
210
0.0
220
0.0
230
1.0
 70
     8
 71
     3
 72
     9
 73
     5
 74
     0
 42
0.00000001
 43
0.00000001
 40
0.0
 40
0.0
 40
0.0
 40
0.0
 40
0.3282896310838456
 40
0.9999999999999999
 40
0.9999999999999999
 40
0.9999999999999999
 40
0.9999999999999999
 10
713.7223027352829
 20
301.8191735441634
 30
0.0
 10
713.66915615846
 20
301.8388255908179
 30
0.0
 10
713.5072668637923
 20
301.8986875078377
 30
0.0
 10
713.3841322406257
 20
302.0242773599276
 30
0.0
 10
713.3014214374721
 20
302.1086373658069
 30
0.0
  0
SPLINE
  5
26D
330
1F
100
AcDbEntity
  8
0
  6
Continuous
 62
     8
370
    25
100
AcDbSpline
210
0.0
220
0.0
230
1.0
 70
     8
 71
     3
 72
    11
 73
     7
 74
     0
 42
0.00000001
 43
0.00000001
 40
0.0
 40
0.0
 40
0.0
 40
0.0
 40
0.0483357816794189
 40
0.3059281562562798
 40
0.6173796203640961
 40
1.0
 40
1.0
 40
1.0
 40
1.0
 10
763.0337133679723
 20
363.5585723977917
 30
0.0
 10
763.0372181066791
 20
363.5604211560601
 30
0.0
 10
763.0594003951096
 20
363.5721223676413
 30
0.0
 10
763.0231871206418
 20
363.653778233531
 30
0.0
 10
762.9169485437199
 20
363.8110071527494
 30
0.0
 10
762.7786484975691
 20
363.9632845546689
 30
0.0
 10
762.7024079518117
 20
364.047230385144
 30
0.0
  0
LWPOLYLINE
  5
26E
330
1F
100
AcDbEntity
  8
0
  6
Continuous
 62
     8
370
    25
100
AcDbPolyline
 90
        3
 70
   128
 43
0.0
 10
714.8424363625
 20
300.8514184209
 10
714.9897284982
 20
301.0823597816
 10
715.1070288999
 20
301.3218386708
  0
ARC
  5
26F
330
1F
100
AcDbEntity
  8
0
  6
Continuous
 62
     8
370
    25
100
AcDbCircle
 10
725.564988159
 20
310.3076764658
 30
0.0
 40
8.725184625365369
100
AcDbArc
 50
229.1310666481
 51
239.5674583072
  0
SPLINE
  5
270
330
1F
100
AcDbEntity
  8
0
  6
Continuous
 62
     8
370
    25
100
AcDbSpline
210
0.0
220
0.0
230
1.0
 70
     8
 71
     3
 72
     9
 73
     5
 74
     0
 42
0.00000001
 43
0.00000001
 40
0.0
 40
0.0
 40
0.0
 40
0.0
 40
0.3281042989978495
 40
1.0
 40
1.0
 40
1.0
 40
1.0
 10
627.4551449758914
 20
351.6201238532175
 30
0.0
 10
627.4020438390563
 20
351.6397607197831
 30
0.0
 10
627.2402015925593
 20
351.699610184193
 30
0.0
 10
627.117103327684
 20
351.825169453634
 30
0.0
 10
627.0343941327135
 20
351.9095321869922
 30
0.0
  0
ARC
  5
271
330
1F
100
AcDbEntity
  8
0
  6
Continuous
 62
     8
370
    25
100
AcDbCircle
 10
811.5803410118
 20
429.5130452173
 30
0.0
 40
8.7251846252265
100
AcDbArc
 50
229.131066648
 51
239.5674583073
  0
LWPOLYLINE
  5
272
330
1F
100
AcDbEntity
  8
0
  6
Continuous
 62
     8
370
    25
100
AcDbPolyline
 90
        3
 70
   128
 43
0.0
 10
542.109842351
 20
400.8223806252
 10
542.3940705993
 20
400.510802358
 10
543.0154885341
 20
400.0450040074
  0
ARC
  5
273
330
1F
100
AcDbEntity
  8
0
  6
Continuous
 62
     8
370
    25
100
AcDbCircle
 10
804.0366483068
 20
424.73581888
 30
0.0
 40
4.159354747110547
100
AcDbArc
 50
318.687627421
 51
37.6907736793
  0
LINE
  5
274
330
1F
100
AcDbEntity
  8
0
  6
Continuous
 62
     8
370
    25
100
AcDbLine
 10
543.0154885341
 20
400.0450040074
 30
0.0
 11
543.15981443
 21
400.2706703239
 31
0.0
  0
SPLINE
  5
275
330
1F
100
AcDbEntity
  8
0
  6
Continuous
 62
     8
370
    25
100
AcDbSpline
210
0.0
220
0.0
230
1.0
 70
     8
 71
     3
 72
    11
 73
     7
 74
     0
 42
0.00000001
 43
0.00000001
 40
0.0
 40
0.0
 40
0.0
 40
0.0
 40
0.0483357816794151
 40
0.3059281562562703
 40
0.6173796203640948
 40
1.0
 40
1.0
 40
1.0
 40
1.0
 10
806.3889265736392
 20
423.6428946271659
 30
0.0
 10
806.3924313123459
 20
423.6447433854343
 30
0.0
 10
806.4146136007764
 20
423.6564445970155
 30
0.0
 10
806.3784003263085
 20
423.7381004629052
 30
0.0
 10
806.2721617493867
 20
423.8953293821236
 30
0.0
 10
806.1338617032359
 20
424.0476067840431
 30
0.0
 10
806.0576211574784
 20
424.1315526145181
 30
0.0
  0
SPLINE
  5
276
330
1F
100
AcDbEntity
  8
0
  6
Continuous
 62
     8
370
    25
100
AcDbSpline
210
0.0
220
0.0
230
1.0
 70
     8
 71
     3
 72
     9
 73
     5
 74
     0
 42
0.00000001
 43
0.00000001
 40
0.0
 40
0.0
 40
0.0
 40
0.0
 40
0.3281042989978495
 40
1.0
 40
1.0
 40
1.0
 40
1.0
 10
541.1881176711329
 20
401.4210186744028
 30
0.0
 10
541.1350165342976
 20
401.4406555409684
 30
0.0
 10
540.9731742878008
 20
401.5005050053784
 30
0.0
 10
540.8500760229254
 20
401.6260642748193
 30
0.0
 10
540.7673668279547
 20
401.7104270081776
 30
0.0
  0
ARC
  5
277
330
1F
100
AcDbEntity
  8
0
  6
Continuous
 62
     8
370
    25
100
AcDbCircle
 10
540.5075622211
 20
406.153253311
 30
0.0
 40
0.7891087701634967
100
AcDbArc
 50
47.8264769392
 51
91.4576141538
  0
ARC
  5
278
330
1F
100
AcDbEntity
  8
0
  6
Continuous
 62
     8
370
    25
100
AcDbCircle
 10
627.524980782
 20
526.7473464522
 30
0.0
 40
0.789108620538771
100
AcDbArc
 50
47.8264734469
 51
91.4576185985
  0
MTEXT
  5
279
330
1F
100
AcDbEntity
  8
SLD-0
100
AcDbMText
 10
640.6960847967
 20
308.0956152845
 30
0.0
 40
4.7625
 41
0.0
 71
     2
 72
     1
  1
ISOMETRIC VIEW
  7
SLDTEXTSTYLE0
 73
     1
 44
1.0
  0
LINE
  5
27A
330
1F
100
AcDbEntity
  8
0
  6
Continuous
 62
     7
370
    25
100
AcDbLine
 10
656.0461636232
 20
148.1666639816
 30
0.0
 11
623.053641795
 21
140.1684768717
 31
0.0
  0
LINE
  5
27B
330
1F
100
AcDbEntity
  8
0
  6
Continuous
 62
     7
370
    25
100
AcDbLine
 10
773.5461636232
 20
140.1666639816
 30
0.0
 11
740.5461636232
 21
148.1666639816
 31
0.0
  0
SPLINE
  5
27C
330
1F
100
AcDbEntity
  8
0
  6
Continuous
 62
     7
370
    25
100
AcDbSpline
210
0.0
220
0.0
230
1.0
 70
     8
 71
     3
 72
     9
 73
     5
 74
     0
 42
0.00000001
 43
0.00000001
 40
0.0
 40
0.0
 40
0.0
 40
0.0
 40
0.507164621163521
 40
1.0
 40
1.0
 40
1.0
 40
1.0
 10
809.394655335383
 20
148.7808559389059
 30
0.0
 10
809.6032193692826
 20
148.7991581614957
 30
0.0
 10
810.0144547457195
 20
148.8352455024224
 30
0.0
 10
810.2920321890363
 20
148.8580981382055
 30
0.0
 10
810.4288321734697
 20
148.8693607256192
 30
0.0
  0
SPLINE
  5
27D
330
1F
100
AcDbEntity
  8
0
  6
Continuous
 62
     7
370
    25
100
AcDbSpline
210
0.0
220
0.0
230
1.0
 70
     8
 71
     3
 72
     9
 73
     5
 74
     0
 42
0.00000001
 43
0.00000001
 40
0.0
 40
0.0
 40
0.0
 40
0.0
 40
0.4930305933249325
 40
1.0
 40
1.0
 40
1.0
 40
1.0
 10
586.1634950729504
 20
148.869360725619
 30
0.0
 10
586.301266160287
 20
148.8580024250986
 30
0.0
 10
586.5807033579007
 20
148.8349647055855
 30
0.0
 10
586.9901134961567
 20
148.7990590220063
 30
0.0
 10
587.1976719110351
 20
148.7808559389059
 30
0.0
  0
LINE
  5
27E
330
1F
100
AcDbEntity
  8
0
  6
Continuous
 62
     7
370
    25
100
AcDbLine
 10
582.3996441871
 20
151.676217381
 30
0.0
 11
582.4270617684
 21
151.2479540502
 31
0.0
  0
LINE
  5
27F
330
1F
100
AcDbEntity
  8
0
  6
Continuous
 62
     7
370
    25
100
AcDbLine
 10
814.165265478
 20
151.2479540502
 30
0.0
 11
814.1926830594
 21
151.676217381
 31
0.0
  0
SPLINE
  5
280
330
1F
100
AcDbEntity
  8
0
  6
Continuous
 62
     7
370
    25
100
AcDbSpline
210
0.0
220
0.0
230
1.0
 70
     8
 71
     3
 72
    11
 73
     7
 74
     0
 42
0.00000001
 43
0.00000001
 40
0.0
 40
0.0
 40
0.0
 40
0.0
 40
0.2917539028545253
 40
0.5851657310743528
 40
0.834163692243612
 40
0.9999999999999999
 40
0.9999999999999999
 40
0.9999999999999999
 40
0.9999999999999999
 10
575.3666064153238
 20
151.3594019985914
 30
0.0
 10
576.3090101161754
 20
151.0294383038829
 30
0.0
 10
578.199172836127
 20
150.3676358575301
 30
0.0
 10
580.8874160985946
 20
149.8476726339649
 30
0.0
 10
583.1738095309222
 20
149.4322462585999
 30
0.0
 10
584.425775388342
 20
149.2011733557546
 30
0.0
 10
584.9262677796028
 20
149.1087984487112
 30
0.0
  0
SPLINE
  5
281
330
1F
100
AcDbEntity
  8
0
  6
Continuous
 62
     7
370
    25
100
AcDbSpline
210
0.0
220
0.0
230
1.0
 70
     8
 71
     3
 72
    11
 73
     7
 74
     0
 42
0.00000001
 43
0.00000001
 40
0.0
 40
0.0
 40
0.0
 40
0.0
 40
0.1530467014694024
 40
0.3946031371532804
 40
0.6912326256963072
 40
1.0
 40
1.0
 40
1.0
 40
1.0
 10
811.6658651076027
 20
149.1087238759702
 30
0.0
 10
812.1298182407604
 20
149.194194728439
 30
0.0
 10
813.3260371731416
 20
149.4145658059962
 30
0.0
 10
815.5445916637844
 20
149.8202885977688
 30
0.0
 10
818.2565607385866
 20
150.3294382690806
 30
0.0
 10
820.221862746729
 20
151.0118829183135
 30
0.0
 10
821.2242153818491
 20
151.3599465694206
 30
0.0
  0
SPLINE
  5
282
330
1F
100
AcDbEntity
  8
0
  6
Continuous
 62
     7
370
    25
100
AcDbSpline
210
0.0
220
0.0
230
1.0
 70
     8
 71
     3
 72
     9
 73
     5
 74
     0
 42
0.00000001
 43
0.00000001
 40
0.0
 40
0.0
 40
0.0
 40
0.0
 40
0.9353632633662048
 40
1.0
 40
1.0
 40
1.0
 40
1.0
 10
573.8281526776011
 20
151.9496435281463
 30
0.0
 10
574.3043900763932
 20
151.7522513334611
 30
0.0
 10
574.8135370756866
 20
151.5412186765073
 30
0.0
 10
575.3265105335571
 20
151.3610160050384
 30
0.0
 10
575.3596674638537
 20
151.3493682924219
 30
0.0
  0
SPLINE
  5
283
330
1F
100
AcDbEntity
  8
0
  6
Continuous
 62
     7
370
    25
100
AcDbSpline
210
0.0
220
0.0
230
1.0
 70
     8
 71
     3
 72
     9
 73
     5
 74
     0
 42
0.00000001
 43
0.00000001
 40
0.0
 40
0.0
 40
0.0
 40
0.0
 40
0.0695576656025049
 40
1.0
 40
1.0
 40
1.0
 40
1.0
 10
821.2312757092552
 20
151.3490263521684
 30
0.0
 10
821.2673378037966
 20
151.3616947408935
 30
0.0
 10
821.785786694068
 20
151.5438226000637
 30
0.0
 10
822.300267571516
 20
151.7571998904303
 30
0.0
 10
822.7789623601316
 20
151.9557351545864
 30
0.0
  0
LINE
  5
284
330
1F
100
AcDbEntity
  8
0
  6
Continuous
 62
     7
370
    25
100
AcDbLine
 10
571.6512417482
 20
157.9562928507
 30
0.0
 11
571.7961636232
 21
157.4047847341
 31
0.0
  0
LINE
  5
285
330
1F
100
AcDbEntity
  8
0
  6
Continuous
 62
     7
370
    25
100
AcDbLine
 10
824.7961636232
 20
157.2802666833
 30
0.0
 11
824.9266089988
 21
157.9555261982
 31
0.0
  0
LINE
  5
286
330
1F
100
AcDbEntity
  8
0
  6
Continuous
 62
     7
370
    25
100
AcDbLine
 10
635.0461636234
 20
137.6666639816
 30
0.0
 11
635.0461636234
 21
140.1666639816
 31
0.0
  0
LINE
  5
287
330
1F
100
AcDbEntity
  8
0
  6
Continuous
 62
     7
370
    25
100
AcDbLine
 10
635.0461636234
 20
137.6666639816
 30
0.0
 11
623.0461636232
 21
137.6666639816
 31
0.0
  0
LINE
  5
288
330
1F
100
AcDbEntity
  8
0
  6
Continuous
 62
     7
370
    25
100
AcDbLine
 10
623.0461636232
 20
137.6666639816
 30
0.0
 11
623.0461636232
 21
140.1666639816
 31
0.0
  0
SPLINE
  5
289
330
1F
100
AcDbEntity
  8
0
  6
Continuous
 62
     7
370
    25
100
AcDbSpline
210
0.0
220
0.0
230
1.0
 70
    24
 71
     3
 72
    15
 73
    11
 74
     0
 42
0.00000001
 43
0.00000001
 40
0.0
 40
0.0
 40
0.0
 40
0.0
 40
0.1250000000000016
 40
0.2500000000000018
 40
0.3750000000000011
 40
0.5000000000000012
 40
0.625000000000001
 40
0.7499999999999998
 40
0.875
 40
1.0
 40
1.0
 40
1.0
 40
1.0
 10
635.0461636233725
 20
140.1666639815999
 30
0.0
 10
634.2607696017883
 20
140.1666639815999
 30
0.0
 10
632.6899815586202
 20
140.1666639815999
 30
0.0
 10
630.4243886970818
 20
140.1666639815999
 30
0.0
 10
628.3362382627001
 20
140.1666639815999
 30
0.0
 10
626.5065832144702
 20
140.1666639815999
 30
0.0
 10
625.0027223735888
 20
140.1666639815999
 30
0.0
 10
623.8936969448499
 20
140.1666639815999
 30
0.0
 10
623.1801452455467
 20
140.1666639815999
 30
0.0
 10
623.0908241639883
 20
140.1666639815999
 30
0.0
 10
623.046163623209
 20
140.1666639815999
 30
0.0
  0
LINE
  5
28A
330
1F
100
AcDbEntity
  8
0
  6
Continuous
 62
     7
370
    25
100
AcDbLine
 10
761.5461636232
 20
137.6666639816
 30
0.0
 11
761.5461636232
 21
140.1666639816
 31
0.0
  0
LINE
  5
28B
330
1F
100
AcDbEntity
  8
0
  6
Continuous
 62
     7
370
    25
100
AcDbLine
 10
761.5461636232
 20
137.6666639816
 30
0.0
 11
635.0461636234
 21
137.6666639816
 31
0.0
  0
LINE
  5
28C
330
1F
100
AcDbEntity
  8
0
  6
Continuous
 62
     7
370
    25
100
AcDbLine
 10
761.5461636232
 20
140.1666639816
 30
0.0
 11
635.0461636234
 21
140.1666639816
 31
0.0
  0
LINE
  5
28D
330
1F
100
AcDbEntity
  8
0
  6
Continuous
 62
     7
370
    25
100
AcDbLine
 10
773.5461636232
 20
137.6666639816
 30
0.0
 11
773.5461636232
 21
140.1666639816
 31
0.0
  0
LINE
  5
28E
330
1F
100
AcDbEntity
  8
0
  6
Continuous
 62
     7
370
    25
100
AcDbLine
 10
773.5461636232
 20
137.6666639816
 30
0.0
 11
761.5461636232
 21
137.6666639816
 31
0.0
  0
SPLINE
  5
28F
330
1F
100
AcDbEntity
  8
0
  6
Continuous
 62
     7
370
    25
100
AcDbSpline
210
0.0
220
0.0
230
1.0
 70
    24
 71
     3
 72
    15
 73
    11
 74
     0
 42
0.00000001
 43
0.00000001
 40
0.0
 40
0.0
 40
0.0
 40
0.0
 40
0.1249999999999969
 40
0.2499999999999972
 40
0.3749999999999978
 40
0.4999999999999983
 40
0.6249999999999992
 40
0.7499999999999992
 40
0.8749999999999994
 40
1.0
 40
1.0
 40
1.0
 40
1.0
 10
773.546163623209
 20
140.1666639815999
 30
0.0
 10
773.5015030824309
 20
140.1666639815999
 30
0.0
 10
773.4121820008742
 20
140.1666639815999
 30
0.0
 10
772.6986303015833
 20
140.1666639815999
 30
0.0
 10
771.5896048728632
 20
140.1666639815999
 30
0.0
 10
770.0857440320059
 20
140.1666639815999
 30
0.0
 10
768.2560889838034
 20
140.1666639815999
 30
0.0
 10
766.1679385494502
 20
140.1666639815999
 30
0.0
 10
763.9023456879395
 20
140.1666639816
 30
0.0
 10
762.3315576447859
 20
140.1666639815999
 30
0.0
 10
761.546163623209
 20
140.1666639815998
 30
0.0
  0
LINE
  5
290
330
1F
100
AcDbEntity
  8
0
  6
Continuous
 62
     7
370
    25
100
AcDbLine
 10
731.5461636232
 20
148.1666639816
 30
0.0
 11
665.0461636232
 21
148.1666639816
 31
0.0
  0
SPLINE
  5
291
330
1F
100
AcDbEntity
  8
0
  6
Continuous
 62
     7
370
    25
100
AcDbSpline
210
0.0
220
0.0
230
1.0
 70
    24
 71
     3
 72
    14
 73
    10
 74
     0
 42
0.00000001
 43
0.00000001
 40
0.0
 40
0.0
 40
0.0
 40
0.0
 40
0.1326627182034154
 40
0.2743449827632135
 40
0.4220599231896425
 40
0.5711838746874514
 40
0.7233859469229955
 40
0.8670906159940729
 40
1.0
 40
1.0
 40
1.0
 40
1.0
 10
740.5461636232092
 20
148.1666639816
 30
0.0
 10
740.508272470766
 20
148.1666639815999
 30
0.0
 10
740.4299140012226
 20
148.1666639815999
 30
0.0
 10
739.7770320384143
 20
148.1666639815999
 30
0.0
 10
738.70184221824
 20
148.1666639815999
 30
0.0
 10
737.2012375997605
 20
148.1666639815999
 30
0.0
 10
735.4048695901909
 20
148.1666639815999
 30
0.0
 10
733.475257009251
 20
148.1666639816
 30
0.0
 10
732.1722440630859
 20
148.1666639816
 30
0.0
 10
731.5461636232092
 20
148.1666639816
 30
0.0
  0
SPLINE
  5
292
330
1F
100
AcDbEntity
  8
0
  6
Continuous
 62
     7
370
    25
100
AcDbSpline
210
0.0
220
0.0
230
1.0
 70
    24
 71
     3
 72
    14
 73
    10
 74
     0
 42
0.00000001
 43
0.00000001
 40
0.0
 40
0.0
 40
0.0
 40
0.0
 40
0.1266453710958634
 40
0.2631942331383681
 40
0.40778266726838
 40
0.5566857848067088
 40
0.7118345976452335
 40
0.8608013323893402
 40
1.0
 40
1.0
 40
1.0
 40
1.0
 10
665.0461636232092
 20
148.1666639816
 30
0.0
 10
664.4496912189445
 20
148.1666639816
 30
0.0
 10
663.2101031023777
 20
148.1666639816001
 30
0.0
 10
661.367409636355
 20
148.1666639815999
 30
0.0
 10
659.6047710414559
 20
148.1666639816
 30
0.0
 10
658.0558128173401
 20
148.1666639815999
 30
0.0
 10
656.8939539148623
 20
148.1666639816
 30
0.0
 10
656.1743591588785
 20
148.1666639816
 30
0.0
 10
656.0879187659854
 20
148.1666639816
 30
0.0
 10
656.0461636232092
 20
148.1666639816
 30
0.0
  0
LWPOLYLINE
  5
293
330
1F
100
AcDbEntity
  8
0
  6
Continuous
 62
     7
370
    25
100
AcDbPolyline
 90
        2
 70
   128
 43
0.0
 10
773.5461636232
 20
140.1666639816
 10
773.5461636232
 20
140.1666639816
  0
LWPOLYLINE
  5
294
330
1F
100
AcDbEntity
  8
0
  6
Continuous
 62
     7
370
    25
100
AcDbPolyline
 90
        2
 70
   128
 43
0.0
 10
623.0461636232
 20
140.1666639816
 10
623.0461636232
 20
140.1666639816
  0
LWPOLYLINE
  5
295
330
1F
100
AcDbEntity
  8
0
  6
Continuous
 62
     7
370
    25
100
AcDbPolyline
 90
       10
 70
   128
 43
0.0
 10
665.5461636232
 20
158.9241690865
 10
664.2171316951
 20
158.857476356
 10
662.9284817297
 20
158.6594245896
 10
661.719368704
 20
158.3360314899
 10
660.6265309054
 20
157.8971231925
 10
659.6831736575
 20
157.3560357041
 10
658.9179603929
 20
156.7292096941
 10
658.3541417295
 20
156.0356909536
 10
658.0088490119
 20
155.2965516987
 10
657.8925737847
 20
154.5342503016
  0
LINE
  5
296
330
1F
100
AcDbEntity
  8
0
  6
Continuous
 62
     7
370
    25
100
AcDbLine
 10
657.8925737847
 20
154.5342503016
 30
0.0
 11
657.5461636232
 21
154.6980807105
 31
0.0
  0
LWPOLYLINE
  5
297
330
1F
100
AcDbEntity
  8
0
  6
Continuous
 62
     7
370
    25
100
AcDbPolyline
 90
       10
 70
   128
 43
0.0
 10
657.5461636232
 20
154.6980807105
 10
657.6677015991
 20
155.4948847339
 10
658.0286226569
 20
156.2674782702
 10
658.6179603929
 20
156.9923864559
 10
659.4178080783
 20
157.6475833224
 10
660.4038627457
 20
158.2131610447
 10
661.5461636232
 20
158.6719348296
 10
662.8100024766
 20
159.0099650681
 10
664.1569782019
 20
159.2169808822
 10
665.5461636232
 20
159.2866922013
  0
LINE
  5
298
330
1F
100
AcDbEntity
  8
0
  6
Continuous
 62
     7
370
    25
100
AcDbLine
 10
665.5461636232
 20
158.9241690865
 30
0.0
 11
665.5461636232
 21
159.2866922013
 31
0.0
  0
LINE
  5
299
330
1F
100
AcDbEntity
  8
0
  6
Continuous
 62
     7
370
    25
100
AcDbLine
 10
665.5461636232
 20
159.2866922013
 30
0.0
 11
731.0461636232
 21
159.2866922013
 31
0.0
  0
LINE
  5
29A
330
1F
100
AcDbEntity
  8
0
  6
Continuous
 62
     7
370
    25
100
AcDbLine
 10
731.0461636232
 20
159.2866922013
 30
0.0
 11
731.0461636232
 21
158.9241690865
 31
0.0
  0
LINE
  5
29B
330
1F
100
AcDbEntity
  8
0
  6
Continuous
 62
     7
370
    25
100
AcDbLine
 10
731.0461636232
 20
158.9241690865
 30
0.0
 11
665.5461636232
 21
158.9241690865
 31
0.0
  0
LWPOLYLINE
  5
29C
330
1F
100
AcDbEntity
  8
0
  6
Continuous
 62
     7
370
    25
100
AcDbPolyline
 90
       10
 70
   128
 43
0.0
 10
731.0461636232
 20
159.2866922013
 10
732.4353490445
 20
159.2169808822
 10
733.7823247698
 20
159.0099650681
 10
735.0461636232
 20
158.6719348296
 10
736.1884645007
 20
158.2131610447
 10
737.1745191682
 20
157.6475833224
 10
737.9743668535
 20
156.9923864559
 10
738.5637045895
 20
156.2674782702
 10
738.9246256473
 20
155.4948847339
 10
739.0461636232
 20
154.6980807105
  0
LINE
  5
29D
330
1F
100
AcDbEntity
  8
0
  6
Continuous
 62
     7
370
    25
100
AcDbLine
 10
739.0461636232
 20
154.6980807105
 30
0.0
 11
738.6997534617
 21
154.5342503016
 31
0.0
  0
LWPOLYLINE
  5
29E
330
1F
100
AcDbEntity
  8
0
  6
Continuous
 62
     7
370
    25
100
AcDbPolyline
 90
       10
 70
   128
 43
0.0
 10
738.6997534617
 20
154.5342503016
 10
738.5834782345
 20
155.2965516987
 10
738.238185517
 20
156.0356909536
 10
737.6743668535
 20
156.7292096941
 10
736.9091535889
 20
157.3560357041
 10
735.965796341
 20
157.8971231925
 10
734.8729585425
 20
158.3360314899
 10
733.6638455167
 20
158.6594245896
 10
732.3751955513
 20
158.857476356
 10
731.0461636232
 20
158.9241690865
  0
LWPOLYLINE
  5
29F
330
1F
100
AcDbEntity
  8
0
  6
Continuous
 62
     7
370
    25
100
AcDbPolyline
 90
       10
 70
   128
 43
0.0
 10
665.5461636232
 20
203.357072184
 10
664.1569782019
 20
203.2873608649
 10
662.8100024766
 20
203.0803450508
 10
661.5461636232
 20
202.7423148124
 10
660.4038627457
 20
202.2835410274
 10
659.4178080783
 20
201.7179633052
 10
658.6179603929
 20
201.0627664386
 10
658.0286226569
 20
200.337858253
 10
657.6677015991
 20
199.5652647166
 10
657.5461636232
 20
198.7684606932
  0
LINE
  5
2A0
330
1F
100
AcDbEntity
  8
0
  6
Continuous
 62
     7
370
    25
100
AcDbLine
 10
665.5461636232
 20
159.2866922013
 30
0.0
 11
665.5461636232
 21
203.357072184
 31
0.0
  0
LINE
  5
2A1
330
1F
100
AcDbEntity
  8
0
  6
Continuous
 62
     7
370
    25
100
AcDbLine
 10
657.5461636232
 20
154.6980807105
 30
0.0
 11
657.5461636232
 21
198.7684606932
 31
0.0
  0
LINE
  5
2A2
330
1F
100
AcDbEntity
  8
0
  6
Continuous
 62
     7
370
    25
100
AcDbLine
 10
731.0461636232
 20
203.357072184
 30
0.0
 11
665.5461636232
 21
203.357072184
 31
0.0
  0
LINE
  5
2A3
330
1F
100
AcDbEntity
  8
0
  6
Continuous
 62
     7
370
    25
100
AcDbLine
 10
731.0461636232
 20
159.2866922013
 30
0.0
 11
731.0461636232
 21
203.357072184
 31
0.0
  0
LWPOLYLINE
  5
2A4
330
1F
100
AcDbEntity
  8
0
  6
Continuous
 62
     7
370
    25
100
AcDbPolyline
 90
       10
 70
   128
 43
0.0
 10
739.0461636232
 20
198.7684606932
 10
738.9246256473
 20
199.5652647166
 10
738.5637045895
 20
200.337858253
 10
737.9743668535
 20
201.0627664386
 10
737.1745191682
 20
201.7179633052
 10
736.1884645007
 20
202.2835410274
 10
735.0461636232
 20
202.7423148124
 10
733.7823247698
 20
203.0803450508
 10
732.4353490445
 20
203.2873608649
 10
731.0461636232
 20
203.357072184
  0
LINE
  5
2A5
330
1F
100
AcDbEntity
  8
0
  6
Continuous
 62
     7
370
    25
100
AcDbLine
 10
739.0461636232
 20
154.6980807105
 30
0.0
 11
739.0461636232
 21
198.7684606932
 31
0.0
  0
LWPOLYLINE
  5
2A6
330
1F
100
AcDbEntity
  8
0
  6
Continuous
 62
     7
370
    25
100
AcDbPolyline
 90
        9
 70
   128
 43
0.0
 10
702.5461636232
 20
154.1901044398
 10
702.5173415438
 20
154.3579532573
 10
702.431982922
 20
154.5193517389
 10
702.2933680417
 20
154.6680974314
 10
702.106823795
 20
154.7984741213
 10
701.8795189727
 20
154.9054715056
 10
701.6201887718
 20
154.9849777346
 10
701.3387991062
 20
155.0339374288
 10
701.0461636232
 20
155.0504690943
  0
LINE
  5
2A7
330
1F
100
AcDbEntity
  8
0
  6
Continuous
 62
     7
370
    25
100
AcDbLine
 10
701.0461636232
 20
155.0504690943
 30
0.0
 11
695.5461636232
 21
155.0504690943
 31
0.0
  0
LWPOLYLINE
  5
2A8
330
1F
100
AcDbEntity
  8
0
  6
Continuous
 62
     7
370
    25
100
AcDbPolyline
 90
        9
 70
   128
 43
0.0
 10
695.5461636232
 20
155.0504690943
 10
695.2535281402
 20
155.0339374288
 10
694.9721384747
 20
154.9849777346
 10
694.7128082737
 20
154.9054715056
 10
694.4855034514
 20
154.7984741213
 10
694.2989592048
 20
154.6680974314
 10
694.1603443244
 20
154.5193517389
 10
694.0749857026
 20
154.3579532573
 10
694.0461636232
 20
154.1901044398
  0
LINE
  5
2A9
330
1F
100
AcDbEntity
  8
0
  6
Continuous
 62
     7
370
    25
100
AcDbLine
 10
694.0461636232
 20
154.1901044398
 30
0.0
 11
694.0461636232
 21
149.794295583
 31
0.0
  0
LINE
  5
2AA
330
1F
100
AcDbEntity
  8
0
  6
Continuous
 62
     7
370
    25
100
AcDbLine
 10
657.8925737847
 20
149.794295583
 30
0.0
 11
694.0461636232
 21
149.794295583
 31
0.0
  0
LINE
  5
2AB
330
1F
100
AcDbEntity
  8
0
  6
Continuous
 62
     7
370
    25
100
AcDbLine
 10
657.8925737847
 20
154.5342503016
 30
0.0
 11
657.8925737847
 21
149.794295583
 31
0.0
  0
LINE
  5
2AC
330
1F
100
AcDbEntity
  8
0
  6
Continuous
 62
     7
370
    25
100
AcDbLine
 10
738.6997534617
 20
149.794295583
 30
0.0
 11
738.6997534617
 21
154.5342503016
 31
0.0
  0
LINE
  5
2AD
330
1F
100
AcDbEntity
  8
0
  6
Continuous
 62
     7
370
    25
100
AcDbLine
 10
702.5461636232
 20
149.794295583
 30
0.0
 11
738.6997534617
 21
149.794295583
 31
0.0
  0
LINE
  5
2AE
330
1F
100
AcDbEntity
  8
0
  6
Continuous
 62
     7
370
    25
100
AcDbLine
 10
702.5461636232
 20
149.794295583
 30
0.0
 11
702.5461636232
 21
154.1901044398
 31
0.0
  0
LINE
  5
2AF
330
1F
100
AcDbEntity
  8
0
  6
Continuous
 62
     7
370
    25
100
AcDbLine
 10
646.7961636232
 20
135.9666639816
 30
0.0
 11
646.7961636232
 21
137.6666639816
 31
0.0
  0
LINE
  5
2B0
330
1F
100
AcDbEntity
  8
0
  6
Continuous
 62
     7
370
    25
100
AcDbLine
 10
646.7961636232
 20
135.9666639816
 30
0.0
 11
636.6461636232
 21
135.9666639816
 31
0.0
  0
LINE
  5
2B1
330
1F
100
AcDbEntity
  8
0
  6
Continuous
 62
     7
370
    25
100
AcDbLine
 10
636.6461636232
 20
135.9666639816
 30
0.0
 11
636.6461636232
 21
137.6666639816
 31
0.0
  0
LINE
  5
2B2
330
1F
100
AcDbEntity
  8
0
  6
Continuous
 62
     7
370
    25
100
AcDbLine
 10
749.7961636232
 20
135.9666639816
 30
0.0
 11
646.7961636232
 21
135.9666639816
 31
0.0
  0
LINE
  5
2B3
330
1F
100
AcDbEntity
  8
0
  6
Continuous
 62
     7
370
    25
100
AcDbLine
 10
749.7961636232
 20
135.9666639816
 30
0.0
 11
749.7961636232
 21
137.6666639816
 31
0.0
  0
LINE
  5
2B4
330
1F
100
AcDbEntity
  8
0
  6
Continuous
 62
     7
370
    25
100
AcDbLine
 10
759.9461636232
 20
135.9666639816
 30
0.0
 11
759.9461636232
 21
137.6666639816
 31
0.0
  0
LINE
  5
2B5
330
1F
100
AcDbEntity
  8
0
  6
Continuous
 62
     7
370
    25
100
AcDbLine
 10
759.9461636232
 20
135.9666639816
 30
0.0
 11
749.7961636232
 21
135.9666639816
 31
0.0
  0
LINE
  5
2B6
330
1F
100
AcDbEntity
  8
0
  6
Continuous
 62
     7
370
    25
100
AcDbLine
 10
694.0461636232
 20
150.6134476273
 30
0.0
 11
702.5461636232
 21
150.6134476273
 31
0.0
  0
LINE
  5
2B7
330
1F
100
AcDbEntity
  8
0
  6
Continuous
 62
     7
370
    25
100
AcDbLine
 10
657.8925737847
 20
149.794295583
 30
0.0
 11
657.5461636232
 21
149.9581259919
 31
0.0
  0
LINE
  5
2B8
330
1F
100
AcDbEntity
  8
0
  6
Continuous
 62
     7
370
    25
100
AcDbLine
 10
657.5461636232
 20
149.9581259919
 30
0.0
 11
657.5461636232
 21
154.6980807105
 31
0.0
  0
LINE
  5
2B9
330
1F
100
AcDbEntity
  8
0
  6
Continuous
 62
     7
370
    25
100
AcDbLine
 10
739.0461636232
 20
154.6980807105
 30
0.0
 11
739.0461636232
 21
149.9581259919
 31
0.0
  0
LINE
  5
2BA
330
1F
100
AcDbEntity
  8
0
  6
Continuous
 62
     7
370
    25
100
AcDbLine
 10
739.0461636232
 20
149.9581259919
 30
0.0
 11
738.6997534617
 21
149.794295583
 31
0.0
  0
LINE
  5
2BB
330
1F
100
AcDbEntity
  8
0
  6
Continuous
 62
     7
370
    25
100
AcDbLine
 10
694.0461636232
 20
149.794295583
 30
0.0
 11
702.5461636232
 21
149.794295583
 31
0.0
  0
LINE
  5
2BC
330
1F
100
AcDbEntity
  8
0
  6
Continuous
 62
     7
370
    25
100
AcDbLine
 10
738.6997534617
 20
148.1666639816
 30
0.0
 11
738.6997534617
 21
149.794295583
 31
0.0
  0
LINE
  5
2BD
330
1F
100
AcDbEntity
  8
0
  6
Continuous
 62
     7
370
    25
100
AcDbLine
 10
657.8925737847
 20
149.794295583
 30
0.0
 11
657.8925737847
 21
148.1666639816
 31
0.0
  0
LINE
  5
2BE
330
1F
100
AcDbEntity
  8
0
  6
Continuous
 62
     7
370
    25
100
AcDbLine
 10
657.8925737847
 20
148.1666639816
 30
0.0
 11
657.5461636232
 21
148.3666639816
 31
0.0
  0
LINE
  5
2BF
330
1F
100
AcDbEntity
  8
0
  6
Continuous
 62
     7
370
    25
100
AcDbLine
 10
657.5461636232
 20
148.3666639816
 30
0.0
 11
657.5461636232
 21
149.9581259919
 31
0.0
  0
LINE
  5
2C0
330
1F
100
AcDbEntity
  8
0
  6
Continuous
 62
     7
370
    25
100
AcDbLine
 10
739.0461636232
 20
148.3666639816
 30
0.0
 11
738.6997534617
 21
148.1666639816
 31
0.0
  0
LINE
  5
2C1
330
1F
100
AcDbEntity
  8
0
  6
Continuous
 62
     7
370
    25
100
AcDbLine
 10
739.0461636232
 20
149.9581259919
 30
0.0
 11
739.0461636232
 21
148.3666639816
 31
0.0
  0
LWPOLYLINE
  5
2C2
330
1F
100
AcDbEntity
  8
0
  6
Continuous
 62
     7
370
    25
100
AcDbPolyline
 90
       11
 70
   128
 43
0.0
 10
665.5461636232
 20
206.1425291453
 10
663.9818189728
 20
206.0719123681
 10
662.4559936795
 20
205.8618008557
 10
661.0062586258
 20
205.5173682509
 10
659.6683111003
 20
205.0470956276
 10
658.4750958113
 20
204.4625626585
 10
657.4559936795
 20
203.7781624853
 10
656.6360983813
 20
203.0107473116
 10
656.0355984603
 20
202.1792134459
 10
655.6692802173
 20
201.3040360116
 10
655.5461636232
 20
200.4067647818
  0
LINE
  5
2C3
330
1F
100
AcDbEntity
  8
0
  6
Continuous
 62
     7
370
    25
100
AcDbLine
 10
665.5461636232
 20
206.1425291453
 30
0.0
 11
665.5461636232
 21
203.357072184
 31
0.0
  0
ARC
  5
2C4
330
1F
100
AcDbEntity
  8
0
  6
Continuous
 62
     7
370
    25
100
AcDbCircle
 10
655.7106585874
 20
198.567649421
 30
0.0
 40
1.846457122063617
100
AcDbArc
 50
6.2435463851
 51
95.1110737956
  0
LINE
  5
2C5
330
1F
100
AcDbEntity
  8
0
  6
Continuous
 62
     7
370
    25
100
AcDbLine
 10
731.0461636232
 20
206.1425291453
 30
0.0
 11
665.5461636232
 21
206.1425291453
 31
0.0
  0
LINE
  5
2C6
330
1F
100
AcDbEntity
  8
0
  6
Continuous
 62
     7
370
    25
100
AcDbLine
 10
731.0461636232
 20
206.1425291453
 30
0.0
 11
731.0461636232
 21
203.357072184
 31
0.0
  0
LWPOLYLINE
  5
2C7
330
1F
100
AcDbEntity
  8
0
  6
Continuous
 62
     7
370
    25
100
AcDbPolyline
 90
       11
 70
   128
 43
0.0
 10
741.0461636232
 20
200.4067647818
 10
740.9230470292
 20
201.3040360116
 10
740.5567287862
 20
202.1792134459
 10
739.9562288651
 20
203.0107473116
 10
739.136333567
 20
203.7781624853
 10
738.1172314351
 20
204.4625626585
 10
736.9240161461
 20
205.0470956276
 10
735.5860686206
 20
205.5173682509
 10
734.136333567
 20
205.8618008557
 10
732.6105082736
 20
206.0719123681
 10
731.0461636232
 20
206.1425291453
  0
ARC
  5
2C8
330
1F
100
AcDbEntity
  8
0
  6
Continuous
 62
     7
370
    25
100
AcDbCircle
 10
740.881668659
 20
198.567649421
 30
0.0
 40
1.846457122063539
100
AcDbArc
 50
84.8889262044
 51
173.7564536149
  0
LINE
  5
2C9
330
1F
100
AcDbEntity
  8
0
  6
Continuous
 62
     7
370
    25
100
AcDbLine
 10
665.5461636232
 20
206.1425291453
 30
0.0
 11
665.5461636232
 21
207.7808332339
 31
0.0
  0
LINE
  5
2CA
330
1F
100
AcDbEntity
  8
0
  6
Continuous
 62
     7
370
    25
100
AcDbLine
 10
655.5461636232
 20
200.4067647818
 30
0.0
 11
655.5461636232
 21
202.0450688704
 31
0.0
  0
LWPOLYLINE
  5
2CB
330
1F
100
AcDbEntity
  8
0
  6
Continuous
 62
     7
370
    25
100
AcDbPolyline
 90
       11
 70
   128
 43
0.0
 10
665.5461636232
 20
207.7808332339
 10
663.9818189728
 20
207.7102164566
 10
662.4559936795
 20
207.5001049442
 10
661.0062586258
 20
207.1556723395
 10
659.6683111003
 20
206.6853997162
 10
658.4750958113
 20
206.1008667471
 10
657.4559936795
 20
205.4164665739
 10
656.6360983813
 20
204.6490514002
 10
656.0355984603
 20
203.8175175344
 10
655.6692802173
 20
202.9423401002
 10
655.5461636232
 20
202.0450688704
  0
LINE
  5
2CC
330
1F
100
AcDbEntity
  8
0
  6
Continuous
 62
     7
370
    25
100
AcDbLine
 10
731.0461636232
 20
206.1425291453
 30
0.0
 11
731.0461636232
 21
207.7808332339
 31
0.0
  0
LINE
  5
2CD
330
1F
100
AcDbEntity
  8
0
  6
Continuous
 62
     7
370
    25
100
AcDbLine
 10
731.0461636232
 20
207.7808332339
 30
0.0
 11
665.5461636232
 21
207.7808332339
 31
0.0
  0
LINE
  5
2CE
330
1F
100
AcDbEntity
  8
0
  6
Continuous
 62
     7
370
    25
100
AcDbLine
 10
741.0461636232
 20
200.4067647818
 30
0.0
 11
741.0461636232
 21
202.0450688704
 31
0.0
  0
LWPOLYLINE
  5
2CF
330
1F
100
AcDbEntity
  8
0
  6
Continuous
 62
     7
370
    25
100
AcDbPolyline
 90
       11
 70
   128
 43
0.0
 10
741.0461636232
 20
202.0450688704
 10
740.9230470292
 20
202.9423401002
 10
740.5567287862
 20
203.8175175344
 10
739.9562288651
 20
204.6490514002
 10
739.136333567
 20
205.4164665739
 10
738.1172314351
 20
206.1008667471
 10
736.9240161461
 20
206.6853997162
 10
735.5860686206
 20
207.1556723395
 10
734.136333567
 20
207.5001049442
 10
732.6105082736
 20
207.7102164566
 10
731.0461636232
 20
207.7808332339
  0
LINE
  5
2D0
330
1F
100
AcDbEntity
  8
0
  6
Continuous
 62
     7
370
    25
100
AcDbLine
 10
655.5461636232
 20
200.4067647818
 30
0.0
 11
655.5461636232
 21
174.595825146
 31
0.0
  0
ARC
  5
2D1
330
1F
100
AcDbEntity
  8
0
  6
Continuous
 62
     7
370
    25
100
AcDbCircle
 10
655.7106585874
 20
172.7567097852
 30
0.0
 40
1.84645712206373
100
AcDbArc
 50
6.2435463851
 51
95.1110737956
  0
LINE
  5
2D2
330
1F
100
AcDbEntity
  8
0
  6
Continuous
 62
     7
370
    25
100
AcDbLine
 10
741.0461636232
 20
174.595825146
 30
0.0
 11
741.0461636232
 21
200.4067647818
 31
0.0
  0
ARC
  5
2D3
330
1F
100
AcDbEntity
  8
0
  6
Continuous
 62
     7
370
    25
100
AcDbCircle
 10
740.881668659
 20
172.7567097852
 30
0.0
 40
1.846457122063905
100
AcDbArc
 50
84.8889262044
 51
173.7564536149
  0
ARC
  5
2D4
330
1F
100
AcDbEntity
  8
0
  6
Continuous
 62
     7
370
    25
100
AcDbCircle
 10
660.2234012717
 20
175.0121185686
 30
0.0
 40
4.695727018707828
100
AcDbArc
 50
185.0861583132
 51
235.239775697
  0
ARC
  5
2D5
330
1F
100
AcDbEntity
  8
0
  6
Continuous
 62
     7
370
    25
100
AcDbCircle
 10
736.4780065401
 20
174.9487265146
 30
0.0
 40
4.581768055237893
100
AcDbArc
 50
304.0915320714
 51
355.5825339185
  0
LINE
  5
2D6
330
1F
100
AcDbEntity
  8
0
  6
Continuous
 62
     7
370
    25
100
AcDbLine
 10
809.7961636232
 20
232.822832195
 30
0.0
 11
586.7961636232
 21
232.822832195
 31
0.0
  0
SPLINE
  5
2D7
330
1F
100
AcDbEntity
  8
0
  6
Continuous
 62
     7
370
    25
100
AcDbSpline
210
0.0
220
0.0
230
1.0
 70
    24
 71
     3
 72
     9
 73
     5
 74
     0
 42
0.00000001
 43
0.00000001
 40
0.0
 40
0.0
 40
0.0
 40
0.0
 40
0.5599361940212528
 40
1.0
 40
1.0
 40
1.0
 40
1.0
 10
586.7961636232093
 20
232.8228321949601
 30
0.0
 10
586.7961636232093
 20
234.0702471634904
 30
0.0
 10
586.7961636232092
 20
236.2980277246502
 30
0.0
 10
586.7961636232093
 20
238.5737153001333
 30
0.0
 10
586.7961636232092
 20
239.5751630358189
 30
0.0
  0
SPLINE
  5
2D8
330
1F
100
AcDbEntity
  8
0
  6
Continuous
 62
     7
370
    25
100
AcDbSpline
210
0.0
220
0.0
230
1.0
 70
    24
 71
     3
 72
     9
 73
     5
 74
     0
 42
0.00000001
 43
0.00000001
 40
0.0
 40
0.0
 40
0.0
 40
0.0
 40
0.5599897548133917
 40
0.9999999999999999
 40
0.9999999999999999
 40
0.9999999999999999
 40
0.9999999999999999
 10
586.7961636232092
 20
239.5751630358189
 30
0.0
 10
586.7961636232093
 20
240.0845832236119
 30
0.0
 10
586.7961636232093
 20
240.9942787732433
 30
0.0
 10
586.7961636232093
 20
241.9020359306227
 30
0.0
 10
586.7961636232093
 20
242.3014583800111
 30
0.0
  0
LINE
  5
2D9
330
1F
100
AcDbEntity
  8
0
  6
Continuous
 62
     7
370
    25
100
AcDbLine
 10
586.7961636232
 20
242.30145838
 30
0.0
 11
809.7961636232
 21
242.30145838
 31
0.0
  0
LINE
  5
2DA
330
1F
100
AcDbEntity
  8
0
  6
Continuous
 62
     7
370
    25
100
AcDbLine
 10
809.7961636232
 20
239.5751630584
 30
0.0
 11
809.7961636232
 21
242.30145838
 31
0.0
  0
SPLINE
  5
2DB
330
1F
100
AcDbEntity
  8
0
  6
Continuous
 62
     7
370
    25
100
AcDbSpline
210
0.0
220
0.0
230
1.0
 70
    24
 71
     3
 72
     9
 73
     5
 74
     0
 42
0.00000001
 43
0.00000001
 40
0.0
 40
0.0
 40
0.0
 40
0.0
 40
0.5000000000000085
 40
0.9999999999999999
 40
0.9999999999999999
 40
0.9999999999999999
 40
0.9999999999999999
 10
809.7961636232093
 20
232.8228321949601
 30
0.0
 10
809.7961636232093
 20
233.9355872571154
 30
0.0
 10
809.7961636232093
 20
236.1610973814261
 30
0.0
 10
809.7961636232092
 20
238.4371411661087
 30
0.0
 10
809.7961636232093
 20
239.57516305845
 30
0.0
  0
SPLINE
  5
2DC
330
1F
100
AcDbEntity
  8
0
  6
Continuous
 62
     7
370
    25
100
AcDbSpline
210
0.0
220
0.0
230
1.0
 70
     8
 71
     3
 72
    12
 73
     8
 74
     0
 42
0.00000001
 43
0.00000001
 40
0.0
 40
0.0
 40
0.0
 40
0.0
 40
0.2085783924016616
 40
0.4171718222506467
 40
0.6253296784638479
 40
0.8338591013896406
 40
0.9999999999999999
 40
0.9999999999999999
 40
0.9999999999999999
 40
0.9999999999999999
 10
819.7961636232093
 20
240.1233537673094
 30
0.0
 10
820.1710856079295
 20
240.1767190299006
 30
0.0
 10
820.9209566073491
 20
240.2834534024487
 30
0.0
 10
821.9557602464355
 20
240.0499856203439
 30
0.0
 10
822.7528558969076
 20
239.5925931137304
 30
0.0
 10
823.2207079749743
 20
238.9880996023441
 30
0.0
 10
823.2729831329827
 20
238.5245088050378
 30
0.0
 10
823.2961636232093
 20
238.3189377009904
 30
0.0
  0
SPLINE
  5
2DD
330
1F
100
AcDbEntity
  8
0
  6
Continuous
 62
     7
370
    25
100
AcDbSpline
210
0.0
220
0.0
230
1.0
 70
    24
 71
     3
 72
    10
 73
     6
 74
     0
 42
0.00000001
 43
0.00000001
 40
0.0
 40
0.0
 40
0.0
 40
0.0
 40
0.2494464241635795
 40
0.4993882841688481
 40
1.0
 40
1.0
 40
1.0
 40
1.0
 10
823.2961636232093
 20
238.3189377009904
 30
0.0
 10
823.2961636232093
 20
237.9889508641818
 30
0.0
 10
823.2961636232093
 20
237.3283217900842
 30
0.0
 10
823.2961636232093
 20
236.1279629372322
 30
0.0
 10
823.2961636232093
 20
235.2076333000682
 30
0.0
 10
823.2961636232094
 20
234.5937826521947
 30
0.0
  0
SPLINE
  5
2DE
330
1F
100
AcDbEntity
  8
0
  6
Continuous
 62
     7
370
    25
100
AcDbSpline
210
0.0
220
0.0
230
1.0
 70
     8
 71
     3
 72
    10
 73
     6
 74
     0
 42
0.00000001
 43
0.00000001
 40
0.0
 40
0.0
 40
0.0
 40
0.0
 40
0.3918890994668929
 40
0.6959445497334448
 40
0.9999999999999999
 40
0.9999999999999999
 40
0.9999999999999999
 40
0.9999999999999999
 10
823.2961636231914
 20
234.5937791036774
 30
0.0
 10
822.3040685635657
 20
233.8509308839063
 30
0.0
 10
820.5422355590161
 20
232.5317281540212
 30
0.0
 10
817.6431731218117
 20
231.0120475866068
 30
0.0
 10
815.7451667894101
 20
230.3073158710055
 30
0.0
 10
814.7961636232093
 20
229.9549500132049
 30
0.0
  0
SPLINE
  5
2DF
330
1F
100
AcDbEntity
  8
0
  6
Continuous
 62
     7
370
    25
100
AcDbSpline
210
0.0
220
0.0
230
1.0
 70
     8
 71
     3
 72
    12
 73
     8
 74
     0
 42
0.00000001
 43
0.00000001
 40
0.0
 40
0.0
 40
0.0
 40
0.0
 40
0.1911404704009168
 40
0.3740560853253714
 40
0.5535335593873845
 40
0.7747568659516191
 40
1.0
 40
1.0
 40
1.0
 40
1.0
 10
814.7961636232093
 20
229.9549500132049
 30
0.0
 10
814.7526391294185
 20
230.2417613363625
 30
0.0
 10
814.6674630192574
 20
230.8030423698469
 30
0.0
 10
814.0149932301957
 20
231.5619693403974
 30
0.0
 10
812.9965970110371
 20
232.2177012396961
 30
0.0
 10
811.5557777775734
 20
232.7188607067521
 30
0.0
 10
810.386211795509
 20
232.7879676273864
 30
0.0
 10
809.7961636232093
 20
232.8228321949601
 30
0.0
  0
SPLINE
  5
2E0
330
1F
100
AcDbEntity
  8
0
  6
Continuous
 62
     7
370
    25
100
AcDbSpline
210
0.0
220
0.0
230
1.0
 70
     8
 71
     3
 72
    11
 73
     7
 74
     0
 42
0.00000001
 43
0.00000001
 40
0.0
 40
0.0
 40
0.0
 40
0.0
 40
0.3261832313934231
 40
0.6625252608920004
 40
0.8308505181911414
 40
1.0
 40
1.0
 40
1.0
 40
1.0
 10
809.7961636232083
 20
239.5751611816523
 30
0.0
 10
810.8872467699141
 20
239.5905168357851
 30
0.0
 10
813.1033942503902
 20
239.621706387489
 30
0.0
 10
815.8729065078518
 20
239.7981089592649
 30
0.0
 10
818.1292816615988
 20
239.8625396430156
 30
0.0
 10
819.2396323552556
 20
240.0362742867964
 30
0.0
 10
819.7961636232093
 20
240.1233537673094
 30
0.0
  0
SPLINE
  5
2E1
330
1F
100
AcDbEntity
  8
0
  6
Continuous
 62
     7
370
    25
100
AcDbSpline
210
0.0
220
0.0
230
1.0
 70
     8
 71
     3
 72
    12
 73
     8
 74
     0
 42
0.00000001
 43
0.00000001
 40
0.0
 40
0.0
 40
0.0
 40
0.0
 40
0.1911404704009168
 40
0.374056085325387
 40
0.5535335593873704
 40
0.7747568659516139
 40
1.0
 40
1.0
 40
1.0
 40
1.0
 10
581.7961636232092
 20
229.9549500132048
 30
0.0
 10
581.839688117
 20
230.2417613363624
 30
0.0
 10
581.9248642271612
 20
230.8030423698468
 30
0.0
 10
582.5773340162231
 20
231.5619693403972
 30
0.0
 10
583.5957302353813
 20
232.217701239696
 30
0.0
 10
585.036549468845
 20
232.718860706752
 30
0.0
 10
586.2061154509096
 20
232.7879676273864
 30
0.0
 10
586.7961636232092
 20
232.8228321949601
 30
0.0
  0
SPLINE
  5
2E2
330
1F
100
AcDbEntity
  8
0
  6
Continuous
 62
     7
370
    25
100
AcDbSpline
210
0.0
220
0.0
230
1.0
 70
     8
 71
     3
 72
    10
 73
     6
 74
     0
 42
0.00000001
 43
0.00000001
 40
0.0
 40
0.0
 40
0.0
 40
0.0
 40
0.391889280419473
 40
0.6959446402097351
 40
1.0
 40
1.0
 40
1.0
 40
1.0
 10
573.296161456773
 20
234.5937808810985
 30
0.0
 10
574.2882571943328
 20
233.8509320246535
 30
0.0
 10
576.0500908183368
 20
232.5317286017494
 30
0.0
 10
578.9491541260361
 20
231.0120475876056
 30
0.0
 10
580.8471604574848
 20
230.3073158713384
 30
0.0
 10
581.7961636232092
 20
229.9549500132048
 30
0.0
  0
SPLINE
  5
2E3
330
1F
100
AcDbEntity
  8
0
  6
Continuous
 62
     7
370
    25
100
AcDbSpline
210
0.0
220
0.0
230
1.0
 70
    24
 71
     3
 72
    10
 73
     6
 74
     0
 42
0.00000001
 43
0.00000001
 40
0.0
 40
0.0
 40
0.0
 40
0.0
 40
0.2494464241635843
 40
0.4993882841688529
 40
1.0
 40
1.0
 40
1.0
 40
1.0
 10
573.2961636232093
 20
238.3189377009904
 30
0.0
 10
573.2961636232093
 20
237.9889508641818
 30
0.0
 10
573.2961636232093
 20
237.3283217900841
 30
0.0
 10
573.2961636232093
 20
236.1279629372321
 30
0.0
 10
573.2961636232094
 20
235.2076333000681
 30
0.0
 10
573.2961636232094
 20
234.5937826521946
 30
0.0
  0
SPLINE
  5
2E4
330
1F
100
AcDbEntity
  8
0
  6
Continuous
 62
     7
370
    25
100
AcDbSpline
210
0.0
220
0.0
230
1.0
 70
     8
 71
     3
 72
    12
 73
     8
 74
     0
 42
0.00000001
 43
0.00000001
 40
0.0
 40
0.0
 40
0.0
 40
0.0
 40
0.2085783924016693
 40
0.4171718222506497
 40
0.6253296784639023
 40
0.8338591013896655
 40
1.0
 40
1.0
 40
1.0
 40
1.0
 10
576.7961636232093
 20
240.1233537673094
 30
0.0
 10
576.4212416384889
 20
240.1767190299007
 30
0.0
 10
575.6713706390693
 20
240.2834534024488
 30
0.0
 10
574.6365669999828
 20
240.0499856203439
 30
0.0
 10
573.8394713495109
 20
239.5925931137302
 30
0.0
 10
573.3716192714442
 20
238.9880996023441
 30
0.0
 10
573.3193441134358
 20
238.5245088050377
 30
0.0
 10
573.2961636232093
 20
238.3189377009904
 30
0.0
  0
SPLINE
  5
2E5
330
1F
100
AcDbEntity
  8
0
  6
Continuous
 62
     7
370
    25
100
AcDbSpline
210
0.0
220
0.0
230
1.0
 70
     8
 71
     3
 72
    11
 73
     7
 74
     0
 42
0.00000001
 43
0.00000001
 40
0.0
 40
0.0
 40
0.0
 40
0.0
 40
0.3261832286596992
 40
0.6625252595228429
 40
0.8308505175048891
 40
1.0
 40
1.0
 40
1.0
 40
1.0
 10
586.7961636232092
 20
239.5751630358189
 30
0.0
 10
585.7050804728519
 20
239.590517905266
 30
0.0
 10
583.4889329709655
 20
239.6217058633568
 30
0.0
 10
580.7194207400069
 20
239.798109024878
 30
0.0
 10
578.4630455845629
 20
239.8625396313627
 30
0.0
 10
577.3526948910774
 20
240.0362742829058
 30
0.0
 10
576.7961636232093
 20
240.1233537673094
 30
0.0
  0
LINE
  5
2E6
330
1F
100
AcDbEntity
  8
0
  6
Continuous
 62
     7
370
    25
100
AcDbLine
 10
809.7961636232
 20
242.30145838
 30
0.0
 11
819.7961636232
 21
242.30145838
 31
0.0
  0
SPLINE
  5
2E7
330
1F
100
AcDbEntity
  8
0
  6
Continuous
 62
     7
370
    25
100
AcDbSpline
210
0.0
220
0.0
230
1.0
 70
     8
 71
     3
 72
    11
 73
     7
 74
     0
 42
0.00000001
 43
0.00000001
 40
0.0
 40
0.0
 40
0.0
 40
0.0
 40
0.2499999999999992
 40
0.5000000000000014
 40
0.7500000000000007
 40
1.0
 40
1.0
 40
1.0
 40
1.0
 10
819.7961636232093
 20
242.3014583800111
 30
0.0
 10
820.4513488422405
 20
242.2583496002506
 30
0.0
 10
821.7617192803028
 20
242.1721320407295
 30
0.0
 10
823.4144439657874
 20
241.5089365428709
 30
0.0
 10
824.5706900313994
 20
240.5609726075013
 30
0.0
 10
824.7210057592727
 20
239.8093750013377
 30
0.0
 10
824.7961636232093
 20
239.4335761982559
 30
0.0
  0
LINE
  5
2E8
330
1F
100
AcDbEntity
  8
0
  6
Continuous
 62
     7
370
    25
100
AcDbLine
 10
824.7961636232
 20
239.4335761983
 30
0.0
 11
824.7961636232
 21
235.9347599365
 31
0.0
  0
LINE
  5
2E9
330
1F
100
AcDbEntity
  8
0
  6
Continuous
 62
     7
370
    25
100
AcDbLine
 10
824.7961636232
 20
235.9347599365
 30
0.0
 11
823.2961636232
 21
234.5937791037
 31
0.0
  0
LINE
  5
2EA
330
1F
100
AcDbEntity
  8
0
  6
Continuous
 62
     7
370
    25
100
AcDbLine
 10
571.7961636232
 20
235.9347599365
 30
0.0
 11
573.2961636232
 21
234.5937791037
 31
0.0
  0
LINE
  5
2EB
330
1F
100
AcDbEntity
  8
0
  6
Continuous
 62
     7
370
    25
100
AcDbLine
 10
571.7961636232
 20
239.4335761983
 30
0.0
 11
571.7961636232
 21
235.9347599365
 31
0.0
  0
SPLINE
  5
2EC
330
1F
100
AcDbEntity
  8
0
  6
Continuous
 62
     7
370
    25
100
AcDbSpline
210
0.0
220
0.0
230
1.0
 70
     8
 71
     3
 72
    11
 73
     7
 74
     0
 42
0.00000001
 43
0.00000001
 40
0.0
 40
0.0
 40
0.0
 40
0.0
 40
0.2499999999999995
 40
0.4999999999999996
 40
0.7499999999999989
 40
1.0
 40
1.0
 40
1.0
 40
1.0
 10
576.7961636232093
 20
242.3014583800111
 30
0.0
 10
576.140978404178
 20
242.2583496002506
 30
0.0
 10
574.8306079661156
 20
242.1721320407295
 30
0.0
 10
573.1778832806311
 20
241.5089365428709
 30
0.0
 10
572.021637215019
 20
240.5609726075013
 30
0.0
 10
571.8713214871459
 20
239.8093750013377
 30
0.0
 10
571.7961636232093
 20
239.4335761982559
 30
0.0
  0
LINE
  5
2ED
330
1F
100
AcDbEntity
  8
0
  6
Continuous
 62
     7
370
    25
100
AcDbLine
 10
586.7961636232
 20
242.30145838
 30
0.0
 11
576.7961636232
 21
242.30145838
 31
0.0
  0
LINE
  5
2EE
330
1F
100
AcDbEntity
  8
0
  6
Continuous
 62
     7
370
    25
100
AcDbLine
 10
819.7961636232
 20
242.30145838
 30
0.0
 11
819.7961636232
 21
243.5301864464
 31
0.0
  0
LINE
  5
2EF
330
1F
100
AcDbEntity
  8
0
  6
Continuous
 62
     7
370
    25
100
AcDbLine
 10
576.7961636232
 20
242.30145838
 30
0.0
 11
576.7961636232
 21
243.5301864464
 31
0.0
  0
LINE
  5
2F0
330
1F
100
AcDbEntity
  8
0
  6
Continuous
 62
     7
370
    25
100
AcDbLine
 10
576.7961636232
 20
243.5301864464
 30
0.0
 11
819.7961636232
 21
243.5301864464
 31
0.0
  0
LINE
  5
2F1
330
1F
100
AcDbEntity
  8
0
  6
Continuous
 62
     7
370
    25
100
AcDbLine
 10
571.7961636232
 20
239.4335761983
 30
0.0
 11
571.7961636232
 21
240.6623042647
 31
0.0
  0
LWPOLYLINE
  5
2F2
330
1F
100
AcDbEntity
  8
0
  6
Continuous
 62
     7
370
    25
100
AcDbPolyline
 90
        9
 70
   128
 43
0.0
 10
576.7961636232
 20
243.5301864464
 10
575.8207120131
 20
243.4750808945
 10
574.8827464614
 20
243.3118819141
 10
574.0183124581
 20
243.0468611505
 10
573.2606297173
 20
242.6902032031
 10
572.6388155617
 20
242.2556142367
 10
572.1767659607
 20
241.7597952616
 10
571.8922372212
 20
241.221800323
 10
571.7961636232
 20
240.6623042647
  0
LINE
  5
2F3
330
1F
100
AcDbEntity
  8
0
  6
Continuous
 62
     7
370
    25
100
AcDbLine
 10
824.7961636232
 20
239.4335761983
 30
0.0
 11
824.7961636232
 21
240.6623042647
 31
0.0
  0
LWPOLYLINE
  5
2F4
330
1F
100
AcDbEntity
  8
0
  6
Continuous
 62
     7
370
    25
100
AcDbPolyline
 90
        9
 70
   128
 43
0.0
 10
819.7961636232
 20
243.5301864464
 10
820.7716152333
 20
243.4750808945
 10
821.709580785
 20
243.3118819141
 10
822.5740147883
 20
243.0468611505
 10
823.3316975291
 20
242.6902032031
 10
823.9535116847
 20
242.2556142367
 10
824.4155612858
 20
241.7597952616
 10
824.7000900252
 20
241.221800323
 10
824.7961636232
 20
240.6623042647
  0
LINE
  5
2F5
330
1F
100
AcDbEntity
  8
0
  6
Continuous
 62
     7
370
    25
100
AcDbLine
 10
811.9461636232
 20
227.9725000628
 30
0.0
 11
814.1693295684
 21
229.5266155088
 31
0.0
  0
SPLINE
  5
2F6
330
1F
100
AcDbEntity
  8
0
  6
Continuous
 62
     7
370
    25
100
AcDbSpline
210
0.0
220
0.0
230
1.0
 70
     8
 71
     3
 72
    11
 73
     7
 74
     0
 42
0.00000001
 43
0.00000001
 40
0.0
 40
0.0
 40
0.0
 40
0.0
 40
0.2501452219971891
 40
0.5000406613949627
 40
0.7496680217340188
 40
1.0
 40
1.0
 40
1.0
 40
1.0
 10
811.9461636232093
 20
227.9725000628162
 30
0.0
 10
811.9010256717936
 20
228.1981147254463
 30
0.0
 10
811.8107948414796
 20
228.6491187631058
 30
0.0
 10
811.1171911179949
 20
229.2175714214811
 30
0.0
 10
810.1259951945638
 20
229.6155174311832
 30
0.0
 10
809.3398101504135
 20
229.6673010645447
 30
0.0
 10
808.9461636232093
 20
229.6932293718694
 30
0.0
  0
LINE
  5
2F7
330
1F
100
AcDbEntity
  8
0
  6
Continuous
 62
     7
370
    25
100
AcDbLine
 10
808.9461636232
 20
229.6932293719
 30
0.0
 11
698.2961636232
 21
229.6932293719
 31
0.0
  0
LINE
  5
2F8
330
1F
100
AcDbEntity
  8
0
  6
Continuous
 62
     7
370
    25
100
AcDbLine
 10
698.2961636232
 20
232.0367080522
 30
0.0
 11
698.2961636232
 21
229.6932293719
 31
0.0
  0
LWPOLYLINE
  5
2F9
330
1F
100
AcDbEntity
  8
0
  6
Continuous
 62
     7
370
    25
100
AcDbPolyline
 90
        4
 70
   128
 43
0.0
 10
809.7961636232
 20
232.0367181801
 10
778.5761636232
 20
232.0367080522
 10
747.3561636232
 20
232.0367080522
 10
698.2961636232
 20
232.0367080522
  0
SPLINE
  5
2FA
330
1F
100
AcDbEntity
  8
0
  6
Continuous
 62
     7
370
    25
100
AcDbSpline
210
0.0
220
0.0
230
1.0
 70
     8
 71
     3
 72
    11
 73
     7
 74
     0
 42
0.00000001
 43
0.00000001
 40
0.0
 40
0.0
 40
0.0
 40
0.0
 40
0.2500124391448873
 40
0.5000133517108557
 40
0.7500124966076043
 40
1.0
 40
1.0
 40
1.0
 40
1.0
 10
814.1690110768405
 20
229.5274313385731
 30
0.0
 10
814.1038698879961
 20
229.8562513188022
 30
0.0
 10
813.973590513578
 20
230.5138761193368
 30
0.0
 10
812.9625943076924
 20
231.3435770302656
 30
0.0
 10
811.516457473308
 20
231.9239376687051
 30
0.0
 10
810.3695860054651
 20
231.9991252598164
 30
0.0
 10
809.7961636232093
 20
232.0367181800519
 30
0.0
  0
LWPOLYLINE
  5
2FB
330
1F
100
AcDbEntity
  8
0
  6
Continuous
 62
     7
370
    25
100
AcDbPolyline
 90
        4
 70
   128
 43
0.0
 10
586.7961636232
 20
232.0367181801
 10
618.0161636232
 20
232.0367080522
 10
649.2361636232
 20
232.0367080522
 10
698.2961636232
 20
232.0367080522
  0
LINE
  5
2FC
330
1F
100
AcDbEntity
  8
0
  6
Continuous
 62
     7
370
    25
100
AcDbLine
 10
587.6461636232
 20
229.6932293719
 30
0.0
 11
698.2961636232
 21
229.6932293719
 31
0.0
  0
SPLINE
  5
2FD
330
1F
100
AcDbEntity
  8
0
  6
Continuous
 62
     7
370
    25
100
AcDbSpline
210
0.0
220
0.0
230
1.0
 70
     8
 71
     3
 72
    12
 73
     8
 74
     0
 42
0.00000001
 43
0.00000001
 40
0.0
 40
0.0
 40
0.0
 40
0.0
 40
0.2036732166082014
 40
0.3832821256573111
 40
0.5555641113848497
 40
0.7635190358013992
 40
0.9999999999999999
 40
0.9999999999999999
 40
0.9999999999999999
 40
0.9999999999999999
 10
584.6461636232092
 20
227.9725000628162
 30
0.0
 10
584.6757457590131
 20
228.1559762512978
 30
0.0
 10
584.7314148552312
 20
228.5012506310116
 30
0.0
 10
585.138111803737
 20
228.9541299130731
 30
0.0
 10
585.7295586629269
 20
229.328145603972
 30
0.0
 10
586.5751558097052
 20
229.6270653251721
 30
0.0
 10
587.2742049040866
 20
229.6702507402
 30
0.0
 10
587.6461636232092
 20
229.6932293718694
 30
0.0
  0
LINE
  5
2FE
330
1F
100
AcDbEntity
  8
0
  6
Continuous
 62
     7
370
    25
100
AcDbLine
 10
584.6461636232
 20
227.9725000628
 30
0.0
 11
582.4220406951
 21
229.5272844925
 31
0.0
  0
SPLINE
  5
2FF
330
1F
100
AcDbEntity
  8
0
  6
Continuous
 62
     7
370
    25
100
AcDbSpline
210
0.0
220
0.0
230
1.0
 70
     8
 71
     3
 72
    11
 73
     7
 74
     0
 42
0.00000001
 43
0.00000001
 40
0.0
 40
0.0
 40
0.0
 40
0.0
 40
0.250012497512195
 40
0.5000133941190821
 40
0.7500125292339629
 40
1.0
 40
1.0
 40
1.0
 40
1.0
 10
582.4233160576514
 20
229.5295585359362
 30
0.0
 10
582.4888696147403
 20
229.858169367934
 30
0.0
 10
582.6199736871476
 20
230.5153757839595
 30
0.0
 10
583.6311562639228
 20
231.3443002068408
 30
0.0
 10
585.0767978774844
 20
231.9240628773096
 30
0.0
 10
586.2230506217344
 20
231.9991669965139
 30
0.0
 10
586.7961636232093
 20
232.0367181800519
 30
0.0
  0
LINE
  5
300
330
1F
100
AcDbEntity
  8
0
  6
Continuous
 62
     7
370
    25
100
AcDbLine
 10
814.7961636232
 20
151.7764817386
 30
0.0
 11
814.7961636232
 21
229.9549500132
 31
0.0
  0
SPLINE
  5
301
330
1F
100
AcDbEntity
  8
0
  6
Continuous
 62
     7
370
    25
100
AcDbSpline
210
0.0
220
0.0
230
1.0
 70
     8
 71
     3
 72
    11
 73
     7
 74
     0
 42
0.00000001
 43
0.00000001
 40
0.0
 40
0.0
 40
0.0
 40
0.0
 40
0.2792023960626397
 40
0.5463905946532267
 40
0.8085566377328026
 40
1.0
 40
1.0
 40
1.0
 40
1.0
 10
814.7961636232093
 20
151.7764817385571
 30
0.0
 10
814.7531980549608
 20
151.4890330183167
 30
0.0
 10
814.6691157450806
 20
150.9265046181332
 30
0.0
 10
814.0087617991948
 20
150.1765687173794
 30
0.0
 10
813.1742349783859
 20
149.5918755401634
 30
0.0
 10
812.446448854806
 20
149.3798531366083
 30
0.0
 10
812.1392907119913
 20
149.2903702437624
 30
0.0
  0
SPLINE
  5
302
330
1F
100
AcDbEntity
  8
0
  6
Continuous
 62
     7
370
    25
100
AcDbSpline
210
0.0
220
0.0
230
1.0
 70
     8
 71
     3
 72
    10
 73
     6
 74
     0
 42
0.00000001
 43
0.00000001
 40
0.0
 40
0.0
 40
0.0
 40
0.0
 40
0.4398539655532365
 40
0.8795743638735843
 40
1.0
 40
1.0
 40
1.0
 40
1.0
 10
581.7961636232092
 20
151.7764817385571
 30
0.0
 10
581.8774382717396
 20
151.4067330288922
 30
0.0
 10
582.0399628887232
 20
150.6673478884456
 30
0.0
 10
582.843551633566
 20
149.8843623553118
 30
0.0
 10
583.5494515213119
 20
149.6338215296497
 30
0.0
 10
583.701212736773
 20
149.5799578290242
 30
0.0
  0
LINE
  5
303
330
1F
100
AcDbEntity
  8
0
  6
Continuous
 62
     7
370
    25
100
AcDbLine
 10
581.7961636232
 20
151.7764817386
 30
0.0
 11
581.7961636232
 21
229.9549500132
 31
0.0
  0
LINE
  5
304
330
1F
100
AcDbEntity
  8
0
  6
Continuous
 62
     7
370
    25
100
AcDbLine
 10
582.3961636232
 20
151.7764817386
 30
0.0
 11
582.3961636232
 21
229.9549500132
 31
0.0
  0
LINE
  5
305
330
1F
100
AcDbEntity
  8
0
  6
Continuous
 62
     7
370
    25
100
AcDbLine
 10
814.1961636232
 20
151.7764817386
 30
0.0
 11
814.1587725768
 21
151.6805560938
 31
0.0
  0
LINE
  5
306
330
1F
100
AcDbEntity
  8
0
  6
Continuous
 62
     7
370
    25
100
AcDbLine
 10
814.1961636232
 20
151.7764817386
 30
0.0
 11
814.1961636232
 21
229.9549500132
 31
0.0
  0
SPLINE
  5
307
330
1F
100
AcDbEntity
  8
0
  6
Continuous
 62
     7
370
    25
100
AcDbSpline
210
0.0
220
0.0
230
1.0
 70
     8
 71
     3
 72
    11
 73
     7
 74
     0
 42
0.00000001
 43
0.00000001
 40
0.0
 40
0.0
 40
0.0
 40
0.0
 40
0.2796860227898194
 40
0.5593151024933907
 40
0.7796873377370918
 40
0.9999999999999999
 40
0.9999999999999999
 40
0.9999999999999999
 40
0.9999999999999999
 10
814.1961636232093
 20
229.9549500132049
 30
0.0
 10
814.1131540761121
 20
230.3253638912977
 30
0.0
 10
813.9471518823682
 20
231.0661162325262
 30
0.0
 10
812.7684561509938
 20
231.8955848158434
 30
0.0
 10
811.3181473841051
 20
232.3905871111303
 30
0.0
 10
810.3034458201371
 20
232.4493225724828
 30
0.0
 10
809.7961636232093
 20
232.4786863331495
 30
0.0
  0
LINE
  5
308
330
1F
100
AcDbEntity
  8
0
  6
Continuous
 62
     7
370
    25
100
AcDbLine
 10
809.7961636232
 20
232.4786863331
 30
0.0
 11
586.7961636232
 21
232.4786863331
 31
0.0
  0
SPLINE
  5
309
330
1F
100
AcDbEntity
  8
0
  6
Continuous
 62
     7
370
    25
100
AcDbSpline
210
0.0
220
0.0
230
1.0
 70
     8
 71
     3
 72
    11
 73
     7
 74
     0
 42
0.00000001
 43
0.00000001
 40
0.0
 40
0.0
 40
0.0
 40
0.0
 40
0.2500024152425159
 40
0.4997770408880666
 40
0.7494424972469158
 40
0.9999999999999999
 40
0.9999999999999999
 40
0.9999999999999999
 40
0.9999999999999999
 10
582.3961636232092
 20
229.9549500132048
 30
0.0
 10
582.462300134124
 20
230.2856573232251
 30
0.0
 10
582.594512895699
 20
230.9467706194374
 30
0.0
 10
583.6109449759396
 20
231.7804105227684
 30
0.0
 10
585.0646091458478
 20
232.3645119897333
 30
0.0
 10
586.2182930102063
 20
232.4405829995947
 30
0.0
 10
586.7961636232093
 20
232.4786863331495
 30
0.0
  0
LINE
  5
30A
330
1F
100
AcDbEntity
  8
0
  6
Continuous
 62
     7
370
    25
100
AcDbLine
 10
576.7961636232
 20
243.8166346539
 30
0.0
 11
819.7961636232
 21
243.8166346539
 31
0.0
  0
LINE
  5
30B
330
1F
100
AcDbEntity
  8
0
  6
Continuous
 62
     7
370
    25
100
AcDbLine
 10
586.7961636232
 20
232.0367181801
 30
0.0
 11
586.7961636232
 21
232.4786863331
 31
0.0
  0
LINE
  5
30C
330
1F
100
AcDbEntity
  8
0
  6
Continuous
 62
     7
370
    25
100
AcDbLine
 10
582.4233040866
 20
229.5307350133
 30
0.0
 11
582.3961636232
 21
229.9549500132
 31
0.0
  0
LINE
  5
30D
330
1F
100
AcDbEntity
  8
0
  6
Continuous
 62
     7
370
    25
100
AcDbLine
 10
809.7961636232
 20
232.0367181801
 30
0.0
 11
809.7961636232
 21
232.4786863331
 31
0.0
  0
LINE
  5
30E
330
1F
100
AcDbEntity
  8
0
  6
Continuous
 62
     7
370
    25
100
AcDbLine
 10
814.1690110633
 20
229.5305459411
 30
0.0
 11
814.1961636232
 21
229.9549500132
 31
0.0
  0
LINE
  5
30F
330
1F
100
AcDbEntity
  8
0
  6
Continuous
 62
     7
370
    25
100
AcDbLine
 10
811.9461636232
 20
150.4823235118
 30
0.0
 11
811.9461636232
 21
227.9725000628
 31
0.0
  0
SPLINE
  5
310
330
1F
100
AcDbEntity
  8
0
  6
Continuous
 62
     7
370
    25
100
AcDbSpline
210
0.0
220
0.0
230
1.0
 70
     8
 71
     3
 72
    11
 73
     7
 74
     0
 42
0.00000001
 43
0.00000001
 40
0.0
 40
0.0
 40
0.0
 40
0.0
 40
0.2500424946833597
 40
0.4998361869006326
 40
0.7494935663016217
 40
0.9999999999999999
 40
0.9999999999999999
 40
0.9999999999999999
 40
0.9999999999999999
 10
808.9461636232093
 20
148.7615942027366
 30
0.0
 10
809.3393473661847
 20
148.7874626180177
 30
0.0
 10
810.1253236182977
 20
148.8391737084529
 30
0.0
 10
811.1162996043139
 20
149.2367590054486
 30
0.0
 10
811.8105138990437
 20
149.8052512948737
 30
0.0
 10
811.9008959057556
 20
150.2563775026873
 30
0.0
 10
811.9461636232093
 20
150.4823235117898
 30
0.0
  0
LINE
  5
311
330
1F
100
AcDbEntity
  8
0
  6
Continuous
 62
     7
370
    25
100
AcDbLine
 10
808.9461636232
 20
148.7615942027
 30
0.0
 11
739.0461636232
 21
148.7615942027
 31
0.0
  0
LINE
  5
312
330
1F
100
AcDbEntity
  8
0
  6
Continuous
 62
     7
370
    25
100
AcDbLine
 10
587.6461636232
 20
148.7615942027
 30
0.0
 11
657.5461636232
 21
148.7615942027
 31
0.0
  0
SPLINE
  5
313
330
1F
100
AcDbEntity
  8
0
  6
Continuous
 62
     7
370
    25
100
AcDbSpline
210
0.0
220
0.0
230
1.0
 70
     8
 71
     3
 72
    12
 73
     8
 74
     0
 42
0.00000001
 43
0.00000001
 40
0.0
 40
0.0
 40
0.0
 40
0.0
 40
0.2036732168046796
 40
0.3832821258792969
 40
0.555564111604289
 40
0.7635190360109281
 40
1.0
 40
1.0
 40
1.0
 40
1.0
 10
587.6461636232092
 20
148.7615942027366
 30
0.0
 10
587.3262826500168
 20
148.7785618188043
 30
0.0
 10
586.7243151387405
 20
148.810492300679
 30
0.0
 10
585.9347442054402
 20
149.0437640873226
 30
0.0
 10
585.2826677478247
 20
149.3830040692485
 30
0.0
 10
584.7615171182251
 20
149.8680186672081
 30
0.0
 10
584.6862256448868
 20
150.2689767553965
 30
0.0
 10
584.6461636232092
 20
150.4823235117898
 30
0.0
  0
LINE
  5
314
330
1F
100
AcDbEntity
  8
0
  6
Continuous
 62
     7
370
    25
100
AcDbLine
 10
584.6461636232
 20
150.4823235118
 30
0.0
 11
584.6461636232
 21
227.9725000628
 31
0.0
  0
SPLINE
  5
315
330
1F
100
AcDbEntity
  8
0
  6
Continuous
 62
     7
370
    25
100
AcDbSpline
210
0.0
220
0.0
230
1.0
 70
    24
 71
     3
 72
    14
 73
    10
 74
     0
 42
0.00000001
 43
0.00000001
 40
0.0
 40
0.0
 40
0.0
 40
0.0
 40
0.091040111064566
 40
0.2240766723264983
 40
0.3879184094105209
 40
0.5025399764495345
 40
0.6371903145168399
 40
0.7999942212806372
 40
1.0
 40
1.0
 40
1.0
 40
1.0
 10
576.2961636232093
 20
244.4228411677662
 30
0.0
 10
576.2961636232093
 20
244.4782623100451
 30
0.0
 10
576.2961636232093
 20
244.6146701526233
 30
0.0
 10
576.2961636232093
 20
244.9211944209123
 30
0.0
 10
576.2961636232093
 20
245.310410366874
 30
0.0
 10
576.2961636232094
 20
245.7231263826999
 30
0.0
 10
576.2961636232093
 20
246.1287014675279
 30
0.0
 10
576.2961636232093
 20
246.5917214625268
 30
0.0
 10
576.2961636232093
 20
246.8940940735268
 30
0.0
 10
576.2961636232093
 20
247.0607827589348
 30
0.0
  0
SPLINE
  5
316
330
1F
100
AcDbEntity
  8
0
  6
Continuous
 62
     7
370
    25
100
AcDbSpline
210
0.0
220
0.0
230
1.0
 70
     8
 71
     3
 72
    12
 73
     8
 74
     0
 42
0.00000001
 43
0.00000001
 40
0.0
 40
0.0
 40
0.0
 40
0.0
 40
0.2070285502624555
 40
0.3865889856367027
 40
0.5537926773531374
 40
0.759494984421314
 40
1.0
 40
1.0
 40
1.0
 40
1.0
 10
573.1961636232093
 20
242.644754215078
 30
0.0
 10
573.2143405371662
 20
242.8425350414715
 30
0.0
 10
573.2482826901675
 20
243.2118555480245
 30
0.0
 10
573.5923852075555
 20
243.7127137125905
 30
0.0
 10
574.2068494617298
 20
244.1164637389565
 30
0.0
 10
575.1500204577179
 20
244.3834246421704
 30
0.0
 10
575.8947536520644
 20
244.4090364469613
 30
0.0
 10
576.2961636232093
 20
244.4228411677662
 30
0.0
  0
SPLINE
  5
317
330
1F
100
AcDbEntity
  8
0
  6
Continuous
 62
     7
370
    25
100
AcDbSpline
210
0.0
220
0.0
230
1.0
 70
     8
 71
     3
 72
    14
 73
    10
 74
     0
 42
0.00000001
 43
0.00000001
 40
0.0
 40
0.0
 40
0.0
 40
0.0
 40
0.0910401110645509
 40
0.2240766723264884
 40
0.3879184094105122
 40
0.5025399764495324
 40
0.6371903145168364
 40
0.799994221280633
 40
1.0
 40
1.0
 40
1.0
 40
1.0
 10
573.1961636232093
 20
242.644754215078
 30
0.0
 10
573.1058249542756
 20
242.6483592255652
 30
0.0
 10
572.883474738746
 20
242.6572322238979
 30
0.0
 10
572.5100221040238
 20
242.7495528608172
 30
0.0
 10
572.1647359843978
 20
242.9407208247623
 30
0.0
 10
571.9081017243745
 20
243.2062374762786
 30
0.0
 10
571.7332533580519
 20
243.5115236582493
 30
0.0
 10
571.615695041462
 20
243.9071149729552
 30
0.0
 10
571.6031044355459
 20
244.2022659090823
 30
0.0
 10
571.5961636232092
 20
244.3649735080848
 30
0.0
  0
SPLINE
  5
318
330
1F
100
AcDbEntity
  8
0
  6
Continuous
 62
     7
370
    25
100
AcDbSpline
210
0.0
220
0.0
230
1.0
 70
     8
 71
     3
 72
    12
 73
     8
 74
     0
 42
0.00000001
 43
0.00000001
 40
0.0
 40
0.0
 40
0.0
 40
0.0
 40
0.1888177457787661
 40
0.3742403006135578
 40
0.5600356552974627
 40
0.7782795978441096
 40
1.0
 40
1.0
 40
1.0
 40
1.0
 10
571.5961636232092
 20
244.3649735080848
 30
0.0
 10
571.623136866564
 20
244.6359370083754
 30
0.0
 10
571.676598338948
 20
245.1729917295076
 30
0.0
 10
572.2162545453216
 20
245.9306491950091
 30
0.0
 10
573.2011327232192
 20
246.5759501795502
 30
0.0
 10
574.6378647549309
 20
246.9970650089532
 30
0.0
 10
575.7404931264734
 20
247.0394319189502
 30
0.0
 10
576.2961636232093
 20
247.0607827589348
 30
0.0
  0
LINE
  5
319
330
1F
100
AcDbEntity
  8
0
  6
Continuous
 62
     7
370
    25
100
AcDbLine
 10
576.2961636232
 20
247.0607827589
 30
0.0
 11
698.2961636232
 21
247.0607827589
 31
0.0
  0
SPLINE
  5
31A
330
1F
100
AcDbEntity
  8
0
  6
Continuous
 62
     7
370
    25
100
AcDbSpline
210
0.0
220
0.0
230
1.0
 70
    24
 71
     3
 72
    14
 73
    10
 74
     0
 42
0.00000001
 43
0.00000001
 40
0.0
 40
0.0
 40
0.0
 40
0.0
 40
0.0910401110645657
 40
0.2240766723265012
 40
0.3879184094105187
 40
0.5025399764495366
 40
0.637190314516837
 40
0.7999942212806338
 40
1.0
 40
1.0
 40
1.0
 40
1.0
 10
698.2961636232093
 20
244.4228411677662
 30
0.0
 10
698.2961636232093
 20
244.4782623100451
 30
0.0
 10
698.2961636232093
 20
244.6146701526233
 30
0.0
 10
698.2961636232093
 20
244.9211944209123
 30
0.0
 10
698.2961636232093
 20
245.310410366874
 30
0.0
 10
698.2961636232093
 20
245.7231263826999
 30
0.0
 10
698.2961636232093
 20
246.1287014675279
 30
0.0
 10
698.2961636232093
 20
246.5917214625268
 30
0.0
 10
698.2961636232093
 20
246.8940940735269
 30
0.0
 10
698.2961636232093
 20
247.0607827589348
 30
0.0
  0
LINE
  5
31B
330
1F
100
AcDbEntity
  8
0
  6
Continuous
 62
     7
370
    25
100
AcDbLine
 10
576.2961636232
 20
244.4228411678
 30
0.0
 11
698.2961636232
 21
244.4228411678
 31
0.0
  0
LINE
  5
31C
330
1F
100
AcDbEntity
  8
0
  6
Continuous
 62
     7
370
    25
100
AcDbLine
 10
820.2961636232
 20
247.0607827589
 30
0.0
 11
698.2961636232
 21
247.0607827589
 31
0.0
  0
SPLINE
  5
31D
330
1F
100
AcDbEntity
  8
0
  6
Continuous
 62
     7
370
    25
100
AcDbSpline
210
0.0
220
0.0
230
1.0
 70
    24
 71
     3
 72
    14
 73
    10
 74
     0
 42
0.00000001
 43
0.00000001
 40
0.0
 40
0.0
 40
0.0
 40
0.0
 40
0.0910401110645661
 40
0.2240766723265021
 40
0.387918409410516
 40
0.502539976449539
 40
0.6371903145168399
 40
0.799994221280633
 40
1.0
 40
1.0
 40
1.0
 40
1.0
 10
820.2961636232093
 20
244.4228411677663
 30
0.0
 10
820.2961636232093
 20
244.4782623100452
 30
0.0
 10
820.2961636232093
 20
244.6146701526232
 30
0.0
 10
820.2961636232093
 20
244.9211944209123
 30
0.0
 10
820.2961636232093
 20
245.310410366874
 30
0.0
 10
820.2961636232093
 20
245.7231263826999
 30
0.0
 10
820.2961636232093
 20
246.1287014675279
 30
0.0
 10
820.2961636232093
 20
246.5917214625268
 30
0.0
 10
820.2961636232093
 20
246.8940940735268
 30
0.0
 10
820.2961636232093
 20
247.0607827589348
 30
0.0
  0
LINE
  5
31E
330
1F
100
AcDbEntity
  8
0
  6
Continuous
 62
     7
370
    25
100
AcDbLine
 10
820.2961636232
 20
244.4228411678
 30
0.0
 11
698.2961636232
 21
244.4228411678
 31
0.0
  0
SPLINE
  5
31F
330
1F
100
AcDbEntity
  8
0
  6
Continuous
 62
     7
370
    25
100
AcDbSpline
210
0.0
220
0.0
230
1.0
 70
     8
 71
     3
 72
    14
 73
    10
 74
     0
 42
0.00000001
 43
0.00000001
 40
0.0
 40
0.0
 40
0.0
 40
0.0
 40
0.091040111064551
 40
0.2240766723264886
 40
0.3879184094105148
 40
0.5025399764495322
 40
0.6371903145168396
 40
0.7999942212806328
 40
1.0
 40
1.0
 40
1.0
 40
1.0
 10
823.3961636232092
 20
242.644754215078
 30
0.0
 10
823.4865022921429
 20
242.6483592255652
 30
0.0
 10
823.7088525076725
 20
242.6572322238979
 30
0.0
 10
824.0823051423947
 20
242.7495528608172
 30
0.0
 10
824.4275912620208
 20
242.9407208247623
 30
0.0
 10
824.6842255220439
 20
243.2062374762786
 30
0.0
 10
824.8590738883665
 20
243.5115236582494
 30
0.0
 10
824.9766322049566
 20
243.9071149729552
 30
0.0
 10
824.9892228108727
 20
244.2022659090823
 30
0.0
 10
824.9961636232092
 20
244.3649735080849
 30
0.0
  0
SPLINE
  5
320
330
1F
100
AcDbEntity
  8
0
  6
Continuous
 62
     7
370
    25
100
AcDbSpline
210
0.0
220
0.0
230
1.0
 70
     8
 71
     3
 72
    12
 73
     8
 74
     0
 42
0.00000001
 43
0.00000001
 40
0.0
 40
0.0
 40
0.0
 40
0.0
 40
0.2070285502624555
 40
0.3865889856367011
 40
0.5537926773531369
 40
0.7594949844213142
 40
1.0
 40
1.0
 40
1.0
 40
1.0
 10
823.3961636232092
 20
242.644754215078
 30
0.0
 10
823.3779867092524
 20
242.8425350414716
 30
0.0
 10
823.344044556251
 20
243.2118555480246
 30
0.0
 10
822.999942038863
 20
243.7127137125905
 30
0.0
 10
822.3854777846888
 20
244.1164637389566
 30
0.0
 10
821.4423067887005
 20
244.3834246421705
 30
0.0
 10
820.697573594354
 20
244.4090364469614
 30
0.0
 10
820.2961636232093
 20
244.4228411677663
 30
0.0
  0
SPLINE
  5
321
330
1F
100
AcDbEntity
  8
0
  6
Continuous
 62
     7
370
    25
100
AcDbSpline
210
0.0
220
0.0
230
1.0
 70
     8
 71
     3
 72
    12
 73
     8
 74
     0
 42
0.00000001
 43
0.00000001
 40
0.0
 40
0.0
 40
0.0
 40
0.0
 40
0.188817745778766
 40
0.3742403006135567
 40
0.560035655297463
 40
0.7782795978441098
 40
1.0
 40
1.0
 40
1.0
 40
1.0
 10
824.9961636232092
 20
244.3649735080849
 30
0.0
 10
824.9691903798546
 20
244.6359370083754
 30
0.0
 10
824.9157289074705
 20
245.1729917295076
 30
0.0
 10
824.376072701097
 20
245.9306491950092
 30
0.0
 10
823.3911945231994
 20
246.5759501795502
 30
0.0
 10
821.9544624914877
 20
246.9970650089533
 30
0.0
 10
820.8518341199451
 20
247.0394319189502
 30
0.0
 10
820.2961636232093
 20
247.0607827589348
 30
0.0
  0
ARC
  5
322
330
1F
100
AcDbEntity
  8
0
  6
Continuous
 62
     7
370
    25
100
AcDbCircle
 10
576.4372137763
 20
240.5738418648
 30
0.0
 40
3.751495981964983
100
AcDbArc
 50
84.509437794
 51
144.3256899416
  0
LINE
  5
323
330
1F
100
AcDbEntity
  8
0
  6
Continuous
 62
     7
370
    25
100
AcDbLine
 10
576.7961636232
 20
243.8166346539
 30
0.0
 11
576.7961636232
 21
244.3081258805
 31
0.0
  0
LINE
  5
324
330
1F
100
AcDbEntity
  8
0
  6
Continuous
 62
     7
370
    25
100
AcDbLine
 10
576.7961636232
 20
244.3081258805
 30
0.0
 11
819.7961636232
 21
244.3081258805
 31
0.0
  0
LINE
  5
325
330
1F
100
AcDbEntity
  8
0
  6
Continuous
 62
     7
370
    25
100
AcDbLine
 10
819.7961636232
 20
243.8166346539
 30
0.0
 11
819.7961636232
 21
244.3081258805
 31
0.0
  0
ARC
  5
326
330
1F
100
AcDbEntity
  8
0
  6
Continuous
 62
     7
370
    25
100
AcDbCircle
 10
820.2876350854
 20
240.8657462574
 30
0.0
 40
3.47728653807837
100
AcDbArc
 50
33.0396153183
 51
98.1252569205
  0
LINE
  5
327
330
1F
100
AcDbEntity
  8
0
  6
Continuous
 62
     7
370
    25
100
AcDbLine
 10
811.9461636232
 20
150.4823235118
 30
0.0
 11
814.1702865513
 21
151.3567322065
 31
0.0
  0
LINE
  5
328
330
1F
100
AcDbEntity
  8
0
  6
Continuous
 62
     7
370
    25
100
AcDbLine
 10
814.1690110633
 20
151.3530671463
 30
0.0
 11
814.1690110633
 21
229.5274311274
 31
0.0
  0
LINE
  5
329
330
1F
100
AcDbEntity
  8
0
  6
Continuous
 62
     7
370
    25
100
AcDbLine
 10
584.6461636232
 20
150.4823235118
 30
0.0
 11
582.4220406951
 21
151.3567322065
 31
0.0
  0
LINE
  5
32A
330
1F
100
AcDbEntity
  8
0
  6
Continuous
 62
     7
370
    25
100
AcDbLine
 10
582.4233161831
 20
151.3530671463
 30
0.0
 11
582.4233161831
 21
229.5295564612
 31
0.0
  0
LINE
  5
32B
330
1F
100
AcDbEntity
  8
0
  6
Continuous
 62
     7
370
    25
100
AcDbLine
 10
582.4233040866
 20
151.3522667386
 30
0.0
 11
582.3961636232
 21
151.7764817386
 31
0.0
  0
LINE
  5
32C
330
1F
100
AcDbEntity
  8
0
  6
Continuous
 62
     7
370
    25
100
AcDbLine
 10
814.1690231598
 20
151.3522667386
 30
0.0
 11
814.1961636232
 21
151.7764817386
 31
0.0
  0
SPLINE
  5
32D
330
1F
100
AcDbEntity
  8
0
  6
Continuous
 62
     7
370
    25
100
AcDbSpline
210
0.0
220
0.0
230
1.0
 70
     8
 71
     3
 72
    10
 73
     6
 74
     0
 42
0.00000001
 43
0.00000001
 40
0.0
 40
0.0
 40
0.0
 40
0.0
 40
0.3918890994668981
 40
0.6959445497334478
 40
1.0
 40
1.0
 40
1.0
 40
1.0
 10
573.296163623227
 20
156.4153108290297
 30
0.0
 10
574.2882586828529
 20
155.6724626092585
 30
0.0
 10
576.0500916874024
 20
154.3532598793734
 30
0.0
 10
578.9491541246068
 20
152.8335793119591
 30
0.0
 10
580.8471604570085
 20
152.1288475963578
 30
0.0
 10
581.7961636232092
 20
151.7764817385571
 30
0.0
  0
LINE
  5
32E
330
1F
100
AcDbEntity
  8
0
  6
Continuous
 62
     7
370
    25
100
AcDbLine
 10
571.7961636232
 20
157.7562916619
 30
0.0
 11
573.2961636232
 21
156.415310829
 31
0.0
  0
LINE
  5
32F
330
1F
100
AcDbEntity
  8
0
  6
Continuous
 62
     7
370
    25
100
AcDbLine
 10
571.7961636232
 20
235.9347599365
 30
0.0
 11
571.7961636232
 21
157.7562916619
 31
0.0
  0
LINE
  5
330
330
1F
100
AcDbEntity
  8
0
  6
Continuous
 62
     7
370
    25
100
AcDbLine
 10
824.7961636232
 20
157.7562916619
 30
0.0
 11
823.2961636232
 21
156.415310829
 31
0.0
  0
SPLINE
  5
331
330
1F
100
AcDbEntity
  8
0
  6
Continuous
 62
     7
370
    25
100
AcDbSpline
210
0.0
220
0.0
230
1.0
 70
     8
 71
     3
 72
    10
 73
     6
 74
     0
 42
0.00000001
 43
0.00000001
 40
0.0
 40
0.0
 40
0.0
 40
0.0
 40
0.3918892804194639
 40
0.6959446402097295
 40
1.0
 40
1.0
 40
1.0
 40
1.0
 10
823.2961657896454
 20
156.4153126064508
 30
0.0
 10
822.3040700520856
 20
155.6724637500058
 30
0.0
 10
820.5422364280817
 20
154.3532603271017
 30
0.0
 10
817.6431731203825
 20
152.8335793129578
 30
0.0
 10
815.7451667889337
 20
152.1288475966907
 30
0.0
 10
814.7961636232093
 20
151.7764817385571
 30
0.0
  0
LINE
  5
332
330
1F
100
AcDbEntity
  8
0
  6
Continuous
 62
     7
370
    25
100
AcDbLine
 10
824.7961636232
 20
235.9347599365
 30
0.0
 11
824.7961636232
 21
157.7562916619
 31
0.0
  0
LINE
  5
333
330
1F
100
AcDbEntity
  8
0
  6
Continuous
 62
     7
370
    25
100
AcDbLine
 10
571.5961636232
 20
201.4327772472
 30
0.0
 11
571.5961636232
 21
244.3649735081
 31
0.0
  0
LINE
  5
334
330
1F
100
AcDbEntity
  8
0
  6
Continuous
 62
     7
370
    25
100
AcDbLine
 10
824.9961636232
 20
201.4327772472
 30
0.0
 11
824.9961636232
 21
244.3649735081
 31
0.0
  0
SPLINE
  5
335
330
1F
100
AcDbEntity
  8
0
  6
Continuous
 62
     7
370
    25
100
AcDbSpline
210
0.0
220
0.0
230
1.0
 70
     8
 71
     3
 72
     9
 73
     5
 74
     0
 42
0.00000001
 43
0.00000001
 40
0.0
 40
0.0
 40
0.0
 40
0.0
 40
0.1080735274003798
 40
1.0
 40
1.0
 40
1.0
 40
1.0
 10
571.6566975252682
 20
157.9571820319271
 30
0.0
 10
571.6506492272823
 20
157.9762507374531
 30
0.0
 10
571.5946845694111
 20
158.1526927023336
 30
0.0
 10
571.5954663407006
 20
158.3365731485549
 30
0.0
 10
571.5961636232092
 20
158.5005809863331
 30
0.0
  0
LINE
  5
336
330
1F
100
AcDbEntity
  8
0
  6
Continuous
 62
     7
370
    25
100
AcDbLine
 10
571.5961636232
 20
201.4327772472
 30
0.0
 11
571.5961636232
 21
158.5005809863
 31
0.0
  0
LINE
  5
337
330
1F
100
AcDbEntity
  8
0
  6
Continuous
 62
     7
370
    25
100
AcDbLine
 10
824.9961636232
 20
201.4327772472
 30
0.0
 11
824.9961636232
 21
158.5005809863
 31
0.0
  0
SPLINE
  5
338
330
1F
100
AcDbEntity
  8
0
  6
Continuous
 62
     7
370
    25
100
AcDbSpline
210
0.0
220
0.0
230
1.0
 70
     8
 71
     3
 72
    11
 73
     7
 74
     0
 42
0.00000001
 43
0.00000001
 40
0.0
 40
0.0
 40
0.0
 40
0.0
 40
0.2745772431963088
 40
0.5491417456511448
 40
0.823704313540213
 40
1.0
 40
1.0
 40
1.0
 40
1.0
 10
814.1690111887671
 20
151.353068993026
 30
0.0
 10
814.1036981433816
 20
151.0237275270666
 30
0.0
 10
813.9730750832208
 20
150.3650598770205
 30
0.0
 10
812.9582850514057
 20
149.5413300234202
 30
0.0
 10
811.6971626385235
 20
149.0092799090577
 30
0.0
 10
810.7611456894958
 20
148.9383285797589
 30
0.0
 10
810.395142075333
 20
148.9105850191536
 30
0.0
  0
SPLINE
  5
339
330
1F
100
AcDbEntity
  8
0
  6
Continuous
 62
     7
370
    25
100
AcDbSpline
210
0.0
220
0.0
230
1.0
 70
     8
 71
     3
 72
    11
 73
     7
 74
     0
 42
0.00000001
 43
0.00000001
 40
0.0
 40
0.0
 40
0.0
 40
0.0
 40
0.274571309689687
 40
0.549129878913216
 40
0.823686513612783
 40
1.0
 40
1.0
 40
1.0
 40
1.0
 10
582.4233160576514
 20
151.3530689930318
 30
0.0
 10
582.4886291684775
 20
151.0237276387342
 30
0.0
 10
582.6192523595162
 20
150.3650602120066
 30
0.0
 10
583.6340414097665
 20
149.5413286835707
 30
0.0
 10
584.895204676022
 20
149.0092683247987
 30
0.0
 10
585.8312678862117
 20
148.938315978347
 30
0.0
 10
586.1973169108611
 20
148.9105699490913
 30
0.0
  0
SPLINE
  5
33A
330
1F
100
AcDbEntity
  8
0
  6
Continuous
 62
     7
370
    25
100
AcDbSpline
210
0.0
220
0.0
230
1.0
 70
     8
 71
     3
 72
     9
 73
     5
 74
     0
 42
0.00000001
 43
0.00000001
 40
0.0
 40
0.0
 40
0.0
 40
0.0
 40
0.544485627740427
 40
0.9999999999999999
 40
0.9999999999999999
 40
0.9999999999999999
 40
0.9999999999999999
 10
576.1043371182124
 20
151.1202770079464
 30
0.0
 10
575.961593513562
 20
151.1545151855894
 30
0.0
 10
575.699431213259
 20
151.2173968777751
 30
0.0
 10
575.4715823188237
 20
151.3171333501053
 30
0.0
 10
575.367793872705
 20
151.3625647466902
 30
0.0
  0
SPLINE
  5
33B
330
1F
100
AcDbEntity
  8
0
  6
Continuous
 62
     7
370
    25
100
AcDbSpline
210
0.0
220
0.0
230
1.0
 70
    24
 71
     3
 72
    10
 73
     6
 74
     0
 42
0.00000001
 43
0.00000001
 40
0.0
 40
0.0
 40
0.0
 40
0.0
 40
0.2494464241635801
 40
0.4993882841688486
 40
1.0
 40
1.0
 40
1.0
 40
1.0
 10
573.2961636232093
 20
153.1428369028599
 30
0.0
 10
573.2961636232093
 20
153.3929736610744
 30
0.0
 10
573.2961636232094
 20
153.8937439844463
 30
0.0
 10
573.2961636232092
 20
155.0295631626732
 30
0.0
 10
573.2961636232092
 20
155.8608526315297
 30
0.0
 10
573.2961636232092
 20
156.4153143791708
 30
0.0
  0
SPLINE
  5
33C
330
1F
100
AcDbEntity
  8
0
  6
Continuous
 62
     7
370
    25
100
AcDbSpline
210
0.0
220
0.0
230
1.0
 70
    24
 71
     3
 72
    10
 73
     6
 74
     0
 42
0.00000001
 43
0.00000001
 40
0.0
 40
0.0
 40
0.0
 40
0.0
 40
0.2494464241635831
 40
0.4993882841688544
 40
1.0
 40
1.0
 40
1.0
 40
1.0
 10
823.2961636232093
 20
153.1428369028599
 30
0.0
 10
823.2961636232093
 20
153.3929736610744
 30
0.0
 10
823.2961636232093
 20
153.8937439844462
 30
0.0
 10
823.2961636232093
 20
155.0295631626734
 30
0.0
 10
823.2961636232093
 20
155.8608526315297
 30
0.0
 10
823.2961636232093
 20
156.4153143791708
 30
0.0
  0
SPLINE
  5
33D
330
1F
100
AcDbEntity
  8
0
  6
Continuous
 62
     7
370
    25
100
AcDbSpline
210
0.0
220
0.0
230
1.0
 70
     8
 71
     3
 72
    10
 73
     6
 74
     0
 42
0.00000001
 43
0.00000001
 40
0.0
 40
0.0
 40
0.0
 40
0.0
 40
0.1647200269703369
 40
0.5823600134851686
 40
0.9999999999999999
 40
0.9999999999999999
 40
0.9999999999999999
 40
0.9999999999999999
 10
573.9004034996389
 20
151.9843821859465
 30
0.0
 10
573.6797432173903
 20
152.0606613041
 30
0.0
 10
572.8996090266096
 20
152.3303425875087
 30
0.0
 10
572.0366402729592
 20
153.1445013587518
 30
0.0
 10
571.8763225064592
 20
153.8864840530009
 30
0.0
 10
571.7961636232093
 20
154.2574754001253
 30
0.0
  0
LINE
  5
33E
330
1F
100
AcDbEntity
  8
0
  6
Continuous
 62
     7
370
    25
100
AcDbLine
 10
571.7961636232
 20
154.2574754001
 30
0.0
 11
571.7961636232
 21
157.7562916619
 31
0.0
  0
SPLINE
  5
33F
330
1F
100
AcDbEntity
  8
0
  6
Continuous
 62
     7
370
    25
100
AcDbSpline
210
0.0
220
0.0
230
1.0
 70
     8
 71
     3
 72
    10
 73
     6
 74
     0
 42
0.00000001
 43
0.00000001
 40
0.0
 40
0.0
 40
0.0
 40
0.0
 40
0.1653147080759552
 40
0.5826573540379777
 40
1.0
 40
1.0
 40
1.0
 40
1.0
 10
822.6891565412708
 20
151.9833216502237
 30
0.0
 10
822.910793377859
 20
152.0599143935071
 30
0.0
 10
823.6919600040279
 20
152.3298681420842
 30
0.0
 10
824.555734871501
 20
153.1444660787847
 30
0.0
 10
824.7160207059732
 20
153.8864722930118
 30
0.0
 10
824.7961636232093
 20
154.2574754001254
 30
0.0
  0
LINE
  5
340
330
1F
100
AcDbEntity
  8
0
  6
Continuous
 62
     7
370
    25
100
AcDbLine
 10
824.7961636232
 20
154.2574754001
 30
0.0
 11
824.7961636232
 21
157.7562916619
 31
0.0
  0
LINE
  5
341
330
1F
100
AcDbEntity
  8
0
  6
Continuous
 62
     7
370
    25
100
AcDbLine
 10
824.9961636232
 20
158.5005809863
 30
0.0
 11
824.8882377082
 21
157.9544977225
 31
0.0
  0
ARC
  5
342
330
1F
100
AcDbEntity
  8
0
  6
Continuous
 62
     8
370
    25
100
AcDbCircle
 10
576.6158729713
 20
239.136277402
 30
0.0
 40
4.683828426105013
100
AcDbArc
 50
87.7940169716
 51
122.9986255963
  0
LINE
  5
343
330
1F
100
AcDbEntity
  8
0
  6
Continuous
 62
     8
370
    25
100
AcDbLine
 10
576.7961636232
 20
243.5301864464
 30
0.0
 11
576.7961636232
 21
243.8166346539
 31
0.0
  0
LINE
  5
344
330
1F
100
AcDbEntity
  8
0
  6
Continuous
 62
     8
370
    25
100
AcDbLine
 10
819.7961636232
 20
243.5301864464
 30
0.0
 11
819.7961636232
 21
243.8166346539
 31
0.0
  0
ARC
  5
345
330
1F
100
AcDbEntity
  8
0
  6
Continuous
 62
     8
370
    25
100
AcDbCircle
 10
819.9764542753
 20
239.1362774033
 30
0.0
 40
4.683828424732015
100
AcDbArc
 50
57.0013743712
 51
92.2059830317
  0
SPLINE
  5
346
330
1F
100
AcDbEntity
  8
0
  6
Continuous
 62
     8
370
    25
100
AcDbSpline
210
0.0
220
0.0
230
1.0
 70
     8
 71
     3
 72
    10
 73
     6
 74
     0
 42
0.00000001
 43
0.00000001
 40
0.0
 40
0.0
 40
0.0
 40
0.0
 40
0.0776060380507145
 40
0.491512685500586
 40
0.9999999999999999
 40
0.9999999999999999
 40
0.9999999999999999
 40
0.9999999999999999
 10
571.7961636232093
 20
200.4948070846234
 30
0.0
 10
571.7825876814418
 20
200.5169951646586
 30
0.0
 10
571.6966053563032
 20
200.6575218952858
 30
0.0
 10
571.6214171471184
 20
200.9771085189942
 30
0.0
 10
571.6051378803791
 20
201.2708478322918
 30
0.0
 10
571.5961636232092
 20
201.432777247209
 30
0.0
  0
SPLINE
  5
347
330
1F
100
AcDbEntity
  8
0
  6
Continuous
 62
     8
370
    25
100
AcDbSpline
210
0.0
220
0.0
230
1.0
 70
     8
 71
     3
 72
    10
 73
     6
 74
     0
 42
0.00000001
 43
0.00000001
 40
0.0
 40
0.0
 40
0.0
 40
0.0
 40
0.0776060380505143
 40
0.4915126855004809
 40
1.0
 40
1.0
 40
1.0
 40
1.0
 10
824.7961636232093
 20
200.4948070846236
 30
0.0
 10
824.8097395649768
 20
200.5169951646587
 30
0.0
 10
824.8957218901154
 20
200.6575218952859
 30
0.0
 10
824.9709100992999
 20
200.9771085189942
 30
0.0
 10
824.9871893660394
 20
201.2708478322918
 30
0.0
 10
824.9961636232092
 20
201.432777247209
 30
0.0
  0
SPLINE
  5
348
330
1F
100
AcDbEntity
  8
0
  6
Continuous
 62
     8
370
    25
100
AcDbSpline
210
0.0
220
0.0
230
1.0
 70
     8
 71
     3
 72
     9
 73
     5
 74
     0
 42
0.00000001
 43
0.00000001
 40
0.0
 40
0.0
 40
0.0
 40
0.0
 40
0.1805211552047993
 40
1.0
 40
1.0
 40
1.0
 40
1.0
 10
571.7961636232093
 20
157.5626108237475
 30
0.0
 10
571.7824690053083
 20
157.584780375717
 30
0.0
 10
571.706607437253
 20
157.7075889847372
 30
0.0
 10
571.6791765538835
 20
157.8447673025307
 30
0.0
 10
571.6566975252682
 20
157.9571820319271
 30
0.0
  0
SPLINE
  5
349
330
1F
100
AcDbEntity
  8
0
  6
Continuous
 62
     8
370
    25
100
AcDbSpline
210
0.0
220
0.0
230
1.0
 70
     8
 71
     3
 72
    10
 73
     6
 74
     0
 42
0.00000001
 43
0.00000001
 40
0.0
 40
0.0
 40
0.0
 40
0.0
 40
0.0776060380505146
 40
0.4915126855004784
 40
1.0
 40
1.0
 40
1.0
 40
1.0
 10
824.7961636232093
 20
157.5626108237477
 30
0.0
 10
824.8097395649769
 20
157.5847989037829
 30
0.0
 10
824.8957218901153
 20
157.72532563441
 30
0.0
 10
824.9709100993
 20
158.0449122581184
 30
0.0
 10
824.9871893660395
 20
158.3386515714159
 30
0.0
 10
824.9961636232092
 20
158.5005809863331
 30
0.0
  0
SPLINE
  5
34A
330
1F
100
AcDbEntity
  8
0
  6
Continuous
 62
     8
370
    25
100
AcDbSpline
210
0.0
220
0.0
230
1.0
 70
     8
 71
     3
 72
    11
 73
     7
 74
     0
 42
0.00000001
 43
0.00000001
 40
0.0
 40
0.0
 40
0.0
 40
0.0
 40
0.1968685311146565
 40
0.4837079997658048
 40
0.7710594836747552
 40
1.0
 40
1.0
 40
1.0
 40
1.0
 10
575.367793872705
 20
151.3625647466902
 30
0.0
 10
575.128819577107
 20
151.4515079402929
 30
0.0
 10
574.5416572822262
 20
151.6700422790558
 30
0.0
 10
573.8429235958977
 20
152.1415954944985
 30
0.0
 10
573.370957076282
 20
152.6770385913815
 30
0.0
 10
573.3191406825615
 20
152.9997404818588
 30
0.0
 10
573.2961636232093
 20
153.1428369028599
 30
0.0
  0
SPLINE
  5
34B
330
1F
100
AcDbEntity
  8
0
  6
Continuous
 62
     8
370
    25
100
AcDbSpline
210
0.0
220
0.0
230
1.0
 70
     8
 71
     3
 72
    11
 73
     7
 74
     0
 42
0.00000001
 43
0.00000001
 40
0.0
 40
0.0
 40
0.0
 40
0.0
 40
0.1971258268604528
 40
0.4838734019949483
 40
0.7711328283551382
 40
1.0
 40
1.0
 40
1.0
 40
1.0
 10
821.2234064762695
 20
151.3621095541761
 30
0.0
 10
821.4627772495779
 20
151.4511936538083
 30
0.0
 10
822.0503468860055
 20
151.6698632570724
 30
0.0
 10
822.7494137854874
 20
152.1415902314682
 30
0.0
 10
823.2213682260904
 20
152.6770396009136
 30
0.0
 10
823.2731859666328
 20
152.9997407919939
 30
0.0
 10
823.2961636232093
 20
153.1428369028599
 30
0.0
  0
LINE
  5
34C
330
1F
100
AcDbEntity
  8
0
  6
Continuous
 62
     7
370
    25
100
AcDbLine
 10
449.2762708359
 20
148.1666639816
 30
0.0
 11
427.2812687175
 21
140.1684813931
 31
0.0
  0
LINE
  5
34D
330
1F
100
AcDbEntity
  8
0
  6
Continuous
 62
     7
370
    25
100
AcDbLine
 10
522.080466349
 20
140.1704816611
 30
0.0
 11
508.0871472881
 21
148.1666639816
 31
0.0
  0
LINE
  5
34E
330
1F
100
AcDbEntity
  8
0
  6
Continuous
 62
     7
370
    25
100
AcDbLine
 10
398.4714443154
 20
148.8427475545
 30
0.0
 11
400.9571919332
 21
148.7615942027
 31
0.0
  0
LWPOLYLINE
  5
34F
330
1F
100
AcDbEntity
  8
0
  6
Continuous
 62
     7
370
    25
100
AcDbPolyline
 90
        2
 70
   128
 43
0.0
 10
449.2762708359
 20
148.1666639816
 10
449.2762708359
 20
148.1666639816
  0
SPLINE
  5
350
330
1F
100
AcDbEntity
  8
0
  6
Continuous
 62
     7
370
    25
100
AcDbSpline
210
0.0
220
0.0
230
1.0
 70
    24
 71
     3
 72
    14
 73
    10
 74
     0
 42
0.00000001
 43
0.00000001
 40
0.0
 40
0.0
 40
0.0
 40
0.0
 40
0.1326627182286191
 40
0.2743449827971057
 40
0.4220599232186162
 40
0.5711838747092556
 40
0.7233859469369198
 40
0.8670906160005563
 40
1.0
 40
1.0
 40
1.0
 40
1.0
 10
458.2762708358649
 20
148.1666639816
 30
0.0
 10
457.6513515777244
 20
148.1666639815999
 30
0.0
 10
456.3590257049144
 20
148.1666639815998
 30
0.0
 10
454.4590020645886
 20
148.1666639815998
 30
0.0
 10
452.6822267785905
 20
148.1666639815998
 30
0.0
 10
451.1655306751085
 20
148.1666639815998
 30
0.0
 10
450.0610067388304
 20
148.1666639815998
 30
0.0
 10
449.3935880408184
 20
148.1666639815997
 30
0.0
 10
449.3143457200637
 20
148.1666639815999
 30
0.0
 10
449.2762708358648
 20
148.1666639816
 30
0.0
  0
LINE
  5
351
330
1F
100
AcDbEntity
  8
0
  6
Continuous
 62
     7
370
    25
100
AcDbLine
 10
499.0871472881
 20
148.1666639816
 30
0.0
 11
458.2762708359
 21
148.1666639816
 31
0.0
  0
SPLINE
  5
352
330
1F
100
AcDbEntity
  8
0
  6
Continuous
 62
     7
370
    25
100
AcDbSpline
210
0.0
220
0.0
230
1.0
 70
    24
 71
     3
 72
    14
 73
    10
 74
     0
 42
0.00000001
 43
0.00000001
 40
0.0
 40
0.0
 40
0.0
 40
0.0
 40
0.1266453710958634
 40
0.2631942331383681
 40
0.40778266726838
 40
0.5566857848067088
 40
0.7118345976452335
 40
0.8608013323893402
 40
1.0
 40
1.0
 40
1.0
 40
1.0
 10
508.0871472881097
 20
148.1666639816
 30
0.0
 10
508.0526078667308
 20
148.1666639816
 30
0.0
 10
507.9808280895134
 20
148.1666639816001
 30
0.0
 10
507.3763171830728
 20
148.1666639815999
 30
0.0
 10
506.3572280724615
 20
148.1666639816
 30
0.0
 10
504.8928370132306
 20
148.1666639815999
 30
0.0
 10
503.0871807273497
 20
148.1666639816
 30
0.0
 10
501.1006195770478
 20
148.1666639816
 30
0.0
 10
499.7429643761347
 20
148.1666639816
 30
0.0
 10
499.0871472881099
 20
148.1666639816
 30
0.0
  0
SPLINE
  5
353
330
1F
100
AcDbEntity
  8
0
  6
Continuous
 62
     7
370
    25
100
AcDbSpline
210
0.0
220
0.0
230
1.0
 70
    24
 71
     3
 72
    15
 73
    11
 74
     0
 42
0.00000001
 43
0.00000001
 40
0.0
 40
0.0
 40
0.0
 40
0.0
 40
0.1249999999999966
 40
0.2499999999999971
 40
0.3749999999999963
 40
0.4999999999999966
 40
0.6249999999999967
 40
0.7499999999999972
 40
0.8749999999999979
 40
1.0
 40
1.0
 40
1.0
 40
1.0
 10
439.2762708358651
 20
140.1666639815999
 30
0.0
 10
438.4908768142882
 20
140.1666639815999
 30
0.0
 10
436.9200887711341
 20
140.1666639815998
 30
0.0
 10
434.6544959096228
 20
140.1666639815998
 30
0.0
 10
432.5663454752693
 20
140.1666639815998
 30
0.0
 10
430.7366904270665
 20
140.1666639815998
 30
0.0
 10
429.2328295862092
 20
140.1666639815998
 30
0.0
 10
428.1238041574894
 20
140.1666639815998
 30
0.0
 10
427.410252458199
 20
140.1666639815998
 30
0.0
 10
427.320931376643
 20
140.1666639815999
 30
0.0
 10
427.276270835865
 20
140.1666639815999
 30
0.0
  0
LWPOLYLINE
  5
354
330
1F
100
AcDbEntity
  8
0
  6
Continuous
 62
     7
370
    25
100
AcDbPolyline
 90
        2
 70
   128
 43
0.0
 10
427.2762708359
 20
140.1666639816
 10
427.2762708359
 20
140.1666639816
  0
SPLINE
  5
355
330
1F
100
AcDbEntity
  8
0
  6
Continuous
 62
     7
370
    25
100
AcDbSpline
210
0.0
220
0.0
230
1.0
 70
    24
 71
     3
 72
    15
 73
    11
 74
     0
 42
0.00000001
 43
0.00000001
 40
0.0
 40
0.0
 40
0.0
 40
0.0
 40
0.1250000000000016
 40
0.2500000000000018
 40
0.3750000000000011
 40
0.5000000000000012
 40
0.625000000000001
 40
0.7499999999999998
 40
0.875
 40
1.0
 40
1.0
 40
1.0
 40
1.0
 10
522.0871472881103
 20
140.1666639815999
 30
0.0
 10
522.0424867473417
 20
140.1666639815999
 30
0.0
 10
521.9531656658047
 20
140.1666639815999
 30
0.0
 10
521.2396139665323
 20
140.1666639815999
 30
0.0
 10
520.130588537822
 20
140.1666639815999
 30
0.0
 10
518.6267276969655
 20
140.1666639815999
 30
0.0
 10
516.797072648756
 20
140.1666639815999
 30
0.0
 10
514.7089222143894
 20
140.1666639815999
 30
0.0
 10
512.4433293528609
 20
140.1666639815999
 30
0.0
 10
510.8725413096938
 20
140.1666639815999
 30
0.0
 10
510.0871472881103
 20
140.1666639815999
 30
0.0
  0
LINE
  5
356
330
1F
100
AcDbEntity
  8
0
  6
Continuous
 62
     7
370
    25
100
AcDbLine
 10
510.0871472881
 20
140.1666639816
 30
0.0
 11
439.2762708359
 21
140.1666639816
 31
0.0
  0
LINE
  5
357
330
1F
100
AcDbEntity
  8
0
  6
Continuous
 62
     7
370
    25
100
AcDbLine
 10
510.0871472881
 20
137.6666639816
 30
0.0
 11
510.0871472881
 21
140.1666639816
 31
0.0
  0
LINE
  5
358
330
1F
100
AcDbEntity
  8
0
  6
Continuous
 62
     7
370
    25
100
AcDbLine
 10
510.0871472881
 20
137.6666639816
 30
0.0
 11
439.2762708359
 21
137.6666639816
 31
0.0
  0
LINE
  5
359
330
1F
100
AcDbEntity
  8
0
  6
Continuous
 62
     7
370
    25
100
AcDbLine
 10
439.2762708359
 20
137.6666639816
 30
0.0
 11
439.2762708359
 21
140.1666639816
 31
0.0
  0
LINE
  5
35A
330
1F
100
AcDbEntity
  8
0
  6
Continuous
 62
     7
370
    25
100
AcDbLine
 10
522.0871472881
 20
137.6666639816
 30
0.0
 11
522.0871472881
 21
140.1666639816
 31
0.0
  0
LINE
  5
35B
330
1F
100
AcDbEntity
  8
0
  6
Continuous
 62
     7
370
    25
100
AcDbLine
 10
522.0871472881
 20
137.6666639816
 30
0.0
 11
510.0871472881
 21
137.6666639816
 31
0.0
  0
LINE
  5
35C
330
1F
100
AcDbEntity
  8
0
  6
Continuous
 62
     7
370
    25
100
AcDbLine
 10
439.2762708359
 20
137.6666639816
 30
0.0
 11
427.2762708359
 21
137.6666639816
 31
0.0
  0
LINE
  5
35D
330
1F
100
AcDbEntity
  8
0
  6
Continuous
 62
     7
370
    25
100
AcDbLine
 10
427.2762708359
 20
137.6666639816
 30
0.0
 11
427.2762708359
 21
140.1666639816
 31
0.0
  0
LINE
  5
35E
330
1F
100
AcDbEntity
  8
0
  6
Continuous
 62
     7
370
    25
100
AcDbLine
 10
447.0921862253
 20
135.9666639816
 30
0.0
 11
447.0921862253
 21
137.6666639816
 31
0.0
  0
LINE
  5
35F
330
1F
100
AcDbEntity
  8
0
  6
Continuous
 62
     7
370
    25
100
AcDbLine
 10
447.0921862253
 20
135.9666639816
 30
0.0
 11
436.9421862253
 21
135.9666639816
 31
0.0
  0
LINE
  5
360
330
1F
100
AcDbEntity
  8
0
  6
Continuous
 62
     7
370
    25
100
AcDbLine
 10
436.9421862253
 20
135.9666639816
 30
0.0
 11
436.9421862253
 21
137.6666639816
 31
0.0
  0
LINE
  5
361
330
1F
100
AcDbEntity
  8
0
  6
Continuous
 62
     7
370
    25
100
AcDbLine
 10
505.2921862253
 20
135.9666639816
 30
0.0
 11
505.2921862253
 21
137.6666639816
 31
0.0
  0
LINE
  5
362
330
1F
100
AcDbEntity
  8
0
  6
Continuous
 62
     7
370
    25
100
AcDbLine
 10
505.2921862253
 20
135.9666639816
 30
0.0
 11
447.0921862253
 21
135.9666639816
 31
0.0
  0
LINE
  5
363
330
1F
100
AcDbEntity
  8
0
  6
Continuous
 62
     7
370
    25
100
AcDbLine
 10
515.4421862253
 20
135.9666639816
 30
0.0
 11
515.4421862253
 21
137.6666639816
 31
0.0
  0
LINE
  5
364
330
1F
100
AcDbEntity
  8
0
  6
Continuous
 62
     7
370
    25
100
AcDbLine
 10
515.4421862253
 20
135.9666639816
 30
0.0
 11
505.2921862253
 21
135.9666639816
 31
0.0
  0
LINE
  5
365
330
1F
100
AcDbEntity
  8
0
  6
Continuous
 62
     7
370
    25
100
AcDbLine
 10
442.0365696701
 20
174.595825146
 30
0.0
 11
440.8894167974
 21
176.2341292346
 31
0.0
  0
LINE
  5
366
330
1F
100
AcDbEntity
  8
0
  6
Continuous
 62
     7
370
    25
100
AcDbLine
 10
442.0365696701
 20
174.595825146
 30
0.0
 11
433.8450492272
 21
168.8600607825
 31
0.0
  0
LINE
  5
367
330
1F
100
AcDbEntity
  8
0
  6
Continuous
 62
     7
370
    25
100
AcDbLine
 10
433.8450492272
 20
168.8600607825
 30
0.0
 11
432.6978963545
 21
170.4983648711
 31
0.0
  0
LINE
  5
368
330
1F
100
AcDbEntity
  8
0
  6
Continuous
 62
     7
370
    25
100
AcDbLine
 10
440.8894167974
 20
176.2341292346
 30
0.0
 11
432.6978963545
 21
170.4983648711
 31
0.0
  0
LINE
  5
369
330
1F
100
AcDbEntity
  8
0
  6
Continuous
 62
     7
370
    25
100
AcDbLine
 10
443.1837225428
 20
172.9575210574
 30
0.0
 11
436.6305061885
 21
168.3689095666
 31
0.0
  0
ARC
  5
36A
330
1F
100
AcDbEntity
  8
0
  6
Continuous
 62
     7
370
    25
100
AcDbCircle
 10
434.9922020999
 20
167.2217566939
 30
0.0
 40
2.000000000000174
100
AcDbArc
 50
35.0
 51
125.0
  0
LINE
  5
36B
330
1F
100
AcDbEntity
  8
0
  6
Continuous
 62
     7
370
    25
100
AcDbLine
 10
442.0365696701
 20
174.595825146
 30
0.0
 11
443.1837225428
 21
172.9575210574
 31
0.0
  0
LINE
  5
36C
330
1F
100
AcDbEntity
  8
0
  6
Continuous
 62
     7
370
    25
100
AcDbLine
 10
478.8984116631
 20
200.4067647818
 30
0.0
 11
477.7512587904
 21
202.0450688704
 31
0.0
  0
LINE
  5
36D
330
1F
100
AcDbEntity
  8
0
  6
Continuous
 62
     7
370
    25
100
AcDbLine
 10
478.8984116631
 20
200.4067647818
 30
0.0
 11
442.0365696701
 21
174.595825146
 31
0.0
  0
LINE
  5
36E
330
1F
100
AcDbEntity
  8
0
  6
Continuous
 62
     7
370
    25
100
AcDbLine
 10
477.7512587904
 20
202.0450688704
 30
0.0
 11
440.8894167974
 21
176.2341292346
 31
0.0
  0
LINE
  5
36F
330
1F
100
AcDbEntity
  8
0
  6
Continuous
 62
     7
370
    25
100
AcDbLine
 10
478.8984116631
 20
200.4067647818
 30
0.0
 11
480.0455645358
 21
198.7684606932
 31
0.0
  0
LINE
  5
370
330
1F
100
AcDbEntity
  8
0
  6
Continuous
 62
     7
370
    25
100
AcDbLine
 10
480.0455645358
 20
198.7684606932
 30
0.0
 11
443.1837225428
 21
172.9575210574
 31
0.0
  0
LINE
  5
371
330
1F
100
AcDbEntity
  8
0
  6
Continuous
 62
     7
370
    25
100
AcDbLine
 10
487.089932106
 20
206.1425291453
 30
0.0
 11
485.9427792333
 21
207.7808332339
 31
0.0
  0
LINE
  5
372
330
1F
100
AcDbEntity
  8
0
  6
Continuous
 62
     7
370
    25
100
AcDbLine
 10
487.089932106
 20
206.1425291453
 30
0.0
 11
478.8984116631
 21
200.4067647818
 31
0.0
  0
LINE
  5
373
330
1F
100
AcDbEntity
  8
0
  6
Continuous
 62
     7
370
    25
100
AcDbLine
 10
485.9427792333
 20
207.7808332339
 30
0.0
 11
477.7512587904
 21
202.0450688704
 31
0.0
  0
ARC
  5
374
330
1F
100
AcDbEntity
  8
0
  6
Continuous
 62
     7
370
    25
100
AcDbCircle
 10
488.2370849787
 20
204.5042250567
 30
0.0
 40
2.000000000000153
100
AcDbArc
 50
125.0
 51
215.0
  0
LINE
  5
375
330
1F
100
AcDbEntity
  8
0
  6
Continuous
 62
     7
370
    25
100
AcDbLine
 10
486.5987808901
 20
203.357072184
 30
0.0
 11
480.0455645358
 21
198.7684606932
 31
0.0
  0
LINE
  5
376
330
1F
100
AcDbEntity
  8
0
  6
Continuous
 62
     7
370
    25
100
AcDbLine
 10
450.7753554587
 20
148.1679712756
 30
0.0
 11
436.6305061885
 21
168.3689095666
 31
0.0
  0
LINE
  5
377
330
1F
100
AcDbEntity
  8
0
  6
Continuous
 62
     7
370
    25
100
AcDbLine
 10
460.4024260383
 20
148.3666639816
 30
0.0
 11
443.1837225428
 21
172.9575210574
 31
0.0
  0
SPLINE
  5
378
330
1F
100
AcDbEntity
  8
0
  6
Continuous
 62
     7
370
    25
100
AcDbSpline
210
0.0
220
0.0
230
1.0
 70
     8
 71
     3
 72
    18
 73
    14
 74
     0
 42
0.00000001
 43
0.00000001
 40
0.0
 40
0.0
 40
0.0
 40
0.0
 40
0.1126490857222135
 40
0.2286550950751126
 40
0.3446813095900862
 40
0.4062871295794646
 40
0.4704129445453812
 40
0.5538089430595152
 40
0.6395852868244721
 40
0.7294449609592455
 40
0.8156194099632791
 40
0.8991615807252538
 40
0.9999999999999999
 40
0.9999999999999999
 40
0.9999999999999999
 40
0.9999999999999999
 10
450.775355458721
 20
148.1679712756431
 30
0.0
 10
450.8113043170883
 20
148.1685455882428
 30
0.0
 10
450.8842733036992
 20
148.1697113278603
 30
0.0
 10
451.459611752934
 20
148.1824053895228
 30
0.0
 10
452.1957788078776
 20
148.1967191484947
 30
0.0
 10
452.9386997956766
 20
148.2123881085751
 30
0.0
 10
453.6513086525435
 20
148.2274187787003
 30
0.0
 10
454.5250722057625
 20
148.2453019257685
 30
0.0
 10
455.5731574021685
 20
148.2669380886441
 30
0.0
 10
456.6947821434424
 20
148.2901679903525
 30
0.0
 10
457.8506102981711
 20
148.3139500410607
 30
0.0
 10
459.0840763410681
 20
148.3391485552038
 30
0.0
 10
459.9363270225351
 20
148.3569359760573
 30
0.0
 10
460.4024260383145
 20
148.3666639815999
 30
0.0
  0
LINE
  5
379
330
1F
100
AcDbEntity
  8
0
  6
Continuous
 62
     7
370
    25
100
AcDbLine
 10
510.9039768115
 20
154.6980807105
 30
0.0
 11
480.0455645358
 21
198.7684606932
 31
0.0
  0
LINE
  5
37A
330
1F
100
AcDbEntity
  8
0
  6
Continuous
 62
     7
370
    25
100
AcDbLine
 10
504.134619928
 20
149.9581259919
 30
0.0
 11
510.9039768115
 21
154.6980807105
 31
0.0
  0
ARC
  5
37B
330
1F
100
AcDbEntity
  8
0
  6
Continuous
 62
     7
370
    25
100
AcDbCircle
 10
499.0871472881
 20
157.1666639816
 30
0.0
 40
8.800000000000068
100
AcDbArc
 50
270.0
 51
305.0
  0
LINE
  5
37C
330
1F
100
AcDbEntity
  8
0
  6
Continuous
 62
     7
370
    25
100
AcDbLine
 10
460.4024260383
 20
148.3666639816
 30
0.0
 11
499.0871472881
 21
148.3666639816
 31
0.0
  0
LINE
  5
37D
330
1F
100
AcDbEntity
  8
0
  6
Continuous
 62
     7
370
    25
100
AcDbLine
 10
460.4024260383
 20
148.1666639816
 30
0.0
 11
460.4024260383
 21
148.3666639816
 31
0.0
  0
LINE
  5
37E
330
1F
100
AcDbEntity
  8
0
  6
Continuous
 62
     7
370
    25
100
AcDbLine
 10
499.0871472881
 20
148.1666639816
 30
0.0
 11
499.0871472881
 21
148.3666639816
 31
0.0
  0
LINE
  5
37F
330
1F
100
AcDbEntity
  8
0
  6
Continuous
 62
     7
370
    25
100
AcDbLine
 10
517.4571931658
 20
159.2866922013
 30
0.0
 11
486.5987808901
 21
203.357072184
 31
0.0
  0
LINE
  5
380
330
1F
100
AcDbEntity
  8
0
  6
Continuous
 62
     7
370
    25
100
AcDbLine
 10
510.9039768115
 20
154.6980807105
 30
0.0
 11
517.4571931658
 21
159.2866922013
 31
0.0
  0
ARC
  5
381
330
1F
100
AcDbEntity
  8
0
  6
Continuous
 62
     7
370
    25
100
AcDbCircle
 10
499.0871472881
 20
157.1666639816
 30
0.0
 40
9.0
100
AcDbArc
 50
270.0
 51
305.0
  0
LINE
  5
382
330
1F
100
AcDbEntity
  8
0
  6
Continuous
 62
     7
370
    25
100
AcDbLine
 10
504.2493352153
 20
149.794295583
 30
0.0
 11
504.134619928
 21
149.9581259919
 31
0.0
  0
LINE
  5
383
330
1F
100
AcDbEntity
  8
0
  6
Continuous
 62
     7
370
    25
100
AcDbLine
 10
511.0186920987
 20
154.5342503016
 30
0.0
 11
504.2493352153
 21
149.794295583
 31
0.0
  0
LINE
  5
384
330
1F
100
AcDbEntity
  8
0
  6
Continuous
 62
     7
370
    25
100
AcDbLine
 10
511.0186920987
 20
154.5342503016
 30
0.0
 11
510.9039768115
 21
154.6980807105
 31
0.0
  0
LINE
  5
385
330
1F
100
AcDbEntity
  8
0
  6
Continuous
 62
     7
370
    25
100
AcDbLine
 10
517.2881458611
 20
158.9241690865
 30
0.0
 11
511.0186920987
 21
154.5342503016
 31
0.0
  0
LINE
  5
386
330
1F
100
AcDbEntity
  8
0
  6
Continuous
 62
     7
370
    25
100
AcDbLine
 10
517.2881458611
 20
158.9241690865
 30
0.0
 11
517.4571931658
 21
159.2866922013
 31
0.0
  0
SPLINE
  5
387
330
1F
100
AcDbEntity
  8
0
  6
Continuous
 62
     7
370
    25
100
AcDbSpline
210
0.0
220
0.0
230
1.0
 70
    24
 71
     3
 72
    14
 73
    10
 74
     0
 42
0.00000001
 43
0.00000001
 40
0.0
 40
0.0
 40
0.0
 40
0.0
 40
0.0910401110645511
 40
0.2240766723264895
 40
0.3879184094105131
 40
0.502539976449532
 40
0.6371903145168377
 40
0.7999942212806327
 40
1.0
 40
1.0
 40
1.0
 40
1.0
 10
390.0930597574803
 20
156.7803616933262
 30
0.0
 10
390.0905355019618
 20
156.7839667038135
 30
0.0
 10
390.0843225616427
 20
156.7928397021462
 30
0.0
 10
390.0196789557395
 20
156.8851603390654
 30
0.0
 10
389.8858217063211
 20
157.0763283030105
 30
0.0
 10
389.6999049454091
 20
157.3418449545268
 30
0.0
 10
389.4861412594819
 20
157.6471311364975
 30
0.0
 10
389.2091452388746
 20
158.0427224512034
 30
0.0
 10
389.0024783284888
 20
158.3378733873305
 30
0.0
 10
388.8885492411432
 20
158.5005809863331
 30
0.0
  0
SPLINE
  5
388
330
1F
100
AcDbEntity
  8
0
  6
Continuous
 62
     7
370
    25
100
AcDbSpline
210
0.0
220
0.0
230
1.0
 70
    24
 71
     3
 72
    12
 73
     8
 74
     0
 42
0.00000001
 43
0.00000001
 40
0.0
 40
0.0
 40
0.0
 40
0.0
 40
0.207028550262455
 40
0.3865889856367052
 40
0.5537926773531366
 40
0.7594949844213152
 40
1.0
 40
1.0
 40
1.0
 40
1.0
 10
390.0930597574803
 20
156.7803616933262
 30
0.0
 10
389.8105994644946
 20
156.5825808669327
 30
0.0
 10
389.2831551192119
 20
156.2132603603796
 30
0.0
 10
388.5678555298265
 20
155.7124021958137
 30
0.0
 10
387.9912407344498
 20
155.3086521694477
 30
0.0
 10
387.6099810526467
 20
155.0416912662337
 30
0.0
 10
387.5734036046855
 20
155.0160794614429
 30
0.0
 10
387.5536884201844
 20
155.002274740638
 30
0.0
  0
SPLINE
  5
389
330
1F
100
AcDbEntity
  8
0
  6
Continuous
 62
     7
370
    25
100
AcDbSpline
210
0.0
220
0.0
230
1.0
 70
     8
 71
     3
 72
    14
 73
    10
 74
     0
 42
0.00000001
 43
0.00000001
 40
0.0
 40
0.0
 40
0.0
 40
0.0
 40
0.091040111064571
 40
0.2240766723265064
 40
0.3879184094105149
 40
0.5025399764495352
 40
0.6371903145168385
 40
0.7999942212806322
 40
0.9999999999999999
 40
0.9999999999999999
 40
0.9999999999999999
 40
0.9999999999999999
 10
387.5536884201845
 20
155.002274740638
 30
0.0
 10
387.4771630593306
 20
154.9540636193336
 30
0.0
 10
387.2888114854123
 20
154.8354017734209
 30
0.0
 10
386.9182533903314
 20
154.7135187789703
 30
0.0
 10
386.5015543101565
 20
154.7066387608988
 30
0.0
 10
386.105415070512
 20
154.8249560481054
 30
0.0
 10
385.748423987871
 20
155.029953327219
 30
0.0
 10
385.3751298319058
 20
155.3581159616319
 30
0.0
 10
385.1581493009449
 20
155.646045222886
 30
0.0
 10
385.0385346329848
 20
155.8047717354832
 30
0.0
  0
SPLINE
  5
38A
330
1F
100
AcDbEntity
  8
0
  6
Continuous
 62
     7
370
    25
100
AcDbSpline
210
0.0
220
0.0
230
1.0
 70
    24
 71
     3
 72
    12
 73
     8
 74
     0
 42
0.00000001
 43
0.00000001
 40
0.0
 40
0.0
 40
0.0
 40
0.0
 40
0.1888177457787665
 40
0.3742403006135567
 40
0.5600356552974617
 40
0.778279597844109
 40
1.0
 40
1.0
 40
1.0
 40
1.0
 10
388.8885492411432
 20
158.5005809863331
 30
0.0
 10
388.5015732583034
 20
158.2296174860425
 30
0.0
 10
387.7345796288068
 20
157.6925627649104
 30
0.0
 10
386.6525326296577
 20
156.9349052994088
 30
0.0
 10
385.7309473148367
 20
156.2896043148678
 30
0.0
 10
385.129533010615
 20
155.8684894854647
 30
0.0
 10
385.069026792551
 20
155.8261225754677
 30
0.0
 10
385.0385346329848
 20
155.8047717354832
 30
0.0
  0
SPLINE
  5
38B
330
1F
100
AcDbEntity
  8
0
  6
Continuous
 62
     7
370
    25
100
AcDbSpline
210
0.0
220
0.0
230
1.0
 70
    24
 71
     3
 72
    14
 73
    10
 74
     0
 42
0.00000001
 43
0.00000001
 40
0.0
 40
0.0
 40
0.0
 40
0.0
 40
0.091040111064551
 40
0.2240766723264894
 40
0.3879184094105119
 40
0.5025399764495322
 40
0.6371903145168397
 40
0.7999942212806328
 40
1.0
 40
1.0
 40
1.0
 40
1.0
 10
451.4065902725113
 20
199.7125579542021
 30
0.0
 10
451.4040660169928
 20
199.7161629646893
 30
0.0
 10
451.3978530766738
 20
199.725035963022
 30
0.0
 10
451.3332094707705
 20
199.8173565999413
 30
0.0
 10
451.1993522213521
 20
200.0085245638863
 30
0.0
 10
451.0134354604401
 20
200.2740412154027
 30
0.0
 10
450.7996717745129
 20
200.5793273973734
 30
0.0
 10
450.5226757539056
 20
200.9749187120793
 30
0.0
 10
450.3160088435197
 20
201.2700696482064
 30
0.0
 10
450.2020797561741
 20
201.432777247209
 30
0.0
  0
LINE
  5
38C
330
1F
100
AcDbEntity
  8
0
  6
Continuous
 62
     7
370
    25
100
AcDbLine
 10
451.4065902725
 20
199.7125579542
 30
0.0
 11
390.0930597575
 21
156.7803616933
 31
0.0
  0
LINE
  5
38D
330
1F
100
AcDbEntity
  8
0
  6
Continuous
 62
     7
370
    25
100
AcDbLine
 10
450.2020797562
 20
201.4327772472
 30
0.0
 11
388.8885492411
 21
158.5005809863
 31
0.0
  0
SPLINE
  5
38E
330
1F
100
AcDbEntity
  8
0
  6
Continuous
 62
     7
370
    25
100
AcDbSpline
210
0.0
220
0.0
230
1.0
 70
    24
 71
     3
 72
    14
 73
    10
 74
     0
 42
0.00000001
 43
0.00000001
 40
0.0
 40
0.0
 40
0.0
 40
0.0
 40
0.0910401110645509
 40
0.2240766723264884
 40
0.3879184094105122
 40
0.5025399764495324
 40
0.6371903145168364
 40
0.799994221280633
 40
1.0
 40
1.0
 40
1.0
 40
1.0
 10
512.7201207875422
 20
242.644754215078
 30
0.0
 10
512.7175965320238
 20
242.6483592255652
 30
0.0
 10
512.7113835917047
 20
242.6572322238979
 30
0.0
 10
512.6467399858016
 20
242.7495528608172
 30
0.0
 10
512.512882736383
 20
242.9407208247623
 30
0.0
 10
512.3269659754711
 20
243.2062374762786
 30
0.0
 10
512.1132022895439
 20
243.5115236582493
 30
0.0
 10
511.8362062689366
 20
243.9071149729552
 30
0.0
 10
511.6295393585507
 20
244.2022659090823
 30
0.0
 10
511.515610271205
 20
244.3649735080848
 30
0.0
  0
LINE
  5
38F
330
1F
100
AcDbEntity
  8
0
  6
Continuous
 62
     7
370
    25
100
AcDbLine
 10
451.4065902725
 20
199.7125579542
 30
0.0
 11
512.7201207875
 21
242.6447542151
 31
0.0
  0
LINE
  5
390
330
1F
100
AcDbEntity
  8
0
  6
Continuous
 62
     7
370
    25
100
AcDbLine
 10
450.2020797562
 20
201.4327772472
 30
0.0
 11
511.5156102712
 21
244.3649735081
 31
0.0
  0
SPLINE
  5
391
330
1F
100
AcDbEntity
  8
0
  6
Continuous
 62
     7
370
    25
100
AcDbSpline
210
0.0
220
0.0
230
1.0
 70
     8
 71
     3
 72
    14
 73
    10
 74
     0
 42
0.00000001
 43
0.00000001
 40
0.0
 40
0.0
 40
0.0
 40
0.0
 40
0.091040111064566
 40
0.2240766723264983
 40
0.3879184094105209
 40
0.5025399764495345
 40
0.6371903145168399
 40
0.7999942212806372
 40
1.0
 40
1.0
 40
1.0
 40
1.0
 10
515.2594921248382
 20
244.4228411677662
 30
0.0
 10
515.330968974655
 20
244.4782623100451
 30
0.0
 10
515.5068946679351
 20
244.6146701526233
 30
0.0
 10
515.7481655512097
 20
244.9211944209123
 30
0.0
 10
515.8971501325475
 20
245.310410366874
 30
0.0
 10
515.921455850368
 20
245.7231263826999
 30
0.0
 10
515.8509195611547
 20
246.1287014675279
 30
0.0
 10
515.670221675905
 20
246.5917214625268
 30
0.0
 10
515.4738683860944
 20
246.8940940735268
 30
0.0
 10
515.3656248793633
 20
247.0607827589348
 30
0.0
  0
SPLINE
  5
392
330
1F
100
AcDbEntity
  8
0
  6
Continuous
 62
     7
370
    25
100
AcDbSpline
210
0.0
220
0.0
230
1.0
 70
    24
 71
     3
 72
    12
 73
     8
 74
     0
 42
0.00000001
 43
0.00000001
 40
0.0
 40
0.0
 40
0.0
 40
0.0
 40
0.2070285502624555
 40
0.3865889856367027
 40
0.5537926773531374
 40
0.759494984421314
 40
1.0
 40
1.0
 40
1.0
 40
1.0
 10
512.7201207875422
 20
242.644754215078
 30
0.0
 10
513.0025810805281
 20
242.8425350414715
 30
0.0
 10
513.5300254258108
 20
243.2118555480245
 30
0.0
 10
514.245325015196
 20
243.7127137125905
 30
0.0
 10
514.8219398105728
 20
244.1164637389565
 30
0.0
 10
515.2031994923758
 20
244.3834246421704
 30
0.0
 10
515.239776940337
 20
244.4090364469613
 30
0.0
 10
515.2594921248382
 20
244.4228411677662
 30
0.0
  0
SPLINE
  5
393
330
1F
100
AcDbEntity
  8
0
  6
Continuous
 62
     7
370
    25
100
AcDbSpline
210
0.0
220
0.0
230
1.0
 70
    24
 71
     3
 72
    12
 73
     8
 74
     0
 42
0.00000001
 43
0.00000001
 40
0.0
 40
0.0
 40
0.0
 40
0.0
 40
0.1888177457787661
 40
0.3742403006135578
 40
0.5600356552974627
 40
0.7782795978441096
 40
1.0
 40
1.0
 40
1.0
 40
1.0
 10
511.515610271205
 20
244.3649735080848
 30
0.0
 10
511.9025862540449
 20
244.6359370083754
 30
0.0
 10
512.6695798835414
 20
245.1729917295076
 30
0.0
 10
513.7516268826906
 20
245.9306491950091
 30
0.0
 10
514.6732121975115
 20
246.5759501795502
 30
0.0
 10
515.2746265017331
 20
246.9970650089532
 30
0.0
 10
515.3351327197971
 20
247.0394319189502
 30
0.0
 10
515.3656248793633
 20
247.0607827589348
 30
0.0
  0
LINE
  5
394
330
1F
100
AcDbEntity
  8
0
  6
Continuous
 62
     7
370
    25
100
AcDbLine
 10
514.2361470882
 20
239.4335761983
 30
0.0
 11
513.3757824337
 21
240.6623042647
 31
0.0
  0
LINE
  5
395
330
1F
100
AcDbEntity
  8
0
  6
Continuous
 62
     7
370
    25
100
AcDbLine
 10
514.2361470882
 20
239.4335761983
 30
0.0
 11
509.239319618
 21
235.9347599365
 31
0.0
  0
LINE
  5
396
330
1F
100
AcDbEntity
  8
0
  6
Continuous
 62
     7
370
    25
100
AcDbLine
 10
509.239319618
 20
235.9347599365
 30
0.0
 11
397.5888959814
 21
157.7562916619
 31
0.0
  0
LINE
  5
397
330
1F
100
AcDbEntity
  8
0
  6
Continuous
 62
     7
370
    25
100
AcDbLine
 10
392.5920685113
 20
154.2574754001
 30
0.0
 11
397.5888959814
 21
157.7562916619
 31
0.0
  0
LINE
  5
398
330
1F
100
AcDbEntity
  8
0
  6
Continuous
 62
     7
370
    25
100
AcDbLine
 10
392.5920685113
 20
154.2574754001
 30
0.0
 11
391.7317038568
 21
155.4862034666
 31
0.0
  0
LINE
  5
399
330
1F
100
AcDbEntity
  8
0
  6
Continuous
 62
     7
370
    25
100
AcDbLine
 10
513.3757824337
 20
240.6623042647
 30
0.0
 11
391.7317038568
 21
155.4862034666
 31
0.0
  0
LINE
  5
39A
330
1F
100
AcDbEntity
  8
0
  6
Continuous
 62
     7
370
    25
100
AcDbLine
 10
518.3319073096
 20
242.30145838
 30
0.0
 11
517.4715426551
 21
243.5301864464
 31
0.0
  0
SPLINE
  5
39B
330
1F
100
AcDbEntity
  8
0
  6
Continuous
 62
     7
370
    25
100
AcDbSpline
210
0.0
220
0.0
230
1.0
 70
    24
 71
     3
 72
    11
 73
     7
 74
     0
 42
0.00000001
 43
0.00000001
 40
0.0
 40
0.0
 40
0.0
 40
0.0
 40
0.2499999999999995
 40
0.4999999999999996
 40
0.7499999999999989
 40
1.0
 40
1.0
 40
1.0
 40
1.0
 10
518.3319073096425
 20
242.3014583800111
 30
0.0
 10
518.2703415917545
 20
242.2583496002506
 30
0.0
 10
518.1472101559783
 20
242.1721320407295
 30
0.0
 10
517.2000688276312
 20
241.5089365428709
 30
0.0
 10
515.8462360228696
 20
240.5609726075013
 30
0.0
 10
514.772843399755
 20
239.8093750013377
 30
0.0
 10
514.2361470881975
 20
239.4335761982559
 30
0.0
  0
LINE
  5
39C
330
1F
100
AcDbEntity
  8
0
  6
Continuous
 62
     7
370
    25
100
AcDbLine
 10
517.4715426551
 20
243.5301864464
 30
0.0
 11
513.3757824337
 21
240.6623042647
 31
0.0
  0
SPLINE
  5
39D
330
1F
100
AcDbEntity
  8
0
  6
Continuous
 62
     7
370
    25
100
AcDbSpline
210
0.0
220
0.0
230
1.0
 70
    24
 71
     3
 72
    11
 73
     7
 74
     0
 42
0.00000001
 43
0.00000001
 40
0.0
 40
0.0
 40
0.0
 40
0.0
 40
0.249999999999999
 40
0.5000000000000017
 40
0.750000000000001
 40
1.0
 40
1.0
 40
1.0
 40
1.0
 10
388.4963082898374
 20
151.3895932183702
 30
0.0
 10
388.5578740077254
 20
151.4327019981307
 30
0.0
 10
388.6810054435017
 20
151.5189195576517
 30
0.0
 10
389.6281467718488
 20
152.1821150555103
 30
0.0
 10
390.9819795766103
 20
153.13007899088
 30
0.0
 10
392.055372199725
 20
153.8816765970436
 30
0.0
 10
392.5920685112824
 20
154.2574754001253
 30
0.0
  0
LINE
  5
39E
330
1F
100
AcDbEntity
  8
0
  6
Continuous
 62
     7
370
    25
100
AcDbLine
 10
388.4963082898
 20
151.3895932184
 30
0.0
 11
387.6359436353
 21
152.6183212848
 31
0.0
  0
LINE
  5
39F
330
1F
100
AcDbEntity
  8
0
  6
Continuous
 62
     7
370
    25
100
AcDbLine
 10
387.6359436353
 20
152.6183212848
 30
0.0
 11
391.7317038568
 21
155.4862034666
 31
0.0
  0
LINE
  5
3A0
330
1F
100
AcDbEntity
  8
0
  6
Continuous
 62
     7
370
    25
100
AcDbLine
 10
401.7760039668
 20
151.7764817386
 30
0.0
 11
513.4264276034
 21
229.9549500132
 31
0.0
  0
SPLINE
  5
3A1
330
1F
100
AcDbEntity
  8
0
  6
Continuous
 62
     7
370
    25
100
AcDbSpline
210
0.0
220
0.0
230
1.0
 70
    24
 71
     3
 72
    10
 73
     6
 74
     0
 42
0.00000001
 43
0.00000001
 40
0.0
 40
0.0
 40
0.0
 40
0.0
 40
0.3918890994668981
 40
0.6959445497334478
 40
1.0
 40
1.0
 40
1.0
 40
1.0
 10
398.5278608691925
 20
156.4153108290297
 30
0.0
 10
399.0480087924219
 20
155.6724626092585
 30
0.0
 10
399.9717244883142
 20
154.3532598793734
 30
0.0
 10
401.0358162772887
 20
152.8335793119591
 30
0.0
 10
401.5292747369681
 20
152.1288475963578
 30
0.0
 10
401.7760039668078
 20
151.7764817385571
 30
0.0
  0
LINE
  5
3A2
330
1F
100
AcDbEntity
  8
0
  6
Continuous
 62
     7
370
    25
100
AcDbLine
 10
397.5888959814
 20
157.7562916619
 30
0.0
 11
398.5278608692
 21
156.415310829
 31
0.0
  0
LINE
  5
3A3
330
1F
100
AcDbEntity
  8
0
  6
Continuous
 62
     7
370
    25
100
AcDbLine
 10
509.239319618
 20
235.9347599365
 30
0.0
 11
510.1782845058
 21
234.5937791037
 31
0.0
  0
SPLINE
  5
3A4
330
1F
100
AcDbEntity
  8
0
  6
Continuous
 62
     7
370
    25
100
AcDbSpline
210
0.0
220
0.0
230
1.0
 70
    24
 71
     3
 72
    10
 73
     6
 74
     0
 42
0.00000001
 43
0.00000001
 40
0.0
 40
0.0
 40
0.0
 40
0.0
 40
0.391889280419473
 40
0.6959446402097351
 40
1.0
 40
1.0
 40
1.0
 40
1.0
 10
510.1782832612183
 20
234.5937808810985
 30
0.0
 10
510.6984316302517
 20
233.8509320246535
 30
0.0
 10
511.6221478114011
 20
232.5317286017494
 30
0.0
 10
512.6862399131787
 20
231.0120475876056
 30
0.0
 10
513.1796983733244
 20
230.3073158713384
 30
0.0
 10
513.4264276033973
 20
229.9549500132048
 30
0.0
  0
SPLINE
  5
3A5
330
1F
100
AcDbEntity
  8
0
  6
Continuous
 62
     7
370
    25
100
AcDbSpline
210
0.0
220
0.0
230
1.0
 70
     8
 71
     3
 72
    11
 73
     7
 74
     0
 42
0.00000001
 43
0.00000001
 40
0.0
 40
0.0
 40
0.0
 40
0.0
 40
0.3261778823445963
 40
0.6625225848603622
 40
0.8308491829730393
 40
1.0
 40
1.0
 40
1.0
 40
1.0
 10
391.0315763912762
 20
150.3840253346231
 30
0.0
 10
391.020824562836
 20
150.3993805334025
 30
0.0
 10
390.9989857762238
 20
150.4305695457083
 30
0.0
 10
390.8754678343359
 20
150.6069714509032
 30
0.0
 10
390.8303523331883
 20
150.6714030635892
 30
0.0
 10
390.7087016855171
 20
150.8451381936149
 30
0.0
 10
390.6477278083853
 20
150.9322179147215
 30
0.0
  0
LINE
  5
3A6
330
1F
100
AcDbEntity
  8
0
  6
Continuous
 62
     7
370
    25
100
AcDbLine
 10
391.0315750751
 20
150.3840272059
 30
0.0
 11
388.4963082898
 21
151.3895932184
 31
0.0
  0
LWPOLYLINE
  5
3A7
330
1F
100
AcDbEntity
  8
0
  6
Continuous
 62
     7
370
    25
100
AcDbPolyline
 90
        2
 70
   128
 43
0.0
 10
388.4963082898
 20
151.3895932184
 10
388.4963082898
 20
151.3895932184
  0
SPLINE
  5
3A8
330
1F
100
AcDbEntity
  8
0
  6
Continuous
 62
     7
370
    25
100
AcDbSpline
210
0.0
220
0.0
230
1.0
 70
     8
 71
     3
 72
    10
 73
     6
 74
     0
 42
0.00000001
 43
0.00000001
 40
0.0
 40
0.0
 40
0.0
 40
0.0
 40
0.2494464241635801
 40
0.4993882841688486
 40
1.0
 40
1.0
 40
1.0
 40
1.0
 10
393.3725467894465
 20
153.1428369028599
 30
0.0
 10
393.8147537808737
 20
153.3929736610744
 30
0.0
 10
394.700046049291
 20
153.8937439844463
 30
0.0
 10
396.390845631874
 20
155.0295631626732
 30
0.0
 10
397.6728045978174
 20
155.8608526315297
 30
0.0
 10
398.5278583850849
 20
156.4153143791708
 30
0.0
  0
SPLINE
  5
3A9
330
1F
100
AcDbEntity
  8
0
  6
Continuous
 62
     7
370
    25
100
AcDbSpline
210
0.0
220
0.0
230
1.0
 70
     8
 71
     3
 72
    12
 73
     8
 74
     0
 42
0.00000001
 43
0.00000001
 40
0.0
 40
0.0
 40
0.0
 40
0.0
 40
0.2085783924016788
 40
0.4171718222506755
 40
0.6253296784638778
 40
0.8338591013896866
 40
0.9999999999999999
 40
0.9999999999999999
 40
0.9999999999999999
 40
0.9999999999999999
 10
390.6477278083853
 20
150.9322179147215
 30
0.0
 10
390.6248141964109
 20
151.0252928728039
 30
0.0
 10
390.5789853205065
 20
151.2114494992023
 30
0.0
 10
390.978051334717
 20
151.6252602335028
 30
0.0
 10
391.6516903640463
 20
152.13874203201
 30
0.0
 10
392.4911020623896
 20
152.6775859303729
 30
0.0
 10
393.1017609522204
 20
152.9999086281333
 30
0.0
 10
393.3725467894465
 20
153.1428369028599
 30
0.0
  0
SPLINE
  5
3AA
330
1F
100
AcDbEntity
  8
0
  6
Continuous
 62
     7
370
    25
100
AcDbSpline
210
0.0
220
0.0
230
1.0
 70
     8
 71
     3
 72
    12
 73
     8
 74
     0
 42
0.00000001
 43
0.00000001
 40
0.0
 40
0.0
 40
0.0
 40
0.0
 40
0.2085783924016693
 40
0.4171718222506497
 40
0.6253296784639023
 40
0.8338591013896655
 40
1.0
 40
1.0
 40
1.0
 40
1.0
 10
518.0258706953233
 20
240.1233537673094
 30
0.0
 10
517.9462457608851
 20
240.1767190299007
 30
0.0
 10
517.7869901514534
 20
240.2834534024488
 30
0.0
 10
517.2616466426525
 20
240.0499856203439
 30
0.0
 10
516.5487334683265
 20
239.5925931137302
 30
0.0
 10
515.7552901239027
 20
238.9880996023441
 30
0.0
 10
515.2435482222825
 20
238.5245088050377
 30
0.0
 10
515.0166253663616
 20
238.3189377009904
 30
0.0
  0
SPLINE
  5
3AB
330
1F
100
AcDbEntity
  8
0
  6
Continuous
 62
     7
370
    25
100
AcDbSpline
210
0.0
220
0.0
230
1.0
 70
     8
 71
     3
 72
    10
 73
     6
 74
     0
 42
0.00000001
 43
0.00000001
 40
0.0
 40
0.0
 40
0.0
 40
0.0
 40
0.2494464241635843
 40
0.4993882841688529
 40
1.0
 40
1.0
 40
1.0
 40
1.0
 10
515.0166253663616
 20
238.3189377009904
 30
0.0
 10
514.6303300018925
 20
237.9889508641818
 30
0.0
 10
513.8569720357823
 20
237.3283217900841
 30
0.0
 10
512.2113636198852
 20
236.1279629372321
 30
0.0
 10
510.9917512509942
 20
235.2076333000681
 30
0.0
 10
510.1782820193554
 20
234.5937826521946
 30
0.0
  0
LWPOLYLINE
  5
3AC
330
1F
100
AcDbEntity
  8
0
  6
Continuous
 62
     7
370
    25
100
AcDbPolyline
 90
        2
 70
   128
 43
0.0
 10
518.3319073096
 20
242.30145838
 10
518.3319073096
 20
242.30145838
  0
SPLINE
  5
3AD
330
1F
100
AcDbEntity
  8
0
  6
Continuous
 62
     7
370
    25
100
AcDbSpline
210
0.0
220
0.0
230
1.0
 70
     8
 71
     3
 72
     9
 73
     5
 74
     0
 42
0.00000001
 43
0.00000001
 40
0.0
 40
0.0
 40
0.0
 40
0.0
 40
0.5599897548133917
 40
0.9999999999999999
 40
0.9999999999999999
 40
0.9999999999999999
 40
0.9999999999999999
 10
518.4097192977717
 20
239.5751630358189
 30
0.0
 10
518.4118561126378
 20
240.0845832236119
 30
0.0
 10
518.4156719232801
 20
240.9942787732433
 30
0.0
 10
518.3575024665573
 20
241.9020359306227
 30
0.0
 10
518.3319073096424
 20
242.3014583800111
 30
0.0
  0
SPLINE
  5
3AE
330
1F
100
AcDbEntity
  8
0
  6
Continuous
 62
     7
370
    25
100
AcDbSpline
210
0.0
220
0.0
230
1.0
 70
     8
 71
     3
 72
    11
 73
     7
 74
     0
 42
0.00000001
 43
0.00000001
 40
0.0
 40
0.0
 40
0.0
 40
0.0
 40
0.3261832286596992
 40
0.6625252595228429
 40
0.8308505175048891
 40
1.0
 40
1.0
 40
1.0
 40
1.0
 10
518.4097192977717
 20
239.5751630358189
 30
0.0
 10
518.3989671436887
 20
239.590517905266
 30
0.0
 10
518.3771279654342
 20
239.6217058633568
 30
0.0
 10
518.2536095624496
 20
239.798109024878
 30
0.0
 10
518.2084947110884
 20
239.8625396313627
 30
0.0
 10
518.0868444039561
 20
240.0362742829058
 30
0.0
 10
518.0258706953233
 20
240.1233537673094
 30
0.0
  0
ARC
  5
3AF
330
1F
100
AcDbEntity
  8
0
  6
Continuous
 62
     7
370
    25
100
AcDbCircle
 10
386.9148518288
 20
153.8224917904
 30
0.0
 40
1.400000000000027
100
AcDbArc
 50
305.0
 51
35.0
  0
LINE
  5
3B0
330
1F
100
AcDbEntity
  8
0
  6
Continuous
 62
     7
370
    25
100
AcDbLine
 10
388.0616646909
 20
154.6254988013
 30
0.0
 11
390.9286968459
 21
156.6330163286
 31
0.0
  0
LINE
  5
3B1
330
1F
100
AcDbEntity
  8
0
  6
Continuous
 62
     7
370
    25
100
AcDbLine
 10
391.7317038568
 20
155.4862034666
 30
0.0
 11
390.9286968459
 21
156.6330163286
 31
0.0
  0
LINE
  5
3B2
330
1F
100
AcDbEntity
  8
0
  6
Continuous
 62
     7
370
    25
100
AcDbLine
 10
513.3757824337
 20
240.6623042647
 30
0.0
 11
512.5727754228
 21
241.8091171267
 31
0.0
  0
LINE
  5
3B3
330
1F
100
AcDbEntity
  8
0
  6
Continuous
 62
     7
370
    25
100
AcDbLine
 10
512.5727754228
 20
241.8091171267
 30
0.0
 11
390.9286968459
 21
156.6330163286
 31
0.0
  0
LINE
  5
3B4
330
1F
100
AcDbEntity
  8
0
  6
Continuous
 62
     7
370
    25
100
AcDbLine
 10
515.4398075778
 20
243.8166346539
 30
0.0
 11
512.5727754228
 21
241.8091171267
 31
0.0
  0
ARC
  5
3B5
330
1F
100
AcDbEntity
  8
0
  6
Continuous
 62
     7
370
    25
100
AcDbCircle
 10
516.5866204398
 20
244.6196416648
 30
0.0
 40
1.400000000000037
100
AcDbArc
 50
215.0
 51
305.0
  0
LINE
  5
3B6
330
1F
100
AcDbEntity
  8
0
  6
Continuous
 62
     7
370
    25
100
AcDbLine
 10
386.1527784661
 20
157.4395159236
 30
0.0
 11
388.2699704172
 21
158.92198971
 31
0.0
  0
LINE
  5
3B7
330
1F
100
AcDbEntity
  8
0
  6
Continuous
 62
     7
370
    25
100
AcDbLine
 10
388.2699704172
 20
158.92198971
 30
0.0
 11
388.6357189631
 21
158.3996466533
 31
0.0
  0
ARC
  5
3B8
330
1F
100
AcDbEntity
  8
0
  6
Continuous
 62
     7
370
    25
100
AcDbCircle
 10
386.9308447054
 20
156.3283221747
 30
0.0
 40
1.356517110128376
100
AcDbArc
 50
125.0
 51
182.9995302843
  0
LINE
  5
3B9
330
1F
100
AcDbEntity
  8
0
  6
Continuous
 62
     7
370
    25
100
AcDbLine
 10
388.6357189631
 20
158.3996466533
 30
0.0
 11
511.6969323733
 21
244.5680359444
 31
0.0
  0
LWPOLYLINE
  5
3BA
330
1F
100
AcDbEntity
  8
0
  6
Continuous
 62
     7
370
    25
100
AcDbPolyline
 90
        9
 70
   128
 43
0.0
 10
511.331183838
 20
245.0903789861
 10
511.7442274994
 20
245.3795952718
 10
512.1413981241
 20
245.6576971385
 10
512.5074326678
 20
245.9139972873
 10
512.8282646281
 20
246.1386462472
 10
513.0915646129
 20
246.3230108847
 10
513.2872141514
 20
246.4600061703
 10
513.4076945414
 20
246.5443674518
 10
513.4483757997
 20
246.5728527575
  0
ARC
  5
3BB
330
1F
100
AcDbEntity
  8
0
  6
Continuous
 62
     7
370
    25
100
AcDbCircle
 10
514.2264420391
 20
245.4616590086
 30
0.0
 40
1.356517110162289
100
AcDbArc
 50
67.0004697148
 51
125.0
  0
LINE
  5
3BC
330
1F
100
AcDbEntity
  8
0
  6
Continuous
 62
     7
370
    25
100
AcDbLine
 10
511.331183838
 20
245.0903789861
 30
0.0
 11
511.6969323733
 21
244.5680359444
 31
0.0
  0
LINE
  5
3BD
330
1F
100
AcDbEntity
  8
0
  6
Continuous
 62
     7
370
    25
100
AcDbLine
 10
388.2699704172
 20
158.92198971
 30
0.0
 11
511.331183838
 21
245.0903789861
 31
0.0
  0
SPLINE
  5
3BE
330
1F
100
AcDbEntity
  8
0
  6
Continuous
 62
     7
370
    25
100
AcDbSpline
210
0.0
220
0.0
230
1.0
 70
    24
 71
     3
 72
    11
 73
     7
 74
     0
 42
0.00000001
 43
0.00000001
 40
0.0
 40
0.0
 40
0.0
 40
0.0
 40
0.2497816187744456
 40
0.499487388193744
 40
0.7494040450777407
 40
0.9999999999999999
 40
0.9999999999999999
 40
0.9999999999999999
 40
0.9999999999999999
 10
401.7760039668078
 20
151.7764817385571
 30
0.0
 10
401.2397812748808
 20
151.4010145675108
 30
0.0
 10
400.1674987218453
 20
150.6501942407845
 30
0.0
 10
398.8143121784648
 20
149.7026828225055
 30
0.0
 10
397.8656538173756
 20
149.0384250868853
 30
0.0
 10
397.7421029972824
 20
148.951913871304
 30
0.0
 10
397.6802437453628
 20
148.9085995568019
 30
0.0
  0
SPLINE
  5
3BF
330
1F
100
AcDbEntity
  8
0
  6
Continuous
 62
     7
370
    25
100
AcDbSpline
210
0.0
220
0.0
230
1.0
 70
     8
 71
     3
 72
     9
 73
     5
 74
     0
 42
0.00000001
 43
0.00000001
 40
0.0
 40
0.0
 40
0.0
 40
0.0
 40
0.5000000000000002
 40
0.9999999999999999
 40
0.9999999999999999
 40
0.9999999999999999
 40
0.9999999999999999
 10
397.6802437453628
 20
148.9085995568019
 30
0.0
 10
396.551130850245
 20
149.0598646347748
 30
0.0
 10
394.2929050600096
 20
149.3623947907207
 30
0.0
 10
392.1186862303354
 20
150.0434826673055
 30
0.0
 10
391.0315768154982
 20
150.384026605598
 30
0.0
  0
SPLINE
  5
3C0
330
1F
100
AcDbEntity
  8
0
  6
Continuous
 62
     7
370
    25
100
AcDbSpline
210
0.0
220
0.0
230
1.0
 70
    24
 71
     3
 72
    12
 73
     8
 74
     0
 42
0.00000001
 43
0.00000001
 40
0.0
 40
0.0
 40
0.0
 40
0.0
 40
0.1911404704009168
 40
0.374056085325387
 40
0.5535335593873704
 40
0.7747568659516139
 40
1.0
 40
1.0
 40
1.0
 40
1.0
 10
513.4264276033973
 20
229.9549500132048
 30
0.0
 10
513.8360366228759
 20
230.2417613363624
 30
0.0
 10
514.6376290120688
 20
230.8030423698468
 30
0.0
 10
515.7214890523231
 20
231.5619693403972
 30
0.0
 10
516.657971257264
 20
232.217701239696
 30
0.0
 10
517.3737011511998
 20
232.718860706752
 30
0.0
 10
517.4723960621559
 20
232.7879676273864
 30
0.0
 10
517.5221878248421
 20
232.8228321949601
 30
0.0
  0
SPLINE
  5
3C1
330
1F
100
AcDbEntity
  8
0
  6
Continuous
 62
     7
370
    25
100
AcDbSpline
210
0.0
220
0.0
230
1.0
 70
     8
 71
     3
 72
     9
 73
     5
 74
     0
 42
0.00000001
 43
0.00000001
 40
0.0
 40
0.0
 40
0.0
 40
0.0
 40
0.5599361940212528
 40
1.0
 40
1.0
 40
1.0
 40
1.0
 10
517.5221878248421
 20
232.8228321949601
 30
0.0
 10
517.7912640138716
 20
234.0702471634904
 30
0.0
 10
518.2718119618384
 20
236.2980277246502
 30
0.0
 10
518.3675767018177
 20
238.5737153001333
 30
0.0
 10
518.4097192977717
 20
239.5751630358189
 30
0.0
  0
LINE
  5
3C2
330
1F
100
AcDbEntity
  8
0
  6
Continuous
 62
     7
370
    25
100
AcDbLine
 10
390.9286968459
 20
156.6330163286
 30
0.0
 11
390.5845509841
 21
157.1245075551
 31
0.0
  0
LINE
  5
3C3
330
1F
100
AcDbEntity
  8
0
  6
Continuous
 62
     7
370
    25
100
AcDbLine
 10
388.0616646909
 20
154.6254988013
 30
0.0
 11
387.717518829
 21
155.1169900279
 31
0.0
  0
LINE
  5
3C4
330
1F
100
AcDbEntity
  8
0
  6
Continuous
 62
     7
370
    25
100
AcDbLine
 10
512.5727754228
 20
241.8091171267
 30
0.0
 11
512.228629561
 21
242.3006083533
 31
0.0
  0
LINE
  5
3C5
330
1F
100
AcDbEntity
  8
0
  6
Continuous
 62
     7
370
    25
100
AcDbLine
 10
515.4398075778
 20
243.8166346539
 30
0.0
 11
515.095661716
 21
244.3081258805
 31
0.0
  0
LINE
  5
3C6
330
1F
100
AcDbEntity
  8
0
  6
Continuous
 62
     7
370
    25
100
AcDbLine
 10
513.7234661442
 20
229.5307350133
 30
0.0
 11
513.4264276034
 21
229.9549500132
 31
0.0
  0
LINE
  5
3C7
330
1F
100
AcDbEntity
  8
0
  6
Continuous
 62
     7
370
    25
100
AcDbLine
 10
402.0745880211
 20
151.3530671463
 30
0.0
 11
513.7221854102
 21
229.5295564612
 31
0.0
  0
LINE
  5
3C8
330
1F
100
AcDbEntity
  8
0
  6
Continuous
 62
     7
370
    25
100
AcDbLine
 10
402.0730425076
 20
151.3522667386
 30
0.0
 11
401.7760039668
 21
151.7764817386
 31
0.0
  0
LINE
  5
3C9
330
1F
100
AcDbEntity
  8
0
  6
Continuous
 62
     7
370
    25
100
AcDbLine
 10
517.3068689517
 20
232.0367181801
 30
0.0
 11
517.0306965983
 21
232.4786863331
 31
0.0
  0
SPLINE
  5
3CA
330
1F
100
AcDbEntity
  8
0
  6
Continuous
 62
     7
370
    25
100
AcDbSpline
210
0.0
220
0.0
230
1.0
 70
     8
 71
     3
 72
    11
 73
     7
 74
     0
 42
0.00000001
 43
0.00000001
 40
0.0
 40
0.0
 40
0.0
 40
0.0
 40
0.250012497512195
 40
0.5000133941190821
 40
0.7500125292339629
 40
1.0
 40
1.0
 40
1.0
 40
1.0
 10
513.7221842001381
 20
229.5295585359362
 30
0.0
 10
514.1918299091006
 20
229.858169367934
 30
0.0
 10
515.1310995348532
 20
230.5153757839595
 30
0.0
 10
516.3159487541255
 20
231.3443002068408
 30
0.0
 10
517.1449580507883
 20
231.9240628773096
 30
0.0
 10
517.2528994907692
 20
231.9991669965139
 30
0.0
 10
517.3068689516595
 20
232.0367181800519
 30
0.0
  0
LINE
  5
3CB
330
1F
100
AcDbEntity
  8
0
  6
Continuous
 62
     7
370
    25
100
AcDbLine
 10
514.0820892495
 20
227.9725000628
 30
0.0
 11
513.7174582057
 21
229.5272844925
 31
0.0
  0
LINE
  5
3CC
330
1F
100
AcDbEntity
  8
0
  6
Continuous
 62
     7
370
    25
100
AcDbLine
 10
403.4146480661
 20
150.4823235118
 30
0.0
 11
514.0820892495
 21
227.9725000628
 31
0.0
  0
LINE
  5
3CD
330
1F
100
AcDbEntity
  8
0
  6
Continuous
 62
     7
370
    25
100
AcDbLine
 10
403.4146480661
 20
150.4823235118
 30
0.0
 11
402.0783397724
 21
151.3567322065
 31
0.0
  0
SPLINE
  5
3CE
330
1F
100
AcDbEntity
  8
0
  6
Continuous
 62
     7
370
    25
100
AcDbSpline
210
0.0
220
0.0
230
1.0
 70
    24
 71
     3
 72
    12
 73
     8
 74
     0
 42
0.00000001
 43
0.00000001
 40
0.0
 40
0.0
 40
0.0
 40
0.0
 40
0.2036732168046796
 40
0.3832821258792969
 40
0.555564111604289
 40
0.7635190360109281
 40
1.0
 40
1.0
 40
1.0
 40
1.0
 10
400.9571919332162
 20
148.7615942027366
 30
0.0
 10
400.9814242002826
 20
148.7785618188043
 30
0.0
 10
401.0270256543262
 20
148.810492300679
 30
0.0
 10
401.3601722914504
 20
149.0437640873226
 30
0.0
 10
401.8446571954452
 20
149.3830040692485
 30
0.0
 10
402.5373298267619
 20
149.8680186672081
 30
0.0
 10
403.1099573211953
 20
150.2689767553965
 30
0.0
 10
403.4146480660833
 20
150.4823235117898
 30
0.0
  0
SPLINE
  5
3CF
330
1F
100
AcDbEntity
  8
0
  6
Continuous
 62
     7
370
    25
100
AcDbSpline
210
0.0
220
0.0
230
1.0
 70
     8
 71
     3
 72
    11
 73
     7
 74
     0
 42
0.00000001
 43
0.00000001
 40
0.0
 40
0.0
 40
0.0
 40
0.0
 40
0.2500124975121933
 40
0.5000133941190801
 40
0.7500125292339603
 40
1.0
 40
1.0
 40
1.0
 40
1.0
 10
402.0745864853438
 20
151.3530689930318
 30
0.0
 10
401.6051650187126
 20
151.0241379097938
 30
0.0
 10
400.6663438672173
 20
150.366291006148
 30
0.0
 10
399.4821674040488
 20
149.5364057879718
 30
0.0
 10
398.6538308223369
 20
148.9556823809819
 30
0.0
 10
398.5463378889565
 20
148.8799377279691
 30
0.0
 10
398.492592676135
 20
148.8420662849985
 30
0.0
  0
LINE
  5
3D0
330
1F
100
AcDbEntity
  8
0
  6
Continuous
 62
     7
370
    25
100
AcDbLine
 10
398.4925926761
 20
148.842066285
 30
0.0
 11
398.1717349719
 21
149.2527454186
 31
0.0
  0
LINE
  5
3D1
330
1F
100
AcDbEntity
  8
0
  6
Continuous
 62
     7
370
    25
100
AcDbLine
 10
517.3068689517
 20
232.0367181801
 30
0.0
 11
517.3068752802
 21
232.0367080522
 31
0.0
  0
LINE
  5
3D2
330
1F
100
AcDbEntity
  8
0
  6
Continuous
 62
     7
370
    25
100
AcDbLine
 10
517.3068752802
 20
232.0367080522
 30
0.0
 11
516.5395453824
 21
229.6932293719
 31
0.0
  0
SPLINE
  5
3D3
330
1F
100
AcDbEntity
  8
0
  6
Continuous
 62
     7
370
    25
100
AcDbSpline
210
0.0
220
0.0
230
1.0
 70
    24
 71
     3
 72
    12
 73
     8
 74
     0
 42
0.00000001
 43
0.00000001
 40
0.0
 40
0.0
 40
0.0
 40
0.0
 40
0.2036732166082014
 40
0.3832821256573111
 40
0.5555641113848497
 40
0.7635190358013992
 40
0.9999999999999999
 40
0.9999999999999999
 40
0.9999999999999999
 40
0.9999999999999999
 10
514.0820892495259
 20
227.9725000628162
 30
0.0
 10
514.3441204023906
 20
228.1559762512978
 30
0.0
 10
514.8372233195578
 20
228.5012506310116
 30
0.0
 10
515.4840019635288
 20
228.9541299130731
 30
0.0
 10
516.0181517269764
 20
229.328145603972
 30
0.0
 10
516.4450533309841
 20
229.6270653251721
 30
0.0
 10
516.5067284953766
 20
229.6702507402
 30
0.0
 10
516.5395453823929
 20
229.6932293718694
 30
0.0
  0
ARC
  5
3D4
330
1F
100
AcDbEntity
  8
0
  6
Continuous
 62
     7
370
    25
100
AcDbCircle
 10
436.4274936336
 20
172.3773922471
 30
0.0
 40
1.00000000000001
100
AcDbArc
 50
71.8698976458
 51
125.0
  0
ARC
  5
3D5
330
1F
100
AcDbEntity
  8
0
  6
Continuous
 62
     7
370
    25
100
AcDbCircle
 10
482.2163965547
 20
204.4391272389
 30
0.0
 40
0.9999999999999696
100
AcDbArc
 50
125.0
 51
178.1301023542
  0
LWPOLYLINE
  5
3D6
330
1F
100
AcDbEntity
  8
0
  6
Continuous
 62
     7
370
    25
100
AcDbPolyline
 90
        2
 70
   128
 43
0.0
 10
398.4926000287
 20
148.8420568742
 10
398.4926000287
 20
148.8420568742
  0
LINE
  5
3D7
330
1F
100
AcDbEntity
  8
0
  6
Continuous
 62
     8
370
    25
100
AcDbLine
 10
445.0522144794
 20
179.1489515516
 30
0.0
 11
444.8227839049
 21
179.4766123693
 31
0.0
  0
LINE
  5
3D8
330
1F
100
AcDbEntity
  8
0
  6
Continuous
 62
     8
370
    25
100
AcDbLine
 10
472.9033839853
 20
198.6505503876
 30
0.0
 11
472.6739534107
 21
198.9782112053
 31
0.0
  0
LINE
  5
3D9
330
1F
100
AcDbEntity
  8
SLD-0
  6
HIDDEN
 62
     7
100
AcDbLine
 10
385.038534633
 20
155.8047717355
 30
0.0
 11
367.8269854253
 21
155.8047717355
 31
0.0
  0
DIMENSION
  5
3DA
330
1F
100
AcDbEntity
  8
SLD-0
 62
     7
100
AcDbDimension
  2
_D_4
 10
367.8269854253
 20
155.8047717355
 30
0.0
 11
379.6162408547
 21
184.6049333646
 31
0.0
 70
   162
  1
<>
 71
     1
 42
-1.0
  3
SLDDIMSTYLE1
100
AcDb2LineAngularDimension
 13
388.2699704172
 23
158.92198971
 33
0.0
 14
511.331183838
 24
245.0903789861
 34
0.0
 15
385.038534633
 25
155.8047717355
 35
0.0
 16
398.287964157
 26
181.0580640897
 36
0.0
  0
DIMENSION
  5
3E5
330
1F
100
AcDbEntity
  8
SLD-0
 62
     7
100
AcDbDimension
  2
_D_5
 10
522.0871472881
 20
110.1042230178
 30
0.0
 11
457.091779269
 21
110.1042230178
 31
0.0
 70
   160
  1
<>
 71
     2
 42
-1.0
  3
SLDDIMSTYLE2
100
AcDbAlignedDimension
 13
385.038534633
 23
155.8047717355
 33
0.0
 14
522.0871472881
 24
137.6666639816
 34
0.0
 50
0.0
100
AcDbRotatedDimension
  0
ENDSEC
  0
SECTION
  2
OBJECTS
  0
DICTIONARY
  5
C
330
0
100
AcDbDictionary
281
     1
  3
ACAD_GROUP
350
D
  3
ACAD_LAYOUT
350
1A
  3
ACAD_MLINESTYLE
350
17
  3
ACAD_PLOTSETTINGS
350
19
  3
ACAD_PLOTSTYLENAME
350
E
  3
ACAD_SCALELIST
350
47
  3
DWGPROPS
350
3FA
  0
DICTIONARY
  5
D
102
{ACAD_REACTORS
330
C
102
}
330
C
100
AcDbDictionary
281
     1
  0
DICTIONARY
  5
1A
102
{ACAD_REACTORS
330
C
102
}
330
C
100
AcDbDictionary
281
     1
  3
Layout1
350
1E
  3
Layout2
350
26
  3
Model
350
22
  0
DICTIONARY
  5
17
102
{ACAD_REACTORS
330
C
102
}
330
C
100
AcDbDictionary
281
     1
  3
Standard
350
18
  0
DICTIONARY
  5
19
102
{ACAD_REACTORS
330
C
102
}
330
C
100
AcDbDictionary
281
     1
  0
ACDBDICTIONARYWDFLT
  5
E
102
{ACAD_REACTORS
330
C
102
}
330
C
100
AcDbDictionary
281
     1
  3
Normal
350
F
100
AcDbDictionaryWithDefault
340
F
  0
DICTIONARY
  5
47
102
{ACAD_REACTORS
330
C
102
}
330
C
100
AcDbDictionary
281
     1
  3
A0
350
48
  3
A1
350
49
  3
A2
350
4A
  3
A3
350
4B
  3
A4
350
4C
  3
A5
350
4D
  3
A6
350
4E
  3
A7
350
4F
  3
A8
350
50
  3
A9
350
51
  3
B0
350
52
  3
B1
350
53
  3
B2
350
54
  3
B3
350
55
  3
B4
350
56
  3
B5
350
57
  3
B6
350
58
  3
B7
350
59
  3
B8
350
5A
  3
B9
350
5B
  3
C0
350
5C
  3
C1
350
5D
  3
C2
350
5E
  3
C3
350
5F
  3
C4
350
60
  3
C5
350
61
  3
C6
350
62
  3
C7
350
63
  3
C8
350
64
  3
C9
350
65
  3
D0
350
66
  3
D1
350
67
  3
D2
350
68
  0
XRECORD
  5
3FA
102
{ACAD_REACTORS
330
C
102
}
330
C
100
AcDbXrecord
280
     1
  1
DWGPROPS COOKIE
  2

  3

  4

  6

  7

  8
Suzanne.Stasiak
  9

300
=
301
=
302
=
303
=
304
=
305
=
306
=
307
=
308
=
309
=
 40
0.0
 41
2459564.799413854
 42
2459564.799415995
  1

 90
        0
  0
LAYOUT
  5
1E
102
{ACAD_REACTORS
330
1A
102
}
330
1A
100
AcDbPlotSettings
  1

  2
none_device
  4

  6

 40
0.0
 41
0.0
 42
0.0
 43
0.0
 44
0.0
 45
0.0
 46
0.0
 47
0.0
 48
0.0
 49
0.0
140
0.0
141
0.0
142
1.0
143
1.0
 70
   688
 72
     1
 73
     0
 74
     5
  7

 75
    16
147
1.0
148
0.0
149
0.0
100
AcDbLayout
  1
Layout1
 70
     1
 71
     1
 10
0.0
 20
0.0
 11
420.0
 21
297.0
 12
0.0
 22
0.0
 32
0.0
 14
1.0000000000E+20
 24
1.0000000000E+20
 34
1.0000000000E+20
 15
-1.0000000000E+20
 25
-1.0000000000E+20
 35
-1.0000000000E+20
146
0.0
 13
0.0
 23
0.0
 33
0.0
 16
1.0
 26
0.0
 36
0.0
 17
0.0
 27
1.0
 37
0.0
 76
     0
330
1B
  0
LAYOUT
  5
26
102
{ACAD_REACTORS
330
1A
102
}
330
1A
100
AcDbPlotSettings
  1

  2
none_device
  4

  6

 40
0.0
 41
0.0
 42
0.0
 43
0.0
 44
0.0
 45
0.0
 46
0.0
 47
0.0
 48
0.0
 49
0.0
140
0.0
141
0.0
142
1.0
143
1.0
 70
   688
 72
     1
 73
     0
 74
     5
  7

 75
    16
147
1.0
148
0.0
149
0.0
100
AcDbLayout
  1
Layout2
 70
     1
 71
     2
 10
0.0
 20
0.0
 11
0.0
 21
0.0
 12
0.0
 22
0.0
 32
0.0
 14
0.0
 24
0.0
 34
0.0
 15
0.0
 25
0.0
 35
0.0
146
0.0
 13
0.0
 23
0.0
 33
0.0
 16
1.0
 26
0.0
 36
0.0
 17
0.0
 27
1.0
 37
0.0
 76
     0
330
23
  0
LAYOUT
  5
22
102
{ACAD_REACTORS
330
1A
102
}
330
1A
100
AcDbPlotSettings
  1

  2
none_device
  4
Letter_(8.50_x_11.00_Inches)
  6

 40
6.35
 41
6.35
 42
6.35000508
 43
6.35000508
 44
215.9
 45
279.4
 46
0.0
 47
0.0
 48
0.0
 49
0.0
140
0.0
141
0.0
142
1.0
143
1.0
 70
  1712
 72
     1
 73
     0
 74
     0
  7

 75
     0
147
1.0
148
0.0
149
0.0
100
AcDbLayout
  1
Model
 70
     1
 71
     0
 10
0.0
 20
0.0
 11
863.6
 21
558.8
 12
0.0
 22
0.0
 32
0.0
 14
0.0
 24
0.0
 34
0.0
 15
863.6
 25
558.8
 35
0.0
146
0.0
 13
0.0
 23
0.0
 33
0.0
 16
1.0
 26
0.0
 36
0.0
 17
0.0
 27
1.0
 37
0.0
 76
     0
330
1F
331
29
  0
MLINESTYLE
  5
18
102
{ACAD_REACTORS
330
17
102
}
330
17
100
AcDbMlineStyle
  2
Standard
 70
     0
  3

 62
   256
 51
90.0
 52
90.0
 71
     2
 49
0.5
 62
   256
  6
BYLAYER
 49
-0.5
 62
   256
  6
BYLAYER
  0
ACDBPLACEHOLDER
  5
F
102
{ACAD_REACTORS
330
E
102
}
330
E
  0
SCALE
  5
48
102
{ACAD_REACTORS
330
47
102
}
330
47
100
AcDbScale
 70
     0
300
1:1
140
1.0
141
1.0
290
     1
  0
SCALE
  5
49
102
{ACAD_REACTORS
330
47
102
}
330
47
100
AcDbScale
 70
     0
300
1:2
140
1.0
141
2.0
290
     0
  0
SCALE
  5
4A
102
{ACAD_REACTORS
330
47
102
}
330
47
100
AcDbScale
 70
     0
300
1:4
140
1.0
141
4.0
290
     0
  0
SCALE
  5
4B
102
{ACAD_REACTORS
330
47
102
}
330
47
100
AcDbScale
 70
     0
300
1:5
140
1.0
141
5.0
290
     0
  0
SCALE
  5
4C
102
{ACAD_REACTORS
330
47
102
}
330
47
100
AcDbScale
 70
     0
300
1:8
140
1.0
141
8.0
290
     0
  0
SCALE
  5
4D
102
{ACAD_REACTORS
330
47
102
}
330
47
100
AcDbScale
 70
     0
300
1:10
140
1.0
141
10.0
290
     0
  0
SCALE
  5
4E
102
{ACAD_REACTORS
330
47
102
}
330
47
100
AcDbScale
 70
     0
300
1:16
140
1.0
141
16.0
290
     0
  0
SCALE
  5
4F
102
{ACAD_REACTORS
330
47
102
}
330
47
100
AcDbScale
 70
     0
300
1:20
140
1.0
141
20.0
290
     0
  0
SCALE
  5
50
102
{ACAD_REACTORS
330
47
102
}
330
47
100
AcDbScale
 70
     0
300
1:30
140
1.0
141
30.0
290
     0
  0
SCALE
  5
51
102
{ACAD_REACTORS
330
47
102
}
330
47
100
AcDbScale
 70
     0
300
1:40
140
1.0
141
40.0
290
     0
  0
SCALE
  5
52
102
{ACAD_REACTORS
330
47
102
}
330
47
100
AcDbScale
 70
     0
300
1:50
140
1.0
141
50.0
290
     0
  0
SCALE
  5
53
102
{ACAD_REACTORS
330
47
102
}
330
47
100
AcDbScale
 70
     0
300
1:100
140
1.0
141
100.0
290
     0
  0
SCALE
  5
54
102
{ACAD_REACTORS
330
47
102
}
330
47
100
AcDbScale
 70
     0
300
2:1
140
2.0
141
1.0
290
     0
  0
SCALE
  5
55
102
{ACAD_REACTORS
330
47
102
}
330
47
100
AcDbScale
 70
     0
300
4:1
140
4.0
141
1.0
290
     0
  0
SCALE
  5
56
102
{ACAD_REACTORS
330
47
102
}
330
47
100
AcDbScale
 70
     0
300
8:1
140
8.0
141
1.0
290
     0
  0
SCALE
  5
57
102
{ACAD_REACTORS
330
47
102
}
330
47
100
AcDbScale
 70
     0
300
10:1
140
10.0
141
1.0
290
     0
  0
SCALE
  5
58
102
{ACAD_REACTORS
330
47
102
}
330
47
100
AcDbScale
 70
     0
300
100:1
140
100.0
141
1.0
290
     0
  0
SCALE
  5
59
102
{ACAD_REACTORS
330
47
102
}
330
47
100
AcDbScale
 70
     0
300
1/128" = 1'-0"
140
0.0078125
141
12.0
290
     0
  0
SCALE
  5
5A
102
{ACAD_REACTORS
330
47
102
}
330
47
100
AcDbScale
 70
     0
300
1/64" = 1'-0"
140
0.015625
141
12.0
290
     0
  0
SCALE
  5
5B
102
{ACAD_REACTORS
330
47
102
}
330
47
100
AcDbScale
 70
     0
300
1/32" = 1'-0"
140
0.03125
141
12.0
290
     0
  0
SCALE
  5
5C
102
{ACAD_REACTORS
330
47
102
}
330
47
100
AcDbScale
 70
     0
300
1/16" = 1'-0"
140
0.0625
141
12.0
290
     0
  0
SCALE
  5
5D
102
{ACAD_REACTORS
330
47
102
}
330
47
100
AcDbScale
 70
     0
300
3/32" = 1'-0"
140
0.09375
141
12.0
290
     0
  0
SCALE
  5
5E
102
{ACAD_REACTORS
330
47
102
}
330
47
100
AcDbScale
 70
     0
300
1/8" = 1'-0"
140
0.125
141
12.0
290
     0
  0
SCALE
  5
5F
102
{ACAD_REACTORS
330
47
102
}
330
47
100
AcDbScale
 70
     0
300
3/16" = 1'-0"
140
0.1875
141
12.0
290
     0
  0
SCALE
  5
60
102
{ACAD_REACTORS
330
47
102
}
330
47
100
AcDbScale
 70
     0
300
1/4" = 1'-0"
140
0.25
141
12.0
290
     0
  0
SCALE
  5
61
102
{ACAD_REACTORS
330
47
102
}
330
47
100
AcDbScale
 70
     0
300
3/8" = 1'-0"
140
0.375
141
12.0
290
     0
  0
SCALE
  5
62
102
{ACAD_REACTORS
330
47
102
}
330
47
100
AcDbScale
 70
     0
300
1/2" = 1'-0"
140
0.5
141
12.0
290
     0
  0
SCALE
  5
63
102
{ACAD_REACTORS
330
47
102
}
330
47
100
AcDbScale
 70
     0
300
3/4" = 1'-0"
140
0.75
141
12.0
290
     0
  0
SCALE
  5
64
102
{ACAD_REACTORS
330
47
102
}
330
47
100
AcDbScale
 70
     0
300
1" = 1'-0"
140
1.0
141
12.0
290
     0
  0
SCALE
  5
65
102
{ACAD_REACTORS
330
47
102
}
330
47
100
AcDbScale
 70
     0
300
1-1/2" = 1'-0"
140
1.5
141
12.0
290
     0
  0
SCALE
  5
66
102
{ACAD_REACTORS
330
47
102
}
330
47
100
AcDbScale
 70
     0
300
3" = 1'-0"
140
3.0
141
12.0
290
     0
  0
SCALE
  5
67
102
{ACAD_REACTORS
330
47
102
}
330
47
100
AcDbScale
 70
     0
300
6" = 1'-0"
140
6.0
141
12.0
290
     0
  0
SCALE
  5
68
102
{ACAD_REACTORS
330
47
102
}
330
47
100
AcDbScale
 70
     0
300
1'-0" = 1'-0"
140
12.0
141
12.0
290
     0
  0
ENDSEC
  0
EOF
