  0
SECTION
  2
HEADER
  9
$ACADVER
  1
AC1015
  9
$ACADMAINTVER
 70
     6
  9
$DWGCODEPAGE
  3
ANSI_1252
  9
$INSBASE
 10
0.0
 20
0.0
 30
0.0
  9
$EXTMIN
 10
0.0
 20
0.0
 30
0.0
  9
$EXTMAX
 10
863.6
 20
558.8
 30
0.0
  9
$LIMMIN
 10
0.0
 20
0.0
  9
$LIMMAX
 10
863.6
 20
558.8
  9
$ORTHOMODE
 70
     0
  9
$REGENMODE
 70
     1
  9
$FILLMODE
 70
     1
  9
$QTEXTMODE
 70
     0
  9
$MIRRTEXT
 70
     1
  9
$LTSCALE
 40
2.0
  9
$ATTMODE
 70
     1
  9
$TEXTSIZE
 40
6.35
  9
$TRACEWID
 40
1.0
  9
$TEXTSTYLE
  7
STANDARD
  9
$CLAYER
  8
0
  9
$CELTYPE
  6
ByLayer
  9
$CECOLOR
 62
   256
  9
$CELTSCALE
 40
1.0
  9
$DISPSILH
 70
     0
  9
$DIMSCALE
 40
1.0
  9
$DIMASZ
 40
4.0
  9
$DIMEXO
 40
1.524
  9
$DIMDLI
 40
3.75
  9
$DIMRND
 40
0.0
  9
$DIMDLE
 40
0.0
  9
$DIMEXE
 40
1.524
  9
$DIMTP
 40
0.0
  9
$DIMTM
 40
0.0
  9
$DIMTXT
 40
6.35
  9
$DIMCEN
 40
2.5
  9
$DIMTSZ
 40
0.0
  9
$DIMTOL
 70
     0
  9
$DIMLIM
 70
     0
  9
$DIMTIH
 70
     1
  9
$DIMTOH
 70
     1
  9
$DIMSE1
 70
     0
  9
$DIMSE2
 70
     0
  9
$DIMTAD
 70
     0
  9
$DIMZIN
 70
     1
  9
$DIMBLK
  1

  9
$DIMASO
 70
     1
  9
$DIMSHO
 70
     1
  9
$DIMPOST
  1

  9
$DIMAPOST
  1

  9
$DIMALT
 70
     0
  9
$DIMALTD
 70
     3
  9
$DIMALTF
 40
0.0393700787
  9
$DIMLFAC
 40
1.0
  9
$DIMTOFL
 70
     1
  9
$DIMTVP
 40
0.0
  9
$DIMTIX
 70
     0
  9
$DIMSOXD
 70
     0
  9
$DIMSAH
 70
     0
  9
$DIMBLK1
  1

  9
$DIMBLK2
  1

  9
$DIMSTYLE
  2
ISO-25
  9
$DIMCLRD
 70
     0
  9
$DIMCLRE
 70
     0
  9
$DIMCLRT
 70
     0
  9
$DIMTFAC
 40
1.0
  9
$DIMGAP
 40
3.048
  9
$DIMJUST
 70
     0
  9
$DIMSD1
 70
     0
  9
$DIMSD2
 70
     0
  9
$DIMTOLJ
 70
     0
  9
$DIMTZIN
 70
     1
  9
$DIMALTZ
 70
     0
  9
$DIMALTTZ
 70
     0
  9
$DIMUPT
 70
     0
  9
$DIMDEC
 70
     1
  9
$DIMTDEC
 70
     1
  9
$DIMALTU
 70
     2
  9
$DIMALTTD
 70
     3
  9
$DIMTXSTY
  7
STANDARD
  9
$DIMAUNIT
 70
     0
  9
$DIMADEC
 70
     0
  9
$DIMALTRND
 40
0.0
  9
$DIMAZIN
 70
     0
  9
$DIMDSEP
 70
    44
  9
$DIMATFIT
 70
     3
  9
$DIMFRAC
 70
     0
  9
$DIMLDRBLK
  1

  9
$DIMLUNIT
 70
     2
  9
$DIMLWD
 70
    -2
  9
$DIMLWE
 70
    -2
  9
$DIMTMOVE
 70
     0
  9
$LUNITS
 70
     2
  9
$LUPREC
 70
     2
  9
$SKETCHINC
 40
1.0
  9
$FILLETRAD
 40
10.0
  9
$AUNITS
 70
     0
  9
$AUPREC
 70
     0
  9
$MENU
  1
.
  9
$ELEVATION
 40
0.0
  9
$PELEVATION
 40
0.0
  9
$THICKNESS
 40
0.0
  9
$LIMCHECK
 70
     0
  9
$CHAMFERA
 40
0.0
  9
$CHAMFERB
 40
0.0
  9
$CHAMFERC
 40
0.0
  9
$CHAMFERD
 40
0.0
  9
$SKPOLY
 70
     0
  9
$TDCREATE
 40
2459556.575733738
  9
$TDUCREATE
 40
2459556.909067072
  9
$TDUPDATE
 40
2459556.575738079
  9
$TDUUPDATE
 40
2459556.909071412
  9
$TDINDWG
 40
0.0000000116
  9
$TDUSRTIMER
 40
0.0000000116
  9
$USRTIMER
 70
     1
  9
$ANGBASE
 50
0.0
  9
$ANGDIR
 70
     0
  9
$PDMODE
 70
     0
  9
$PDSIZE
 40
-1.0
  9
$PLINEWID
 40
0.0
  9
$SPLFRAME
 70
     0
  9
$SPLINETYPE
 70
     6
  9
$SPLINESEGS
 70
     8
  9
$HANDSEED
  5
46A
  9
$SURFTAB1
 70
     6
  9
$SURFTAB2
 70
     6
  9
$SURFTYPE
 70
     6
  9
$SURFU
 70
     6
  9
$SURFV
 70
     6
  9
$UCSBASE
  2

  9
$UCSNAME
  2

  9
$UCSORG
 10
0.0
 20
0.0
 30
0.0
  9
$UCSXDIR
 10
1.0
 20
0.0
 30
0.0
  9
$UCSYDIR
 10
0.0
 20
1.0
 30
0.0
  9
$UCSORTHOREF
  2

  9
$UCSORTHOVIEW
 70
     0
  9
$UCSORGTOP
 10
0.0
 20
0.0
 30
0.0
  9
$UCSORGBOTTOM
 10
0.0
 20
0.0
 30
0.0
  9
$UCSORGLEFT
 10
0.0
 20
0.0
 30
0.0
  9
$UCSORGRIGHT
 10
0.0
 20
0.0
 30
0.0
  9
$UCSORGFRONT
 10
0.0
 20
0.0
 30
0.0
  9
$UCSORGBACK
 10
0.0
 20
0.0
 30
0.0
  9
$PUCSBASE
  2

  9
$PUCSNAME
  2

  9
$PUCSORG
 10
0.0
 20
0.0
 30
0.0
  9
$PUCSXDIR
 10
1.0
 20
0.0
 30
0.0
  9
$PUCSYDIR
 10
0.0
 20
1.0
 30
0.0
  9
$PUCSORTHOREF
  2

  9
$PUCSORTHOVIEW
 70
     0
  9
$PUCSORGTOP
 10
0.0
 20
0.0
 30
0.0
  9
$PUCSORGBOTTOM
 10
0.0
 20
0.0
 30
0.0
  9
$PUCSORGLEFT
 10
0.0
 20
0.0
 30
0.0
  9
$PUCSORGRIGHT
 10
0.0
 20
0.0
 30
0.0
  9
$PUCSORGFRONT
 10
0.0
 20
0.0
 30
0.0
  9
$PUCSORGBACK
 10
0.0
 20
0.0
 30
0.0
  9
$USERI1
 70
     0
  9
$USERI2
 70
     0
  9
$USERI3
 70
     0
  9
$USERI4
 70
     0
  9
$USERI5
 70
     0
  9
$USERR1
 40
0.0
  9
$USERR2
 40
0.0
  9
$USERR3
 40
0.0
  9
$USERR4
 40
0.0
  9
$USERR5
 40
0.0
  9
$WORLDVIEW
 70
     1
  9
$SHADEDGE
 70
     3
  9
$SHADEDIF
 70
    70
  9
$TILEMODE
 70
     1
  9
$MAXACTVP
 70
    64
  9
$PINSBASE
 10
0.0
 20
0.0
 30
0.0
  9
$PLIMCHECK
 70
     0
  9
$PEXTMIN
 10
1.0000000000E+20
 20
1.0000000000E+20
 30
1.0000000000E+20
  9
$PEXTMAX
 10
-1.0000000000E+20
 20
-1.0000000000E+20
 30
-1.0000000000E+20
  9
$PLIMMIN
 10
0.0
 20
0.0
  9
$PLIMMAX
 10
420.0
 20
297.0
  9
$UNITMODE
 70
     0
  9
$VISRETAIN
 70
     1
  9
$PLINEGEN
 70
     0
  9
$PSLTSCALE
 70
     1
  9
$TREEDEPTH
 70
  3020
  9
$CMLSTYLE
  2
Standard
  9
$CMLJUST
 70
     0
  9
$CMLSCALE
 40
20.0
  9
$PROXYGRAPHICS
 70
     1
  9
$MEASUREMENT
 70
     1
  9
$CELWEIGHT
370
    -1
  9
$ENDCAPS
280
     0
  9
$JOINSTYLE
280
     0
  9
$LWDISPLAY
290
     1
  9
$INSUNITS
 70
     4
  9
$HYPERLINKBASE
  1

  9
$STYLESHEET
  1

  9
$XEDIT
290
     1
  9
$CEPSNTYPE
380
     0
  9
$PSTYLEMODE
290
     1
  9
$FINGERPRINTGUID
  2
{36ca10ad-9a9c-43af-af13-e14df92740da}
  9
$VERSIONGUID
  2
{FAEB1C32-E019-11D5-929B-00C0DF256EC4}
  9
$EXTNAMES
290
     1
  9
$PSVPSCALE
 40
0.0
  9
$OLESTARTUP
290
     0
  0
ENDSEC
  0
SECTION
  2
CLASSES
  0
CLASS
  1
ACDBDICTIONARYWDFLT
  2
AcDbDictionaryWithDefault
  3
ObjectDBX Classes
 90
        0
280
     0
281
     0
  0
CLASS
  1
VISUALSTYLE
  2
AcDbVisualStyle
  3
ObjectDBX Classes
 90
     4095
280
     0
281
     0
  0
CLASS
  1
MATERIAL
  2
AcDbMaterial
  3
ObjectDBX Classes
 90
     1153
280
     0
281
     0
  0
CLASS
  1
SCALE
  2
AcDbScale
  3
ObjectDBX Classes
 90
     1153
280
     0
281
     0
  0
CLASS
  1
TABLESTYLE
  2
AcDbTableStyle
  3
ObjectDBX Classes
 90
     4095
280
     0
281
     0
  0
CLASS
  1
MLEADERSTYLE
  2
AcDbMLeaderStyle
  3
ACDB_MLEADERSTYLE_CLASS
 90
     4095
280
     0
281
     0
  0
CLASS
  1
SUN
  2
AcDbSun
  3
SCENEOE
 90
     1153
280
     0
281
     0
  0
CLASS
  1
ACDBPLACEHOLDER
  2
AcDbPlaceHolder
  3
ObjectDBX Classes
 90
        0
280
     0
281
     0
  0
CLASS
  1
LAYOUT
  2
AcDbLayout
  3
ObjectDBX Classes
 90
        0
280
     0
281
     0
  0
ENDSEC
  0
SECTION
  2
TABLES
  0
TABLE
  2
VPORT
  5
8
330
0
100
AcDbSymbolTable
 70
     1
  0
VPORT
  5
29
330
8
100
AcDbSymbolTableRecord
100
AcDbViewportTableRecord
  2
*Active
 70
     0
 10
0.0
 20
0.0
 11
1.0
 21
1.0
 12
431.8
 22
279.4
 13
0.0
 23
0.0
 14
10.0
 24
10.0
 15
10.0
 25
10.0
 16
0.0
 26
0.0
 36
1.0
 17
0.0
 27
0.0
 37
0.0
 40
558.8
 41
1.5454545455
 42
50.0
 43
0.0
 44
0.0
 50
0.0
 51
0.0
 71
     0
 72
  2000
 73
     1
 74
     3
 75
     0
 76
     0
 77
     0
 78
     0
281
     0
 65
     1
110
0.0
120
0.0
130
0.0
111
1.0
121
0.0
131
0.0
112
0.0
122
1.0
132
0.0
 79
     0
146
0.0
  0
ENDTAB
  0
TABLE
  2
LTYPE
  5
5
330
0
100
AcDbSymbolTable
 70
     6
  0
LTYPE
  5
14
330
5
100
AcDbSymbolTableRecord
100
AcDbLinetypeTableRecord
  2
ByBlock
 70
     0
  3

 72
    65
 73
     0
 40
0.0
  0
LTYPE
  5
15
330
5
100
AcDbSymbolTableRecord
100
AcDbLinetypeTableRecord
  2
ByLayer
 70
     0
  3

 72
    65
 73
     0
 40
0.0
  0
LTYPE
  5
16
330
5
100
AcDbSymbolTableRecord
100
AcDbLinetypeTableRecord
  2
Continuous
 70
     0
  3
Solid line
 72
    65
 73
     0
 40
0.0
  0
LTYPE
  5
6E
330
5
100
AcDbSymbolTableRecord
100
AcDbLinetypeTableRecord
  2
HIDDEN
 70
     0
  3
Hidden __ __ __ __ __ __ __ __ __ __ __ __ __ __
 72
    65
 73
     2
 40
1.905
 49
1.27
 74
     0
 49
-0.635
 74
     0
  0
LTYPE
  5
6F
330
5
100
AcDbSymbolTableRecord
100
AcDbLinetypeTableRecord
  2
PHANTOM
 70
     0
  3
Phantom ______  __  __  ______  __  __  ______
 72
    65
 73
     6
 40
12.7
 49
6.35
 74
     0
 49
-1.27
 74
     0
 49
1.27
 74
     0
 49
-1.27
 74
     0
 49
1.27
 74
     0
 49
-1.27
 74
     0
  0
LTYPE
  5
70
330
5
100
AcDbSymbolTableRecord
100
AcDbLinetypeTableRecord
  2
CENTER
 70
     0
  3
Center ____ _ ____ _ ____ _ ____ _ ____ _ ____
 72
    65
 73
     4
 40
10.16
 49
6.35
 74
     0
 49
-1.27
 74
     0
 49
1.27
 74
     0
 49
-1.27
 74
     0
  0
LTYPE
  5
71
330
5
100
AcDbSymbolTableRecord
100
AcDbLinetypeTableRecord
  2
CENTERX2
 70
     0
  3
Center (2x) ________  __  ________  __  _____
 72
    65
 73
     4
 40
20.32
 49
12.7
 74
     0
 49
-2.54
 74
     0
 49
2.54
 74
     0
 49
-2.54
 74
     0
  0
LTYPE
  5
72
330
5
100
AcDbSymbolTableRecord
100
AcDbLinetypeTableRecord
  2
DOT2
 70
     0
  3
Dot (.5x) ........................................
 72
    65
 73
     2
 40
0.635
 49
0.0
 74
     0
 49
-0.635
 74
     0
  0
ENDTAB
  0
TABLE
  2
LAYER
  5
2
330
0
100
AcDbSymbolTable
 70
     6
  0
LAYER
  5
10
330
2
100
AcDbSymbolTableRecord
100
AcDbLayerTableRecord
  2
0
 70
     0
 62
     7
  6
Continuous
370
    -3
390
F
  0
LAYER
  5
73
330
2
100
AcDbSymbolTableRecord
100
AcDbLayerTableRecord
  2
SLD-0
 70
     0
 62
   179
  6
Continuous
370
    -3
390
F
  0
LAYER
  5
74
330
2
100
AcDbSymbolTableRecord
100
AcDbLayerTableRecord
  2
WIRE_BOND
 70
     0
 62
     6
  6
Continuous
370
   100
390
F
  0
LAYER
  5
75
330
2
100
AcDbSymbolTableRecord
100
AcDbLayerTableRecord
  2
HIGHLIGHT-BLUE
 70
     0
 62
     5
  6
Continuous
370
    70
390
F
  0
LAYER
  5
76
330
2
100
AcDbSymbolTableRecord
100
AcDbLayerTableRecord
  2
MANUAL_DIM
 70
     0
 62
   114
  6
Continuous
370
    -3
390
F
  0
LAYER
  5
77
330
2
100
AcDbSymbolTableRecord
100
AcDbLayerTableRecord
  2
TORQUE_9-10
 70
     0
 62
   155
  6
Continuous
370
    -3
390
F
  0
ENDTAB
  0
TABLE
  2
STYLE
  5
3
330
0
100
AcDbSymbolTable
 70
     5
  0
STYLE
  5
11
330
3
100
AcDbSymbolTableRecord
100
AcDbTextStyleTableRecord
  2
STANDARD
 70
     0
 40
0.0
 41
1.0
 50
0.0
 71
     0
 42
6.35
  3
GOTHIC.TTF
  4

1001
ACAD
1000
CENTURY GOTHIC
1071
       34
  0
STYLE
  5
109
330
3
100
AcDbSymbolTableRecord
100
AcDbTextStyleTableRecord
  2
SLDTEXTSTYLE0
 70
     0
 40
0.0
 41
0.913
 50
0.0
 71
     0
 42
6.35
  3
GOTHIC.TTF
  4

1001
ACAD
1000
Century Gothic
1071
      290
  0
STYLE
  5
115
330
3
100
AcDbSymbolTableRecord
100
AcDbTextStyleTableRecord
  2
SLDTEXTSTYLE1
 70
     0
 40
0.0
 41
0.9412371134
 50
0.0
 71
     0
 42
6.35
  3
GOTHIC.TTF
  4

1001
ACAD
1000
Century Gothic
1071
      290
  0
STYLE
  5
11B
330
3
100
AcDbSymbolTableRecord
100
AcDbTextStyleTableRecord
  2
SLDTEXTSTYLE2
 70
     0
 40
0.0
 41
0.9412371134
 50
0.0
 71
     0
 42
6.35
  3
GOTHIC.TTF
  4
bigfont
1001
ACAD
1000
Century Gothic
1071
      290
  0
STYLE
  5
121
330
3
100
AcDbSymbolTableRecord
100
AcDbTextStyleTableRecord
  2
SLDTEXTSTYLE3
 70
     0
 40
0.0
 41
0.948
 50
0.0
 71
     0
 42
6.35
  3
ARIAL.TTF
  4

1001
ACAD
1000
Arial
1071
      290
  0
ENDTAB
  0
TABLE
  2
VIEW
  5
6
330
0
100
AcDbSymbolTable
 70
     0
  0
ENDTAB
  0
TABLE
  2
UCS
  5
7
330
0
100
AcDbSymbolTable
 70
     0
  0
ENDTAB
  0
TABLE
  2
APPID
  5
9
330
0
100
AcDbSymbolTable
 70
     1
  0
APPID
  5
12
330
9
100
AcDbSymbolTableRecord
100
AcDbRegAppTableRecord
  2
ACAD
 70
     0
  0
ENDTAB
  0
TABLE
  2
DIMSTYLE
  5
A
330
0
100
AcDbSymbolTable
 70
     4
100
AcDbDimStyleTable
  0
DIMSTYLE
105
27
330
A
100
AcDbSymbolTableRecord
100
AcDbDimStyleTableRecord
  2
ISO-25
 70
     0
 41
2.5
 42
0.625
 43
3.75
 44
1.25
 73
     0
 74
     0
 77
     1
 78
     8
140
2.5
141
2.5
143
0.0393700787
147
0.625
171
     3
172
     1
178
     0
271
     2
272
     2
274
     3
278
    44
283
     0
284
     8
340
11
  0
DIMSTYLE
105
1BB
102
{ACAD_REACTORS
330
1BA
330
1CF
330
22A
330
23E
330
252
330
266
330
27C
330
3B4
330
3C8
102
}
330
A
100
AcDbSymbolTableRecord
100
AcDbDimStyleTableRecord
  2
SLDDIMSTYLE0
 70
     0
 41
4.0
 44
0.0
 45
0.000000001
 78
    12
 79
     3
140
4.7625
143
0.0393700787
147
1.190625
148
0.000000001
170
     1
173
     1
178
     0
271
     1
272
     1
276
     2
284
    12
340
109
  0
DIMSTYLE
105
296
330
A
100
AcDbSymbolTableRecord
100
AcDbDimStyleTableRecord
  2
SLDDIMSTYLE1
 70
     0
 41
1.0
 44
0.0
 45
0.000000001
147
0.0
173
     1
178
     0
271
     0
272
     0
276
     2
340
11
341
297
343
297
344
297
  0
DIMSTYLE
105
2A6
330
A
100
AcDbSymbolTableRecord
100
AcDbDimStyleTableRecord
  2
SLDDIMSTYLE2
 70
     0
 41
4.0
 44
0.0
 45
0.000000001
146
4.0
147
0.0
173
     1
178
     0
271
     0
272
     0
276
     2
340
11
  0
ENDTAB
  0
TABLE
  2
BLOCK_RECORD
  5
1
330
0
100
AcDbSymbolTable
 70
    22
  0
BLOCK_RECORD
  5
1F
330
1
100
AcDbSymbolTableRecord
100
AcDbBlockTableRecord
  2
*Model_Space
340
22
  0
BLOCK_RECORD
  5
1B
330
1
100
AcDbSymbolTableRecord
100
AcDbBlockTableRecord
  2
*Paper_Space
340
1E
  0
BLOCK_RECORD
  5
23
330
1
100
AcDbSymbolTableRecord
100
AcDbBlockTableRecord
  2
*Paper_Space0
340
26
  0
BLOCK_RECORD
  5
78
330
1
100
AcDbSymbolTableRecord
100
AcDbBlockTableRecord
  2
QSC Logo
340
0
102
{BLKREFS
331
101
102
}
  0
BLOCK_RECORD
  5
102
330
1
100
AcDbSymbolTableRecord
100
AcDbBlockTableRecord
  2
SW_NOTE_0
340
0
102
{BLKREFS
331
110
102
}
  0
BLOCK_RECORD
  5
112
330
1
100
AcDbSymbolTableRecord
100
AcDbBlockTableRecord
  2
SW_NOTE_0_1
340
0
102
{BLKREFS
331
11D
102
}
  0
BLOCK_RECORD
  5
123
330
1
100
AcDbSymbolTableRecord
100
AcDbBlockTableRecord
  2
SW_NOTE_0_2
340
0
102
{BLKREFS
331
128
102
}
  0
BLOCK_RECORD
  5
146
330
1
100
AcDbSymbolTableRecord
100
AcDbBlockTableRecord
  2
SW_NOTE_0_3
340
0
102
{BLKREFS
331
14C
102
}
  0
BLOCK_RECORD
  5
14D
330
1
100
AcDbSymbolTableRecord
100
AcDbBlockTableRecord
  2
SW_NOTE_0_4
340
0
102
{BLKREFS
331
155
102
}
  0
BLOCK_RECORD
  5
157
330
1
100
AcDbSymbolTableRecord
100
AcDbBlockTableRecord
  2
SW_NOTE_0_5
340
0
102
{BLKREFS
331
15C
102
}
  0
BLOCK_RECORD
  5
179
330
1
100
AcDbSymbolTableRecord
100
AcDbBlockTableRecord
  2
SW_TABLEANNOTATION_0
340
0
102
{BLKREFS
331
1A1
102
}
  0
BLOCK_RECORD
  5
1BC
330
1
100
AcDbSymbolTableRecord
100
AcDbBlockTableRecord
  2
_D
340
0
  0
BLOCK_RECORD
  5
1D0
330
1
100
AcDbSymbolTableRecord
100
AcDbBlockTableRecord
  2
_D_1
340
0
  0
BLOCK_RECORD
  5
22B
330
1
100
AcDbSymbolTableRecord
100
AcDbBlockTableRecord
  2
_D_2
340
0
  0
BLOCK_RECORD
  5
23F
330
1
100
AcDbSymbolTableRecord
100
AcDbBlockTableRecord
  2
_D_3
340
0
  0
BLOCK_RECORD
  5
253
330
1
100
AcDbSymbolTableRecord
100
AcDbBlockTableRecord
  2
_D_4
340
0
  0
BLOCK_RECORD
  5
267
330
1
100
AcDbSymbolTableRecord
100
AcDbBlockTableRecord
  2
_D_5
340
0
  0
BLOCK_RECORD
  5
27D
330
1
100
AcDbSymbolTableRecord
100
AcDbBlockTableRecord
  2
_D_6
340
0
  0
BLOCK_RECORD
  5
290
330
1
100
AcDbSymbolTableRecord
100
AcDbBlockTableRecord
  2
SW_NOTE_0_6
340
0
102
{BLKREFS
331
295
102
}
  0
BLOCK_RECORD
  5
297
330
1
100
AcDbSymbolTableRecord
100
AcDbBlockTableRecord
  2
_Dot
340
0
  0
BLOCK_RECORD
  5
29D
330
1
100
AcDbSymbolTableRecord
100
AcDbBlockTableRecord
  2
SW_NOTE_0_7
340
0
102
{BLKREFS
331
2A5
102
}
  0
BLOCK_RECORD
  5
2A9
330
1
100
AcDbSymbolTableRecord
100
AcDbBlockTableRecord
  2
SW_CENTERMARKSYMBOL_0
340
0
102
{BLKREFS
331
2B0
102
}
  0
BLOCK_RECORD
  5
3B5
330
1
100
AcDbSymbolTableRecord
100
AcDbBlockTableRecord
  2
_D_7
340
0
  0
BLOCK_RECORD
  5
3C9
330
1
100
AcDbSymbolTableRecord
100
AcDbBlockTableRecord
  2
_D_8
340
0
  0
ENDTAB
  0
ENDSEC
  0
SECTION
  2
BLOCKS
  0
BLOCK
  5
20
330
1F
100
AcDbEntity
  8
0
100
AcDbBlockBegin
  2
*Model_Space
 70
     0
 10
0.0
 20
0.0
 30
0.0
  3
*Model_Space
  1

  0
ENDBLK
  5
21
330
1F
100
AcDbEntity
  8
0
100
AcDbBlockEnd
  0
BLOCK
  5
1C
330
1B
100
AcDbEntity
 67
     1
  8
0
100
AcDbBlockBegin
  2
*Paper_Space
 70
     0
 10
0.0
 20
0.0
 30
0.0
  3
*Paper_Space
  1

  0
ENDBLK
  5
1D
330
1B
100
AcDbEntity
 67
     1
  8
0
100
AcDbBlockEnd
  0
BLOCK
  5
24
330
23
100
AcDbEntity
  8
0
100
AcDbBlockBegin
  2
*Paper_Space0
 70
     0
 10
0.0
 20
0.0
 30
0.0
  3
*Paper_Space0
  1

  0
ENDBLK
  5
25
330
23
100
AcDbEntity
  8
0
100
AcDbBlockEnd
  0
BLOCK
  5
79
330
78
100
AcDbEntity
  8
0
100
AcDbBlockBegin
  2
QSC Logo
 70
     0
 10
0.0
 20
0.0
 30
0.0
  3
QSC Logo
  1

  0
ARC
  5
7B
330
78
100
AcDbEntity
  8
SLD-0
  6
Continuous
370
    25
100
AcDbCircle
 10
60.1992795138
 20
10.8757345045
 30
0.0
 40
0.565625588076033
100
AcDbArc
 50
270.0
 51
0.0
  0
ARC
  5
7C
330
78
100
AcDbEntity
  8
SLD-0
  6
Continuous
370
    25
100
AcDbCircle
 10
60.1992795161
 20
12.0073744142
 30
0.0
 40
0.5656255857900288
100
AcDbArc
 50
0.000000539
 51
89.9999999245
  0
ARC
  5
7D
330
78
100
AcDbEntity
  8
SLD-0
  6
Continuous
370
    25
100
AcDbCircle
 10
60.1992795169
 20
1.857339148
 30
0.0
 40
0.5656255850413672
100
AcDbArc
 50
270.1250535673
 51
0.0
  0
ARC
  5
7E
330
78
100
AcDbEntity
  8
SLD-0
  6
Continuous
370
    25
100
AcDbCircle
 10
60.1992795161
 20
2.99686688
 30
0.0
 40
0.5656255857900412
100
AcDbArc
 50
0.0
 51
90.0
  0
ARC
  5
7F
330
78
100
AcDbEntity
  8
SLD-0
  6
Continuous
370
    25
100
AcDbCircle
 10
47.1655159553
 20
9.7444833261
 30
0.0
 40
0.565625590361968
100
AcDbArc
 50
90.0
 51
180.0
  0
ARC
  5
80
330
78
100
AcDbEntity
  8
SLD-0
  6
Continuous
370
    25
100
AcDbCircle
 10
34.7887755437
 20
5.2340677561
 30
0.0
 40
0.5656255880763794
100
AcDbArc
 50
0.0
 51
89.9999995368
  0
ARC
  5
81
330
78
100
AcDbEntity
  8
SLD-0
  6
Continuous
370
    25
100
AcDbCircle
 10
22.1252435498
 20
2.9478675597
 30
0.0
 40
0.5656255880759771
100
AcDbArc
 50
90.0
 51
180.0
  0
ARC
  5
82
330
78
100
AcDbEntity
  8
SLD-0
  6
Continuous
370
    25
100
AcDbCircle
 10
22.1252435498
 20
1.8762124218
 30
0.0
 40
0.5656255880760186
100
AcDbArc
 50
180.0
 51
270.0
  0
ARC
  5
83
330
78
100
AcDbEntity
  8
SLD-0
  6
Continuous
370
    25
100
AcDbCircle
 10
27.1275598492
 20
9.7219160751
 30
0.0
 40
0.565625585790027
100
AcDbArc
 50
90.0
 51
180.0
  0
ARC
  5
84
330
78
100
AcDbEntity
  8
SLD-0
  6
Continuous
370
    25
100
AcDbCircle
 10
39.808280732
 20
10.8531672489
 30
0.0
 40
0.5656255880761591
100
AcDbArc
 50
270.0
 51
0.0
  0
ARC
  5
85
330
78
100
AcDbEntity
  8
SLD-0
  6
Continuous
370
    25
100
AcDbCircle
 10
39.808280732
 20
12.0073744096
 30
0.0
 40
0.5656255880761591
100
AcDbArc
 50
359.9999995369
 51
90.0
  0
ARC
  5
86
330
78
100
AcDbEntity
  8
SLD-0
  6
Continuous
370
    25
100
AcDbCircle
 10
12.0321031895
 20
0.217548301
 30
0.0
 40
0.2175483009960733
100
AcDbArc
 50
180.0
 51
270.0
  0
ARC
  5
87
330
78
100
AcDbEntity
  8
SLD-0
  6
Continuous
370
    25
100
AcDbCircle
 10
15.4195515276
 20
0.217548301
 30
0.0
 40
0.2175483009960455
100
AcDbArc
 50
270.0
 51
0.0
  0
ARC
  5
88
330
78
100
AcDbEntity
  8
SLD-0
  6
Continuous
370
    25
100
AcDbCircle
 10
5.2684984251
 20
4.2067791851
 30
0.0
 40
0.5656255880762124
100
AcDbArc
 50
180.0
 51
270.0
  0
ARC
  5
89
330
78
100
AcDbEntity
  8
SLD-0
  6
Continuous
370
    25
100
AcDbCircle
 10
11.9826252409
 20
4.7308054208
 30
0.0
 40
0.2175483032820367
100
AcDbArc
 50
90.0000000001
 51
180.0
  0
ARC
  5
8A
330
78
100
AcDbEntity
  8
SLD-0
  6
Continuous
370
    25
100
AcDbCircle
 10
15.35281037
 20
4.7308054276
 30
0.0
 40
0.2175482964241411
100
AcDbArc
 50
360.0
 51
89.9999987958
  0
ARC
  5
8B
330
78
100
AcDbEntity
  8
SLD-0
  6
Continuous
370
    25
100
AcDbCircle
 10
16.5694959544
 20
4.2067791942
 30
0.0
 40
0.5656255857899861
100
AcDbArc
 50
270.0
 51
0.0
  0
ARC
  5
8C
330
78
100
AcDbEntity
  8
SLD-0
  6
Continuous
370
    25
100
AcDbCircle
 10
5.2684984274
 20
9.8469354674
 30
0.0
 40
0.5656255903621616
100
AcDbArc
 50
90.0
 51
180.0
  0
ARC
  5
8D
330
78
100
AcDbEntity
  8
SLD-0
  6
Continuous
370
    25
100
AcDbCircle
 10
16.5694959544
 20
9.846935472
 30
0.0
 40
0.5656255857899861
100
AcDbArc
 50
0.0000004631
 51
90.0000004631
  0
ARC
  5
8E
330
78
100
AcDbEntity
  8
SLD-0
  6
Continuous
370
    25
100
AcDbCircle
 10
27.1275598515
 20
8.6516957222
 30
0.0
 40
0.5656255880759762
100
AcDbArc
 50
180.0
 51
270.0
  0
ARC
  5
8F
330
78
100
AcDbEntity
  8
SLD-0
  6
Continuous
370
    25
100
AcDbCircle
 10
34.788775546
 20
4.0791187335
 30
0.0
 40
0.5656255857899879
100
AcDbArc
 50
270.0
 51
0.0
  0
ARC
  5
90
330
78
100
AcDbEntity
  8
SLD-0
  6
Continuous
370
    25
100
AcDbCircle
 10
47.165515953
 20
4.1281180539
 30
0.0
 40
0.5656255880759771
100
AcDbArc
 50
180.0
 51
270.0
  0
LINE
  5
91
330
78
100
AcDbEntity
  8
SLD-0
  6
Continuous
370
    25
100
AcDbLine
 10
60.7649051019
 20
10.8757345045
 30
0.0
 11
60.7649051019
 21
12.0073744195
 31
0.0
  0
LINE
  5
92
330
78
100
AcDbEntity
  8
SLD-0
  6
Continuous
370
    25
100
AcDbLine
 10
60.1992795169
 20
12.573
 30
0.0
 11
44.9931123687
 21
12.573
 31
0.0
  0
LINE
  5
93
330
78
100
AcDbEntity
  8
SLD-0
  6
Continuous
370
    25
100
AcDbLine
 10
41.7982576378
 20
6.9614311124
 30
0.0
 11
41.7992503698
 21
6.8753664631
 31
0.0
  0
LINE
  5
94
330
78
100
AcDbEntity
  8
SLD-0
  6
Continuous
370
    25
100
AcDbLine
 10
44.9931123687
 20
1.3105925442
 30
0.0
 11
60.2005140483
 21
1.2917149102
 31
0.0
  0
LINE
  5
95
330
78
100
AcDbEntity
  8
SLD-0
  6
Continuous
370
    25
100
AcDbLine
 10
60.7649051019
 20
1.857339148
 30
0.0
 11
60.7649051019
 21
2.99686688
 31
0.0
  0
LINE
  5
96
330
78
100
AcDbEntity
  8
SLD-0
  6
Continuous
370
    25
100
AcDbLine
 10
60.1992795161
 20
3.5624924658
 30
0.0
 11
47.165515953
 21
3.5624924658
 31
0.0
  0
LINE
  5
97
330
78
100
AcDbEntity
  8
SLD-0
  6
Continuous
370
    25
100
AcDbLine
 10
46.5998903649
 20
4.1281180539
 30
0.0
 11
46.5998903649
 21
9.7444833261
 31
0.0
  0
LINE
  5
98
330
78
100
AcDbEntity
  8
SLD-0
  6
Continuous
370
    25
100
AcDbLine
 10
47.1655159553
 20
10.3101089164
 30
0.0
 11
60.1992795138
 21
10.3101089164
 31
0.0
  0
LINE
  5
99
330
78
100
AcDbEntity
  8
SLD-0
  6
Continuous
370
    25
100
AcDbLine
 10
23.9251579121
 20
5.7996933442
 30
0.0
 11
34.7887755483
 21
5.7996933442
 31
0.0
  0
LINE
  5
9A
330
78
100
AcDbEntity
  8
SLD-0
  6
Continuous
370
    25
100
AcDbLine
 10
35.3544011318
 20
5.2340677561
 30
0.0
 11
35.3544011318
 21
4.0791187335
 31
0.0
  0
LINE
  5
9B
330
78
100
AcDbEntity
  8
SLD-0
  6
Continuous
370
    25
100
AcDbLine
 10
34.788775546
 20
3.5134931478
 30
0.0
 11
22.1252435498
 21
3.5134931478
 31
0.0
  0
LINE
  5
9C
330
78
100
AcDbEntity
  8
SLD-0
  6
Continuous
370
    25
100
AcDbLine
 10
21.5596179617
 20
2.9478675597
 30
0.0
 11
21.5596179617
 21
1.8762124218
 31
0.0
  0
LINE
  5
9D
330
78
100
AcDbEntity
  8
SLD-0
  6
Continuous
370
    25
100
AcDbLine
 10
22.1252435498
 20
1.3105868337
 30
0.0
 11
37.846372651
 21
1.3105868337
 31
0.0
  0
LINE
  5
9E
330
78
100
AcDbEntity
  8
SLD-0
  6
Continuous
370
    25
100
AcDbLine
 10
37.846372651
 20
8.0860701342
 30
0.0
 11
27.1275598515
 21
8.0860701342
 31
0.0
  0
LINE
  5
9F
330
78
100
AcDbEntity
  8
SLD-0
  6
Continuous
370
    25
100
AcDbLine
 10
26.5619342634
 20
8.6516957222
 30
0.0
 11
26.5619342634
 21
9.7219160751
 31
0.0
  0
LINE
  5
A0
330
78
100
AcDbEntity
  8
SLD-0
  6
Continuous
370
    25
100
AcDbLine
 10
27.1275598492
 20
10.2875416608
 30
0.0
 11
39.808280732
 21
10.2875416608
 31
0.0
  0
LINE
  5
A1
330
78
100
AcDbEntity
  8
SLD-0
  6
Continuous
370
    25
100
AcDbLine
 10
40.3739063201
 20
10.8531672489
 30
0.0
 11
40.3739063201
 21
12.0073744051
 31
0.0
  0
LINE
  5
A2
330
78
100
AcDbEntity
  8
SLD-0
  6
Continuous
370
    25
100
AcDbLine
 10
39.808280732
 20
12.5729999977
 30
0.0
 11
23.9251579121
 21
12.5729999977
 31
0.0
  0
LINE
  5
A3
330
78
100
AcDbEntity
  8
SLD-0
  6
Continuous
370
    25
100
AcDbLine
 10
3.0259137302
 20
1.3105868383
 30
0.0
 11
11.8145548885
 21
1.3105868383
 31
0.0
  0
LINE
  5
A4
330
78
100
AcDbEntity
  8
SLD-0
  6
Continuous
370
    25
100
AcDbLine
 10
11.8145548885
 20
1.3105868383
 30
0.0
 11
11.8145548885
 21
0.217548301
 31
0.0
  0
LINE
  5
A5
330
78
100
AcDbEntity
  8
SLD-0
  6
Continuous
370
    25
100
AcDbLine
 10
12.0321031895
 20
0.0
 30
0.0
 11
15.4195515276
 21
0.0
 31
0.0
  0
LINE
  5
A6
330
78
100
AcDbEntity
  8
SLD-0
  6
Continuous
370
    25
100
AcDbLine
 10
15.6370998286
 20
0.217548301
 30
0.0
 11
15.6370998286
 21
1.3105868383
 31
0.0
  0
LINE
  5
A7
330
78
100
AcDbEntity
  8
SLD-0
  6
Continuous
370
    25
100
AcDbLine
 10
15.6370998286
 20
1.3105868383
 30
0.0
 11
17.3652756133
 21
1.3105868383
 31
0.0
  0
LINE
  5
A8
330
78
100
AcDbEntity
  8
SLD-0
  6
Continuous
370
    25
100
AcDbLine
 10
20.0316643354
 20
3.4154941383
 30
0.0
 11
20.0316643354
 21
10.4548832319
 31
0.0
  0
LINE
  5
A9
330
78
100
AcDbEntity
  8
SLD-0
  6
Continuous
370
    25
100
AcDbLine
 10
17.3652756133
 20
12.5597905365
 30
0.0
 11
3.0259137302
 21
12.5597905365
 31
0.0
  0
LINE
  5
AA
330
78
100
AcDbEntity
  8
SLD-0
  6
Continuous
370
    25
100
AcDbLine
 10
17.1351215402
 20
4.2067791942
 30
0.0
 11
17.1351215402
 21
9.8469354765
 31
0.0
  0
LINE
  5
AB
330
78
100
AcDbEntity
  8
SLD-0
  6
Continuous
370
    25
100
AcDbLine
 10
5.2684984251
 20
3.641153597
 30
0.0
 11
11.7650769377
 21
3.641153597
 31
0.0
  0
LINE
  5
AC
330
78
100
AcDbEntity
  8
SLD-0
  6
Continuous
370
    25
100
AcDbLine
 10
11.7650769377
 20
3.641153597
 30
0.0
 11
11.7650769377
 21
4.7308054208
 31
0.0
  0
LINE
  5
AD
330
78
100
AcDbEntity
  8
SLD-0
  6
Continuous
370
    25
100
AcDbLine
 10
11.9826252409
 20
4.948353724
 30
0.0
 11
15.3528103746
 21
4.948353724
 31
0.0
  0
LINE
  5
AE
330
78
100
AcDbEntity
  8
SLD-0
  6
Continuous
370
    25
100
AcDbLine
 10
15.5703586664
 20
3.6411536085
 30
0.0
 11
16.5694959544
 21
3.6411536085
 31
0.0
  0
LINE
  5
AF
330
78
100
AcDbEntity
  8
SLD-0
  6
Continuous
370
    25
100
AcDbLine
 10
15.5703586664
 20
3.6411536085
 30
0.0
 11
15.5703586664
 21
4.7308054276
 31
0.0
  0
LINE
  5
B0
330
78
100
AcDbEntity
  8
SLD-0
  6
Continuous
370
    25
100
AcDbLine
 10
4.7028728371
 20
4.2067791851
 30
0.0
 11
4.7028728371
 21
9.8469354674
 31
0.0
  0
LINE
  5
B1
330
78
100
AcDbEntity
  8
SLD-0
  6
Continuous
370
    25
100
AcDbLine
 10
5.2684984274
 20
10.4125610577
 30
0.0
 11
16.5694959498
 21
10.4125610577
 31
0.0
  0
SPLINE
  5
B2
330
78
100
AcDbEntity
  8
SLD-0
  6
Continuous
370
    25
100
AcDbSpline
210
0.0
220
0.0
230
1.0
 70
     8
 71
     3
 72
    13
 73
     9
 74
     0
 42
0.00000001
 43
0.00000001
 40
0.0
 40
0.0
 40
0.0
 40
0.0
 40
0.1310616762
 40
0.2699656353
 40
0.4157607805
 40
0.5899807757
 40
0.76586761
 40
0.9948829976
 40
0.9948829976
 40
0.9948829976
 40
0.9948829976
 10
44.99311236868792
 20
12.57299999999997
 30
0.0
 10
44.67346489317598
 20
12.54919244385597
 30
0.0
 10
44.01504335048406
 20
12.500152774092
 30
0.0
 10
43.12275103245616
 20
11.94723759747601
 30
0.0
 10
42.48219163082384
 20
11.01899259392404
 30
0.0
 10
42.065666812872
 20
9.883953287171995
 30
0.0
 10
41.83105460086806
 20
8.496463401756
 30
0.0
 10
41.80945316274004
 20
7.516038683411982
 30
0.0
 10
41.79825763775996
 20
6.961431112415998
 30
0.0
  0
SPLINE
  5
B3
330
78
100
AcDbEntity
  8
SLD-0
  6
Continuous
370
    25
100
AcDbSpline
210
0.0
220
0.0
230
1.0
 70
     8
 71
     3
 72
    13
 73
     9
 74
     0
 42
0.00000001
 43
0.00000001
 40
0.0
 40
0.0
 40
0.0
 40
0.0
 40
0.2222860645
 40
0.3981728988
 40
0.572392894
 40
0.7181880393
 40
0.8570919984
 40
0.9881536746
 40
0.9881536746
 40
0.9881536746
 40
0.9881536746
 10
41.79925036983584
 20
6.875366463107991
 30
0.0
 10
41.81022525009598
 20
6.337062442944019
 30
0.0
 10
41.83377594213616
 20
5.373111111516005
 30
0.0
 10
42.06566662084826
 20
4.001704744860016
 30
0.0
 10
42.48219642685186
 20
2.866792384260047
 30
0.0
 10
43.12273584884402
 20
1.938153438900053
 30
0.0
 10
44.01509626681205
 20
1.386559958904049
 30
0.0
 10
44.673357286584
 20
1.334408105879981
 30
0.0
 10
44.99311236868792
 20
1.310592544163991
 30
0.0
  0
SPLINE
  5
B4
330
78
100
AcDbEntity
  8
SLD-0
  6
Continuous
370
    25
100
AcDbSpline
210
0.0
220
0.0
230
1.0
 70
     8
 71
     3
 72
    13
 73
     9
 74
     0
 42
0.00000001
 43
0.00000001
 40
0.0
 40
0.0
 40
0.0
 40
0.0
 40
0.1604571392
 40
0.3334692485
 40
0.4767982758
 40
0.6242014838
 40
0.7505998515
 40
1.0
 40
1.0
 40
1.0
 40
1.0
 10
37.84637265102003
 20
1.310586833736069
 30
0.0
 10
38.111432851404
 20
1.323349009380026
 30
0.0
 10
38.66229287744388
 20
1.349871922044041
 30
0.0
 10
39.40304357628016
 20
1.671471906732017
 30
0.0
 10
39.96122363492422
 20
2.212054639128047
 30
0.0
 10
40.27578005127624
 20
2.831811856812
 30
0.0
 10
40.51694576350801
 20
3.663222513012002
 30
0.0
 10
40.52673227581188
 20
4.285410804828055
 30
0.0
 10
40.53322713099633
 20
4.698328483943998
 30
0.0
  0
SPLINE
  5
B5
330
78
100
AcDbEntity
  8
SLD-0
  6
Continuous
370
    25
100
AcDbSpline
210
0.0
220
0.0
230
1.0
 70
     8
 71
     3
 72
    13
 73
     9
 74
     0
 42
0.00000001
 43
0.00000001
 40
0.0
 40
0.0
 40
0.0
 40
0.0
 40
0.2494001485
 40
0.3757985162
 40
0.5232017242
 40
0.6665307515
 40
0.8395428608
 40
1.0
 40
1.0
 40
1.0
 40
1.0
 10
40.53322713099633
 20
4.698328483943998
 30
0.0
 10
40.52673227581188
 20
5.111246167632019
 30
0.0
 10
40.51694576350801
 20
5.733434454875994
 30
0.0
 10
40.27578005127624
 20
6.564845120219973
 30
0.0
 10
39.96122363492422
 20
7.184602337903994
 30
0.0
 10
39.40304357628016
 20
7.725185061155979
 30
0.0
 10
38.66229287744388
 20
8.04678504584401
 30
0.0
 10
38.111432851404
 20
8.073307967652003
 30
0.0
 10
37.84637265102003
 20
8.086070134152024
 30
0.0
  0
SPLINE
  5
B6
330
78
100
AcDbEntity
  8
SLD-0
  6
Continuous
370
    25
100
AcDbSpline
210
0.0
220
0.0
230
1.0
 70
     8
 71
     3
 72
    13
 73
     9
 74
     0
 42
0.00000001
 43
0.00000001
 40
0.0
 40
0.0
 40
0.0
 40
0.0
 40
0.1133740464
 40
0.2392044088
 40
0.3655787964
 40
0.4912154373
 40
0.7445390876
 40
1.0
 40
1.0
 40
1.0
 40
1.0
 10
23.92515791209809
 20
12.57299999771398
 30
0.0
 10
23.74371232680589
 20
12.564062953866
 30
0.0
 10
23.36088587833812
 20
12.54520695601803
 30
0.0
 10
22.79223505729805
 20
12.37531107940203
 30
0.0
 10
22.28352147833418
 20
12.03223838581805
 30
0.0
 10
21.76386602437802
 20
11.40028540385406
 30
0.0
 10
21.43686584932197
 20
10.40820330166212
 30
0.0
 10
21.40140262840212
 20
9.594771217074124
 30
0.0
 10
21.38359654463401
 20
9.186346670958107
 30
0.0
  0
SPLINE
  5
B7
330
78
100
AcDbEntity
  8
SLD-0
  6
Continuous
370
    25
100
AcDbSpline
210
0.0
220
0.0
230
1.0
 70
     8
 71
     3
 72
    13
 73
     9
 74
     0
 42
0.00000001
 43
0.00000001
 40
0.0
 40
0.0
 40
0.0
 40
0.0
 40
0.2554609124
 40
0.5087845627
 40
0.6344212036
 40
0.7607955912
 40
0.8866259536
 40
1.0
 40
1.0
 40
1.0
 40
1.0
 10
21.38359654463401
 20
9.186346670958107
 30
0.0
 10
21.40140262840212
 20
8.777922120270093
 30
0.0
 10
21.43686584932197
 20
7.964490031110036
 30
0.0
 10
21.76386602437791
 20
6.972407933490049
 30
0.0
 10
22.28352147833418
 20
6.340454951526089
 30
0.0
 10
22.79223505729805
 20
5.99738226251409
 30
0.0
 10
23.36088587833812
 20
5.827486381326144
 30
0.0
 10
23.74371232680589
 20
5.808630383478161
 30
0.0
 10
23.92515791209809
 20
5.799693344202134
 30
0.0
  0
SPLINE
  5
B8
330
78
100
AcDbEntity
  8
SLD-0
  6
Continuous
370
    25
100
AcDbSpline
210
0.0
220
0.0
230
1.0
 70
     8
 71
     3
 72
    12
 73
     8
 74
     0
 42
0.00000001
 43
0.00000001
 40
0.0
 40
0.0
 40
0.0
 40
0.0
 40
0.2415790084
 40
0.4893269843
 40
0.7378634303
 40
0.8656387112
 40
1.0
 40
1.0
 40
1.0
 40
1.0
 10
17.36527561329587
 20
1.310586838308064
 30
0.0
 10
17.67515455360796
 20
1.32022062295202
 30
0.0
 10
18.30282552838786
 20
1.339734211560001
 30
0.0
 10
19.22135649955209
 20
1.667306782728029
 30
0.0
 10
19.77919844050796
 20
2.285677111644041
 30
0.0
 10
20.02496508435619
 20
2.903543459855995
 30
0.0
 10
20.02939415906419
 20
3.242009337660015
 30
0.0
 10
20.03166433537234
 20
3.415494138264058
 30
0.0
  0
SPLINE
  5
B9
330
78
100
AcDbEntity
  8
SLD-0
  6
Continuous
370
    25
100
AcDbSpline
210
0.0
220
0.0
230
1.0
 70
     8
 71
     3
 72
    12
 73
     8
 74
     0
 42
0.00000001
 43
0.00000001
 40
0.0
 40
0.0
 40
0.0
 40
0.0
 40
0.1343612888
 40
0.2621365697
 40
0.5106730157
 40
0.7584209916
 40
1.0
 40
1.0
 40
1.0
 40
1.0
 10
20.03166433537234
 20
10.45488323192401
 30
0.0
 10
20.02939415906419
 20
10.62836804167197
 30
0.0
 10
20.02496508435619
 20
10.966833919476
 30
0.0
 10
19.77919844050796
 20
11.58470026768804
 30
0.0
 10
19.22135649955209
 20
12.203070596604
 30
0.0
 10
18.30282552838786
 20
12.5306431632
 30
0.0
 10
17.67515455360796
 20
12.55015674723599
 30
0.0
 10
17.36527561329587
 20
12.55979053645198
 30
0.0
  0
SPLINE
  5
BA
330
78
100
AcDbEntity
  8
SLD-0
  6
Continuous
370
    25
100
AcDbSpline
210
0.0
220
0.0
230
1.0
 70
     8
 71
     3
 72
    12
 73
     8
 74
     0
 42
0.00000001
 43
0.00000001
 40
0.0
 40
0.0
 40
0.0
 40
0.0
 40
0.1341799809
 40
0.290831959
 40
0.5815217441
 40
0.760783857
 40
1.0
 40
1.0
 40
1.0
 40
1.0
 10
3.02591373022798
 20
12.55979053645198
 30
0.0
 10
2.713146790103982
 20
12.50633569543196
 30
0.0
 10
2.035231793891812
 20
12.39047358019199
 30
0.0
 10
0.8940706934400522
 20
11.53791477223201
 30
0.0
 10
0.3535588864800321
 20
10.10357019413996
 30
0.0
 10
0.0373102586279095
 20
8.477608423463984
 30
0.0
 10
0.0135704640958911
 20
7.494152629139994
 30
0.0
 10
0.0
 20
6.931976464188041
 30
0.0
  0
SPLINE
  5
BB
330
78
100
AcDbEntity
  8
SLD-0
  6
Continuous
370
    25
100
AcDbSpline
210
0.0
220
0.0
230
1.0
 70
     8
 71
     3
 72
    12
 73
     8
 74
     0
 42
0.00000001
 43
0.00000001
 40
0.0
 40
0.0
 40
0.0
 40
0.0
 40
0.2392679579
 40
0.4185688994
 40
0.7093216488
 40
0.8660075581
 40
1.0
 40
1.0
 40
1.0
 40
1.0
 10
0.0
 20
6.931976464188041
 30
0.0
 10
0.0135758864880375
 20
6.369822208260004
 30
0.0
 10
0.0373251542040709
 20
5.386404745583995
 30
0.0
 10
0.353505540384047
 20
3.760167054707997
 30
0.0
 10
0.8943475920479838
 20
2.327157829800044
 30
0.0
 10
2.034320580575899
 20
1.471830593544013
 30
0.0
 10
2.713045524875946
 20
1.361462586696033
 30
0.0
 10
3.02591373022798
 20
1.310586838308064
 30
0.0
  0
ENDBLK
  5
7A
330
78
100
AcDbEntity
  8
0
100
AcDbBlockEnd
  0
BLOCK
  5
103
330
102
100
AcDbEntity
  8
0
100
AcDbBlockBegin
  2
SW_NOTE_0
 70
     0
 10
0.0
 20
0.0
 30
0.0
  3
SW_NOTE_0
  1

  0
LINE
  5
105
330
102
100
AcDbEntity
  8
0
  6
Continuous
 62
     0
370
     0
100
AcDbLine
 10
-22.1034371061
 20
-17.0415623579
 30
0.0
 11
-22.1034371061
 21
-9.3157289084
 31
0.0
  0
LINE
  5
106
330
102
100
AcDbEntity
  8
0
  6
Continuous
 62
     0
370
     0
100
AcDbLine
 10
-22.1034371061
 20
-9.3157289084
 30
0.0
 11
-14.3776036566
 21
-9.3157289084
 31
0.0
  0
LINE
  5
107
330
102
100
AcDbEntity
  8
0
  6
Continuous
 62
     0
370
     0
100
AcDbLine
 10
-14.3776036566
 20
-9.3157289084
 30
0.0
 11
-14.3776036566
 21
-17.0415623579
 31
0.0
  0
LINE
  5
108
330
102
100
AcDbEntity
  8
0
  6
Continuous
 62
     0
370
     0
100
AcDbLine
 10
-14.3776036566
 20
-17.0415623579
 30
0.0
 11
-22.1034371061
 21
-17.0415623579
 31
0.0
  0
MTEXT
  5
10A
330
102
100
AcDbEntity
  8
0
  6
Continuous
 62
     0
370
     0
100
AcDbMText
 10
0.0
 20
6.0833496094
 30
0.0
 40
4.7625
 41
0.0
 71
     1
 72
     1
  1
NET WEIGHT APPROXIMATELY 0.87 KG [1.9 LBS], (0.93KG [2.1 LBS] WITH MOUNTING BRACKET).
  7
SLDTEXTSTYLE0
 73
     1
 44
1.0
  0
MTEXT
  5
10B
330
102
100
AcDbEntity
  8
0
  6
Continuous
 62
     0
370
     0
100
AcDbMText
 10
-19.999999553
 20
6.0833496094
 30
0.0
 40
4.7625
 41
0.0
 71
     1
 72
     1
  1
1.
  7
SLDTEXTSTYLE0
 73
     1
 44
1.0
  0
MTEXT
  5
10C
330
102
100
AcDbEntity
  8
0
  6
Continuous
 62
     0
370
     0
100
AcDbMText
 10
0.0
 20
-2.266650176
 30
0.0
 40
4.7625
 41
0.0
 71
     1
 72
     1
  1
PARTS ARE SYMMETRICAL ABOUT CENTER LINES UNLESS OTHERWISE NOTED.
  7
SLDTEXTSTYLE0
 73
     1
 44
1.0
  0
MTEXT
  5
10D
330
102
100
AcDbEntity
  8
0
  6
Continuous
 62
     0
370
     0
100
AcDbMText
 10
-19.999999553
 20
-2.266650176
 30
0.0
 40
4.7625
 41
0.0
 71
     1
 72
     1
  1
2.
  7
SLDTEXTSTYLE0
 73
     1
 44
1.0
  0
MTEXT
  5
10E
330
102
100
AcDbEntity
  8
0
  6
Continuous
 62
     0
370
     0
100
AcDbMText
 10
0.0
 20
-10.2702962182
 30
0.0
 40
4.7625
 41
0.0
 71
     1
 72
     1
  1
M2.5 SECURITY SCREW LOCATION WHEN USED WITH MOUNTING BRACKET.
  7
SLDTEXTSTYLE0
 73
     1
 44
1.0
  0
MTEXT
  5
10F
330
102
100
AcDbEntity
  8
0
  6
Continuous
 62
     0
370
     0
100
AcDbMText
 10
-19.999999553
 20
-10.2702962182
 30
0.0
 40
4.7625
 41
0.0
 71
     1
 72
     1
  1
3
  7
SLDTEXTSTYLE0
 73
     1
 44
1.0
  0
ENDBLK
  5
104
330
102
100
AcDbEntity
  8
0
100
AcDbBlockEnd
  0
BLOCK
  5
113
330
112
100
AcDbEntity
  8
0
100
AcDbBlockBegin
  2
SW_NOTE_0_1
 70
     0
 10
0.0
 20
0.0
 30
0.0
  3
SW_NOTE_0_1
  1

  0
MTEXT
  5
116
330
112
100
AcDbEntity
  8
0
  6
Continuous
 62
     0
370
     0
100
AcDbMText
 10
0.0
 20
3.3796386719
 30
0.0
 40
2.6458333333
 41
0.0
 71
     1
 72
     1
  1
THIS DOCUMENT CONTAINS CONFIDENTIAL OR PROPRIETARY 
  7
SLDTEXTSTYLE1
 73
     1
 44
1.0
  0
MTEXT
  5
117
330
112
100
AcDbEntity
  8
0
  6
Continuous
 62
     0
370
     0
100
AcDbMText
 10
0.0
 20
-0.1481390633
 30
0.0
 40
2.6458333333
 41
0.0
 71
     1
 72
     1
  1
INFORMATION WHICH IS THE PROPERTY OF QSC, LLC THAT MAY NOT BE 
  7
SLDTEXTSTYLE1
 73
     1
 44
1.0
  0
MTEXT
  5
118
330
112
100
AcDbEntity
  8
0
  6
Continuous
 62
     0
370
     0
100
AcDbMText
 10
0.0
 20
-3.6759167984
 30
0.0
 40
2.6458333333
 41
0.0
 71
     1
 72
     1
  1
DISCLOSED, REPRODUCED OR USED WITHOUT EXPRESS WRITTEN CONSENT 
  7
SLDTEXTSTYLE1
 73
     1
 44
1.0
  0
MTEXT
  5
119
330
112
100
AcDbEntity
  8
0
  6
Continuous
 62
     0
370
     0
100
AcDbMText
 10
0.0
 20
-7.2036945336
 30
0.0
 40
2.6458333333
 41
0.0
 71
     1
 72
     1
  1
FROM QSC, LLC. NO PORTION OF THIS DOCUMENT MAY BE REPRODUCED, 
  7
SLDTEXTSTYLE1
 73
     1
 44
1.0
  0
MTEXT
  5
11A
330
112
100
AcDbEntity
  8
0
  6
Continuous
 62
     0
370
     0
100
AcDbMText
 10
0.0
 20
-10.7314722687
 30
0.0
 40
2.6458333333
 41
0.0
 71
     1
 72
     1
  1
REDISTRIBUTED, OR OTHERWISE DISCLOSED TO ANY THIRD PARTY WITHOUT 
  7
SLDTEXTSTYLE1
 73
     1
 44
1.0
  0
MTEXT
  5
11C
330
112
100
AcDbEntity
  8
0
  6
Continuous
 62
     0
370
     0
100
AcDbMText
 10
0.0
 20
-14.2592500038
 30
0.0
 40
2.6458333333
 41
0.0
 71
     1
 72
     1
  1
QSC\U+2019S WRITTEN PERMISSION.
  7
SLDTEXTSTYLE2
 73
     1
 44
1.0
  0
ENDBLK
  5
114
330
112
100
AcDbEntity
  8
0
100
AcDbBlockEnd
  0
BLOCK
  5
124
330
123
100
AcDbEntity
  8
0
100
AcDbBlockBegin
  2
SW_NOTE_0_2
 70
     0
 10
0.0
 20
0.0
 30
0.0
  3
SW_NOTE_0_2
  1

  0
MTEXT
  5
126
330
123
100
AcDbEntity
  8
0
  6
Continuous
 62
     0
370
     0
100
AcDbMText
 10
0.0
 20
3.89334375
 30
0.0
 40
3.048
 41
0.0
 71
     1
 72
     1
  1
1675 MACARTHUR BOULEVARD
  7
SLDTEXTSTYLE0
 73
     1
 44
1.0
  0
MTEXT
  5
127
330
123
100
AcDbEntity
  8
0
  6
Continuous
 62
     0
370
     0
100
AcDbMText
 10
0.0
 20
-1.1546560381
 30
0.0
 40
3.048
 41
0.0
 71
     1
 72
     1
  1
COSTA MESA, CA 92626 USA
  7
SLDTEXTSTYLE0
 73
     1
 44
1.0
  0
ENDBLK
  5
125
330
123
100
AcDbEntity
  8
0
100
AcDbBlockEnd
  0
BLOCK
  5
147
330
146
100
AcDbEntity
  8
0
100
AcDbBlockBegin
  2
SW_NOTE_0_3
 70
     0
 10
0.0
 20
0.0
 30
0.0
  3
SW_NOTE_0_3
  1

  0
MTEXT
  5
149
330
146
100
AcDbEntity
  8
0
  6
Continuous
 62
     0
370
     0
100
AcDbMText
 10
0.0
 20
4.0555664063
 30
0.0
 40
3.175
 41
0.0
 71
     1
 72
     1
  1
%%p
  7
SLDTEXTSTYLE0
 73
     1
 44
1.0
  0
MTEXT
  5
14A
330
146
100
AcDbEntity
  8
0
  6
Continuous
 62
     0
370
     0
100
AcDbMText
 10
3.0268332921
 20
4.0555664063
 30
0.0
 40
3.175
 41
0.0
 71
     1
 72
     1
  1
1
  7
SLDTEXTSTYLE0
 73
     1
 44
1.0
  0
MTEXT
  5
14B
330
146
100
AcDbEntity
  8
0
  6
Continuous
 62
     0
370
     0
100
AcDbMText
 10
5.3728055209
 20
4.0555664063
 30
0.0
 40
3.175
 41
0.0
 71
     1
 72
     1
  1
%%d
  7
SLDTEXTSTYLE0
 73
     1
 44
1.0
  0
ENDBLK
  5
148
330
146
100
AcDbEntity
  8
0
100
AcDbBlockEnd
  0
BLOCK
  5
14E
330
14D
100
AcDbEntity
  8
0
100
AcDbBlockBegin
  2
SW_NOTE_0_4
 70
     0
 10
0.0
 20
0.0
 30
0.0
  3
SW_NOTE_0_4
  1

  0
MTEXT
  5
150
330
14D
100
AcDbEntity
  8
0
  6
Continuous
 62
     0
370
     0
100
AcDbMText
 10
0.0
 20
4.0555664063
 30
0.0
 40
3.175
 41
0.0
 71
     1
 72
     1
  1
.X 
  7
SLDTEXTSTYLE0
 73
     1
 44
1.0
  0
MTEXT
  5
151
330
14D
100
AcDbEntity
  8
0
  6
Continuous
 62
     0
370
     0
100
AcDbMText
 10
4.9153706059
 20
4.0555664063
 30
0.0
 40
3.175
 41
0.0
 71
     1
 72
     1
  1
%%p
  7
SLDTEXTSTYLE0
 73
     1
 44
1.0
  0
MTEXT
  5
152
330
14D
100
AcDbEntity
  8
0
  6
Continuous
 62
     0
370
     0
100
AcDbMText
 10
7.9422034323
 20
4.0555664063
 30
0.0
 40
3.175
 41
0.0
 71
     1
 72
     1
  1
 3.0 (.12)
  7
SLDTEXTSTYLE0
 73
     1
 44
1.0
  0
MTEXT
  5
153
330
14D
100
AcDbEntity
  8
0
  6
Continuous
 62
     0
370
     0
100
AcDbMText
 10
0.0
 20
-0.1777668759
 30
0.0
 40
3.175
 41
0.0
 71
     1
 72
     1
  1
.XX 
  7
SLDTEXTSTYLE0
 73
     1
 44
1.0
  0
MTEXT
  5
154
330
14D
100
AcDbEntity
  8
0
  6
Continuous
 62
     0
370
     0
100
AcDbMText
 10
7.4906479567
 20
-0.1777668759
 30
0.0
 40
3.175
 41
0.0
 71
     1
 72
     1
  1
%%p
  7
SLDTEXTSTYLE0
 73
     1
 44
1.0
  0
ENDBLK
  5
14F
330
14D
100
AcDbEntity
  8
0
100
AcDbBlockEnd
  0
BLOCK
  5
158
330
157
100
AcDbEntity
  8
0
100
AcDbBlockBegin
  2
SW_NOTE_0_5
 70
     0
 10
0.0
 20
0.0
 30
0.0
  3
SW_NOTE_0_5
  1

  0
MTEXT
  5
15A
330
157
100
AcDbEntity
  8
0
  6
Continuous
 62
     0
370
     0
100
AcDbMText
 10
50.89921875
 20
8.1111328125
 30
0.0
 40
6.35
 41
0.0
 71
     2
 72
     1
  1
CONTROL, TSC-101-G3,    
  7
SLDTEXTSTYLE0
 73
     1
 44
1.0
  0
MTEXT
  5
15B
330
157
100
AcDbEntity
  8
0
  6
Continuous
 62
     0
370
     0
100
AcDbMText
 10
46.7533400834
 20
-0.3555337518
 30
0.0
 40
6.35
 41
0.0
 71
     2
 72
     1
  1
10.1 INCH TOUCHSCREEN
  7
SLDTEXTSTYLE0
 73
     1
 44
1.0
  0
ENDBLK
  5
159
330
157
100
AcDbEntity
  8
0
100
AcDbBlockEnd
  0
BLOCK
  5
17A
330
179
100
AcDbEntity
  8
0
100
AcDbBlockBegin
  2
SW_TABLEANNOTATION_0
 70
     0
 10
0.0
 20
0.0
 30
0.0
  3
SW_TABLEANNOTATION_0
  1

  0
LINE
  5
17C
330
179
100
AcDbEntity
  8
SLD-0
 62
     0
100
AcDbLine
 10
0.0
 20
0.0
 30
0.0
 11
0.0
 21
-11.575361408
 31
0.0
  0
LINE
  5
17D
330
179
100
AcDbEntity
  8
SLD-0
 62
     0
100
AcDbLine
 10
0.0
 20
-11.575361408
 30
0.0
 11
0.0
 21
-23.0844684809
 31
0.0
  0
LINE
  5
17E
330
179
100
AcDbEntity
  8
SLD-0
 62
     0
100
AcDbLine
 10
18.1778195311
 20
-11.575361408
 30
0.0
 11
18.1778195311
 21
-23.0844684809
 31
0.0
  0
LINE
  5
17F
330
179
100
AcDbEntity
  8
SLD-0
 62
     0
100
AcDbLine
 10
222.8345361832
 20
-11.575361408
 30
0.0
 11
222.8345361832
 21
-23.0844684809
 31
0.0
  0
LINE
  5
180
330
179
100
AcDbEntity
  8
SLD-0
 62
     0
100
AcDbLine
 10
245.4117937222
 20
-11.575361408
 30
0.0
 11
245.4117937222
 21
-23.0844684809
 31
0.0
  0
LINE
  5
181
330
179
100
AcDbEntity
  8
SLD-0
 62
     0
100
AcDbLine
 10
285.8115490213
 20
0.0
 30
0.0
 11
285.8115490213
 21
-11.575361408
 31
0.0
  0
LINE
  5
182
330
179
100
AcDbEntity
  8
SLD-0
 62
     0
100
AcDbLine
 10
285.8115490213
 20
-11.575361408
 30
0.0
 11
285.8115490213
 21
-23.0844684809
 31
0.0
  0
LINE
  5
183
330
179
100
AcDbEntity
  8
SLD-0
 62
     0
100
AcDbLine
 10
0.0
 20
0.0
 30
0.0
 11
18.1778195311
 21
0.0
 31
0.0
  0
LINE
  5
184
330
179
100
AcDbEntity
  8
SLD-0
 62
     0
100
AcDbLine
 10
0.0
 20
-11.575361408
 30
0.0
 11
18.1778195311
 21
-11.575361408
 31
0.0
  0
LINE
  5
185
330
179
100
AcDbEntity
  8
SLD-0
 62
     0
100
AcDbLine
 10
18.1778195311
 20
0.0
 30
0.0
 11
222.8345361832
 21
0.0
 31
0.0
  0
LINE
  5
186
330
179
100
AcDbEntity
  8
SLD-0
 62
     0
100
AcDbLine
 10
18.1778195311
 20
-11.575361408
 30
0.0
 11
222.8345361832
 21
-11.575361408
 31
0.0
  0
LINE
  5
187
330
179
100
AcDbEntity
  8
SLD-0
 62
     0
100
AcDbLine
 10
222.8345361832
 20
0.0
 30
0.0
 11
245.4117937222
 21
0.0
 31
0.0
  0
LINE
  5
188
330
179
100
AcDbEntity
  8
SLD-0
 62
     0
100
AcDbLine
 10
222.8345361832
 20
-11.575361408
 30
0.0
 11
245.4117937222
 21
-11.575361408
 31
0.0
  0
LINE
  5
189
330
179
100
AcDbEntity
  8
SLD-0
 62
     0
100
AcDbLine
 10
245.4117937222
 20
0.0
 30
0.0
 11
285.8115490213
 21
0.0
 31
0.0
  0
LINE
  5
18A
330
179
100
AcDbEntity
  8
SLD-0
 62
     0
100
AcDbLine
 10
245.4117937222
 20
-11.575361408
 30
0.0
 11
285.8115490213
 21
-11.575361408
 31
0.0
  0
LINE
  5
18B
330
179
100
AcDbEntity
  8
SLD-0
 62
     0
100
AcDbLine
 10
0.0
 20
-23.0844684809
 30
0.0
 11
18.1778195311
 21
-23.0844684809
 31
0.0
  0
LINE
  5
18C
330
179
100
AcDbEntity
  8
SLD-0
 62
     0
100
AcDbLine
 10
18.1778195311
 20
-23.0844684809
 30
0.0
 11
222.8345361832
 21
-23.0844684809
 31
0.0
  0
LINE
  5
18D
330
179
100
AcDbEntity
  8
SLD-0
 62
     0
100
AcDbLine
 10
222.8345361832
 20
-23.0844684809
 30
0.0
 11
245.4117937222
 21
-23.0844684809
 31
0.0
  0
LINE
  5
18E
330
179
100
AcDbEntity
  8
SLD-0
 62
     0
100
AcDbLine
 10
245.4117937222
 20
-23.0844684809
 30
0.0
 11
285.8115490213
 21
-23.0844684809
 31
0.0
  0
LINE
  5
18F
330
179
100
AcDbEntity
  8
SLD-0
 62
     0
100
AcDbLine
 10
0.0
 20
-23.0844684809
 30
0.0
 11
0.0
 21
-33.9916931848
 31
0.0
  0
LINE
  5
190
330
179
100
AcDbEntity
  8
SLD-0
 62
     0
100
AcDbLine
 10
18.1778195311
 20
-23.0844684809
 30
0.0
 11
18.1778195311
 21
-33.9916931848
 31
0.0
  0
LINE
  5
191
330
179
100
AcDbEntity
  8
SLD-0
 62
     0
100
AcDbLine
 10
222.8345361832
 20
-23.0844684809
 30
0.0
 11
222.8345361832
 21
-33.9916931848
 31
0.0
  0
LINE
  5
192
330
179
100
AcDbEntity
  8
SLD-0
 62
     0
100
AcDbLine
 10
245.4117937222
 20
-23.0844684809
 30
0.0
 11
245.4117937222
 21
-33.9916931848
 31
0.0
  0
LINE
  5
193
330
179
100
AcDbEntity
  8
SLD-0
 62
     0
100
AcDbLine
 10
285.8115490213
 20
-23.0844684809
 30
0.0
 11
285.8115490213
 21
-33.9916931848
 31
0.0
  0
LINE
  5
194
330
179
100
AcDbEntity
  8
SLD-0
 62
     0
100
AcDbLine
 10
0.0
 20
-33.9916931848
 30
0.0
 11
18.1778195311
 21
-33.9916931848
 31
0.0
  0
LINE
  5
195
330
179
100
AcDbEntity
  8
SLD-0
 62
     0
100
AcDbLine
 10
18.1778195311
 20
-33.9916931848
 30
0.0
 11
222.8345361832
 21
-33.9916931848
 31
0.0
  0
LINE
  5
196
330
179
100
AcDbEntity
  8
SLD-0
 62
     0
100
AcDbLine
 10
222.8345361832
 20
-33.9916931848
 30
0.0
 11
245.4117937222
 21
-33.9916931848
 31
0.0
  0
LINE
  5
197
330
179
100
AcDbEntity
  8
SLD-0
 62
     0
100
AcDbLine
 10
245.4117937222
 20
-33.9916931848
 30
0.0
 11
285.8115490213
 21
-33.9916931848
 31
0.0
  0
MTEXT
  5
198
330
179
100
AcDbEntity
  8
SLD-0
 62
     0
100
AcDbMText
 10
129.0612062283
 20
-3.725146377
 30
0.0
 40
4.2333333333
 41
0.0
 71
     1
 72
     1
  1
REVISIONS
  7
SLDTEXTSTYLE0
 73
     1
 44
1.0
  0
MTEXT
  5
199
330
179
100
AcDbEntity
  8
SLD-0
 62
     0
100
AcDbMText
 10
3.8795578758
 20
-15.2673806174
 30
0.0
 40
4.2333333333
 41
0.0
 71
     1
 72
     1
  1
REV
  7
SLDTEXTSTYLE0
 73
     1
 44
1.0
  0
MTEXT
  5
19A
330
179
100
AcDbEntity
  8
SLD-0
 62
     0
100
AcDbMText
 10
102.78497377
 20
-15.2673806174
 30
0.0
 40
4.2333333333
 41
0.0
 71
     1
 72
     1
  1
DESCRIPTION
  7
SLDTEXTSTYLE0
 73
     1
 44
1.0
  0
MTEXT
  5
19B
330
179
100
AcDbEntity
  8
SLD-0
 62
     0
100
AcDbMText
 10
230.8344921814
 20
-15.2673806174
 30
0.0
 40
4.2333333333
 41
0.0
 71
     1
 72
     1
  1
BY
  7
SLDTEXTSTYLE0
 73
     1
 44
1.0
  0
MTEXT
  5
19C
330
179
100
AcDbEntity
  8
SLD-0
 62
     0
100
AcDbMText
 10
258.7050665118
 20
-15.2673806174
 30
0.0
 40
4.2333333333
 41
0.0
 71
     1
 72
     1
  1
DATE
  7
SLDTEXTSTYLE0
 73
     1
 44
1.0
  0
MTEXT
  5
19D
330
179
100
AcDbEntity
  8
SLD-0
 62
     0
100
AcDbMText
 10
6.9996812845
 20
-26.4755465058
 30
0.0
 40
4.2333333333
 41
0.0
 71
     1
 72
     1
  1
A
  7
SLDTEXTSTYLE0
 73
     1
 44
1.0
  0
MTEXT
  5
19E
330
179
100
AcDbEntity
  8
SLD-0
 62
     0
100
AcDbMText
 10
19.1778195311
 20
-26.4755465058
 30
0.0
 40
4.2333333333
 41
0.0
 71
     1
 72
     1
  1
INITIAL RELEASE
  7
SLDTEXTSTYLE0
 73
     1
 44
1.0
  0
MTEXT
  5
19F
330
179
100
AcDbEntity
  8
SLD-0
 62
     0
100
AcDbMText
 10
231.3087821724
 20
-26.4755465058
 30
0.0
 40
4.2333333333
 41
0.0
 71
     1
 72
     1
  1
SS
  7
SLDTEXTSTYLE0
 73
     1
 44
1.0
  0
MTEXT
  5
1A0
330
179
100
AcDbEntity
  8
SLD-0
 62
     0
100
AcDbMText
 10
248.4470722214
 20
-26.4755465058
 30
0.0
 40
4.2333333333
 41
0.0
 71
     1
 72
     1
  1
06-DEC-2021
  7
SLDTEXTSTYLE0
 73
     1
 44
1.0
  0
ENDBLK
  5
17B
330
179
100
AcDbEntity
  8
0
100
AcDbBlockEnd
  0
BLOCK
  5
1BD
330
1BC
100
AcDbEntity
  8
0
100
AcDbBlockBegin
  2
_D
 70
     0
 10
0.0
 20
0.0
 30
0.0
  3
_D
  1

  0
SOLID
  5
1BF
330
1BC
100
AcDbEntity
  8
SLD-0
 62
     7
100
AcDbTrace
 10
36.6076048799
 20
116.3746703305
 30
0.0
 11
37.1076048799
 21
120.3746703305
 31
0.0
 12
36.1076048799
 22
120.3746703305
 32
0.0
 13
36.1076048799
 23
120.3746703305
 33
0.0
  0
SOLID
  5
1C0
330
1BC
100
AcDbEntity
  8
SLD-0
 62
     7
100
AcDbTrace
 10
36.6076048799
 20
275.4746703305
 30
0.0
 11
36.1076048799
 21
271.4746703305
 31
0.0
 12
37.1076048799
 22
271.4746703305
 32
0.0
 13
37.1076048799
 23
271.4746703305
 33
0.0
  0
LINE
  5
1C1
330
1BC
100
AcDbEntity
  8
SLD-0
 62
     7
100
AcDbLine
 10
30.4516325109
 20
190.1918089649
 30
0.0
 11
29.00303871
 21
190.1918089649
 31
0.0
  0
LINE
  5
1C2
330
1BC
100
AcDbEntity
  8
SLD-0
 62
     7
100
AcDbLine
 10
29.00303871
 20
190.1918089649
 30
0.0
 11
29.00303871
 21
182.6247255018
 31
0.0
  0
LINE
  5
1C3
330
1BC
100
AcDbEntity
  8
SLD-0
 62
     7
100
AcDbLine
 10
29.00303871
 20
182.6247255018
 30
0.0
 11
30.4516325109
 21
182.6247255018
 31
0.0
  0
LINE
  5
1C4
330
1BC
100
AcDbEntity
  8
SLD-0
 62
     7
100
AcDbLine
 10
42.7635772489
 20
190.1918089649
 30
0.0
 11
44.2121710498
 21
190.1918089649
 31
0.0
  0
LINE
  5
1C5
330
1BC
100
AcDbEntity
  8
SLD-0
 62
     7
100
AcDbLine
 10
44.2121710498
 20
190.1918089649
 30
0.0
 11
44.2121710498
 21
182.6247255018
 31
0.0
  0
LINE
  5
1C6
330
1BC
100
AcDbEntity
  8
SLD-0
 62
     7
100
AcDbLine
 10
44.2121710498
 20
182.6247255018
 30
0.0
 11
42.7635772489
 21
182.6247255018
 31
0.0
  0
LINE
  5
1C7
330
1BC
100
AcDbEntity
  8
SLD-0
 62
     7
100
AcDbLine
 10
57.6956936381
 20
116.3746703305
 30
0.0
 11
35.0836048799
 21
116.3746703305
 31
0.0
  0
LINE
  5
1C8
330
1BC
100
AcDbEntity
  8
SLD-0
 62
     7
100
AcDbLine
 10
57.6956936381
 20
275.4746703305
 30
0.0
 11
35.0836048799
 21
275.4746703305
 31
0.0
  0
LINE
  5
1C9
330
1BC
100
AcDbEntity
  8
SLD-0
 62
     7
100
AcDbLine
 10
36.6076048799
 20
116.3746703305
 30
0.0
 11
36.6076048799
 21
181.6589952147
 31
0.0
  0
LINE
  5
1CA
330
1BC
100
AcDbEntity
  8
SLD-0
 62
     7
100
AcDbLine
 10
36.6076048799
 20
275.4746703305
 30
0.0
 11
36.6076048799
 21
198.7246208525
 31
0.0
  0
MTEXT
  5
1CB
330
1BC
100
AcDbEntity
  8
SLD-0
 62
     7
100
AcDbMText
 10
25.7993754335
 20
197.2408872316
 30
0.0
 40
4.7625
 41
0.0
 71
     1
 72
     1
  1
 
  7
SLDTEXTSTYLE0
 73
     1
 44
1.0
  0
MTEXT
  5
1CC
330
1BC
100
AcDbEntity
  8
SLD-0
 62
     7
100
AcDbMText
 10
28.6921532229
 20
197.2408876973
 30
0.0
 40
4.7625
 41
0.0
 71
     1
 72
     1
  1
159.1
  7
SLDTEXTSTYLE0
 73
     1
 44
1.0
  0
MTEXT
  5
1CD
330
1BC
100
AcDbEntity
  8
SLD-0
 62
     7
100
AcDbMText
 10
30.4516325109
 20
188.708075344
 30
0.0
 40
4.7625
 41
0.0
 71
     1
 72
     1
  1
6.26
  7
SLDTEXTSTYLE0
 73
     1
 44
1.0
  0
MTEXT
  5
1CE
330
1BC
100
AcDbEntity
  8
SLD-0
 62
     7
100
AcDbMText
 10
45.660764385
 20
197.2408872316
 30
0.0
 40
4.7625
 41
0.0
 71
     1
 72
     1
  1
 
  7
SLDTEXTSTYLE0
 73
     1
 44
1.0
  0
ENDBLK
  5
1BE
330
1BC
100
AcDbEntity
  8
0
100
AcDbBlockEnd
  0
BLOCK
  5
1D1
330
1D0
100
AcDbEntity
  8
0
100
AcDbBlockBegin
  2
_D_1
 70
     0
 10
0.0
 20
0.0
 30
0.0
  3
_D_1
  1

  0
SOLID
  5
1D3
330
1D0
100
AcDbEntity
  8
SLD-0
 62
     7
100
AcDbTrace
 10
54.5196936381
 20
295.4746953305
 30
0.0
 11
58.5196936381
 21
294.9746953305
 31
0.0
 12
58.5196936381
 22
295.9746953305
 32
0.0
 13
58.5196936381
 23
295.9746953305
 33
0.0
  0
SOLID
  5
1D4
330
1D0
100
AcDbEntity
  8
SLD-0
 62
     7
100
AcDbTrace
 10
307.9196936381
 20
295.4746953305
 30
0.0
 11
303.9196936381
 21
295.9746953305
 31
0.0
 12
303.9196936381
 22
294.9746953305
 32
0.0
 13
303.9196936381
 23
294.9746953305
 33
0.0
  0
LINE
  5
1D5
330
1D0
100
AcDbEntity
  8
SLD-0
 62
     7
100
AcDbLine
 10
162.6036475079
 20
295.4746962618
 30
0.0
 11
161.155053707
 21
295.4746962618
 31
0.0
  0
LINE
  5
1D6
330
1D0
100
AcDbEntity
  8
SLD-0
 62
     7
100
AcDbLine
 10
161.155053707
 20
295.4746962618
 30
0.0
 11
161.155053707
 21
287.9076127987
 31
0.0
  0
LINE
  5
1D7
330
1D0
100
AcDbEntity
  8
SLD-0
 62
     7
100
AcDbLine
 10
161.155053707
 20
287.9076127987
 30
0.0
 11
162.6036475079
 21
287.9076127987
 31
0.0
  0
LINE
  5
1D8
330
1D0
100
AcDbEntity
  8
SLD-0
 62
     7
100
AcDbLine
 10
174.9155922459
 20
295.4746962618
 30
0.0
 11
176.3641860468
 21
295.4746962618
 31
0.0
  0
LINE
  5
1D9
330
1D0
100
AcDbEntity
  8
SLD-0
 62
     7
100
AcDbLine
 10
176.3641860468
 20
295.4746962618
 30
0.0
 11
176.3641860468
 21
287.9076127987
 31
0.0
  0
LINE
  5
1DA
330
1D0
100
AcDbEntity
  8
SLD-0
 62
     7
100
AcDbLine
 10
176.3641860468
 20
287.9076127987
 30
0.0
 11
174.9155922459
 21
287.9076127987
 31
0.0
  0
LINE
  5
1DB
330
1D0
100
AcDbEntity
  8
SLD-0
 62
     7
100
AcDbLine
 10
54.5196936381
 20
272.2986703305
 30
0.0
 11
54.5196936381
 21
296.9986953305
 31
0.0
  0
LINE
  5
1DC
330
1D0
100
AcDbEntity
  8
SLD-0
 62
     7
100
AcDbLine
 10
307.9196936381
 20
272.2986703305
 30
0.0
 11
307.9196936381
 21
296.9986953305
 31
0.0
  0
LINE
  5
1DD
330
1D0
100
AcDbEntity
  8
SLD-0
 62
     7
100
AcDbLine
 10
54.5196936381
 20
295.4746953305
 30
0.0
 11
156.9858793607
 21
295.4746953305
 31
0.0
  0
LINE
  5
1DE
330
1D0
100
AcDbEntity
  8
SLD-0
 62
     7
100
AcDbLine
 10
307.9196936381
 20
295.4746953305
 30
0.0
 11
180.5333603931
 21
295.4746953305
 31
0.0
  0
MTEXT
  5
1DF
330
1D0
100
AcDbEntity
  8
SLD-0
 62
     7
100
AcDbMText
 10
157.9513904305
 20
302.5237745285
 30
0.0
 40
4.7625
 41
0.0
 71
     1
 72
     1
  1
 
  7
SLDTEXTSTYLE0
 73
     1
 44
1.0
  0
MTEXT
  5
1E0
330
1D0
100
AcDbEntity
  8
SLD-0
 62
     7
100
AcDbMText
 10
160.8441682199
 20
302.5237749942
 30
0.0
 40
4.7625
 41
0.0
 71
     1
 72
     1
  1
253.4
  7
SLDTEXTSTYLE0
 73
     1
 44
1.0
  0
MTEXT
  5
1E1
330
1D0
100
AcDbEntity
  8
SLD-0
 62
     7
100
AcDbMText
 10
162.6036475079
 20
293.990962641
 30
0.0
 40
4.7625
 41
0.0
 71
     1
 72
     1
  1
9.98
  7
SLDTEXTSTYLE0
 73
     1
 44
1.0
  0
MTEXT
  5
1E2
330
1D0
100
AcDbEntity
  8
SLD-0
 62
     7
100
AcDbMText
 10
177.8127793821
 20
302.5237745285
 30
0.0
 40
4.7625
 41
0.0
 71
     1
 72
     1
  1
 
  7
SLDTEXTSTYLE0
 73
     1
 44
1.0
  0
ENDBLK
  5
1D2
330
1D0
100
AcDbEntity
  8
0
100
AcDbBlockEnd
  0
BLOCK
  5
22C
330
22B
100
AcDbEntity
  8
0
100
AcDbBlockBegin
  2
_D_2
 70
     0
 10
0.0
 20
0.0
 30
0.0
  3
_D_2
  1

  0
SOLID
  5
22E
330
22B
100
AcDbEntity
  8
SLD-0
 62
     7
100
AcDbTrace
 10
413.3847264984
 20
98.6302404711
 30
0.0
 11
409.3847264985
 21
99.1302404716
 31
0.0
 12
409.3847264983
 22
98.1302404716
 32
0.0
 13
409.3847264983
 23
98.1302404716
 33
0.0
  0
SOLID
  5
22F
330
22B
100
AcDbEntity
  8
SLD-0
 62
     7
100
AcDbTrace
 10
394.284726454
 20
98.6302404735
 30
0.0
 11
398.284726454
 21
98.130240473
 31
0.0
 12
398.2847264541
 22
99.130240473
 32
0.0
 13
398.2847264541
 23
99.130240473
 33
0.0
  0
LINE
  5
230
330
22B
100
AcDbEntity
  8
SLD-0
 62
     7
100
AcDbLine
 10
363.7001813602
 20
98.630241408
 30
0.0
 11
362.2515875593
 21
98.630241408
 31
0.0
  0
LINE
  5
231
330
22B
100
AcDbEntity
  8
SLD-0
 62
     7
100
AcDbLine
 10
362.2515875593
 20
98.630241408
 30
0.0
 11
362.2515875593
 21
91.0631579449
 31
0.0
  0
LINE
  5
232
330
22B
100
AcDbEntity
  8
SLD-0
 62
     7
100
AcDbLine
 10
362.2515875593
 20
91.0631579449
 30
0.0
 11
363.7001813602
 21
91.0631579449
 31
0.0
  0
LINE
  5
233
330
22B
100
AcDbEntity
  8
SLD-0
 62
     7
100
AcDbLine
 10
372.4931675222
 20
98.630241408
 30
0.0
 11
373.9417613231
 21
98.630241408
 31
0.0
  0
LINE
  5
234
330
22B
100
AcDbEntity
  8
SLD-0
 62
     7
100
AcDbLine
 10
373.9417613231
 20
98.630241408
 30
0.0
 11
373.9417613231
 21
91.0631579449
 31
0.0
  0
LINE
  5
235
330
22B
100
AcDbEntity
  8
SLD-0
 62
     7
100
AcDbLine
 10
373.9417613231
 20
91.0631579449
 30
0.0
 11
372.4931675222
 21
91.0631579449
 31
0.0
  0
LINE
  5
236
330
22B
100
AcDbEntity
  8
SLD-0
 62
     7
100
AcDbLine
 10
413.3847265114
 20
205.4006703305
 30
0.0
 11
413.3847264982
 21
97.1062404711
 31
0.0
  0
LINE
  5
237
330
22B
100
AcDbEntity
  8
SLD-0
 62
     7
100
AcDbLine
 10
394.2847264565
 20
119.2856703363
 30
0.0
 11
394.2847264538
 21
97.1062404735
 31
0.0
  0
LINE
  5
238
330
22B
100
AcDbEntity
  8
SLD-0
 62
     7
100
AcDbLine
 10
413.3847264984
 20
98.6302404711
 30
0.0
 11
394.284726454
 21
98.6302404735
 31
0.0
  0
LINE
  5
239
330
22B
100
AcDbEntity
  8
SLD-0
 62
     7
100
AcDbLine
 10
394.284726454
 20
98.6302404735
 30
0.0
 11
378.1109366007
 21
98.6302404754
 31
0.0
  0
MTEXT
  5
23A
330
22B
100
AcDbEntity
  8
SLD-0
 62
     7
100
AcDbMText
 10
359.0479242828
 20
105.6793196747
 30
0.0
 40
4.7625
 41
0.0
 71
     1
 72
     1
  1
 
  7
SLDTEXTSTYLE0
 73
     1
 44
1.0
  0
MTEXT
  5
23B
330
22B
100
AcDbEntity
  8
SLD-0
 62
     7
100
AcDbMText
 10
361.9407020722
 20
105.6793201403
 30
0.0
 40
4.7625
 41
0.0
 71
     1
 72
     1
  1
19.1
  7
SLDTEXTSTYLE0
 73
     1
 44
1.0
  0
MTEXT
  5
23C
330
22B
100
AcDbEntity
  8
SLD-0
 62
     7
100
AcDbMText
 10
363.7001813602
 20
97.1465077871
 30
0.0
 40
4.7625
 41
0.0
 71
     1
 72
     1
  1
.75
  7
SLDTEXTSTYLE0
 73
     1
 44
1.0
  0
MTEXT
  5
23D
330
22B
100
AcDbEntity
  8
SLD-0
 62
     7
100
AcDbMText
 10
375.3903555896
 20
105.6793196747
 30
0.0
 40
4.7625
 41
0.0
 71
     1
 72
     1
  1
 
  7
SLDTEXTSTYLE0
 73
     1
 44
1.0
  0
ENDBLK
  5
22D
330
22B
100
AcDbEntity
  8
0
100
AcDbBlockEnd
  0
BLOCK
  5
240
330
23F
100
AcDbEntity
  8
0
100
AcDbBlockBegin
  2
_D_3
 70
     0
 10
0.0
 20
0.0
 30
0.0
  3
_D_3
  1

  0
SOLID
  5
242
330
23F
100
AcDbEntity
  8
SLD-0
 62
     7
100
AcDbTrace
 10
374.2847264567
 20
208.9246703305
 30
0.0
 11
373.7847264567
 21
204.9246703305
 31
0.0
 12
374.7847264567
 22
204.9246703305
 32
0.0
 13
374.7847264567
 23
204.9246703305
 33
0.0
  0
SOLID
  5
243
330
23F
100
AcDbEntity
  8
SLD-0
 62
     7
100
AcDbTrace
 10
374.2847264567
 20
116.3746703305
 30
0.0
 11
374.7847264567
 21
120.3746703305
 31
0.0
 12
373.7847264567
 22
120.3746703305
 32
0.0
 13
373.7847264567
 23
120.3746703305
 33
0.0
  0
LINE
  5
244
330
23F
100
AcDbEntity
  8
SLD-0
 62
     7
100
AcDbLine
 10
368.1287540877
 20
164.8676250618
 30
0.0
 11
366.6801602868
 21
164.8676250618
 31
0.0
  0
LINE
  5
245
330
23F
100
AcDbEntity
  8
SLD-0
 62
     7
100
AcDbLine
 10
366.6801602868
 20
164.8676250618
 30
0.0
 11
366.6801602868
 21
157.3005415987
 31
0.0
  0
LINE
  5
246
330
23F
100
AcDbEntity
  8
SLD-0
 62
     7
100
AcDbLine
 10
366.6801602868
 20
157.3005415987
 30
0.0
 11
368.1287540877
 21
157.3005415987
 31
0.0
  0
LINE
  5
247
330
23F
100
AcDbEntity
  8
SLD-0
 62
     7
100
AcDbLine
 10
380.4406988257
 20
164.8676250618
 30
0.0
 11
381.8892926266
 21
164.8676250618
 31
0.0
  0
LINE
  5
248
330
23F
100
AcDbEntity
  8
SLD-0
 62
     7
100
AcDbLine
 10
381.8892926266
 20
164.8676250618
 30
0.0
 11
381.8892926266
 21
157.3005415987
 31
0.0
  0
LINE
  5
249
330
23F
100
AcDbEntity
  8
SLD-0
 62
     7
100
AcDbLine
 10
381.8892926266
 20
157.3005415987
 30
0.0
 11
380.4406988257
 21
157.3005415987
 31
0.0
  0
LINE
  5
24A
330
23F
100
AcDbEntity
  8
SLD-0
 62
     7
100
AcDbLine
 10
409.8607265116
 20
208.9246703305
 30
0.0
 11
372.7607264567
 21
208.9246703305
 31
0.0
  0
LINE
  5
24B
330
23F
100
AcDbEntity
  8
SLD-0
 62
     7
100
AcDbLine
 10
393.4607265116
 20
116.3746703305
 30
0.0
 11
372.7607264567
 21
116.3746703305
 31
0.0
  0
LINE
  5
24C
330
23F
100
AcDbEntity
  8
SLD-0
 62
     7
100
AcDbLine
 10
374.2847264567
 20
208.9246703305
 30
0.0
 11
374.2847264567
 21
173.4004369493
 31
0.0
  0
LINE
  5
24D
330
23F
100
AcDbEntity
  8
SLD-0
 62
     7
100
AcDbLine
 10
374.2847264567
 20
116.3746703305
 30
0.0
 11
374.2847264567
 21
156.3348113116
 31
0.0
  0
MTEXT
  5
24E
330
23F
100
AcDbEntity
  8
SLD-0
 62
     7
100
AcDbMText
 10
363.4764970103
 20
171.9167033285
 30
0.0
 40
4.7625
 41
0.0
 71
     1
 72
     1
  1
 
  7
SLDTEXTSTYLE0
 73
     1
 44
1.0
  0
MTEXT
  5
24F
330
23F
100
AcDbEntity
  8
SLD-0
 62
     7
100
AcDbMText
 10
368.128753622
 20
171.9167037941
 30
0.0
 40
4.7625
 41
0.0
 71
     1
 72
     1
  1
92.6
  7
SLDTEXTSTYLE0
 73
     1
 44
1.0
  0
MTEXT
  5
250
330
23F
100
AcDbEntity
  8
SLD-0
 62
     7
100
AcDbMText
 10
368.1287540877
 20
163.3838914409
 30
0.0
 40
4.7625
 41
0.0
 71
     1
 72
     1
  1
3.64
  7
SLDTEXTSTYLE0
 73
     1
 44
1.0
  0
MTEXT
  5
251
330
23F
100
AcDbEntity
  8
SLD-0
 62
     7
100
AcDbMText
 10
383.3378859618
 20
171.9167033285
 30
0.0
 40
4.7625
 41
0.0
 71
     1
 72
     1
  1
 
  7
SLDTEXTSTYLE0
 73
     1
 44
1.0
  0
ENDBLK
  5
241
330
23F
100
AcDbEntity
  8
0
100
AcDbBlockEnd
  0
BLOCK
  5
254
330
253
100
AcDbEntity
  8
0
100
AcDbBlockBegin
  2
_D_4
 70
     0
 10
0.0
 20
0.0
 30
0.0
  3
_D_4
  1

  0
SOLID
  5
256
330
253
100
AcDbEntity
  8
SLD-0
 62
     7
100
AcDbTrace
 10
433.3847265239
 20
313.8140312943
 30
0.0
 11
429.3847265239
 21
314.3140312948
 31
0.0
 12
429.3847265238
 22
313.3140312948
 32
0.0
 13
429.3847265238
 23
313.3140312948
 33
0.0
  0
SOLID
  5
257
330
253
100
AcDbEntity
  8
SLD-0
 62
     7
100
AcDbTrace
 10
394.2847264802
 20
313.8140312991
 30
0.0
 11
398.2847264802
 21
313.3140312986
 31
0.0
 12
398.2847264803
 22
314.3140312986
 32
0.0
 13
398.2847264803
 23
314.3140312986
 33
0.0
  0
LINE
  5
258
330
253
100
AcDbEntity
  8
SLD-0
 62
     7
100
AcDbLine
 10
407.5560188531
 20
313.814032228
 30
0.0
 11
406.1074250522
 21
313.814032228
 31
0.0
  0
LINE
  5
259
330
253
100
AcDbEntity
  8
SLD-0
 62
     7
100
AcDbLine
 10
406.1074250522
 20
313.814032228
 30
0.0
 11
406.1074250522
 21
306.246948765
 31
0.0
  0
LINE
  5
25A
330
253
100
AcDbEntity
  8
SLD-0
 62
     7
100
AcDbLine
 10
406.1074250522
 20
306.246948765
 30
0.0
 11
407.5560188531
 21
306.246948765
 31
0.0
  0
LINE
  5
25B
330
253
100
AcDbEntity
  8
SLD-0
 62
     7
100
AcDbLine
 10
419.8679635911
 20
313.814032228
 30
0.0
 11
421.316557392
 21
313.814032228
 31
0.0
  0
LINE
  5
25C
330
253
100
AcDbEntity
  8
SLD-0
 62
     7
100
AcDbLine
 10
421.316557392
 20
313.814032228
 30
0.0
 11
421.316557392
 21
306.246948765
 31
0.0
  0
LINE
  5
25D
330
253
100
AcDbEntity
  8
SLD-0
 62
     7
100
AcDbLine
 10
421.316557392
 20
306.246948765
 30
0.0
 11
419.8679635911
 21
306.246948765
 31
0.0
  0
LINE
  5
25E
330
253
100
AcDbEntity
  8
SLD-0
 62
     7
100
AcDbLine
 10
433.3847265118
 20
214.4486703305
 30
0.0
 11
433.3847265241
 21
315.3380312943
 31
0.0
  0
LINE
  5
25F
330
253
100
AcDbEntity
  8
SLD-0
 62
     7
100
AcDbLine
 10
394.2847264752
 20
272.5636725297
 30
0.0
 11
394.2847264804
 21
315.3380312991
 31
0.0
  0
LINE
  5
260
330
253
100
AcDbEntity
  8
SLD-0
 62
     7
100
AcDbLine
 10
433.3847265239
 20
313.8140312943
 30
0.0
 11
425.4857317383
 21
313.8140312953
 31
0.0
  0
LINE
  5
261
330
253
100
AcDbEntity
  8
SLD-0
 62
     7
100
AcDbLine
 10
394.2847264802
 20
313.8140312991
 30
0.0
 11
401.9382507059
 21
313.8140312981
 31
0.0
  0
MTEXT
  5
262
330
253
100
AcDbEntity
  8
SLD-0
 62
     7
100
AcDbMText
 10
402.9037617757
 20
320.8631104947
 30
0.0
 40
4.7625
 41
0.0
 71
     1
 72
     1
  1
 
  7
SLDTEXTSTYLE0
 73
     1
 44
1.0
  0
MTEXT
  5
263
330
253
100
AcDbEntity
  8
SLD-0
 62
     7
100
AcDbMText
 10
407.5560183874
 20
320.8631109604
 30
0.0
 40
4.7625
 41
0.0
 71
     1
 72
     1
  1
39.1
  7
SLDTEXTSTYLE0
 73
     1
 44
1.0
  0
MTEXT
  5
264
330
253
100
AcDbEntity
  8
SLD-0
 62
     7
100
AcDbMText
 10
407.5560188531
 20
312.3302986072
 30
0.0
 40
4.7625
 41
0.0
 71
     1
 72
     1
  1
1.54
  7
SLDTEXTSTYLE0
 73
     1
 44
1.0
  0
MTEXT
  5
265
330
253
100
AcDbEntity
  8
SLD-0
 62
     7
100
AcDbMText
 10
422.7651507272
 20
320.8631104947
 30
0.0
 40
4.7625
 41
0.0
 71
     1
 72
     1
  1
 
  7
SLDTEXTSTYLE0
 73
     1
 44
1.0
  0
ENDBLK
  5
255
330
253
100
AcDbEntity
  8
0
100
AcDbBlockEnd
  0
BLOCK
  5
268
330
267
100
AcDbEntity
  8
0
100
AcDbBlockBegin
  2
_D_5
 70
     0
 10
0.0
 20
0.0
 30
0.0
  3
_D_5
  1

  0
ARC
  5
26A
330
267
100
AcDbEntity
  8
SLD-0
 62
     7
100
AcDbCircle
 10
464.2187351511
 20
294.9918306526
 30
0.0
 40
19.07994950230812
100
AcDbArc
 50
153.4349488229
 51
206.5650511771
  0
ARC
  5
26B
330
267
100
AcDbEntity
  8
SLD-0
 62
     7
100
AcDbCircle
 10
448.1849851236
 20
294.9918306526
 30
0.0
 40
19.07994950230812
100
AcDbArc
 50
333.4349488229
 51
26.5650511771
  0
SOLID
  5
26C
330
267
100
AcDbEntity
  8
SLD-0
 62
     7
100
AcDbTrace
 10
433.3847265116
 20
295.4746953305
 30
0.0
 11
429.3847265116
 21
295.9746953305
 31
0.0
 12
429.3847265116
 22
294.9746953305
 32
0.0
 13
429.3847265116
 23
294.9746953305
 33
0.0
  0
SOLID
  5
26D
330
267
100
AcDbEntity
  8
SLD-0
 62
     7
100
AcDbTrace
 10
409.8847265116
 20
295.4746953305
 30
0.0
 11
413.8847265116
 21
294.9746953305
 31
0.0
 12
413.8847265116
 22
295.9746953305
 32
0.0
 13
413.8847265116
 23
295.9746953305
 33
0.0
  0
LINE
  5
26E
330
267
100
AcDbEntity
  8
SLD-0
 62
     7
100
AcDbLine
 10
451.8053665907
 20
294.9918315839
 30
0.0
 11
450.3567727898
 21
294.9918315839
 31
0.0
  0
LINE
  5
26F
330
267
100
AcDbEntity
  8
SLD-0
 62
     7
100
AcDbLine
 10
450.3567727898
 20
294.9918315839
 30
0.0
 11
450.3567727898
 21
287.4247481208
 31
0.0
  0
LINE
  5
270
330
267
100
AcDbEntity
  8
SLD-0
 62
     7
100
AcDbLine
 10
450.3567727898
 20
287.4247481208
 30
0.0
 11
451.8053665907
 21
287.4247481208
 31
0.0
  0
LINE
  5
271
330
267
100
AcDbEntity
  8
SLD-0
 62
     7
100
AcDbLine
 10
460.5983527527
 20
294.9918315839
 30
0.0
 11
462.0469465536
 21
294.9918315839
 31
0.0
  0
LINE
  5
272
330
267
100
AcDbEntity
  8
SLD-0
 62
     7
100
AcDbLine
 10
462.0469465536
 20
294.9918315839
 30
0.0
 11
462.0469465536
 21
287.4247481208
 31
0.0
  0
LINE
  5
273
330
267
100
AcDbEntity
  8
SLD-0
 62
     7
100
AcDbLine
 10
462.0469465536
 20
287.4247481208
 30
0.0
 11
460.5983527527
 21
287.4247481208
 31
0.0
  0
LINE
  5
274
330
267
100
AcDbEntity
  8
SLD-0
 62
     7
100
AcDbLine
 10
433.3847265116
 20
222.688710266
 30
0.0
 11
433.3847265116
 21
296.9986953305
 31
0.0
  0
LINE
  5
275
330
267
100
AcDbEntity
  8
SLD-0
 62
     7
100
AcDbLine
 10
409.8847265116
 20
264.9986703305
 30
0.0
 11
409.8847265116
 21
296.9986953305
 31
0.0
  0
LINE
  5
276
330
267
100
AcDbEntity
  8
SLD-0
 62
     7
100
AcDbLine
 10
433.3847265116
 20
295.4746953305
 30
0.0
 11
439.3457192583
 21
295.4746953305
 31
0.0
  0
LINE
  5
277
330
267
100
AcDbEntity
  8
SLD-0
 62
     7
100
AcDbLine
 10
409.8847265116
 20
295.4746953305
 30
0.0
 11
433.3847265116
 21
295.4746953305
 31
0.0
  0
MTEXT
  5
278
330
267
100
AcDbEntity
  8
SLD-0
 62
     7
100
AcDbMText
 10
447.1531095133
 20
302.0409098506
 30
0.0
 40
4.7625
 41
0.0
 71
     1
 72
     1
  1
 
  7
SLDTEXTSTYLE0
 73
     1
 44
1.0
  0
MTEXT
  5
279
330
267
100
AcDbEntity
  8
SLD-0
 62
     7
100
AcDbMText
 10
450.0458873027
 20
302.0409103163
 30
0.0
 40
4.7625
 41
0.0
 71
     1
 72
     1
  1
23.5
  7
SLDTEXTSTYLE0
 73
     1
 44
1.0
  0
MTEXT
  5
27A
330
267
100
AcDbEntity
  8
SLD-0
 62
     7
100
AcDbMText
 10
451.8053665907
 20
293.508097963
 30
0.0
 40
4.7625
 41
0.0
 71
     1
 72
     1
  1
.93
  7
SLDTEXTSTYLE0
 73
     1
 44
1.0
  0
MTEXT
  5
27B
330
267
100
AcDbEntity
  8
SLD-0
 62
     7
100
AcDbMText
 10
463.4955408201
 20
302.0409098506
 30
0.0
 40
4.7625
 41
0.0
 71
     1
 72
     1
  1
 
  7
SLDTEXTSTYLE0
 73
     1
 44
1.0
  0
ENDBLK
  5
269
330
267
100
AcDbEntity
  8
0
100
AcDbBlockEnd
  0
BLOCK
  5
27E
330
27D
100
AcDbEntity
  8
0
100
AcDbBlockBegin
  2
_D_6
 70
     0
 10
0.0
 20
0.0
 30
0.0
  3
_D_6
  1

  0
SOLID
  5
280
330
27D
100
AcDbEntity
  8
SLD-0
 62
     7
100
AcDbTrace
 10
409.8847265155
 20
295.4746953255
 30
0.0
 11
405.8847265155
 21
295.974695326
 31
0.0
 12
405.8847265154
 22
294.974695326
 32
0.0
 13
405.8847265154
 23
294.974695326
 33
0.0
  0
SOLID
  5
281
330
27D
100
AcDbEntity
  8
SLD-0
 62
     7
100
AcDbTrace
 10
394.284726478
 20
295.4746953274
 30
0.0
 11
398.2847264779
 21
294.9746953269
 31
0.0
 12
398.284726478
 22
295.9746953269
 32
0.0
 13
398.284726478
 23
295.9746953269
 33
0.0
  0
LINE
  5
282
330
27D
100
AcDbEntity
  8
SLD-0
 62
     7
100
AcDbLine
 10
364.6657949631
 20
295.4746962618
 30
0.0
 11
363.2172011622
 21
295.4746962618
 31
0.0
  0
LINE
  5
283
330
27D
100
AcDbEntity
  8
SLD-0
 62
     7
100
AcDbLine
 10
363.2172011622
 20
295.4746962618
 30
0.0
 11
363.2172011622
 21
287.9076127987
 31
0.0
  0
LINE
  5
284
330
27D
100
AcDbEntity
  8
SLD-0
 62
     7
100
AcDbLine
 10
363.2172011622
 20
287.9076127987
 30
0.0
 11
364.6657949631
 21
287.9076127987
 31
0.0
  0
LINE
  5
285
330
27D
100
AcDbEntity
  8
SLD-0
 62
     7
100
AcDbLine
 10
373.4587811251
 20
295.4746962618
 30
0.0
 11
374.907374926
 21
295.4746962618
 31
0.0
  0
LINE
  5
286
330
27D
100
AcDbEntity
  8
SLD-0
 62
     7
100
AcDbLine
 10
374.907374926
 20
295.4746962618
 30
0.0
 11
374.907374926
 21
287.9076127987
 31
0.0
  0
LINE
  5
287
330
27D
100
AcDbEntity
  8
SLD-0
 62
     7
100
AcDbLine
 10
374.907374926
 20
287.9076127987
 30
0.0
 11
373.4587811251
 21
287.9076127987
 31
0.0
  0
LINE
  5
288
330
27D
100
AcDbEntity
  8
SLD-0
 62
     7
100
AcDbLine
 10
409.8847265118
 20
264.9986703305
 30
0.0
 11
409.8847265157
 21
296.9986953255
 31
0.0
  0
LINE
  5
289
330
27D
100
AcDbEntity
  8
SLD-0
 62
     7
100
AcDbLine
 10
394.2847264752
 20
272.5636725297
 30
0.0
 11
394.2847264782
 21
296.9986953274
 31
0.0
  0
LINE
  5
28A
330
27D
100
AcDbEntity
  8
SLD-0
 62
     7
100
AcDbLine
 10
409.8847265155
 20
295.4746953255
 30
0.0
 11
394.284726478
 21
295.4746953274
 31
0.0
  0
LINE
  5
28B
330
27D
100
AcDbEntity
  8
SLD-0
 62
     7
100
AcDbLine
 10
394.284726478
 20
295.4746953274
 30
0.0
 11
379.0765502036
 21
295.4746953293
 31
0.0
  0
MTEXT
  5
28C
330
27D
100
AcDbEntity
  8
SLD-0
 62
     7
100
AcDbMText
 10
360.0135378857
 20
302.5237745285
 30
0.0
 40
4.7625
 41
0.0
 71
     1
 72
     1
  1
 
  7
SLDTEXTSTYLE0
 73
     1
 44
1.0
  0
MTEXT
  5
28D
330
27D
100
AcDbEntity
  8
SLD-0
 62
     7
100
AcDbMText
 10
362.9063156751
 20
302.5237749942
 30
0.0
 40
4.7625
 41
0.0
 71
     1
 72
     1
  1
15.6
  7
SLDTEXTSTYLE0
 73
     1
 44
1.0
  0
MTEXT
  5
28E
330
27D
100
AcDbEntity
  8
SLD-0
 62
     7
100
AcDbMText
 10
364.6657949631
 20
293.990962641
 30
0.0
 40
4.7625
 41
0.0
 71
     1
 72
     1
  1
.61
  7
SLDTEXTSTYLE0
 73
     1
 44
1.0
  0
MTEXT
  5
28F
330
27D
100
AcDbEntity
  8
SLD-0
 62
     7
100
AcDbMText
 10
376.3559691925
 20
302.5237745285
 30
0.0
 40
4.7625
 41
0.0
 71
     1
 72
     1
  1
 
  7
SLDTEXTSTYLE0
 73
     1
 44
1.0
  0
ENDBLK
  5
27F
330
27D
100
AcDbEntity
  8
0
100
AcDbBlockEnd
  0
BLOCK
  5
291
330
290
100
AcDbEntity
  8
0
100
AcDbBlockBegin
  2
SW_NOTE_0_6
 70
     0
 10
0.0
 20
0.0
 30
0.0
  3
SW_NOTE_0_6
  1

  0
MTEXT
  5
293
330
290
100
AcDbEntity
  8
SLD-0
 62
     0
100
AcDbMText
 10
-0.9966419838
 20
9.618602707
 30
0.0
 40
4.7625
 41
0.0
 71
     3
 72
     1
  1
VENTING
  7
SLDTEXTSTYLE0
 73
     1
 44
1.0
  0
MTEXT
  5
294
330
290
100
AcDbEntity
  8
SLD-0
 62
     0
100
AcDbMText
 10
-1.7176334552
 20
1.2686029216
 30
0.0
 40
4.7625
 41
0.0
 71
     3
 72
     1
  1
AREA
  7
SLDTEXTSTYLE0
 73
     1
 44
1.0
  0
ENDBLK
  5
292
330
290
100
AcDbEntity
  8
0
100
AcDbBlockEnd
  0
BLOCK
  5
298
330
297
100
AcDbEntity
  8
0
100
AcDbBlockBegin
  2
_Dot
 70
     0
 10
0.0
 20
0.0
 30
0.0
  3
_Dot
  1

  0
LWPOLYLINE
  5
29A
330
297
100
AcDbEntity
  8
0
  6
ByBlock
 62
     0
100
AcDbPolyline
 90
        2
 70
     1
 43
0.5
 10
-0.25
 20
0.0
 42
1.0
 10
0.25
 20
0.0
 42
1.0
  0
LINE
  5
29B
330
297
100
AcDbEntity
  8
0
  6
ByBlock
 62
     0
370
    -2
100
AcDbLine
 10
-0.5
 20
0.0
 30
0.0
 11
-1.0
 21
0.0
 31
0.0
  0
ENDBLK
  5
299
330
297
100
AcDbEntity
  8
0
100
AcDbBlockEnd
  0
BLOCK
  5
29E
330
29D
100
AcDbEntity
  8
0
100
AcDbBlockBegin
  2
SW_NOTE_0_7
 70
     0
 10
0.0
 20
0.0
 30
0.0
  3
SW_NOTE_0_7
  1

  0
LINE
  5
2A0
330
29D
100
AcDbEntity
  8
SLD-0
 62
     0
100
AcDbLine
 10
0.0
 20
-6.0744110855
 30
0.0
 11
0.0
 21
5.4729330254
 31
0.0
  0
LINE
  5
2A1
330
29D
100
AcDbEntity
  8
SLD-0
 62
     0
100
AcDbLine
 10
0.0
 20
5.4729330254
 30
0.0
 11
11.5473441109
 21
5.4729330254
 31
0.0
  0
LINE
  5
2A2
330
29D
100
AcDbEntity
  8
SLD-0
 62
     0
100
AcDbLine
 10
11.5473441109
 20
5.4729330254
 30
0.0
 11
11.5473441109
 21
-6.0744110855
 31
0.0
  0
LINE
  5
2A3
330
29D
100
AcDbEntity
  8
SLD-0
 62
     0
100
AcDbLine
 10
11.5473441109
 20
-6.0744110855
 30
0.0
 11
0.0
 21
-6.0744110855
 31
0.0
  0
MTEXT
  5
2A4
330
29D
100
AcDbEntity
  8
SLD-0
 62
     0
100
AcDbMText
 10
5.7257163213
 20
2.0428182755
 30
0.0
 40
4.7625
 41
0.0
 71
     2
 72
     1
  1
3
  7
SLDTEXTSTYLE0
 73
     1
 44
1.0
  0
ENDBLK
  5
29F
330
29D
100
AcDbEntity
  8
0
100
AcDbBlockEnd
  0
BLOCK
  5
2AA
330
2A9
100
AcDbEntity
  8
0
100
AcDbBlockBegin
  2
SW_CENTERMARKSYMBOL_0
 70
     0
 10
0.0
 20
0.0
 30
0.0
  3
SW_CENTERMARKSYMBOL_0
  1

  0
LINE
  5
2AC
330
2A9
100
AcDbEntity
  8
SLD-0
 62
     0
100
AcDbLine
 10
0.0
 20
0.0
 30
0.0
 11
0.0
 21
2.0
 31
0.0
  0
LINE
  5
2AD
330
2A9
100
AcDbEntity
  8
SLD-0
 62
     0
100
AcDbLine
 10
0.0
 20
0.0
 30
0.0
 11
-2.0
 21
0.0
 31
0.0
  0
LINE
  5
2AE
330
2A9
100
AcDbEntity
  8
SLD-0
 62
     0
100
AcDbLine
 10
0.0
 20
0.0
 30
0.0
 11
0.0
 21
-2.0
 31
0.0
  0
LINE
  5
2AF
330
2A9
100
AcDbEntity
  8
SLD-0
 62
     0
100
AcDbLine
 10
0.0
 20
0.0
 30
0.0
 11
2.0
 21
0.0
 31
0.0
  0
ENDBLK
  5
2AB
330
2A9
100
AcDbEntity
  8
0
100
AcDbBlockEnd
  0
BLOCK
  5
3B6
330
3B5
100
AcDbEntity
  8
0
100
AcDbBlockBegin
  2
_D_7
 70
     0
 10
0.0
 20
0.0
 30
0.0
  3
_D_7
  1

  0
SOLID
  5
3B8
330
3B5
100
AcDbEntity
  8
SLD-0
 62
     7
100
AcDbTrace
 10
779.8368388367
 20
116.3746703305
 30
0.0
 11
780.3368388367
 21
120.3746703305
 31
0.0
 12
779.3368388367
 22
120.3746703305
 32
0.0
 13
779.3368388367
 23
120.3746703305
 33
0.0
  0
SOLID
  5
3B9
330
3B5
100
AcDbEntity
  8
SLD-0
 62
     7
100
AcDbTrace
 10
779.8368388367
 20
202.6571703305
 30
0.0
 11
779.3368388367
 21
198.6571703305
 31
0.0
 12
780.3368388367
 22
198.6571703305
 32
0.0
 13
780.3368388367
 23
198.6571703305
 33
0.0
  0
LINE
  5
3BA
330
3B5
100
AcDbEntity
  8
SLD-0
 62
     7
100
AcDbLine
 10
773.6808664676
 20
158.0456130111
 30
0.0
 11
772.2322726667
 21
158.0456130111
 31
0.0
  0
LINE
  5
3BB
330
3B5
100
AcDbEntity
  8
SLD-0
 62
     7
100
AcDbLine
 10
772.2322726667
 20
158.0456130111
 30
0.0
 11
772.2322726667
 21
150.478529548
 31
0.0
  0
LINE
  5
3BC
330
3B5
100
AcDbEntity
  8
SLD-0
 62
     7
100
AcDbLine
 10
772.2322726667
 20
150.478529548
 30
0.0
 11
773.6808664676
 21
150.478529548
 31
0.0
  0
LINE
  5
3BD
330
3B5
100
AcDbEntity
  8
SLD-0
 62
     7
100
AcDbLine
 10
785.9928112057
 20
158.0456130111
 30
0.0
 11
787.4414050066
 21
158.0456130111
 31
0.0
  0
LINE
  5
3BE
330
3B5
100
AcDbEntity
  8
SLD-0
 62
     7
100
AcDbLine
 10
787.4414050066
 20
158.0456130111
 30
0.0
 11
787.4414050066
 21
150.478529548
 31
0.0
  0
LINE
  5
3BF
330
3B5
100
AcDbEntity
  8
SLD-0
 62
     7
100
AcDbLine
 10
787.4414050066
 20
150.478529548
 30
0.0
 11
785.9928112057
 21
150.478529548
 31
0.0
  0
LINE
  5
3C0
330
3B5
100
AcDbEntity
  8
SLD-0
 62
     7
100
AcDbLine
 10
750.0664267972
 20
116.3746703305
 30
0.0
 11
781.3608388367
 21
116.3746703305
 31
0.0
  0
LINE
  5
3C1
330
3B5
100
AcDbEntity
  8
SLD-0
 62
     7
100
AcDbLine
 10
645.9414267971
 20
202.6571703305
 30
0.0
 11
781.3608388367
 21
202.6571703305
 31
0.0
  0
LINE
  5
3C2
330
3B5
100
AcDbEntity
  8
SLD-0
 62
     7
100
AcDbLine
 10
779.8368388367
 20
116.3746703305
 30
0.0
 11
779.8368388367
 21
149.5127992609
 31
0.0
  0
LINE
  5
3C3
330
3B5
100
AcDbEntity
  8
SLD-0
 62
     7
100
AcDbLine
 10
779.8368388367
 20
202.6571703305
 30
0.0
 11
779.8368388367
 21
166.5784248986
 31
0.0
  0
MTEXT
  5
3C4
330
3B5
100
AcDbEntity
  8
SLD-0
 62
     7
100
AcDbMText
 10
769.0286093902
 20
165.0946912778
 30
0.0
 40
4.7625
 41
0.0
 71
     1
 72
     1
  1
 
  7
SLDTEXTSTYLE0
 73
     1
 44
1.0
  0
MTEXT
  5
3C5
330
3B5
100
AcDbEntity
  8
SLD-0
 62
     7
100
AcDbMText
 10
773.680866002
 20
165.0946917434
 30
0.0
 40
4.7625
 41
0.0
 71
     1
 72
     1
  1
86.3
  7
SLDTEXTSTYLE0
 73
     1
 44
1.0
  0
MTEXT
  5
3C6
330
3B5
100
AcDbEntity
  8
SLD-0
 62
     7
100
AcDbMText
 10
773.6808664676
 20
156.5618793902
 30
0.0
 40
4.7625
 41
0.0
 71
     1
 72
     1
  1
3.40
  7
SLDTEXTSTYLE0
 73
     1
 44
1.0
  0
MTEXT
  5
3C7
330
3B5
100
AcDbEntity
  8
SLD-0
 62
     7
100
AcDbMText
 10
788.8899983418
 20
165.0946912778
 30
0.0
 40
4.7625
 41
0.0
 71
     1
 72
     1
  1
 
  7
SLDTEXTSTYLE0
 73
     1
 44
1.0
  0
ENDBLK
  5
3B7
330
3B5
100
AcDbEntity
  8
0
100
AcDbBlockEnd
  0
BLOCK
  5
3CA
330
3C9
100
AcDbEntity
  8
0
100
AcDbBlockBegin
  2
_D_8
 70
     0
 10
0.0
 20
0.0
 30
0.0
  3
_D_8
  1

  0
SOLID
  5
3CC
330
3C9
100
AcDbEntity
  8
SLD-0
 62
     7
100
AcDbTrace
 10
634.1424267971
 20
291.153485989
 30
0.0
 11
638.1424267971
 21
290.653485989
 31
0.0
 12
638.1424267971
 22
291.653485989
 32
0.0
 13
638.1424267971
 23
291.653485989
 33
0.0
  0
SOLID
  5
3CD
330
3C9
100
AcDbEntity
  8
SLD-0
 62
     7
100
AcDbTrace
 10
753.2424267972
 20
291.153485989
 30
0.0
 11
749.2424267972
 21
291.653485989
 31
0.0
 12
749.2424267972
 22
290.653485989
 32
0.0
 13
749.2424267972
 23
290.653485989
 33
0.0
  0
LINE
  5
3CE
330
3C9
100
AcDbEntity
  8
SLD-0
 62
     7
100
AcDbLine
 10
682.4590340059
 20
291.1534869203
 30
0.0
 11
681.010440205
 21
291.1534869203
 31
0.0
  0
LINE
  5
3CF
330
3C9
100
AcDbEntity
  8
SLD-0
 62
     7
100
AcDbLine
 10
681.010440205
 20
291.1534869203
 30
0.0
 11
681.010440205
 21
283.5864034572
 31
0.0
  0
LINE
  5
3D0
330
3C9
100
AcDbEntity
  8
SLD-0
 62
     7
100
AcDbLine
 10
681.010440205
 20
283.5864034572
 30
0.0
 11
682.4590340059
 21
283.5864034572
 31
0.0
  0
LINE
  5
3D1
330
3C9
100
AcDbEntity
  8
SLD-0
 62
     7
100
AcDbLine
 10
694.770978744
 20
291.1534869203
 30
0.0
 11
696.2195725448
 21
291.1534869203
 31
0.0
  0
LINE
  5
3D2
330
3C9
100
AcDbEntity
  8
SLD-0
 62
     7
100
AcDbLine
 10
696.2195725448
 20
291.1534869203
 30
0.0
 11
696.2195725448
 21
283.5864034572
 31
0.0
  0
LINE
  5
3D3
330
3C9
100
AcDbEntity
  8
SLD-0
 62
     7
100
AcDbLine
 10
696.2195725448
 20
283.5864034572
 30
0.0
 11
694.770978744
 21
283.5864034572
 31
0.0
  0
LINE
  5
3D4
330
3C9
100
AcDbEntity
  8
SLD-0
 62
     7
100
AcDbLine
 10
634.1424267971
 20
211.7136703305
 30
0.0
 11
634.1424267971
 21
292.677485989
 31
0.0
  0
LINE
  5
3D5
330
3C9
100
AcDbEntity
  8
SLD-0
 62
     7
100
AcDbLine
 10
753.2424267972
 20
272.2986703305
 30
0.0
 11
753.2424267972
 21
292.677485989
 31
0.0
  0
LINE
  5
3D6
330
3C9
100
AcDbEntity
  8
SLD-0
 62
     7
100
AcDbLine
 10
634.1424267971
 20
291.153485989
 30
0.0
 11
676.8412658587
 21
291.153485989
 31
0.0
  0
LINE
  5
3D7
330
3C9
100
AcDbEntity
  8
SLD-0
 62
     7
100
AcDbLine
 10
753.2424267972
 20
291.153485989
 30
0.0
 11
700.3887468912
 21
291.153485989
 31
0.0
  0
MTEXT
  5
3D8
330
3C9
100
AcDbEntity
  8
SLD-0
 62
     7
100
AcDbMText
 10
677.8067769285
 20
298.202565187
 30
0.0
 40
4.7625
 41
0.0
 71
     1
 72
     1
  1
 
  7
SLDTEXTSTYLE0
 73
     1
 44
1.0
  0
MTEXT
  5
3D9
330
3C9
100
AcDbEntity
  8
SLD-0
 62
     7
100
AcDbMText
 10
680.6995547179
 20
298.2025656526
 30
0.0
 40
4.7625
 41
0.0
 71
     1
 72
     1
  1
119.1
  7
SLDTEXTSTYLE0
 73
     1
 44
1.0
  0
MTEXT
  5
3DA
330
3C9
100
AcDbEntity
  8
SLD-0
 62
     7
100
AcDbMText
 10
682.4590340059
 20
289.6697532994
 30
0.0
 40
4.7625
 41
0.0
 71
     1
 72
     1
  1
4.69
  7
SLDTEXTSTYLE0
 73
     1
 44
1.0
  0
MTEXT
  5
3DB
330
3C9
100
AcDbEntity
  8
SLD-0
 62
     7
100
AcDbMText
 10
697.6681658801
 20
298.202565187
 30
0.0
 40
4.7625
 41
0.0
 71
     1
 72
     1
  1
 
  7
SLDTEXTSTYLE0
 73
     1
 44
1.0
  0
ENDBLK
  5
3CB
330
3C9
100
AcDbEntity
  8
0
100
AcDbBlockEnd
  0
ENDSEC
  0
SECTION
  2
ENTITIES
  0
LINE
  5
BC
330
1F
100
AcDbEntity
  8
0
  6
Continuous
 62
     7
370
    18
100
AcDbLine
 10
17.7770582316
 20
541.0189283994
 30
0.0
 11
845.8170582316
 21
541.0189283994
 31
0.0
  0
LINE
  5
BD
330
1F
100
AcDbEntity
  8
0
  6
Continuous
 62
     7
370
    18
100
AcDbLine
 10
17.7770582316
 20
541.0189283994
 30
0.0
 11
17.7770582316
 21
17.7789283994
 31
0.0
  0
LINE
  5
BE
330
1F
100
AcDbEntity
  8
0
  6
Continuous
 62
     7
370
    18
100
AcDbLine
 10
845.8170582316
 20
17.7789283994
 30
0.0
 11
17.7770582316
 21
17.7789283994
 31
0.0
  0
LINE
  5
BF
330
1F
100
AcDbEntity
  8
0
  6
Continuous
 62
     7
370
    18
100
AcDbLine
 10
845.8170582316
 20
17.7789283994
 30
0.0
 11
845.8170582316
 21
541.0189283994
 31
0.0
  0
LINE
  5
C0
330
1F
100
AcDbEntity
  8
0
  6
Continuous
 62
     7
370
    18
100
AcDbLine
 10
591.8170582316
 20
17.7789283994
 30
0.0
 11
591.8170582316
 21
93.9789283994
 31
0.0
  0
LINE
  5
C1
330
1F
100
AcDbEntity
  8
0
  6
Continuous
 62
     7
370
    18
100
AcDbLine
 10
591.8170582316
 20
93.9789283994
 30
0.0
 11
845.8170582316
 21
93.9789283994
 31
0.0
  0
LINE
  5
C2
330
1F
100
AcDbEntity
  8
0
  6
Continuous
 62
     7
370
    18
100
AcDbLine
 10
658.7200825955
 20
93.9789283994
 30
0.0
 11
658.7200825955
 21
17.7789283994
 31
0.0
  0
LINE
  5
C3
330
1F
100
AcDbEntity
  8
0
  6
Continuous
 62
     7
370
    18
100
AcDbLine
 10
728.0448273613
 20
93.9789283994
 30
0.0
 11
728.0448273613
 21
17.7789283994
 31
0.0
  0
LINE
  5
C4
330
1F
100
AcDbEntity
  8
0
  6
Continuous
 62
     7
370
    18
100
AcDbLine
 10
728.0448273613
 20
24.1289283994
 30
0.0
 11
845.8170582316
 21
24.1289283994
 31
0.0
  0
LINE
  5
C5
330
1F
100
AcDbEntity
  8
0
  6
Continuous
 62
     7
370
    18
100
AcDbLine
 10
728.0448273613
 20
36.8289283994
 30
0.0
 11
845.8170582316
 21
36.8289283994
 31
0.0
  0
LINE
  5
C6
330
1F
100
AcDbEntity
  8
0
  6
Continuous
 62
     7
370
    18
100
AcDbLine
 10
728.0448273613
 20
74.9289283994
 30
0.0
 11
845.8170582316
 21
74.9289283994
 31
0.0
  0
LINE
  5
C7
330
1F
100
AcDbEntity
  8
0
  6
Continuous
 62
     7
370
    18
100
AcDbLine
 10
737.2248385306
 20
36.8289283994
 30
0.0
 11
737.2248385306
 21
24.1289283994
 31
0.0
  0
LINE
  5
C8
330
1F
100
AcDbEntity
  8
0
  6
Continuous
 62
     7
370
    18
100
AcDbLine
 10
811.2044175569
 20
24.1289283994
 30
0.0
 11
811.2044175569
 21
17.7789283994
 31
0.0
  0
LINE
  5
C9
330
1F
100
AcDbEntity
  8
0
  6
Continuous
 62
     7
370
    18
100
AcDbLine
 10
761.3548385306
 20
36.8289283994
 30
0.0
 11
761.3548385306
 21
24.1289283994
 31
0.0
  0
LINE
  5
CA
330
1F
100
AcDbEntity
  8
0
  6
Continuous
 62
     7
370
    18
100
AcDbLine
 10
751.7322172939
 20
24.1289283994
 30
0.0
 11
751.7322172939
 21
17.7789283994
 31
0.0
  0
LINE
  5
CB
330
1F
100
AcDbEntity
  8
0
  6
Continuous
 62
     7
370
    18
100
AcDbLine
 10
638.8070582316
 20
17.7789283994
 30
0.0
 11
638.8070582316
 21
26.9229283994
 31
0.0
  0
LINE
  5
CC
330
1F
100
AcDbEntity
  8
0
  6
Continuous
 62
     7
370
    18
100
AcDbLine
 10
658.6478221355
 20
31.2789283994
 30
0.0
 11
727.9725669014
 21
31.2789283994
 31
0.0
  0
LINE
  5
CD
330
1F
100
AcDbEntity
  8
0
  6
Continuous
 62
     7
370
    18
100
AcDbLine
 10
658.7200825955
 20
44.7789283994
 30
0.0
 11
728.0448273613
 21
44.7789283994
 31
0.0
  0
LINE
  5
CE
330
1F
100
AcDbEntity
  8
0
  6
Continuous
 62
     7
370
    18
100
AcDbLine
 10
658.7200825955
 20
58.2789283994
 30
0.0
 11
728.0448273613
 21
58.2789283994
 31
0.0
  0
LINE
  5
CF
330
1F
100
AcDbEntity
  8
0
  6
Continuous
 62
     7
370
    18
100
AcDbLine
 10
658.7200825955
 20
76.5625228009
 30
0.0
 11
728.0448273613
 21
76.5625228009
 31
0.0
  0
LINE
  5
D0
330
1F
100
AcDbEntity
  8
0
  6
Continuous
 62
     7
370
    18
100
AcDbLine
 10
658.7200825955
 20
71.2285228009
 30
0.0
 11
728.0448273613
 21
71.2285228009
 31
0.0
  0
LINE
  5
D1
330
1F
100
AcDbEntity
  8
0
  6
Continuous
 62
     7
370
    18
100
AcDbLine
 10
658.7200825955
 20
54.4891628938
 30
0.0
 11
591.8170582316
 21
54.4891628938
 31
0.0
  0
LINE
  5
D2
330
1F
100
AcDbEntity
  8
0
  6
CENTER
 62
     7
370
    18
100
AcDbLine
 10
647.9842335774
 20
22.5236503539
 30
0.0
 11
657.3272635762
 21
22.5236503539
 31
0.0
  0
LINE
  5
D3
330
1F
100
AcDbEntity
  8
0
  6
Continuous
 62
     7
370
    18
100
AcDbLine
 10
845.8170582316
 20
148.5889283994
 30
0.0
 11
852.1670582316
 21
148.5889283994
 31
0.0
  0
LINE
  5
D4
330
1F
100
AcDbEntity
  8
0
  6
Continuous
 62
     7
370
    18
100
AcDbLine
 10
848.9920582316
 20
277.5658412947
 30
0.0
 11
845.8170582316
 21
279.3989283994
 31
0.0
  0
LINE
  5
D5
330
1F
100
AcDbEntity
  8
0
  6
Continuous
 62
     7
370
    18
100
AcDbLine
 10
848.9920582316
 20
281.232015504
 30
0.0
 11
848.9920582316
 21
277.5658412947
 31
0.0
  0
LINE
  5
D6
330
1F
100
AcDbEntity
  8
0
  6
Continuous
 62
     7
370
    18
100
AcDbLine
 10
845.8170582316
 20
279.3989283994
 30
0.0
 11
848.9920582316
 21
281.232015504
 31
0.0
  0
LINE
  5
D7
330
1F
100
AcDbEntity
  8
0
  6
Continuous
 62
     7
370
    18
100
AcDbLine
 10
845.8170582316
 20
279.3989283994
 30
0.0
 11
852.1670582316
 21
279.3989283994
 31
0.0
  0
LINE
  5
D8
330
1F
100
AcDbEntity
  8
0
  6
Continuous
 62
     7
370
    18
100
AcDbLine
 10
845.8170582316
 20
410.2089283994
 30
0.0
 11
852.1670582316
 21
410.2089283994
 31
0.0
  0
LINE
  5
D9
330
1F
100
AcDbEntity
  8
0
  6
Continuous
 62
     7
370
    18
100
AcDbLine
 10
742.3120582316
 20
541.0189283994
 30
0.0
 11
742.3120582316
 21
547.3689283994
 31
0.0
  0
LINE
  5
DA
330
1F
100
AcDbEntity
  8
0
  6
Continuous
 62
     7
370
    18
100
AcDbLine
 10
535.3020582316
 20
17.7789283994
 30
0.0
 11
535.3020582316
 21
11.4289283994
 31
0.0
  0
LINE
  5
DB
330
1F
100
AcDbEntity
  8
0
  6
Continuous
 62
     7
370
    18
100
AcDbLine
 10
742.3120582316
 20
17.7789283994
 30
0.0
 11
742.3120582316
 21
11.4289283994
 31
0.0
  0
LINE
  5
DC
330
1F
100
AcDbEntity
  8
0
  6
Continuous
 62
     7
370
    18
100
AcDbLine
 10
638.8070582316
 20
17.7789283994
 30
0.0
 11
638.8070582316
 21
11.4289283994
 31
0.0
  0
LINE
  5
DD
330
1F
100
AcDbEntity
  8
0
  6
Continuous
 62
     7
370
    18
100
AcDbLine
 10
328.2920582316
 20
17.7789283994
 30
0.0
 11
328.2920582316
 21
11.4289283994
 31
0.0
  0
LINE
  5
DE
330
1F
100
AcDbEntity
  8
0
  6
Continuous
 62
     7
370
    18
100
AcDbLine
 10
224.7870582316
 20
17.7789283994
 30
0.0
 11
224.7870582316
 21
11.4289283994
 31
0.0
  0
LINE
  5
DF
330
1F
100
AcDbEntity
  8
0
  6
Continuous
 62
     7
370
    18
100
AcDbLine
 10
121.2820582316
 20
17.7789283994
 30
0.0
 11
121.2820582316
 21
11.4289283994
 31
0.0
  0
LINE
  5
E0
330
1F
100
AcDbEntity
  8
0
  6
Continuous
 62
     7
370
    18
100
AcDbLine
 10
638.8070582316
 20
541.0189283994
 30
0.0
 11
638.8070582316
 21
547.3689283994
 31
0.0
  0
LINE
  5
E1
330
1F
100
AcDbEntity
  8
0
  6
Continuous
 62
     7
370
    18
100
AcDbLine
 10
535.3020582316
 20
541.0189283994
 30
0.0
 11
535.3020582316
 21
547.3689283994
 31
0.0
  0
LINE
  5
E2
330
1F
100
AcDbEntity
  8
0
  6
Continuous
 62
     7
370
    18
100
AcDbLine
 10
433.6301453363
 20
544.1939283994
 30
0.0
 11
429.963971127
 21
544.1939283994
 31
0.0
  0
LINE
  5
E3
330
1F
100
AcDbEntity
  8
0
  6
Continuous
 62
     7
370
    18
100
AcDbLine
 10
431.7970582316
 20
541.0189283994
 30
0.0
 11
429.963971127
 21
544.1939283994
 31
0.0
  0
LINE
  5
E4
330
1F
100
AcDbEntity
  8
0
  6
Continuous
 62
     7
370
    18
100
AcDbLine
 10
431.7970582316
 20
541.0189283994
 30
0.0
 11
433.6301453363
 21
544.1939283994
 31
0.0
  0
LINE
  5
E5
330
1F
100
AcDbEntity
  8
0
  6
Continuous
 62
     7
370
    18
100
AcDbLine
 10
17.7770582316
 20
148.5889283994
 30
0.0
 11
11.4270582316
 21
148.5889283994
 31
0.0
  0
LINE
  5
E6
330
1F
100
AcDbEntity
  8
0
  6
Continuous
 62
     7
370
    18
100
AcDbLine
 10
17.7770582316
 20
279.3989283994
 30
0.0
 11
11.4270582316
 21
279.3989283994
 31
0.0
  0
LINE
  5
E7
330
1F
100
AcDbEntity
  8
0
  6
Continuous
 62
     7
370
    18
100
AcDbLine
 10
17.7770582316
 20
410.2089283994
 30
0.0
 11
11.4270582316
 21
410.2089283994
 31
0.0
  0
LINE
  5
E8
330
1F
100
AcDbEntity
  8
0
  6
Continuous
 62
     7
370
    18
100
AcDbLine
 10
17.7770582316
 20
279.3989283994
 30
0.0
 11
14.6020582316
 21
281.232015504
 31
0.0
  0
LINE
  5
E9
330
1F
100
AcDbEntity
  8
0
  6
Continuous
 62
     7
370
    18
100
AcDbLine
 10
14.6020582316
 20
281.232015504
 30
0.0
 11
14.6020582316
 21
277.5658412947
 31
0.0
  0
LINE
  5
EA
330
1F
100
AcDbEntity
  8
0
  6
Continuous
 62
     7
370
    18
100
AcDbLine
 10
14.6020582316
 20
277.5658412947
 30
0.0
 11
17.7770582316
 21
279.3989283994
 31
0.0
  0
LINE
  5
EB
330
1F
100
AcDbEntity
  8
0
  6
Continuous
 62
     7
370
    18
100
AcDbLine
 10
431.7970582316
 20
541.0189283994
 30
0.0
 11
431.7970582316
 21
547.3689283994
 31
0.0
  0
LINE
  5
EC
330
1F
100
AcDbEntity
  8
0
  6
Continuous
 62
     7
370
    18
100
AcDbLine
 10
328.2920582316
 20
541.0189283994
 30
0.0
 11
328.2920582316
 21
547.3689283994
 31
0.0
  0
LINE
  5
ED
330
1F
100
AcDbEntity
  8
0
  6
Continuous
 62
     7
370
    18
100
AcDbLine
 10
224.7870582316
 20
541.0189283994
 30
0.0
 11
224.7870582316
 21
547.3689283994
 31
0.0
  0
LINE
  5
EE
330
1F
100
AcDbEntity
  8
0
  6
Continuous
 62
     7
370
    18
100
AcDbLine
 10
121.2820582316
 20
541.0189283994
 30
0.0
 11
121.2820582316
 21
547.3689283994
 31
0.0
  0
LINE
  5
EF
330
1F
100
AcDbEntity
  8
0
  6
Continuous
 62
     7
370
    18
100
AcDbLine
 10
648.9300065611
 20
21.2536503539
 30
0.0
 11
656.5500065611
 21
19.9836503539
 31
0.0
  0
LINE
  5
F0
330
1F
100
AcDbEntity
  8
0
  6
Continuous
 62
     7
370
    18
100
AcDbLine
 10
648.9300065611
 20
23.7936503539
 30
0.0
 11
656.5500065611
 21
25.0636503539
 31
0.0
  0
LINE
  5
F1
330
1F
100
AcDbEntity
  8
0
  6
CENTER
 62
     7
370
    18
100
AcDbLine
 10
640.5581665611
 20
22.5236503539
 30
0.0
 11
647.1418465611
 21
22.5236503539
 31
0.0
  0
LINE
  5
F2
330
1F
100
AcDbEntity
  8
0
  6
CENTER
 62
     7
370
    18
100
AcDbLine
 10
643.8500065611
 20
19.2318103539
 30
0.0
 11
643.8500065611
 21
25.8154903539
 31
0.0
  0
LINE
  5
F3
330
1F
100
AcDbEntity
  8
0
  6
Continuous
 62
     7
370
    18
100
AcDbLine
 10
591.8170582316
 20
26.9229283994
 30
0.0
 11
658.7200825955
 21
26.9229283994
 31
0.0
  0
LINE
  5
F4
330
1F
100
AcDbEntity
  8
0
  6
Continuous
 62
     7
370
    18
100
AcDbLine
 10
591.8170582316
 20
36.0669283994
 30
0.0
 11
658.7200825955
 21
36.0669283994
 31
0.0
  0
LINE
  5
F5
330
1F
100
AcDbEntity
  8
0
  6
Continuous
 62
     7
370
    18
100
AcDbLine
 10
431.7970582316
 20
17.7789283994
 30
0.0
 11
431.7970582316
 21
11.4289283994
 31
0.0
  0
LINE
  5
F6
330
1F
100
AcDbEntity
  8
0
  6
Continuous
 62
     7
370
    18
100
AcDbLine
 10
431.7970582316
 20
17.7789283994
 30
0.0
 11
433.6301453363
 21
14.6039283994
 31
0.0
  0
LINE
  5
F7
330
1F
100
AcDbEntity
  8
0
  6
Continuous
 62
     7
370
    18
100
AcDbLine
 10
431.7970582316
 20
17.7789283994
 30
0.0
 11
429.963971127
 21
14.6039283994
 31
0.0
  0
LINE
  5
F8
330
1F
100
AcDbEntity
  8
0
  6
Continuous
 62
     7
370
    18
100
AcDbLine
 10
433.6301453363
 20
14.6039283994
 30
0.0
 11
429.963971127
 21
14.6039283994
 31
0.0
  0
LINE
  5
F9
330
1F
100
AcDbEntity
  8
0
  6
Continuous
 62
     7
370
    18
100
AcDbLine
 10
591.8170582316
 20
45.2109283994
 30
0.0
 11
658.7200825955
 21
45.2109283994
 31
0.0
  0
LINE
  5
FA
330
1F
100
AcDbEntity
  8
0
  6
Continuous
 62
     7
370
    18
100
AcDbLine
 10
648.9300065611
 20
23.7936503539
 30
0.0
 11
648.9300065611
 21
21.2536503539
 31
0.0
  0
LINE
  5
FB
330
1F
100
AcDbEntity
  8
0
  6
Continuous
 62
     7
370
    18
100
AcDbLine
 10
17.7770582316
 20
517.5004279921
 30
0.0
 11
149.8753518325
 21
517.5004279921
 31
0.0
  0
LINE
  5
FC
330
1F
100
AcDbEntity
  8
0
  6
Continuous
 62
     7
370
    18
100
AcDbLine
 10
149.8753518325
 20
541.0189283994
 30
0.0
 11
149.8753518325
 21
517.5004279921
 31
0.0
  0
LINE
  5
FD
330
1F
100
AcDbEntity
  8
0
  6
Continuous
 62
     7
370
    18
100
AcDbLine
 10
656.5500065611
 20
25.0636503539
 30
0.0
 11
656.5500065611
 21
19.9836503539
 31
0.0
  0
LINE
  5
FE
330
1F
100
AcDbEntity
  8
0
  6
Continuous
 62
     7
370
    18
100
AcDbLine
 10
824.7215725591
 20
36.8289283994
 30
0.0
 11
824.7215725591
 21
24.1289283994
 31
0.0
  0
CIRCLE
  5
FF
330
1F
100
AcDbEntity
  8
0
  6
Continuous
 62
     7
370
    18
100
AcDbCircle
 10
643.8500065611
 20
22.5236503539
 30
0.0
 40
2.539999999999736
  0
CIRCLE
  5
100
330
1F
100
AcDbEntity
  8
0
  6
Continuous
 62
     7
370
    18
100
AcDbCircle
 10
643.8500065611
 20
22.5236503539
 30
0.0
 40
1.269999999999868
  0
INSERT
  5
101
330
1F
100
AcDbEntity
  8
0
  6
Continuous
 62
     7
100
AcDbBlockReference
  2
QSC Logo
 10
731.1249168009
 20
79.6579217153
 30
0.0
 41
0.8
 42
0.8
 43
0.8
  0
INSERT
  5
110
330
1F
100
AcDbEntity
  8
0
  6
Continuous
 62
     7
370
     0
100
AcDbBlockReference
  2
SW_NOTE_0
 10
51.4652010995
 20
495.3703591105
 30
0.0
  0
MTEXT
  5
111
330
1F
100
AcDbEntity
  8
SLD-0
100
AcDbMText
 10
414.4431847792
 20
40.9077062878
 30
0.0
 40
10.5833333333
 41
0.0
 71
     2
 72
     1
  1
TOUCHSCREEN CONTROLLER
  7
SLDTEXTSTYLE0
 73
     1
 44
1.0
  0
INSERT
  5
11D
330
1F
100
AcDbEntity
  8
0
  6
Continuous
 62
     7
370
     0
100
AcDbBlockReference
  2
SW_NOTE_0_1
 10
19.7731701097
 20
536.0083426113
 30
0.0
  0
MTEXT
  5
11E
330
1F
100
AcDbEntity
  8
0
  6
Continuous
 62
     7
370
     0
100
AcDbMText
 10
832.1383823192
 20
36.1262826977
 30
0.0
 40
2.6458333333
 41
0.0
 71
     1
 72
     1
  1
REV
  7
SLDTEXTSTYLE0
 73
     1
 44
1.0
  0
MTEXT
  5
11F
330
1F
100
AcDbEntity
  8
0
  6
Continuous
 62
     7
370
     0
100
AcDbMText
 10
845.4050977242
 20
13.9900278999
 30
0.0
 40
2.0
 41
0.0
 71
     3
 72
     1
  1
Form: QMS100206 Rev D
  7
SLDTEXTSTYLE0
 73
     1
 44
1.0
  0
MTEXT
  5
120
330
1F
100
AcDbEntity
  8
0
  6
Continuous
 62
     7
370
     0
100
AcDbMText
 10
28.2143331634
 20
514.3100768614
 30
0.0
 40
4.7625
 41
0.0
 71
     1
 72
     1
  1
NOTES: UNLESS OTHERWISE SPECIFIED
  7
SLDTEXTSTYLE0
 73
     1
 44
1.0
  0
MTEXT
  5
122
330
1F
100
AcDbEntity
  8
0
  6
Continuous
 62
     7
370
     0
100
AcDbMText
 10
783.6845070818
 20
92.1745689395
 30
0.0
 40
5.08
 41
0.0
 71
     1
 72
     1
  1
QSC, LLC
  7
SLDTEXTSTYLE3
 73
     1
 44
1.0
  0
INSERT
  5
128
330
1F
100
AcDbEntity
  8
0
  6
Continuous
 62
     7
370
     0
100
AcDbBlockReference
  2
SW_NOTE_0_2
 10
783.6845070818
 20
81.095747344
 30
0.0
  0
MTEXT
  5
129
330
1F
100
AcDbEntity
  8
0
  6
Continuous
 62
     7
370
     0
100
AcDbMText
 10
741.3571915747
 20
30.4677761734
 30
0.0
 40
3.7041666667
 41
0.0
 71
     1
 72
     1
  1
00PW4
  7
SLDTEXTSTYLE0
 73
     1
 44
1.0
  0
MTEXT
  5
12A
330
1F
100
AcDbEntity
  8
0
  6
Continuous
 62
     7
370
     0
100
AcDbMText
 10
738.5219100019
 20
35.7710989182
 30
0.0
 40
2.6458333333
 41
0.0
 71
     1
 72
     1
  1
CAGE CODE
  7
SLDTEXTSTYLE0
 73
     1
 44
1.0
  0
MTEXT
  5
12B
330
1F
100
AcDbEntity
  8
0
  6
Continuous
 62
     7
370
     0
100
AcDbMText
 10
274.9044892463
 20
546.7165399178
 30
0.0
 40
4.7625
 41
0.0
 71
     1
 72
     1
  1
6
  7
SLDTEXTSTYLE0
 73
     1
 44
1.0
  0
MTEXT
  5
12C
330
1F
100
AcDbEntity
  8
0
  6
Continuous
 62
     7
370
     0
100
AcDbMText
 10
660.9163968145
 20
50.378017964
 30
0.0
 40
3.175
 41
0.0
 71
     1
 72
     1
  1
T.GOSSARD
  7
SLDTEXTSTYLE0
 73
     1
 44
1.0
  0
MTEXT
  5
12D
330
1F
100
AcDbEntity
  8
0
  6
Continuous
 62
     7
370
     0
100
AcDbMText
 10
611.4579743728
 20
43.0576026341
 30
0.0
 40
4.572
 41
0.0
 71
     1
 72
     1
  1
SEE NOTES
  7
SLDTEXTSTYLE0
 73
     1
 44
1.0
  0
MTEXT
  5
12E
330
1F
100
AcDbEntity
  8
0
  6
Continuous
 62
     7
370
     0
100
AcDbMText
 10
769.6293302907
 20
21.8437228263
 30
0.0
 40
2.54
 41
0.0
 71
     1
 72
     1
  1
 FG-901373-2D
  7
SLDTEXTSTYLE0
 73
     1
 44
1.0
  0
MTEXT
  5
12F
330
1F
100
AcDbEntity
  8
0
  6
Continuous
 62
     7
370
     0
100
AcDbMText
 10
611.4579743728
 20
52.4912053254
 30
0.0
 40
4.572
 41
0.0
 71
     1
 72
     1
  1
SEE NOTES
  7
SLDTEXTSTYLE0
 73
     1
 44
1.0
  0
MTEXT
  5
130
330
1F
100
AcDbEntity
  8
0
  6
Continuous
 62
     7
370
     0
100
AcDbMText
 10
663.8567271759
 20
92.0594469861
 30
0.0
 40
3.175
 41
0.0
 71
     1
 72
     1
  1
CAD GENERATED DRAWING
  7
SLDTEXTSTYLE0
 73
     1
 44
1.0
  0
MTEXT
  5
131
330
1F
100
AcDbEntity
  8
0
  6
Continuous
 62
     7
370
     0
100
AcDbMText
 10
664.1936149874
 20
86.0966599894
 30
0.0
 40
3.175
 41
0.0
 71
     1
 72
     1
  1
DO  NOT  MANUALLY  UPDATE
  7
SLDTEXTSTYLE0
 73
     1
 44
1.0
  0
MTEXT
  5
132
330
1F
100
AcDbEntity
  8
0
  6
Continuous
 62
     7
370
     0
100
AcDbMText
 10
595.2190951974
 20
92.0594469861
 30
0.0
 40
3.175
 41
0.0
 71
     1
 72
     1
  1
UNLESS  OTHERWISE  SPECIFIED
  7
SLDTEXTSTYLE0
 73
     1
 44
1.0
  0
MTEXT
  5
133
330
1F
100
AcDbEntity
  8
0
  6
Continuous
 62
     7
370
     0
100
AcDbMText
 10
595.5635604058
 20
86.0966599894
 30
0.0
 40
3.175
 41
0.0
 71
     1
 72
     1
  1
DIMENSIONS  ARE  IN  MM [IN]
  7
SLDTEXTSTYLE0
 73
     1
 44
1.0
  0
MTEXT
  5
134
330
1F
100
AcDbEntity
  8
0
  6
Continuous
 62
     7
370
     0
100
AcDbMText
 10
847.5215828392
 20
85.9414361542
 30
0.0
 40
4.7625
 41
0.0
 71
     1
 72
     1
  1
A
  7
SLDTEXTSTYLE0
 73
     1
 44
1.0
  0
MTEXT
  5
135
330
1F
100
AcDbEntity
  8
0
  6
Continuous
 62
     7
370
     0
100
AcDbMText
 10
848.5673279065
 20
216.6712265686
 30
0.0
 40
4.7625
 41
0.0
 71
     1
 72
     1
  1
B
  7
SLDTEXTSTYLE0
 73
     1
 44
1.0
  0
MTEXT
  5
136
330
1F
100
AcDbEntity
  8
0
  6
Continuous
 62
     7
370
     0
100
AcDbMText
 10
847.1136724834
 20
347.601157245
 30
0.0
 40
4.7625
 41
0.0
 71
     1
 72
     1
  1
C
  7
SLDTEXTSTYLE0
 73
     1
 44
1.0
  0
MTEXT
  5
137
330
1F
100
AcDbEntity
  8
0
  6
Continuous
 62
     7
370
     0
100
AcDbMText
 10
847.6406414995
 20
478.3100785054
 30
0.0
 40
4.7625
 41
0.0
 71
     1
 72
     1
  1
D
  7
SLDTEXTSTYLE0
 73
     1
 44
1.0
  0
MTEXT
  5
138
330
1F
100
AcDbEntity
  8
0
  6
Continuous
 62
     7
370
     0
100
AcDbMText
 10
792.5830446789
 20
546.7940520172
 30
0.0
 40
4.7625
 41
0.0
 71
     1
 72
     1
  1
1
  7
SLDTEXTSTYLE0
 73
     1
 44
1.0
  0
MTEXT
  5
139
330
1F
100
AcDbEntity
  8
0
  6
Continuous
 62
     7
370
     0
100
AcDbMText
 10
688.894906649
 20
546.7526281102
 30
0.0
 40
4.7625
 41
0.0
 71
     1
 72
     1
  1
2
  7
SLDTEXTSTYLE0
 73
     1
 44
1.0
  0
MTEXT
  5
13A
330
1F
100
AcDbEntity
  8
0
  6
Continuous
 62
     7
370
     0
100
AcDbMText
 10
585.3611054217
 20
546.6471015398
 30
0.0
 40
4.7625
 41
0.0
 71
     1
 72
     1
  1
3
  7
SLDTEXTSTYLE0
 73
     1
 44
1.0
  0
MTEXT
  5
13B
330
1F
100
AcDbEntity
  8
0
  6
Continuous
 62
     7
370
     0
100
AcDbMText
 10
481.9144239716
 20
546.6593937128
 30
0.0
 40
4.7625
 41
0.0
 71
     1
 72
     1
  1
4
  7
SLDTEXTSTYLE0
 73
     1
 44
1.0
  0
MTEXT
  5
13C
330
1F
100
AcDbEntity
  8
0
  6
Continuous
 62
     7
370
     0
100
AcDbMText
 10
378.4264775994
 20
546.6423769039
 30
0.0
 40
4.7625
 41
0.0
 71
     1
 72
     1
  1
5
  7
SLDTEXTSTYLE0
 73
     1
 44
1.0
  0
MTEXT
  5
13D
330
1F
100
AcDbEntity
  8
0
  6
Continuous
 62
     7
370
     0
100
AcDbMText
 10
171.5249301416
 20
546.8422076892
 30
0.0
 40
4.7625
 41
0.0
 71
     1
 72
     1
  1
7
  7
SLDTEXTSTYLE0
 73
     1
 44
1.0
  0
MTEXT
  5
13E
330
1F
100
AcDbEntity
  8
0
  6
Continuous
 62
     7
370
     0
100
AcDbMText
 10
660.9163968145
 20
36.291216444
 30
0.0
 40
3.175
 41
0.0
 71
     1
 72
     1
  1
D.HOCH
  7
SLDTEXTSTYLE0
 73
     1
 44
1.0
  0
MTEXT
  5
13F
330
1F
100
AcDbEntity
  8
0
  6
Continuous
 62
     7
370
     0
100
AcDbMText
 10
660.9163968145
 20
22.9772361569
 30
0.0
 40
3.175
 41
0.0
 71
     1
 72
     1
  1
T.MORGAN
  7
SLDTEXTSTYLE0
 73
     1
 44
1.0
  0
MTEXT
  5
140
330
1F
100
AcDbEntity
  8
0
  6
Continuous
 62
     7
370
     0
100
AcDbMText
 10
660.9163968145
 20
63.6534242981
 30
0.0
 40
3.175
 41
0.0
 71
     1
 72
     1
  1
S. STASIAK
  7
SLDTEXTSTYLE0
 73
     1
 44
1.0
  0
MTEXT
  5
141
330
1F
100
AcDbEntity
  8
0
  6
Continuous
 62
     7
370
     0
100
AcDbMText
 10
793.1702789326
 20
32.047807006
 30
0.0
 40
6.35
 41
0.0
 71
     2
 72
     1
  1
FG-901373-2D
  7
SLDTEXTSTYLE0
 73
     1
 44
1.0
  0
MTEXT
  5
142
330
1F
100
AcDbEntity
  8
0
  6
Continuous
 62
     7
370
     0
100
AcDbMText
 10
823.5592003829
 20
23.0161842784
 30
0.0
 40
3.7041666667
 41
0.0
 71
     1
 72
     1
  1
1  OF  2
  7
SLDTEXTSTYLE0
 73
     1
 44
1.0
  0
MTEXT
  5
143
330
1F
100
AcDbEntity
  8
0
  6
Continuous
 62
     7
370
     0
100
AcDbMText
 10
746.7323009597
 20
22.8437594925
 30
0.0
 40
3.556
 41
0.0
 71
     2
 72
     1
  1
1:2
  7
SLDTEXTSTYLE0
 73
     1
 44
1.0
  0
MTEXT
  5
144
330
1F
100
AcDbEntity
  8
0
  6
Continuous
 62
     7
370
     0
100
AcDbMText
 10
682.1772990516
 20
75.3103156625
 30
0.0
 40
2.6458333333
 41
0.0
 71
     1
 72
     1
  1
APPROVALS
  7
SLDTEXTSTYLE0
 73
     1
 44
1.0
  0
MTEXT
  5
145
330
1F
100
AcDbEntity
  8
0
  6
Continuous
 62
     7
370
     0
100
AcDbMText
 10
592.7354064203
 20
24.8393822778
 30
0.0
 40
3.175
 41
0.0
 71
     1
 72
     1
  1
PROJECTION SYMBOL
  7
SLDTEXTSTYLE0
 73
     1
 44
1.0
  0
INSERT
  5
14C
330
1F
100
AcDbEntity
  8
0
  6
Continuous
 62
     7
370
     0
100
AcDbBlockReference
  2
SW_NOTE_0_3
 10
638.2468476512
 20
61.8160885603
 30
0.0
  0
INSERT
  5
155
330
1F
100
AcDbEntity
  8
0
  6
Continuous
 62
     7
370
     0
100
AcDbBlockReference
  2
SW_NOTE_0_4
 10
597.9698078925
 20
61.8160885603
 30
0.0
  0
MTEXT
  5
156
330
1F
100
AcDbEntity
  8
0
  6
Continuous
 62
     7
370
     0
100
AcDbMText
 10
67.944147644
 20
546.6480712239
 30
0.0
 40
4.7625
 41
0.0
 71
     1
 72
     1
  1
8
  7
SLDTEXTSTYLE0
 73
     1
 44
1.0
  0
INSERT
  5
15C
330
1F
100
AcDbEntity
  8
0
  6
Continuous
 62
     7
370
     0
100
AcDbBlockReference
  2
SW_NOTE_0_5
 10
742.3043836603
 20
62.0873525553
 30
0.0
  0
MTEXT
  5
15D
330
1F
100
AcDbEntity
  8
0
  6
Continuous
 62
     7
370
     0
100
AcDbMText
 10
835.0890379196
 20
32.1777370848
 30
0.0
 40
6.35
 41
0.0
 71
     2
 72
     1
  1
A
  7
SLDTEXTSTYLE0
 73
     1
 44
1.0
  0
MTEXT
  5
15E
330
1F
100
AcDbEntity
  8
0
  6
Continuous
 62
     7
370
     0
100
AcDbMText
 10
67.7761843366
 20
16.7592836782
 30
0.0
 40
4.7625
 41
0.0
 71
     1
 72
     1
  1
8
  7
SLDTEXTSTYLE0
 73
     1
 44
1.0
  0
MTEXT
  5
15F
330
1F
100
AcDbEntity
  8
0
  6
Continuous
 62
     7
370
     0
100
AcDbMText
 10
171.3588469983
 20
16.8315671061
 30
0.0
 40
4.7625
 41
0.0
 71
     1
 72
     1
  1
7
  7
SLDTEXTSTYLE0
 73
     1
 44
1.0
  0
MTEXT
  5
160
330
1F
100
AcDbEntity
  8
0
  6
Continuous
 62
     7
370
     0
100
AcDbMText
 10
274.8985307608
 20
16.9129951712
 30
0.0
 40
4.7625
 41
0.0
 71
     1
 72
     1
  1
6
  7
SLDTEXTSTYLE0
 73
     1
 44
1.0
  0
MTEXT
  5
161
330
1F
100
AcDbEntity
  8
0
  6
Continuous
 62
     7
370
     0
100
AcDbMText
 10
378.4160175024
 20
16.7716636708
 30
0.0
 40
4.7625
 41
0.0
 71
     1
 72
     1
  1
5
  7
SLDTEXTSTYLE0
 73
     1
 44
1.0
  0
MTEXT
  5
162
330
1F
100
AcDbEntity
  8
0
  6
Continuous
 62
     7
370
     0
100
AcDbMText
 10
481.8362164345
 20
16.8241970873
 30
0.0
 40
4.7625
 41
0.0
 71
     1
 72
     1
  1
4
  7
SLDTEXTSTYLE0
 73
     1
 44
1.0
  0
MTEXT
  5
163
330
1F
100
AcDbEntity
  8
0
  6
Continuous
 62
     7
370
     0
100
AcDbMText
 10
585.2668238139
 20
16.7624653566
 30
0.0
 40
4.7625
 41
0.0
 71
     1
 72
     1
  1
3
  7
SLDTEXTSTYLE0
 73
     1
 44
1.0
  0
MTEXT
  5
164
330
1F
100
AcDbEntity
  8
0
  6
Continuous
 62
     7
370
     0
100
AcDbMText
 10
688.8634389669
 20
16.8679362557
 30
0.0
 40
4.7625
 41
0.0
 71
     1
 72
     1
  1
2
  7
SLDTEXTSTYLE0
 73
     1
 44
1.0
  0
MTEXT
  5
165
330
1F
100
AcDbEntity
  8
0
  6
Continuous
 62
     7
370
     0
100
AcDbMText
 10
792.3915769235
 20
16.7025094057
 30
0.0
 40
4.7625
 41
0.0
 71
     1
 72
     1
  1
1
  7
SLDTEXTSTYLE0
 73
     1
 44
1.0
  0
MTEXT
  5
166
330
1F
100
AcDbEntity
  8
0
  6
Continuous
 62
     7
370
     0
100
AcDbMText
 10
596.3851348475
 20
33.1835015171
 30
0.0
 40
3.175
 41
0.0
 71
     1
 72
     1
  1
DO  NOT  SCALE  DRAWING
  7
SLDTEXTSTYLE0
 73
     1
 44
1.0
  0
MTEXT
  5
167
330
1F
100
AcDbEntity
  8
0
  6
Continuous
 62
     7
370
     0
100
AcDbMText
 10
592.8448218548
 20
44.0912828052
 30
0.0
 40
2.6458333333
 41
0.0
 71
     1
 72
     1
  1
FINISH
  7
SLDTEXTSTYLE0
 73
     1
 44
1.0
  0
MTEXT
  5
168
330
1F
100
AcDbEntity
  8
0
  6
Continuous
 62
     7
370
     0
100
AcDbMText
 10
592.6633205219
 20
53.1953724323
 30
0.0
 40
2.6458333333
 41
0.0
 71
     1
 72
     1
  1
MATERIAL
  7
SLDTEXTSTYLE0
 73
     1
 44
1.0
  0
MTEXT
  5
169
330
1F
100
AcDbEntity
  8
0
  6
Continuous
 62
     7
370
     0
100
AcDbMText
 10
601.6886717457
 20
71.6714992177
 30
0.0
 40
2.6458333333
 41
0.0
 71
     1
 72
     1
  1
DECIMALS                 ANGLES
  7
SLDTEXTSTYLE0
 73
     1
 44
1.0
  0
MTEXT
  5
16A
330
1F
100
AcDbEntity
  8
0
  6
Continuous
 62
     7
370
     0
100
AcDbMText
 10
595.7579078884
 20
79.9530029733
 30
0.0
 40
3.175
 41
0.0
 71
     1
 72
     1
  1
TOLERANCES  ARE:
  7
SLDTEXTSTYLE0
 73
     1
 44
1.0
  0
MTEXT
  5
16B
330
1F
100
AcDbEntity
  8
0
  6
Continuous
 62
     7
370
     0
100
AcDbMText
 10
660.9163968145
 20
29.5712043791
 30
0.0
 40
2.6458333333
 41
0.0
 71
     1
 72
     1
  1
MFG ENGINEER
  7
SLDTEXTSTYLE0
 73
     1
 44
1.0
  0
MTEXT
  5
16C
330
1F
100
AcDbEntity
  8
0
  6
Continuous
 62
     7
370
     0
100
AcDbMText
 10
660.9163968145
 20
43.2161066649
 30
0.0
 40
2.6458333333
 41
0.0
 71
     1
 72
     1
  1
TECH DIRECTOR
  7
SLDTEXTSTYLE0
 73
     1
 44
1.0
  0
MTEXT
  5
16D
330
1F
100
AcDbEntity
  8
0
  6
Continuous
 62
     7
370
     0
100
AcDbMText
 10
660.9163968145
 20
56.6450739991
 30
0.0
 40
2.6458333333
 41
0.0
 71
     1
 72
     1
  1
MECH ENGINEER
  7
SLDTEXTSTYLE0
 73
     1
 44
1.0
  0
MTEXT
  5
16E
330
1F
100
AcDbEntity
  8
0
  6
Continuous
 62
     7
370
     0
100
AcDbMText
 10
660.9163968145
 20
70.3327149453
 30
0.0
 40
2.6458333333
 41
0.0
 71
     1
 72
     1
  1
DRAWN BY
  7
SLDTEXTSTYLE0
 73
     1
 44
1.0
  0
MTEXT
  5
16F
330
1F
100
AcDbEntity
  8
0
  6
Continuous
 62
     7
370
     0
100
AcDbMText
 10
811.8237811206
 20
23.008513856
 30
0.0
 40
2.6458333333
 41
0.0
 71
     1
 72
     1
  1
SHEET:
  7
SLDTEXTSTYLE0
 73
     1
 44
1.0
  0
MTEXT
  5
170
330
1F
100
AcDbEntity
  8
0
  6
Continuous
 62
     7
370
     0
100
AcDbMText
 10
731.1971915747
 20
30.4677761734
 30
0.0
 40
3.7041666667
 41
0.0
 71
     1
 72
     1
  1
B
  7
SLDTEXTSTYLE0
 73
     1
 44
1.0
  0
MTEXT
  5
171
330
1F
100
AcDbEntity
  8
0
  6
Continuous
 62
     7
370
     0
100
AcDbMText
 10
762.8747160102
 20
35.7710989182
 30
0.0
 40
2.6458333333
 41
0.0
 71
     1
 72
     1
  1
DWG.  NO.
  7
SLDTEXTSTYLE0
 73
     1
 44
1.0
  0
MTEXT
  5
172
330
1F
100
AcDbEntity
  8
0
  6
Continuous
 62
     7
370
     0
100
AcDbMText
 10
752.8418251795
 20
23.008513856
 30
0.0
 40
2.6458333333
 41
0.0
 71
     1
 72
     1
  1
CAD FILE:
  7
SLDTEXTSTYLE0
 73
     1
 44
1.0
  0
MTEXT
  5
173
330
1F
100
AcDbEntity
  8
0
  6
Continuous
 62
     7
370
     0
100
AcDbMText
 10
729.3779100019
 20
35.7710989182
 30
0.0
 40
2.6458333333
 41
0.0
 71
     1
 72
     1
  1
SIZE
  7
SLDTEXTSTYLE0
 73
     1
 44
1.0
  0
MTEXT
  5
174
330
1F
100
AcDbEntity
  8
0
  6
Continuous
 62
     7
370
     0
100
AcDbMText
 10
729.6544009966
 20
23.008513856
 30
0.0
 40
2.6458333333
 41
0.0
 71
     1
 72
     1
  1
SCALE:  
  7
SLDTEXTSTYLE0
 73
     1
 44
1.0
  0
MTEXT
  5
175
330
1F
100
AcDbEntity
  8
0
  6
Continuous
 62
     7
370
     0
100
AcDbMText
 10
11.4696716321
 20
478.4508072522
 30
0.0
 40
4.7625
 41
0.0
 71
     1
 72
     1
  1
D
  7
SLDTEXTSTYLE0
 73
     1
 44
1.0
  0
MTEXT
  5
176
330
1F
100
AcDbEntity
  8
0
  6
Continuous
 62
     7
370
     0
100
AcDbMText
 10
11.4794853763
 20
347.6322123788
 30
0.0
 40
4.7625
 41
0.0
 71
     1
 72
     1
  1
C
  7
SLDTEXTSTYLE0
 73
     1
 44
1.0
  0
MTEXT
  5
177
330
1F
100
AcDbEntity
  8
0
  6
Continuous
 62
     7
370
     0
100
AcDbMText
 10
11.4785739269
 20
216.8638453104
 30
0.0
 40
4.7625
 41
0.0
 71
     1
 72
     1
  1
B
  7
SLDTEXTSTYLE0
 73
     1
 44
1.0
  0
MTEXT
  5
178
330
1F
100
AcDbEntity
  8
0
  6
Continuous
 62
     7
370
     0
100
AcDbMText
 10
11.4973888207
 20
86.1195570852
 30
0.0
 40
4.7625
 41
0.0
 71
     1
 72
     1
  1
A
  7
SLDTEXTSTYLE0
 73
     1
 44
1.0
  0
INSERT
  5
1A1
330
1F
100
AcDbEntity
  8
SLD-0
100
AcDbBlockReference
  2
SW_TABLEANNOTATION_0
 10
560.0055092103
 20
541.0189283994
 30
0.0
  0
LINE
  5
1A2
330
1F
100
AcDbEntity
  8
0
  6
Continuous
 62
     7
370
    25
100
AcDbLine
 10
307.2196936381
 20
120.8096703363
 30
0.0
 11
307.2196936381
 21
271.0396725297
 31
0.0
  0
ARC
  5
1A3
330
1F
100
AcDbEntity
  8
0
  6
Continuous
 62
     7
370
    25
100
AcDbCircle
 10
303.4846936323
 20
120.8096703363
 30
0.0
 40
3.735000005809979
100
AcDbArc
 50
270.0
 51
0.0
  0
LINE
  5
1A4
330
1F
100
AcDbEntity
  8
0
  6
Continuous
 62
     7
370
    25
100
AcDbLine
 10
58.9546895793
 20
117.0746703305
 30
0.0
 11
303.4846936323
 21
117.0746703305
 31
0.0
  0
ARC
  5
1A5
330
1F
100
AcDbEntity
  8
0
  6
Continuous
 62
     7
370
    25
100
AcDbCircle
 10
58.9546895793
 20
120.8096703363
 30
0.0
 40
3.735000005809979
100
AcDbArc
 50
180.0
 51
270.0
  0
LINE
  5
1A6
330
1F
100
AcDbEntity
  8
0
  6
Continuous
 62
     7
370
    25
100
AcDbLine
 10
55.2196895735
 20
271.0396725297
 30
0.0
 11
55.2196895735
 21
120.8096703363
 31
0.0
  0
ARC
  5
1A7
330
1F
100
AcDbEntity
  8
0
  6
Continuous
 62
     7
370
    25
100
AcDbCircle
 10
58.9546895793
 20
271.0396725297
 30
0.0
 40
3.735000005899906
100
AcDbArc
 50
90.0
 51
180.0
  0
LINE
  5
1A8
330
1F
100
AcDbEntity
  8
0
  6
Continuous
 62
     7
370
    25
100
AcDbLine
 10
303.4846936323
 20
274.7746725356
 30
0.0
 11
58.9546895793
 21
274.7746725356
 31
0.0
  0
ARC
  5
1A9
330
1F
100
AcDbEntity
  8
0
  6
Continuous
 62
     7
370
    25
100
AcDbCircle
 10
303.4846936323
 20
271.0396725297
 30
0.0
 40
3.735000005899906
100
AcDbArc
 50
0.0
 51
90.0
  0
LINE
  5
1AA
330
1F
100
AcDbEntity
  8
0
  6
Continuous
 62
     7
370
    25
100
AcDbLine
 10
72.4296917367
 20
264.1046715697
 30
0.0
 11
72.4296917367
 21
127.7446715697
 31
0.0
  0
LINE
  5
1AB
330
1F
100
AcDbEntity
  8
0
  6
Continuous
 62
     7
370
    25
100
AcDbLine
 10
72.4296917367
 20
127.7446715697
 30
0.0
 11
290.0096917367
 21
127.7446715697
 31
0.0
  0
LINE
  5
1AC
330
1F
100
AcDbEntity
  8
0
  6
Continuous
 62
     7
370
    25
100
AcDbLine
 10
290.0096917367
 20
127.7446715697
 30
0.0
 11
290.0096917367
 21
264.1046715697
 31
0.0
  0
LINE
  5
1AD
330
1F
100
AcDbEntity
  8
0
  6
Continuous
 62
     7
370
    25
100
AcDbLine
 10
290.0096917367
 20
264.1046715697
 30
0.0
 11
72.4296917367
 21
264.1046715697
 31
0.0
  0
SPLINE
  5
1AE
330
1F
100
AcDbEntity
  8
0
  6
Continuous
 62
     7
370
    25
100
AcDbSpline
210
0.0
220
0.0
230
1.0
 70
     8
 71
     3
 72
    14
 73
    10
 74
     0
 42
0.00000001
 43
0.00000001
 40
0.0
 40
0.0
 40
0.0
 40
0.0
 40
0.25
 40
0.25
 40
0.5
 40
0.5
 40
0.75
 40
0.75
 40
1.0
 40
1.0
 40
1.0
 40
1.0
 10
307.9196936381412
 20
270.7746703304986
 30
0.0
 10
307.9196936381412
 20
271.4199007235364
 30
0.0
 10
307.8318014032761
 20
272.0447911080689
 30
0.0
 10
307.4220652915097
 20
273.2168269106166
 30
0.0
 10
307.0931471471035
 20
273.7639585213333
 30
0.0
 10
306.2089818289755
 20
274.6481238394611
 30
0.0
 10
305.6618502182648
 20
274.9770419838702
 30
0.0
 10
304.4898144157058
 20
275.3867780956309
 30
0.0
 10
303.8649240311831
 20
275.4746703304987
 30
0.0
 10
303.2196936381412
 20
275.4746703304987
 30
0.0
  0
LINE
  5
1AF
330
1F
100
AcDbEntity
  8
0
  6
Continuous
 62
     7
370
    25
100
AcDbLine
 10
307.9196936381
 20
195.9246703305
 30
0.0
 11
307.9196936381
 21
270.7746703305
 31
0.0
  0
LINE
  5
1B0
330
1F
100
AcDbEntity
  8
0
  6
Continuous
 62
     7
370
    25
100
AcDbLine
 10
307.9196936381
 20
195.9246703305
 30
0.0
 11
307.9196936381
 21
121.0746703305
 31
0.0
  0
SPLINE
  5
1B1
330
1F
100
AcDbEntity
  8
0
  6
Continuous
 62
     7
370
    25
100
AcDbSpline
210
0.0
220
0.0
230
1.0
 70
     8
 71
     3
 72
    14
 73
    10
 74
     0
 42
0.00000001
 43
0.00000001
 40
0.0
 40
0.0
 40
0.0
 40
0.0
 40
0.25
 40
0.25
 40
0.5
 40
0.5
 40
0.75
 40
0.75
 40
1.0
 40
1.0
 40
1.0
 40
1.0
 10
307.9196936381412
 20
121.0746703304986
 30
0.0
 10
307.9196936381412
 20
120.4294399374609
 30
0.0
 10
307.8318014032761
 20
119.8045495529284
 30
0.0
 10
307.4220652915097
 20
118.6325137503807
 30
0.0
 10
307.0931471471035
 20
118.085382139664
 30
0.0
 10
306.2089818289755
 20
117.2012168215363
 30
0.0
 10
305.6618502182648
 20
116.8722986771272
 30
0.0
 10
304.4898144157058
 20
116.4625625653664
 30
0.0
 10
303.8649240311831
 20
116.3746703304987
 30
0.0
 10
303.2196936381412
 20
116.3746703304987
 30
0.0
  0
LINE
  5
1B2
330
1F
100
AcDbEntity
  8
0
  6
Continuous
 62
     7
370
    25
100
AcDbLine
 10
303.2196936381
 20
116.3746703305
 30
0.0
 11
181.2196936381
 21
116.3746703305
 31
0.0
  0
LINE
  5
1B3
330
1F
100
AcDbEntity
  8
0
  6
Continuous
 62
     7
370
    25
100
AcDbLine
 10
59.2196936381
 20
116.3746703305
 30
0.0
 11
181.2196936381
 21
116.3746703305
 31
0.0
  0
SPLINE
  5
1B4
330
1F
100
AcDbEntity
  8
0
  6
Continuous
 62
     7
370
    25
100
AcDbSpline
210
0.0
220
0.0
230
1.0
 70
     8
 71
     3
 72
    14
 73
    10
 74
     0
 42
0.00000001
 43
0.00000001
 40
0.0
 40
0.0
 40
0.0
 40
0.0
 40
0.25
 40
0.25
 40
0.5
 40
0.5
 40
0.75
 40
0.75
 40
1.0
 40
1.0
 40
1.0
 40
1.0
 10
54.51969363814113
 20
121.0746703304986
 30
0.0
 10
54.51969363814113
 20
120.4294399374609
 30
0.0
 10
54.60758587300615
 20
119.8045495529284
 30
0.0
 10
55.01732198477252
 20
118.6325137503807
 30
0.0
 10
55.34624012917872
 20
118.085382139664
 30
0.0
 10
56.23040544730672
 20
117.2012168215363
 30
0.0
 10
56.77753705801748
 20
116.8722986771272
 30
0.0
 10
57.94957286057647
 20
116.4625625653664
 30
0.0
 10
58.5744632450991
 20
116.3746703304987
 30
0.0
 10
59.21969363814114
 20
116.3746703304987
 30
0.0
  0
LINE
  5
1B5
330
1F
100
AcDbEntity
  8
0
  6
Continuous
 62
     7
370
    25
100
AcDbLine
 10
54.5196936381
 20
195.9246703305
 30
0.0
 11
54.5196936381
 21
121.0746703305
 31
0.0
  0
LINE
  5
1B6
330
1F
100
AcDbEntity
  8
0
  6
Continuous
 62
     7
370
    25
100
AcDbLine
 10
54.5196936381
 20
195.9246703305
 30
0.0
 11
54.5196936381
 21
270.7746703305
 31
0.0
  0
SPLINE
  5
1B7
330
1F
100
AcDbEntity
  8
0
  6
Continuous
 62
     7
370
    25
100
AcDbSpline
210
0.0
220
0.0
230
1.0
 70
     8
 71
     3
 72
    14
 73
    10
 74
     0
 42
0.00000001
 43
0.00000001
 40
0.0
 40
0.0
 40
0.0
 40
0.0
 40
0.25
 40
0.25
 40
0.5
 40
0.5
 40
0.75
 40
0.75
 40
1.0
 40
1.0
 40
1.0
 40
1.0
 10
54.51969363814113
 20
270.7746703304986
 30
0.0
 10
54.51969363814113
 20
271.4199007235364
 30
0.0
 10
54.60758587300615
 20
272.0447911080689
 30
0.0
 10
55.01732198477252
 20
273.2168269106166
 30
0.0
 10
55.34624012917872
 20
273.7639585213333
 30
0.0
 10
56.23040544730672
 20
274.6481238394611
 30
0.0
 10
56.77753705801748
 20
274.9770419838702
 30
0.0
 10
57.94957286057647
 20
275.3867780956309
 30
0.0
 10
58.5744632450991
 20
275.4746703304987
 30
0.0
 10
59.21969363814114
 20
275.4746703304987
 30
0.0
  0
LINE
  5
1B8
330
1F
100
AcDbEntity
  8
0
  6
Continuous
 62
     7
370
    25
100
AcDbLine
 10
59.2196936381
 20
275.4746703305
 30
0.0
 11
181.2196936381
 21
275.4746703305
 31
0.0
  0
LINE
  5
1B9
330
1F
100
AcDbEntity
  8
0
  6
Continuous
 62
     7
370
    25
100
AcDbLine
 10
303.2196936381
 20
275.4746703305
 30
0.0
 11
181.2196936381
 21
275.4746703305
 31
0.0
  0
DIMENSION
  5
1BA
330
1F
100
AcDbEntity
  8
SLD-0
 62
     7
100
AcDbDimension
  2
_D
 10
36.6076048799
 20
275.4746703305
 30
0.0
 11
36.6076048799
 21
190.1918080336
 31
0.0
 70
   160
  1
<>
 71
     2
 42
-1.0
  3
SLDDIMSTYLE0
100
AcDbAlignedDimension
 13
59.2196936381
 23
116.3746703305
 33
0.0
 14
59.2196936381
 24
275.4746703305
 34
0.0
 50
90.0
100
AcDbRotatedDimension
  0
DIMENSION
  5
1CF
330
1F
100
AcDbEntity
  8
SLD-0
 62
     7
100
AcDbDimension
  2
_D_1
 10
307.9196936381
 20
295.4746953305
 30
0.0
 11
168.7596198769
 21
295.4746953305
 31
0.0
 70
   160
  1
<>
 71
     2
 42
-1.0
  3
SLDDIMSTYLE0
100
AcDbAlignedDimension
 13
54.5196936381
 23
270.7746703305
 33
0.0
 14
307.9196936381
 24
270.7746703305
 34
0.0
100
AcDbRotatedDimension
  0
LINE
  5
1E3
330
1F
100
AcDbEntity
  8
SLD-0
  6
CENTERX2
 62
     7
370
    18
100
AcDbLine
 10
181.2196936381
 20
274.7746703305
 30
0.0
 11
181.2196936381
 21
117.0746703305
 31
0.0
  0
LINE
  5
1E4
330
1F
100
AcDbEntity
  8
SLD-0
  6
CENTERX2
 62
     7
370
    18
100
AcDbLine
 10
307.2196936381
 20
195.9246703305
 30
0.0
 11
55.2196936381
 21
195.9246703305
 31
0.0
  0
LINE
  5
1E5
330
1F
100
AcDbEntity
  8
0
  6
Continuous
 62
     7
370
    25
100
AcDbLine
 10
408.3924833173
 20
123.3850127381
 30
0.0
 11
409.8847265116
 21
125.3746703305
 31
0.0
  0
LINE
  5
1E6
330
1F
100
AcDbEntity
  8
0
  6
Continuous
 62
     7
370
    25
100
AcDbLine
 10
397.0847265116
 20
195.9246703305
 30
0.0
 11
397.0847265116
 21
270.7746703305
 31
0.0
  0
LINE
  5
1E7
330
1F
100
AcDbEntity
  8
0
  6
Continuous
 62
     7
370
    25
100
AcDbLine
 10
394.9847265116
 20
195.9246703305
 30
0.0
 11
394.9847265116
 21
270.7746703305
 31
0.0
  0
SPLINE
  5
1E8
330
1F
100
AcDbEntity
  8
0
  6
Continuous
 62
     7
370
    25
100
AcDbSpline
210
0.0
220
0.0
230
1.0
 70
    24
 71
     3
 72
     8
 73
     4
 74
     0
 42
0.00000001
 43
0.00000001
 40
0.0
 40
0.0
 40
0.0
 40
0.0
 40
1.0
 40
1.0
 40
1.0
 40
1.0
 10
397.0847265115914
 20
121.0746703304986
 30
0.0
 10
397.0847265115914
 20
119.0746703304986
 30
0.0
 10
397.0847265115914
 20
117.9746703304986
 30
0.0
 10
397.0847265115914
 20
117.9746703304986
 30
0.0
  0
SPLINE
  5
1E9
330
1F
100
AcDbEntity
  8
0
  6
Continuous
 62
     7
370
    25
100
AcDbSpline
210
0.0
220
0.0
230
1.0
 70
     8
 71
     3
 72
     8
 73
     4
 74
     0
 42
0.00000001
 43
0.00000001
 40
0.0
 40
0.0
 40
0.0
 40
0.0
 40
1.0
 40
1.0
 40
1.0
 40
1.0
 10
397.0847265115914
 20
117.9746703304986
 30
0.0
 10
397.0847265115914
 20
117.6413369971654
 30
0.0
 10
396.9847265115914
 20
116.3746703304987
 30
0.0
 10
394.9847265115914
 20
116.3746703304987
 30
0.0
  0
SPLINE
  5
1EA
330
1F
100
AcDbEntity
  8
0
  6
Continuous
 62
     7
370
    25
100
AcDbSpline
210
0.0
220
0.0
230
1.0
 70
    24
 71
     3
 72
    14
 73
    10
 74
     0
 42
0.00000001
 43
0.00000001
 40
0.0
 40
0.0
 40
0.0
 40
0.0
 40
0.25
 40
0.25
 40
0.5
 40
0.5
 40
0.75
 40
0.75
 40
1.0
 40
1.0
 40
1.0
 40
1.0
 10
394.9847265115914
 20
121.0746703304986
 30
0.0
 10
394.9847265115914
 20
120.4294399374609
 30
0.0
 10
394.9847265115914
 20
119.8045495529284
 30
0.0
 10
394.9847265115914
 20
118.6325137503807
 30
0.0
 10
394.9847265115914
 20
118.085382139664
 30
0.0
 10
394.9847265115914
 20
117.2012168215363
 30
0.0
 10
394.9847265115914
 20
116.8722986771272
 30
0.0
 10
394.9847265115914
 20
116.4625625653664
 30
0.0
 10
394.9847265115914
 20
116.3746703304987
 30
0.0
 10
394.9847265115914
 20
116.3746703304987
 30
0.0
  0
LINE
  5
1EB
330
1F
100
AcDbEntity
  8
0
  6
Continuous
 62
     7
370
    25
100
AcDbLine
 10
397.0847265116
 20
195.9246703305
 30
0.0
 11
397.0847265116
 21
121.0746703305
 31
0.0
  0
LINE
  5
1EC
330
1F
100
AcDbEntity
  8
0
  6
Continuous
 62
     7
370
    25
100
AcDbLine
 10
394.9847265116
 20
195.9246703305
 30
0.0
 11
394.9847265116
 21
121.0746703305
 31
0.0
  0
SPLINE
  5
1ED
330
1F
100
AcDbEntity
  8
0
  6
Continuous
 62
     7
370
    25
100
AcDbSpline
210
0.0
220
0.0
230
1.0
 70
     8
 71
     3
 72
     8
 73
     4
 74
     0
 42
0.00000001
 43
0.00000001
 40
0.0
 40
0.0
 40
0.0
 40
0.0
 40
1.0
 40
1.0
 40
1.0
 40
1.0
 10
397.0847265115914
 20
273.8746703304986
 30
0.0
 10
397.0847265115914
 20
274.2080036638319
 30
0.0
 10
396.9847265115914
 20
275.4746703304987
 30
0.0
 10
394.9847265115914
 20
275.4746703304987
 30
0.0
  0
SPLINE
  5
1EE
330
1F
100
AcDbEntity
  8
0
  6
Continuous
 62
     7
370
    25
100
AcDbSpline
210
0.0
220
0.0
230
1.0
 70
    24
 71
     3
 72
     8
 73
     4
 74
     0
 42
0.00000001
 43
0.00000001
 40
0.0
 40
0.0
 40
0.0
 40
0.0
 40
1.0
 40
1.0
 40
1.0
 40
1.0
 10
397.0847265115914
 20
270.7746703304986
 30
0.0
 10
397.0847265115914
 20
272.7746703304986
 30
0.0
 10
397.0847265115914
 20
273.8746703304986
 30
0.0
 10
397.0847265115914
 20
273.8746703304986
 30
0.0
  0
SPLINE
  5
1EF
330
1F
100
AcDbEntity
  8
0
  6
Continuous
 62
     7
370
    25
100
AcDbSpline
210
0.0
220
0.0
230
1.0
 70
    24
 71
     3
 72
    14
 73
    10
 74
     0
 42
0.00000001
 43
0.00000001
 40
0.0
 40
0.0
 40
0.0
 40
0.0
 40
0.25
 40
0.25
 40
0.5
 40
0.5
 40
0.75
 40
0.75
 40
1.0
 40
1.0
 40
1.0
 40
1.0
 10
394.9847265115914
 20
270.7746703304986
 30
0.0
 10
394.9847265115914
 20
271.4199007235364
 30
0.0
 10
394.9847265115914
 20
272.0447911080689
 30
0.0
 10
394.9847265115914
 20
273.2168269106166
 30
0.0
 10
394.9847265115914
 20
273.7639585213333
 30
0.0
 10
394.9847265115914
 20
274.6481238394611
 30
0.0
 10
394.9847265115914
 20
274.9770419838702
 30
0.0
 10
394.9847265115914
 20
275.3867780956309
 30
0.0
 10
394.9847265115914
 20
275.4746703304987
 30
0.0
 10
394.9847265115914
 20
275.4746703304987
 30
0.0
  0
LINE
  5
1F0
330
1F
100
AcDbEntity
  8
0
  6
Continuous
 62
     7
370
    25
100
AcDbLine
 10
400.5847265116
 20
270.1746703305
 30
0.0
 11
400.5847265116
 21
264.0746703305
 31
0.0
  0
LINE
  5
1F1
330
1F
100
AcDbEntity
  8
0
  6
Continuous
 62
     7
370
    25
100
AcDbLine
 10
400.5847265116
 20
264.0746703305
 30
0.0
 11
400.5847265116
 21
127.7746703305
 31
0.0
  0
LINE
  5
1F2
330
1F
100
AcDbEntity
  8
0
  6
Continuous
 62
     7
370
    25
100
AcDbLine
 10
400.5847265116
 20
121.6746703305
 30
0.0
 11
400.5847265116
 21
127.7746703305
 31
0.0
  0
LINE
  5
1F3
330
1F
100
AcDbEntity
  8
0
  6
Continuous
 62
     7
370
    25
100
AcDbLine
 10
399.0847265116
 20
270.1746703305
 30
0.0
 11
399.0847265116
 21
121.6746703305
 31
0.0
  0
LINE
  5
1F4
330
1F
100
AcDbEntity
  8
0
  6
Continuous
 62
     7
370
    25
100
AcDbLine
 10
400.5847265116
 20
275.1746703305
 30
0.0
 11
399.0847265116
 21
275.1746703305
 31
0.0
  0
SPLINE
  5
1F5
330
1F
100
AcDbEntity
  8
0
  6
Continuous
 62
     7
370
    25
100
AcDbSpline
210
0.0
220
0.0
230
1.0
 70
    24
 71
     3
 72
    11
 73
     7
 74
     0
 42
0.00000001
 43
0.00000001
 40
0.0
 40
0.0
 40
0.0
 40
0.0
 40
0.25
 40
0.5
 40
0.75
 40
1.0
 40
1.0
 40
1.0
 40
1.0
 10
400.5847265115973
 20
275.1746703304941
 30
0.0
 10
400.5847265115974
 20
275.1746703304939
 30
0.0
 10
400.5847265115974
 20
274.9282935000903
 30
0.0
 10
400.5847265115975
 20
273.8109300975066
 30
0.0
 10
400.5847265115975
 20
272.118275804671
 30
0.0
 10
400.5847265115976
 20
270.8141414076601
 30
0.0
 10
400.5847265115976
 20
270.1746703304987
 30
0.0
  0
LINE
  5
1F6
330
1F
100
AcDbEntity
  8
0
  6
Continuous
 62
     7
370
    25
100
AcDbLine
 10
399.0847265116
 20
275.1746703305
 30
0.0
 11
399.0847265116
 21
270.1746703305
 31
0.0
  0
SPLINE
  5
1F7
330
1F
100
AcDbEntity
  8
0
  6
Continuous
 62
     7
370
    25
100
AcDbSpline
210
0.0
220
0.0
230
1.0
 70
    24
 71
     3
 72
    14
 73
    10
 74
     0
 42
0.00000001
 43
0.00000001
 40
0.0
 40
0.0
 40
0.0
 40
0.0
 40
0.25
 40
0.25
 40
0.5
 40
0.5
 40
0.75
 40
0.75
 40
1.0
 40
1.0
 40
1.0
 40
1.0
 10
400.5847265115914
 20
116.6746703304987
 30
0.0
 10
400.5847265115914
 20
116.6746703304986
 30
0.0
 10
400.5847265115914
 20
116.8048069471571
 30
0.0
 10
400.5847265115914
 20
117.3057383887274
 30
0.0
 10
400.5847265115914
 20
117.6763361185077
 30
0.0
 10
400.5847265115914
 20
118.6019367306241
 30
0.0
 10
400.5847265115914
 20
119.1565754286442
 30
0.0
 10
400.5847265115914
 20
120.3659309087023
 30
0.0
 10
400.5847265115914
 20
121.0201718610008
 30
0.0
 10
400.5847265115914
 20
121.6746703304987
 30
0.0
  0
LINE
  5
1F8
330
1F
100
AcDbEntity
  8
0
  6
Continuous
 62
     7
370
    25
100
AcDbLine
 10
400.5847265116
 20
116.6746703305
 30
0.0
 11
399.0847265116
 21
116.6746703305
 31
0.0
  0
LINE
  5
1F9
330
1F
100
AcDbEntity
  8
0
  6
Continuous
 62
     7
370
    25
100
AcDbLine
 10
399.0847265116
 20
116.6746703305
 30
0.0
 11
399.0847265116
 21
121.6746703305
 31
0.0
  0
LINE
  5
1FA
330
1F
100
AcDbEntity
  8
0
  6
Continuous
 62
     7
370
    25
100
AcDbLine
 10
407.8847265116
 20
127.7746703305
 30
0.0
 11
407.8847265116
 21
264.0746703305
 31
0.0
  0
SPLINE
  5
1FB
330
1F
100
AcDbEntity
  8
0
  6
Continuous
 62
     7
370
    25
100
AcDbSpline
210
0.0
220
0.0
230
1.0
 70
     8
 71
     3
 72
     8
 73
     4
 74
     0
 42
0.00000001
 43
0.00000001
 40
0.0
 40
0.0
 40
0.0
 40
0.0
 40
1.0
 40
1.0
 40
1.0
 40
1.0
 10
402.862607254297
 20
118.1746703305001
 30
0.0
 10
402.1265733002033
 20
117.6404880794431
 30
0.0
 10
401.3662328930154
 20
117.1397987371958
 30
0.0
 10
400.5847265115914
 20
116.6746703304987
 30
0.0
  0
LWPOLYLINE
  5
1FC
330
1F
100
AcDbEntity
  8
0
  6
Continuous
 62
     7
370
    25
100
AcDbPolyline
 90
        2
 70
   128
 43
0.0
 10
400.5847265116
 20
116.6746703305
 10
400.5847265116
 20
116.6746703305
  0
LWPOLYLINE
  5
1FD
330
1F
100
AcDbEntity
  8
0
  6
Continuous
 62
     7
370
    25
100
AcDbPolyline
 90
        2
 70
   128
 43
0.0
 10
400.5847265116
 20
275.1746703305
 10
400.5847265116
 20
275.1746703305
  0
SPLINE
  5
1FE
330
1F
100
AcDbEntity
  8
0
  6
Continuous
 62
     7
370
    25
100
AcDbSpline
210
0.0
220
0.0
230
1.0
 70
     8
 71
     3
 72
     8
 73
     4
 74
     0
 42
0.00000001
 43
0.00000001
 40
0.0
 40
0.0
 40
0.0
 40
0.0
 40
1.0
 40
1.0
 40
1.0
 40
1.0
 10
402.8626080389786
 20
273.6746714116828
 30
0.0
 10
402.12657613696
 20
274.2088563002915
 30
0.0
 10
401.3662329335417
 20
274.7095418996815
 30
0.0
 10
400.5847265115914
 20
275.1746703304987
 30
0.0
  0
ARC
  5
1FF
330
1F
100
AcDbEntity
  8
0
  6
Continuous
 62
     7
370
    25
100
AcDbCircle
 10
397.6847265116
 20
116.7746703305
 30
0.0
 40
1.400000000000006
100
AcDbArc
 50
0.0
 51
90.0
  0
ARC
  5
200
330
1F
100
AcDbEntity
  8
0
  6
Continuous
 62
     7
370
    25
100
AcDbCircle
 10
397.6847265116
 20
275.0746703305
 30
0.0
 40
1.399999999999977
100
AcDbArc
 50
270.0
 51
0.0
  0
LWPOLYLINE
  5
201
330
1F
100
AcDbEntity
  8
0
  6
Continuous
 62
     7
370
    25
100
AcDbPolyline
 90
        9
 70
   128
 43
0.0
 10
394.284726475
 20
271.0396725297
 10
394.2847264747
 20
271.5439057358
 10
394.2847264736
 20
272.0287615426
 10
394.2847264719
 20
272.4756072133
 10
394.2847264696
 20
272.8672707194
 10
394.2847264669
 20
273.188700652
 10
394.2847264637
 20
273.427544639
 10
394.2847264603
 20
273.57462404
 10
394.284726475
 20
273.6242866761
  0
ARC
  5
202
330
1F
100
AcDbEntity
  8
0
  6
Continuous
 62
     7
370
    25
100
AcDbCircle
 10
395.6412435668
 20
273.6242866761
 30
0.0
 40
1.356517110162326
100
AcDbArc
 50
122.0004697148
 51
180.0
  0
LINE
  5
203
330
1F
100
AcDbEntity
  8
0
  6
Continuous
 62
     7
370
    25
100
AcDbLine
 10
394.9223895869
 20
120.8096703363
 30
0.0
 11
394.9223895869
 21
271.0396725297
 31
0.0
  0
LINE
  5
204
330
1F
100
AcDbEntity
  8
0
  6
Continuous
 62
     7
370
    25
100
AcDbLine
 10
394.284726475
 20
118.22505619
 30
0.0
 11
394.2847264567
 21
120.8096703363
 31
0.0
  0
ARC
  5
205
330
1F
100
AcDbEntity
  8
0
  6
Continuous
 62
     7
370
    25
100
AcDbCircle
 10
395.6412435668
 20
118.22505619
 30
0.0
 40
1.356517110128449
100
AcDbArc
 50
180.0
 51
237.9995302843
  0
LINE
  5
206
330
1F
100
AcDbEntity
  8
0
  6
Continuous
 62
     7
370
    25
100
AcDbLine
 10
394.2847264567
 20
120.8096703363
 30
0.0
 11
394.284726475
 21
271.0396725297
 31
0.0
  0
SPLINE
  5
207
330
1F
100
AcDbEntity
  8
0
  6
Continuous
 62
     7
370
    25
100
AcDbSpline
210
0.0
220
0.0
230
1.0
 70
    24
 71
     3
 72
    25
 73
    21
 74
     0
 42
0.00000001
 43
0.00000001
 40
0.0
 40
0.0
 40
0.0
 40
0.0
 40
0.0280238204529838
 40
0.0558616951910177
 40
0.0835660387410366
 40
0.1111900257378772
 40
0.1387872953151946
 40
0.1664116422414594
 40
0.1941167035577434
 40
0.2219556497740209
 40
0.2499808893766423
 40
0.3747245422215813
 40
0.4995024099758894
 40
0.6243479524462837
 40
0.7492375706821927
 40
0.7997001478759918
 40
0.849693100612739
 40
0.8995301361897913
 40
0.9495278968631288
 40
1.0
 40
1.0
 40
1.0
 40
1.0
 10
407.8847265115915
 20
127.7746703304987
 30
0.0
 10
407.8847265115915
 20
127.7013561911988
 30
0.0
 10
407.8847265115915
 20
127.5552143719692
 30
0.0
 10
407.8847265115915
 20
127.3369949211736
 30
0.0
 10
407.8847265115915
 20
127.1206361714993
 30
0.0
 10
407.8847265115915
 20
126.90614016358
 30
0.0
 10
407.8847265115915
 20
126.6935097453556
 30
0.0
 10
407.8847265115915
 20
126.4827461378262
 30
0.0
 10
407.8847265115915
 20
126.2738560554527
 30
0.0
 10
407.8847265115915
 20
126.0668249710342
 30
0.0
 10
407.8847265115915
 20
125.6264903129659
 30
0.0
 10
407.8847265115915
 20
124.980212076312
 30
0.0
 10
407.8847265115915
 20
124.2198532747065
 30
0.0
 10
407.8847265115915
 20
123.5915121022222
 30
0.0
 10
407.8847265115915
 20
123.2201240429051
 30
0.0
 10
407.8847265115915
 20
123.0149231320644
 30
0.0
 10
407.8847265115915
 20
122.9072645452729
 30
0.0
 10
407.8847265115915
 20
122.830995197988
 30
0.0
 10
407.8847265115915
 20
122.783366046107
 30
0.0
 10
407.8847265115915
 20
122.777578011271
 30
0.0
 10
407.8847265115915
 20
122.7746703304986
 30
0.0
  0
SPLINE
  5
208
330
1F
100
AcDbEntity
  8
0
  6
Continuous
 62
     7
370
    25
100
AcDbSpline
210
0.0
220
0.0
230
1.0
 70
     8
 71
     3
 72
     8
 73
     4
 74
     0
 42
0.00000001
 43
0.00000001
 40
0.0
 40
0.0
 40
0.0
 40
0.0
 40
1.0
 40
1.0
 40
1.0
 40
1.0
 10
407.8847265115915
 20
122.7746703304987
 30
0.0
 10
406.3923335327691
 20
121.0575313531853
 30
0.0
 10
404.70384097527
 20
119.5109599069399
 30
0.0
 10
402.8626087442541
 20
118.1746714118479
 30
0.0
  0
SPLINE
  5
209
330
1F
100
AcDbEntity
  8
0
  6
Continuous
 62
     7
370
    25
100
AcDbSpline
210
0.0
220
0.0
230
1.0
 70
    24
 71
     3
 72
    20
 73
    16
 74
     0
 42
0.00000001
 43
0.00000001
 40
0.0
 40
0.0
 40
0.0
 40
0.0
 40
0.1250000000000002
 40
0.1250000000000002
 40
0.2500000000000005
 40
0.2500000000000005
 40
0.3750000000000008
 40
0.3750000000000008
 40
0.500000000000001
 40
0.500000000000001
 40
0.6250000000000012
 40
0.6250000000000012
 40
0.7500000000000016
 40
0.7500000000000016
 40
1.0
 40
1.0
 40
1.0
 40
1.0
 10
407.8847265115915
 20
264.0746703304986
 30
0.0
 10
407.8847265115915
 20
264.4120217151506
 30
0.0
 10
407.8847265115915
 20
264.7495014517502
 30
0.0
 10
407.8847265115915
 20
265.4041000238594
 30
0.0
 10
407.8847265115915
 20
265.7210174069094
 30
0.0
 10
407.8847265115915
 20
266.3182896234231
 30
0.0
 10
407.8847265115915
 20
266.5958851081706
 30
0.0
 10
407.8847265115915
 20
267.1144862809499
 30
0.0
 10
407.8847265115915
 20
267.3559107389239
 30
0.0
 10
407.8847265115915
 20
267.8054737584367
 30
0.0
 10
407.8847265115915
 20
268.0155475287832
 30
0.0
 10
407.8847265115915
 20
268.3857453285383
 30
0.0
 10
407.8847265115915
 20
268.5457218178478
 30
0.0
 10
407.8847265115915
 20
268.9361277615527
 30
0.0
 10
407.8847265115915
 20
269.0746703304987
 30
0.0
 10
407.8847265115915
 20
269.0746703304986
 30
0.0
  0
SPLINE
  5
20A
330
1F
100
AcDbEntity
  8
0
  6
Continuous
 62
     7
370
    25
100
AcDbSpline
210
0.0
220
0.0
230
1.0
 70
     8
 71
     3
 72
    10
 73
     6
 74
     0
 42
0.00000001
 43
0.00000001
 40
0.0
 40
0.0
 40
0.0
 40
0.0
 40
0.25
 40
0.5
 40
0.7144129577077662
 40
0.7144129577077662
 40
0.7144129577077662
 40
0.7144129577077662
 10
407.8847265115915
 20
269.0746703304986
 30
0.0
 10
407.3624818720098
 20
269.6755620788813
 30
0.0
 10
406.2701318006989
 20
270.8357484411299
 30
0.0
 10
404.5824576353715
 20
272.3640711849726
 30
0.0
 10
403.4152058592873
 20
273.2736162342136
 30
0.0
 10
402.8626080389786
 20
273.6746714116828
 30
0.0
  0
LINE
  5
20B
330
1F
100
AcDbEntity
  8
0
  6
Continuous
 62
     7
370
    25
100
AcDbLine
 10
397.6847265116
 20
118.1746703305
 30
0.0
 11
397.0847265116
 21
118.1746703305
 31
0.0
  0
LINE
  5
20C
330
1F
100
AcDbEntity
  8
0
  6
Continuous
 62
     7
370
    25
100
AcDbLine
 10
397.6847265116
 20
273.6746703305
 30
0.0
 11
397.0847265116
 21
273.6746703305
 31
0.0
  0
LINE
  5
20D
330
1F
100
AcDbEntity
  8
0
  6
Continuous
 62
     7
370
    25
100
AcDbLine
 10
408.4028282182
 20
127.776395436
 30
0.0
 11
408.4028282182
 21
264.072945225
 31
0.0
  0
LINE
  5
20E
330
1F
100
AcDbEntity
  8
0
  6
Continuous
 62
     7
370
    25
100
AcDbLine
 10
408.405171582
 20
268.4473949601
 30
0.0
 11
407.8847265116
 21
268.4746703305
 31
0.0
  0
SPLINE
  5
20F
330
1F
100
AcDbEntity
  8
0
  6
Continuous
 62
     7
370
    25
100
AcDbSpline
210
0.0
220
0.0
230
1.0
 70
     8
 71
     3
 72
    14
 73
    10
 74
     0
 42
0.00000001
 43
0.00000001
 40
0.0
 40
0.0
 40
0.0
 40
0.0
 40
0.25
 40
0.25
 40
0.5
 40
0.5
 40
0.75
 40
0.75
 40
1.0
 40
1.0
 40
1.0
 40
1.0
 10
408.4028258246052
 20
264.0729454237451
 30
0.0
 10
408.4030213043871
 20
264.6470211794672
 30
0.0
 10
408.403216784169
 20
265.2163242168393
 30
0.0
 10
408.4036077437329
 20
266.2775616467488
 30
0.0
 10
408.4038032235148
 20
266.7599800678017
 30
0.0
 10
408.4041941830787
 20
267.5722913051069
 30
0.0
 10
408.4043896628592
 20
267.8945781773778
 30
0.0
 10
408.404780622426
 20
268.3342833931252
 30
0.0
 10
408.404976102205
 20
268.44740520509
 30
0.0
 10
408.4051715819884
 20
268.4473949601204
 30
0.0
  0
LINE
  5
210
330
1F
100
AcDbEntity
  8
0
  6
Continuous
 62
     7
370
    25
100
AcDbLine
 10
409.8847265116
 20
128.3746703305
 30
0.0
 11
409.8847265116
 21
263.4746703305
 31
0.0
  0
SPLINE
  5
211
330
1F
100
AcDbEntity
  8
0
  6
Continuous
 62
     7
370
    25
100
AcDbSpline
210
0.0
220
0.0
230
1.0
 70
    24
 71
     3
 72
    15
 73
    11
 74
     0
 42
0.00000001
 43
0.00000001
 40
0.0
 40
0.0
 40
0.0
 40
0.0
 40
0.001742187499997
 40
0.001742187499997
 40
0.0034843749999939
 40
0.0069687499999879
 40
0.0139374999999758
 40
0.0278749999999517
 40
0.0557499999999034
 40
0.1114999999998068
 40
0.1114999999998068
 40
0.1114999999998068
 40
0.1114999999998068
 10
408.4051715819884
 20
268.4473949601204
 30
0.0
 10
408.4063659148939
 20
268.4473323677851
 30
0.0
 10
408.4051835081427
 20
268.4473943350971
 30
0.0
 10
408.4051835081427
 20
268.4473943350971
 30
0.0
 10
408.4051835081427
 20
268.447394335097
 30
0.0
 10
408.4051835081427
 20
268.447394335097
 30
0.0
 10
408.4051835081427
 20
268.447394335097
 30
0.0
 10
408.4051835081427
 20
268.4473943350971
 30
0.0
 10
408.4051835081426
 20
268.447394335097
 30
0.0
 10
408.4051835081427
 20
268.447394335097
 30
0.0
 10
408.4051835081427
 20
268.447394335097
 30
0.0
  0
LINE
  5
212
330
1F
100
AcDbEntity
  8
0
  6
Continuous
 62
     7
370
    25
100
AcDbLine
 10
408.4051835081
 20
268.4473943351
 30
0.0
 11
409.8847265116
 21
266.4746703305
 31
0.0
  0
SPLINE
  5
213
330
1F
100
AcDbEntity
  8
0
  6
Continuous
 62
     7
370
    25
100
AcDbSpline
210
0.0
220
0.0
230
1.0
 70
    24
 71
     3
 72
    15
 73
    11
 74
     0
 42
0.00000001
 43
0.00000001
 40
0.0
 40
0.0
 40
0.0
 40
0.0
 40
0.1250000000301432
 40
0.2500000000602865
 40
0.37500000009043
 40
0.500000000120573
 40
0.625000000150717
 40
0.75000000018086
 40
0.875000000211003
 40
1.0
 40
1.0
 40
1.0
 40
1.0
 10
409.8847265115915
 20
263.4746703304987
 30
0.0
 10
409.8847265115915
 20
263.7132277778196
 30
0.0
 10
409.8847265115915
 20
264.1454478200307
 30
0.0
 10
409.8847265115915
 20
264.7051349982448
 30
0.0
 10
409.8847265115915
 20
265.1903646176685
 30
0.0
 10
409.8847265115915
 20
265.6074874905379
 30
0.0
 10
409.8847265115915
 20
265.9556954766971
 30
0.0
 10
409.8847265115915
 20
266.2305615258672
 30
0.0
 10
409.8847265115915
 20
266.4198074747553
 30
0.0
 10
409.8847265115915
 20
266.4746703304987
 30
0.0
 10
409.8847265115915
 20
266.4746703304987
 30
0.0
  0
SPLINE
  5
214
330
1F
100
AcDbEntity
  8
0
  6
Continuous
 62
     7
370
    25
100
AcDbSpline
210
0.0
220
0.0
230
1.0
 70
    24
 71
     3
 72
    15
 73
    11
 74
     0
 42
0.00000001
 43
0.00000001
 40
0.0
 40
0.0
 40
0.0
 40
0.0
 40
0.124999999788997
 40
0.24999999981914
 40
0.3749999998492834
 40
0.4999999998794269
 40
0.62499999990957
 40
0.749999999939713
 40
0.874999999969857
 40
1.0
 40
1.0
 40
1.0
 40
1.0
 10
409.8847265115915
 20
125.3746703304986
 30
0.0
 10
409.8847265115915
 20
125.3746703304986
 30
0.0
 10
409.8847265115915
 20
125.4295331862421
 30
0.0
 10
409.8847265115915
 20
125.6187791351301
 30
0.0
 10
409.8847265115915
 20
125.8936451843002
 30
0.0
 10
409.8847265115915
 20
126.2418531704593
 30
0.0
 10
409.8847265115915
 20
126.6589760433288
 30
0.0
 10
409.8847265115915
 20
127.1442056627526
 30
0.0
 10
409.8847265115915
 20
127.7038928409666
 30
0.0
 10
409.8847265115915
 20
128.1361128831777
 30
0.0
 10
409.8847265115915
 20
128.3746703304986
 30
0.0
  0
SPLINE
  5
215
330
1F
100
AcDbEntity
  8
0
  6
Continuous
 62
     7
370
    25
100
AcDbSpline
210
0.0
220
0.0
230
1.0
 70
     8
 71
     3
 72
    38
 73
    34
 74
     0
 42
0.00000001
 43
0.00000001
 40
0.0
 40
0.0
 40
0.0
 40
0.0
 40
0.031524425538003
 40
0.0636426131077726
 40
0.0963457092713145
 40
0.1296348056882687
 40
0.1634801318961212
 40
0.1978283364827862
 40
0.2326400060792737
 40
0.2678760267348596
 40
0.3034474517165651
 40
0.3392619319762222
 40
0.3752417303485899
 40
0.4112996745865219
 40
0.4473168474529826
 40
0.4831787381975328
 40
0.5187817717053654
 40
0.5540321614657333
 40
0.5888363797496682
 40
0.6231009883846774
 40
0.6567375133020217
 40
0.6896898189659618
 40
0.7219197063889414
 40
0.7533840974618241
 40
0.78403823465393
 40
0.8138665342197944
 40
0.8428756625060642
 40
0.8710662961557665
 40
0.898433630263437
 40
0.9249847507672816
 40
0.9507476194297686
 40
0.9757464458054094
 40
1.0
 40
1.0
 40
1.0
 40
1.0
 10
408.4028258246051
 20
127.7763952372624
 30
0.0
 10
408.402765198484
 20
127.7042055094033
 30
0.0
 10
408.4026428043498
 20
127.558466361359
 30
0.0
 10
408.4024834368346
 20
127.3383821253665
 30
0.0
 10
408.4023393684504
 20
127.1154089608579
 30
0.0
 10
408.4022126781384
 20
126.8903005176939
 30
0.0
 10
408.4021027717197
 20
126.6639547763799
 30
0.0
 10
408.4020097284214
 20
126.4374089923615
 30
0.0
 10
408.4019335415712
 20
126.2117757804121
 30
0.0
 10
408.4018742696624
 20
125.9882915004059
 30
0.0
 10
408.4018318343016
 20
125.7682042238442
 30
0.0
 10
408.4018062402076
 20
125.552855490299
 30
0.0
 10
408.4017975018154
 20
125.3436364147929
 30
0.0
 10
408.4018056039385
 20
125.1418818032125
 30
0.0
 10
408.4018305405137
 20
124.9486873338319
 30
0.0
 10
408.401872319908
 20
124.7651911398989
 30
0.0
 10
408.4019309483495
 20
124.5925414345985
 30
0.0
 10
408.4020064171393
 20
124.4315070077221
 30
0.0
 10
408.4020987248214
 20
124.2824698511526
 30
0.0
 10
408.4022078674364
 20
124.1458218025117
 30
0.0
 10
408.402333912411
 20
124.0219378334985
 30
0.0
 10
408.4024768487601
 20
123.9107944661055
 30
0.0
 10
408.4026366250528
 20
123.8120502257396
 30
0.0
 10
408.4028132318183
 20
123.7253751244668
 30
0.0
 10
408.4030067843796
 20
123.6504368002135
 30
0.0
 10
408.4032172896545
 20
123.5867389511822
 30
0.0
 10
408.403444644865
 20
123.5336119075716
 30
0.0
 10
408.4036888274929
 20
123.4904039230577
 30
0.0
 10
408.4039499756253
 20
123.4564940600026
 30
0.0
 10
408.4042279681151
 20
123.4312066947371
 30
0.0
 10
408.4045234187621
 20
123.4140546178525
 30
0.0
 10
408.4048336111401
 20
123.4037818700029
 30
0.0
 10
408.4050600672609
 20
123.4025515516501
 30
0.0
 10
408.4051715819884
 20
123.401945700877
 30
0.0
  0
LINE
  5
216
330
1F
100
AcDbEntity
  8
0
  6
Continuous
 62
     7
370
    25
100
AcDbLine
 10
408.405171582
 20
123.4019457009
 30
0.0
 11
407.8847265116
 21
123.3746703305
 31
0.0
  0
ARC
  5
217
330
1F
100
AcDbEntity
  8
0
  6
Continuous
 62
     7
370
    25
100
AcDbCircle
 10
410.8847265116
 20
167.9757057638
 30
0.0
 40
1.000000000000024
100
AcDbArc
 50
93.0
 51
180.0
  0
ARC
  5
218
330
1F
100
AcDbEntity
  8
0
  6
Continuous
 62
     7
370
    25
100
AcDbCircle
 10
410.8847265116
 20
223.8736348972
 30
0.0
 40
1.000000000000024
100
AcDbArc
 50
180.0
 51
267.0
  0
LINE
  5
219
330
1F
100
AcDbEntity
  8
0
  6
Continuous
 62
     7
370
    25
100
AcDbLine
 10
432.8854117442
 20
212.9246703305
 30
0.0
 11
432.8854117442
 21
184.7630516085
 31
0.0
  0
SPLINE
  5
21A
330
1F
100
AcDbEntity
  8
0
  6
Continuous
 62
     7
370
    25
100
AcDbSpline
210
0.0
220
0.0
230
1.0
 70
     8
 71
     3
 72
    10
 73
     6
 74
     0
 42
0.00000001
 43
0.00000001
 40
0.0
 40
0.0
 40
0.0
 40
0.0
 40
0.5
 40
0.5
 40
1.0
 40
1.0
 40
1.0
 40
1.0
 10
432.8854117442142
 20
184.7630516085069
 30
0.0
 10
432.885425755457
 20
184.389404628169
 30
0.0
 10
432.8245708968582
 20
184.0158278154842
 30
0.0
 10
432.5874510432653
 20
183.3071512746833
 30
0.0
 10
432.4112277561263
 20
182.9721761982063
 30
0.0
 10
432.1863502001275
 20
182.6737768836631
 30
0.0
  0
LINE
  5
21B
330
1F
100
AcDbEntity
  8
0
  6
Continuous
 62
     7
370
    25
100
AcDbLine
 10
432.1863502001
 20
182.6737768837
 30
0.0
 11
429.3611957727
 21
178.9246703305
 31
0.0
  0
CIRCLE
  5
21C
330
1F
100
AcDbEntity
  8
0
  6
Continuous
 62
     7
370
    25
100
AcDbCircle
 10
413.3847265116
 20
208.9246703305
 30
0.0
 40
1.5
  0
SPLINE
  5
21D
330
1F
100
AcDbEntity
  8
0
  6
Continuous
 62
     7
370
    25
100
AcDbSpline
210
0.0
220
0.0
230
1.0
 70
     8
 71
     3
 72
    36
 73
    32
 74
     0
 42
0.00000001
 43
0.00000001
 40
4.67288661335807
 40
4.67288661335807
 40
4.67288661335807
 40
4.67288661335807
 40
4.87417395008576
 40
4.87417395008576
 40
4.9748176184496
 40
4.9748176184496
 40
5.07546128681345
 40
5.07546128681345
 40
5.17610495517729
 40
5.17610495517729
 40
5.27674862354114
 40
5.27674862354114
 40
5.377392291904981
 40
5.377392291904981
 40
5.47803596026883
 40
5.47803596026883
 40
5.57867962863267
 40
5.57867962863267
 40
5.67932329699652
 40
5.67932329699652
 40
5.77996696536036
 40
5.77996696536036
 40
5.88061063372421
 40
5.88061063372421
 40
5.98125430208805
 40
5.98125430208805
 40
6.0818979704519
 40
6.0818979704519
 40
6.18254163881574
 40
6.18254163881574
 40
6.283185307179591
 40
6.283185307179591
 40
6.283185307179591
 40
6.283185307179591
 10
429.3611957727235
 20
178.9246703304986
 30
0.0
 10
428.9349046493264
 20
178.3217252523598
 30
0.0
 10
428.5069286111633
 20
177.7166988242934
 30
0.0
 10
427.8753485045606
 20
176.8242598277994
 30
0.0
 10
427.666554764091
 20
176.5292996434515
 30
0.0
 10
427.2545384469442
 20
175.9473818115075
 30
0.0
 10
427.0513179677417
 20
175.660427086256
 30
0.0
 10
426.65250675745
 20
175.0974129280237
 30
0.0
 10
426.4569171694336
 20
174.8213550631858
 30
0.0
 10
426.0753472750898
 20
174.2829116450608
 30
0.0
 10
425.8893680624199
 20
174.0205275836949
 30
0.0
 10
425.5289012006393
 20
173.5120682371576
 30
0.0
 10
425.3544145847026
 20
173.265994354246
 30
0.0
 10
425.0186988967303
 20
172.7926253575494
 30
0.0
 10
424.8574707869289
 20
172.5653315438247
 30
0.0
 10
424.549903917258
 20
172.1318020079404
 30
0.0
 10
424.4035660389447
 20
171.92556747208
 30
0.0
 10
424.1272607491127
 20
171.5362228790623
 30
0.0
 10
423.9972941295501
 20
171.3531138839314
 30
0.0
 10
423.7550467951215
 20
171.0118536909444
 30
0.0
 10
423.6427667745962
 20
170.8537034214524
 30
0.0
 10
423.4370290841617
 20
170.5639431061597
 30
0.0
 10
423.3435720039498
 20
170.4323338468626
 30
0.0
 10
423.1764261465642
 20
170.1969717297436
 30
0.0
 10
423.1027378484754
 20
170.0932195096225
 30
0.0
 10
422.9758754406535
 20
169.914608646178
 30
0.0
 10
422.9227016945433
 20
169.8397504861239
 30
0.0
 10
422.8374066600839
 20
169.7196758770332
 30
0.0
 10
422.8052856162147
 20
169.6744597525673
 30
0.0
 10
422.7624211921204
 20
169.6141210729128
 30
0.0
 10
422.7516759936561
 20
169.5989959839026
 30
0.0
 10
422.7516779347573
 20
169.5989986807296
 30
0.0
  0
LINE
  5
21E
330
1F
100
AcDbEntity
  8
0
  6
Continuous
 62
     7
370
    25
100
AcDbLine
 10
422.7516779348
 20
169.5989986807
 30
0.0
 11
410.8323905553
 21
168.9743352985
 31
0.0
  0
LINE
  5
21F
330
1F
100
AcDbEntity
  8
0
  6
Continuous
 62
     7
370
    25
100
AcDbLine
 10
432.8854117442
 20
221.7192554955
 30
0.0
 11
410.8323905553
 21
222.8750053625
 31
0.0
  0
LINE
  5
220
330
1F
100
AcDbEntity
  8
0
  6
Continuous
 62
     7
370
    25
100
AcDbLine
 10
432.8854117442
 20
221.7192554955
 30
0.0
 11
432.8854117442
 21
212.9246703305
 31
0.0
  0
SPLINE
  5
221
330
1F
100
AcDbEntity
  8
0
  6
Continuous
 62
     7
370
    25
100
AcDbSpline
210
0.0
220
0.0
230
1.0
 70
    24
 71
     3
 72
    36
 73
    32
 74
     0
 42
0.00000001
 43
0.00000001
 40
0.0
 40
0.0
 40
0.0
 40
0.0
 40
0.0625
 40
0.0625
 40
0.125
 40
0.125
 40
0.1875
 40
0.1875
 40
0.25
 40
0.25
 40
0.3125
 40
0.3125
 40
0.375
 40
0.375
 40
0.4375
 40
0.4375
 40
0.5
 40
0.5
 40
0.5625
 40
0.5625
 40
0.625
 40
0.625
 40
0.6875
 40
0.6875
 40
0.75
 40
0.75
 40
0.8125
 40
0.8125
 40
0.875
 40
0.875
 40
1.0
 40
1.0
 40
1.0
 40
1.0
 10
423.1445962864105
 20
169.8355585424534
 30
0.0
 10
423.1445943453094
 20
169.8355559665253
 30
0.0
 10
423.1553395437735
 20
169.8498153265044
 30
0.0
 10
423.1982039678679
 20
169.9066983385306
 30
0.0
 10
423.230325011737
 20
169.9493244034621
 30
0.0
 10
423.3156200461967
 20
170.0625147372518
 30
0.0
 10
423.3687937923065
 20
170.133078681673
 30
0.0
 10
423.4956562001288
 20
170.3014307830319
 30
0.0
 10
423.5693444982172
 20
170.3992184574241
 30
0.0
 10
423.7364903556032
 20
170.6210285019235
 30
0.0
 10
423.8299474358147
 20
170.7450502362619
 30
0.0
 10
424.0356851262496
 20
171.0180733729657
 30
0.0
 10
424.1479651467746
 20
171.1670739927749
 30
0.0
 10
424.3902124812034
 20
171.48854706348
 30
0.0
 10
424.5201791007659
 20
171.6610185929537
 30
0.0
 10
424.7964843905981
 20
172.0276880970119
 30
0.0
 10
424.9428222689111
 20
172.2218850206342
 30
0.0
 10
425.2503891385822
 20
172.6300400423332
 30
0.0
 10
425.4116172483834
 20
172.8439969705447
 30
0.0
 10
425.7473329363559
 20
173.2895067358052
 30
0.0
 10
425.9218195522925
 20
173.521058295926
 30
0.0
 10
426.282286414073
 20
173.9994139782176
 30
0.0
 10
426.4682656267431
 20
174.2462167293203
 30
0.0
 10
426.8498355210867
 20
174.7525770816954
 30
0.0
 10
427.0454251091032
 20
175.0121332316356
 30
0.0
 10
427.4442363193948
 20
175.5413735830572
 30
0.0
 10
427.6474567985975
 20
175.8110562676304
 30
0.0
 10
428.059473115744
 20
176.3578203877228
 30
0.0
 10
428.2682668562218
 20
176.6348990398106
 30
0.0
 10
428.8998469628006
 20
177.4730341496844
 30
0.0
 10
429.3278230009796
 20
178.0409775349275
 30
0.0
 10
429.7541141243767
 20
178.6066849627344
 30
0.0
  0
LINE
  5
222
330
1F
100
AcDbEntity
  8
0
  6
Continuous
 62
     7
370
    25
100
AcDbLine
 10
422.7516779348
 20
169.5989986807
 30
0.0
 11
423.1445962864
 21
169.8355585425
 31
0.0
  0
LINE
  5
223
330
1F
100
AcDbEntity
  8
0
  6
Continuous
 62
     7
370
    25
100
AcDbLine
 10
429.3611957727
 20
178.9246703305
 30
0.0
 11
429.7541141244
 21
178.6066849627
 31
0.0
  0
LINE
  5
224
330
1F
100
AcDbEntity
  8
0
  6
Continuous
 62
     7
370
    25
100
AcDbLine
 10
429.7541141244
 20
178.6066849627
 30
0.0
 11
432.5792685518
 21
182.3557915159
 31
0.0
  0
SPLINE
  5
225
330
1F
100
AcDbEntity
  8
0
  6
Continuous
 62
     7
370
    25
100
AcDbSpline
210
0.0
220
0.0
230
1.0
 70
     8
 71
     3
 72
    10
 73
     6
 74
     0
 42
0.00000001
 43
0.00000001
 40
0.0
 40
0.0
 40
0.0
 40
0.0
 40
0.5
 40
0.5
 40
1.0
 40
1.0
 40
1.0
 40
1.0
 10
432.5792685517806
 20
182.3557915158987
 30
0.0
 10
432.8383722301252
 20
182.6996068854239
 30
0.0
 10
433.0414165121786
 20
183.0855648085409
 30
0.0
 10
433.314625752654
 20
183.9021011572322
 30
0.0
 10
433.3847426553305
 20
184.3325359593224
 30
0.0
 10
433.3847265115915
 20
184.7630516085069
 30
0.0
  0
LINE
  5
226
330
1F
100
AcDbEntity
  8
0
  6
Continuous
 62
     7
370
    25
100
AcDbLine
 10
433.3847265116
 20
184.7630516085
 30
0.0
 11
433.3847265116
 21
212.9246703305
 31
0.0
  0
LINE
  5
227
330
1F
100
AcDbEntity
  8
0
  6
Continuous
 62
     7
370
    25
100
AcDbLine
 10
433.3847265116
 20
212.9246703305
 30
0.0
 11
433.3847265116
 21
221.164710266
 31
0.0
  0
LINE
  5
228
330
1F
100
AcDbEntity
  8
0
  6
Continuous
 62
     7
370
    25
100
AcDbLine
 10
432.8854117442
 20
221.7192554955
 30
0.0
 11
433.3847265116
 21
221.164710266
 31
0.0
  0
LWPOLYLINE
  5
229
330
1F
100
AcDbEntity
  8
0
  6
Continuous
 62
     7
370
    25
100
AcDbPolyline
 90
        2
 70
   128
 43
0.0
 10
408.4051835081
 20
123.4019463259
 10
408.4051835081
 20
123.4019463259
  0
DIMENSION
  5
22A
330
1F
100
AcDbEntity
  8
SLD-0
 62
     7
100
AcDbDimension
  2
_D_2
 10
394.284726454
 20
98.6302404735
 30
0.0
 11
368.0966749069
 21
98.6302404767
 31
0.0
 70
   160
  1
<>
 71
     2
 42
-1.0
  3
SLDDIMSTYLE0
100
AcDbAlignedDimension
 13
413.3847265116
 23
206.9246703305
 33
0.0
 14
394.2847264567
 24
120.8096703363
 34
0.0
 50
-0.000000007
100
AcDbRotatedDimension
  0
DIMENSION
  5
23E
330
1F
100
AcDbEntity
  8
SLD-0
 62
     7
100
AcDbDimension
  2
_D_3
 10
374.2847264567
 20
116.3746703305
 30
0.0
 11
374.2847264567
 21
164.8676241305
 31
0.0
 70
   160
  1
<>
 71
     2
 42
-1.0
  3
SLDDIMSTYLE0
100
AcDbAlignedDimension
 13
411.3847265116
 23
208.9246703305
 33
0.0
 14
394.9847265116
 24
116.3746703305
 34
0.0
 50
90.0
100
AcDbRotatedDimension
  0
DIMENSION
  5
252
330
1F
100
AcDbEntity
  8
SLD-0
 62
     7
100
AcDbDimension
  2
_D_4
 10
394.2847264802
 20
313.8140312991
 30
0.0
 11
413.7119912221
 21
313.8140312967
 31
0.0
 70
   160
  1
<>
 71
     2
 42
-1.0
  3
SLDDIMSTYLE0
100
AcDbAlignedDimension
 13
433.3847265116
 23
212.9246703305
 33
0.0
 14
394.284726475
 24
271.0396725297
 34
0.0
 50
-0.000000007
100
AcDbRotatedDimension
  0
DIMENSION
  5
266
330
1F
100
AcDbEntity
  8
SLD-0
 62
     7
100
AcDbDimension
  2
_D_5
 10
409.8847265116
 20
295.4746953305
 30
0.0
 11
456.2018603702
 21
295.4746953305
 31
0.0
 70
   160
  1
(<>)
 71
     2
 42
-1.0
  3
SLDDIMSTYLE0
100
AcDbAlignedDimension
 13
433.3847265116
 23
221.164710266
 33
0.0
 14
409.8847265116
 24
263.4746703305
 34
0.0
100
AcDbRotatedDimension
  0
DIMENSION
  5
27C
330
1F
100
AcDbEntity
  8
SLD-0
 62
     7
100
AcDbDimension
  2
_D_6
 10
394.284726478
 20
295.4746953274
 30
0.0
 11
369.0622885098
 21
295.4746953305
 31
0.0
 70
   160
  1
<>
 71
     2
 42
-1.0
  3
SLDDIMSTYLE0
100
AcDbAlignedDimension
 13
409.8847265116
 23
263.4746703305
 33
0.0
 14
394.284726475
 24
271.0396725297
 34
0.0
 50
-0.000000007
100
AcDbRotatedDimension
  0
INSERT
  5
295
102
{ACAD_REACTORS
330
29C
102
}
330
1F
100
AcDbEntity
  8
SLD-0
100
AcDbBlockReference
  2
SW_NOTE_0_6
 10
370.2840646651
 20
225.8204878579
 30
0.0
  0
LEADER
  5
29C
330
1F
100
AcDbEntity
  8
SLD-0
100
AcDbLeader
  3
SLDDIMSTYLE1
 73
     2
 76
     3
 10
397.7015372879
 20
230.6830869069
 30
0.0
 10
374.2852531512
 20
225.8204878579
 30
0.0
 10
370.2840646651
 20
225.8204878579
 30
0.0
340
295
  0
INSERT
  5
2A5
102
{ACAD_REACTORS
330
2A7
102
}
330
1F
100
AcDbEntity
  8
SLD-0
100
AcDbBlockReference
  2
SW_NOTE_0_7
 10
453.1177829099
 20
182.4480369515
 30
0.0
  0
LEADER
  5
2A7
330
1F
100
AcDbEntity
  8
SLD-0
100
AcDbLeader
  3
SLDDIMSTYLE2
 73
     2
 76
     3
 10
414.1742110076
 20
207.6492432528
 30
0.0
 10
449.1177829099
 20
182.4480369515
 30
0.0
 10
453.1177829099
 20
182.4480369515
 30
0.0
340
2A5
  0
MTEXT
  5
2A8
330
1F
100
AcDbEntity
  8
SLD-0
100
AcDbMText
 10
398.1696925753
 20
83.6773997314
 30
0.0
 40
4.7625
 41
0.0
 71
     2
 72
     1
  1
TYPICAL VIEW BOTH SIDES
  7
SLDTEXTSTYLE0
 73
     1
 44
1.0
  0
INSERT
  5
2B0
330
1F
100
AcDbEntity
  8
SLD-0
 62
     7
100
AcDbBlockReference
  2
SW_CENTERMARKSYMBOL_0
 10
413.3847265116
 20
208.9246703305
 30
0.0
  0
SPLINE
  5
2B1
330
1F
100
AcDbEntity
  8
0
  6
Continuous
 62
     7
370
    25
100
AcDbSpline
210
0.0
220
0.0
230
1.0
 70
     8
 71
     3
 72
    10
 73
     6
 74
     0
 42
0.00000001
 43
0.00000001
 40
0.0
 40
0.0
 40
0.0
 40
0.0
 40
0.5
 40
0.5
 40
1.0
 40
1.0
 40
1.0
 40
1.0
 10
661.8370119621216
 20
184.7630516085069
 30
0.0
 10
661.8370112278234
 20
184.389404628169
 30
0.0
 10
661.8402004958211
 20
184.0158278154842
 30
0.0
 10
661.8526274207719
 20
183.3071512746833
 30
0.0
 10
661.8618628919088
 20
182.9721761982063
 30
0.0
 10
661.8736482252293
 20
182.6737768836631
 30
0.0
  0
LINE
  5
2B2
330
1F
100
AcDbEntity
  8
0
  6
Continuous
 62
     7
370
    25
100
AcDbLine
 10
661.8736482252
 20
182.6737768837
 30
0.0
 11
661.3191029957
 21
182.3557915159
 31
0.0
  0
SPLINE
  5
2B3
330
1F
100
AcDbEntity
  8
0
  6
Continuous
 62
     7
370
    25
100
AcDbSpline
210
0.0
220
0.0
230
1.0
 70
     8
 71
     3
 72
    20
 73
    16
 74
     0
 42
0.00000001
 43
0.00000001
 40
0.0
 40
0.0
 40
0.0
 40
0.0
 40
0.0795219697925968
 40
0.1586096062879272
 40
0.2372632190407353
 40
0.3154831227922084
 40
0.3932696375816642
 40
0.470623088861199
 40
0.5475438076133027
 40
0.6240321304715692
 40
0.7000883998446091
 40
0.7757129640432253
 40
0.850906177410989
 40
0.9256684004582956
 40
1.0
 40
1.0
 40
1.0
 40
1.0
 10
661.319102995741
 20
182.3557915158987
 30
0.0
 10
661.3172703007972
 20
182.4110731231285
 30
0.0
 10
661.3136149207274
 20
182.5213344003647
 30
0.0
 10
661.308656131357
 20
182.6938338848594
 30
0.0
 10
661.3041013043069
 20
182.870294336117
 30
0.0
 10
661.2999864053337
 20
183.0507487476395
 30
0.0
 10
661.2963018805755
 20
183.2345089787768
 30
0.0
 10
661.2930502541489
 20
183.4210840103173
 30
0.0
 10
661.2902309087602
 20
183.6099378846644
 30
0.0
 10
661.2878438099679
 20
183.800555875897
 30
0.0
 10
661.2858897005515
 20
183.9924286457554
 30
0.0
 10
661.2843656676545
 20
184.1850580836805
 30
0.0
 10
661.2832825323718
 20
184.3779572646166
 30
0.0
 10
661.2826002436076
 20
184.570651890995
 30
0.0
 10
661.2825111505164
 20
184.6990419778318
 30
0.0
 10
661.2824667326332
 20
184.7630516085069
 30
0.0
  0
LINE
  5
2B4
330
1F
100
AcDbEntity
  8
0
  6
Continuous
 62
     7
370
    25
100
AcDbLine
 10
661.8370119621
 20
184.7630516085
 30
0.0
 11
661.2824667326
 21
184.7630516085
 31
0.0
  0
LINE
  5
2B5
330
1F
100
AcDbEntity
  8
0
  6
Continuous
 62
     7
370
    25
100
AcDbLine
 10
661.2824667326
 20
184.7630516085
 30
0.0
 11
661.2824667326
 21
212.9246703305
 31
0.0
  0
LINE
  5
2B6
330
1F
100
AcDbEntity
  8
0
  6
Continuous
 62
     7
370
    25
100
AcDbLine
 10
661.8370119621
 20
212.9246703305
 30
0.0
 11
661.2824667326
 21
212.9246703305
 31
0.0
  0
LINE
  5
2B7
330
1F
100
AcDbEntity
  8
0
  6
Continuous
 62
     7
370
    25
100
AcDbLine
 10
661.8370119621
 20
212.9246703305
 30
0.0
 11
661.8370119621
 21
184.7630516085
 31
0.0
  0
SPLINE
  5
2B8
330
1F
100
AcDbEntity
  8
0
  6
Continuous
 62
     7
370
    25
100
AcDbSpline
210
0.0
220
0.0
230
1.0
 70
     8
 71
     3
 72
    10
 73
     6
 74
     0
 42
0.00000001
 43
0.00000001
 40
0.0
 40
0.0
 40
0.0
 40
0.0
 40
0.5
 40
0.5
 40
1.0
 40
1.0
 40
1.0
 40
1.0
 10
591.765750598562
 20
182.3557915158987
 30
0.0
 10
591.7775359318827
 20
182.6996068854239
 30
0.0
 10
591.7867714030194
 20
183.0855648085409
 30
0.0
 10
591.7991983279702
 20
183.9021011572322
 30
0.0
 10
591.802387595968
 20
184.3325359593224
 30
0.0
 10
591.8023868616699
 20
184.7630516085069
 30
0.0
  0
LINE
  5
2B9
330
1F
100
AcDbEntity
  8
0
  6
Continuous
 62
     7
370
    25
100
AcDbLine
 10
591.8023868617
 20
184.7630516085
 30
0.0
 11
661.2824667326
 21
184.7630516085
 31
0.0
  0
LINE
  5
2BA
330
1F
100
AcDbEntity
  8
0
  6
Continuous
 62
     7
370
    25
100
AcDbLine
 10
661.3191029957
 20
182.3557915159
 30
0.0
 11
591.7657505986
 21
182.3557915159
 31
0.0
  0
ARC
  5
2BB
330
1F
100
AcDbEntity
  8
0
  6
Continuous
 62
     7
370
    25
100
AcDbCircle
 10
653.8424267972
 20
202.8746703305
 30
0.0
 40
1.0
100
AcDbArc
 50
0.0
 51
90.0
  0
LINE
  5
2BC
330
1F
100
AcDbEntity
  8
0
  6
Continuous
 62
     7
370
    25
100
AcDbLine
 10
653.8424267972
 20
203.8746703305
 30
0.0
 11
652.0424267972
 21
203.8746703305
 31
0.0
  0
ARC
  5
2BD
330
1F
100
AcDbEntity
  8
0
  6
Continuous
 62
     7
370
    25
100
AcDbCircle
 10
652.0424267972
 20
202.8746703305
 30
0.0
 40
1.0
100
AcDbArc
 50
90.0
 51
180.0
  0
LINE
  5
2BE
330
1F
100
AcDbEntity
  8
0
  6
Continuous
 62
     7
370
    25
100
AcDbLine
 10
651.0424267972
 20
202.8746703305
 30
0.0
 11
651.0424267972
 21
195.2746703305
 31
0.0
  0
ARC
  5
2BF
330
1F
100
AcDbEntity
  8
0
  6
Continuous
 62
     7
370
    25
100
AcDbCircle
 10
652.0424267972
 20
195.2746703305
 30
0.0
 40
1.0
100
AcDbArc
 50
180.0
 51
270.0
  0
LINE
  5
2C0
330
1F
100
AcDbEntity
  8
0
  6
Continuous
 62
     7
370
    25
100
AcDbLine
 10
652.0424267972
 20
194.2746703305
 30
0.0
 11
653.8424267972
 21
194.2746703305
 31
0.0
  0
ARC
  5
2C1
330
1F
100
AcDbEntity
  8
0
  6
Continuous
 62
     7
370
    25
100
AcDbCircle
 10
653.8424267972
 20
195.2746703305
 30
0.0
 40
1.0
100
AcDbArc
 50
270.0
 51
0.0
  0
LINE
  5
2C2
330
1F
100
AcDbEntity
  8
0
  6
Continuous
 62
     7
370
    25
100
AcDbLine
 10
654.8424267972
 20
195.2746703305
 30
0.0
 11
654.8424267972
 21
202.8746703305
 31
0.0
  0
LINE
  5
2C3
330
1F
100
AcDbEntity
  8
0
  6
Continuous
 62
     7
370
    25
100
AcDbLine
 10
653.0424267972
 20
221.164710266
 30
0.0
 11
600.0424267972
 21
221.164710266
 31
0.0
  0
ARC
  5
2C4
330
1F
100
AcDbEntity
  8
0
  6
Continuous
 62
     7
370
    25
100
AcDbCircle
 10
653.0424267972
 20
212.9246703305
 30
0.0
 40
8.240039935481747
100
AcDbArc
 50
0.0
 51
90.0
  0
LINE
  5
2C5
330
1F
100
AcDbEntity
  8
0
  6
Continuous
 62
     7
370
    25
100
AcDbLine
 10
591.8023868617
 20
184.7630516085
 30
0.0
 11
591.8023868617
 21
212.9246703305
 31
0.0
  0
ARC
  5
2C6
330
1F
100
AcDbEntity
  8
0
  6
Continuous
 62
     7
370
    25
100
AcDbCircle
 10
600.0424267972
 20
212.9246703305
 30
0.0
 40
8.240039935481747
100
AcDbArc
 50
90.0
 51
180.0
  0
ARC
  5
2C7
330
1F
100
AcDbEntity
  8
0
  6
Continuous
 62
     7
370
    25
100
AcDbCircle
 10
625.0424267972
 20
209.4246703305
 30
0.0
 40
0.8000000000000682
100
AcDbArc
 50
90.0
 51
180.0
  0
LINE
  5
2C8
330
1F
100
AcDbEntity
  8
0
  6
Continuous
 62
     7
370
    25
100
AcDbLine
 10
624.2424267972
 20
209.4246703305
 30
0.0
 11
624.2424267972
 21
188.7246703305
 31
0.0
  0
ARC
  5
2C9
330
1F
100
AcDbEntity
  8
0
  6
Continuous
 62
     7
370
    25
100
AcDbCircle
 10
625.0424267972
 20
188.7246703305
 30
0.0
 40
0.8000000000000682
100
AcDbArc
 50
180.0
 51
270.0
  0
LINE
  5
2CA
330
1F
100
AcDbEntity
  8
0
  6
Continuous
 62
     7
370
    25
100
AcDbLine
 10
625.0424267972
 20
187.9246703305
 30
0.0
 11
643.7487055645
 21
187.9246703305
 31
0.0
  0
ARC
  5
2CB
330
1F
100
AcDbEntity
  8
0
  6
Continuous
 62
     7
370
    25
100
AcDbCircle
 10
643.7487055645
 20
188.7246703305
 30
0.0
 40
0.8000000000000682
100
AcDbArc
 50
270.0
 51
0.0
  0
LINE
  5
2CC
330
1F
100
AcDbEntity
  8
0
  6
Continuous
 62
     7
370
    25
100
AcDbLine
 10
644.5487055645
 20
188.7246703305
 30
0.0
 11
644.5487055645
 21
209.4246703305
 31
0.0
  0
ARC
  5
2CD
330
1F
100
AcDbEntity
  8
0
  6
Continuous
 62
     7
370
    25
100
AcDbCircle
 10
643.7487055645
 20
209.4246703305
 30
0.0
 40
0.8000000000000682
100
AcDbArc
 50
0.0
 51
90.0
  0
LINE
  5
2CE
330
1F
100
AcDbEntity
  8
0
  6
Continuous
 62
     7
370
    25
100
AcDbLine
 10
643.7487055645
 20
210.2246703305
 30
0.0
 11
625.0424267972
 21
210.2246703305
 31
0.0
  0
LINE
  5
2CF
330
1F
100
AcDbEntity
  8
0
  6
Continuous
 62
     7
370
    25
100
AcDbLine
 10
591.2112053691
 20
182.6737768837
 30
0.0
 11
591.7657505986
 21
182.3557915159
 31
0.0
  0
SPLINE
  5
2D0
330
1F
100
AcDbEntity
  8
0
  6
Continuous
 62
     7
370
    25
100
AcDbSpline
210
0.0
220
0.0
230
1.0
 70
     8
 71
     3
 72
    10
 73
     6
 74
     0
 42
0.00000001
 43
0.00000001
 40
0.0
 40
0.0
 40
0.0
 40
0.0
 40
0.5
 40
0.5
 40
1.0
 40
1.0
 40
1.0
 40
1.0
 10
591.2478416321816
 20
184.7630516085069
 30
0.0
 10
591.2478423664797
 20
184.389404628169
 30
0.0
 10
591.244653098482
 20
184.0158278154842
 30
0.0
 10
591.2322261735312
 20
183.3071512746833
 30
0.0
 10
591.2229907023943
 20
182.9721761982063
 30
0.0
 10
591.2112053690738
 20
182.6737768836631
 30
0.0
  0
LINE
  5
2D1
330
1F
100
AcDbEntity
  8
0
  6
Continuous
 62
     7
370
    25
100
AcDbLine
 10
591.2478416322
 20
184.7630516085
 30
0.0
 11
591.8023868617
 21
184.7630516085
 31
0.0
  0
LINE
  5
2D2
330
1F
100
AcDbEntity
  8
0
  6
Continuous
 62
     7
370
    25
100
AcDbLine
 10
653.0424267972
 20
221.7192554955
 30
0.0
 11
653.0424267972
 21
221.164710266
 31
0.0
  0
ARC
  5
2D3
330
1F
100
AcDbEntity
  8
0
  6
Continuous
 62
     7
370
    25
100
AcDbCircle
 10
653.0424267972
 20
212.9246703305
 30
0.0
 40
8.794585164969988
100
AcDbArc
 50
0.0
 51
90.0
  0
LINE
  5
2D4
330
1F
100
AcDbEntity
  8
0
  6
Continuous
 62
     7
370
    25
100
AcDbLine
 10
600.0424267972
 20
221.7192554955
 30
0.0
 11
600.0424267972
 21
221.164710266
 31
0.0
  0
LINE
  5
2D5
330
1F
100
AcDbEntity
  8
0
  6
Continuous
 62
     7
370
    25
100
AcDbLine
 10
600.0424267972
 20
221.7192554955
 30
0.0
 11
653.0424267972
 21
221.7192554955
 31
0.0
  0
ARC
  5
2D6
330
1F
100
AcDbEntity
  8
0
  6
Continuous
 62
     7
370
    25
100
AcDbCircle
 10
625.0424267972
 20
188.7246703305
 30
0.0
 40
0.3000000000000682
100
AcDbArc
 50
180.0
 51
270.0
  0
LINE
  5
2D7
330
1F
100
AcDbEntity
  8
0
  6
Continuous
 62
     7
370
    25
100
AcDbLine
 10
624.7424267972
 20
209.4246703305
 30
0.0
 11
624.7424267972
 21
188.7246703305
 31
0.0
  0
ARC
  5
2D8
330
1F
100
AcDbEntity
  8
0
  6
Continuous
 62
     7
370
    25
100
AcDbCircle
 10
625.0424267972
 20
209.4246703305
 30
0.0
 40
0.3000000000000682
100
AcDbArc
 50
90.0
 51
180.0
  0
LINE
  5
2D9
330
1F
100
AcDbEntity
  8
0
  6
Continuous
 62
     7
370
    25
100
AcDbLine
 10
631.9124267971
 20
209.7246703305
 30
0.0
 11
625.0424267972
 21
209.7246703305
 31
0.0
  0
LINE
  5
2DA
330
1F
100
AcDbEntity
  8
0
  6
Continuous
 62
     7
370
    25
100
AcDbLine
 10
631.9124267971
 20
209.7246703305
 30
0.0
 11
631.9124267971
 21
208.0896703305
 31
0.0
  0
ARC
  5
2DB
330
1F
100
AcDbEntity
  8
0
  6
Continuous
 62
     7
370
    25
100
AcDbCircle
 10
631.8124267971
 20
208.0896703305
 30
0.0
 40
0.1000000000000227
100
AcDbArc
 50
270.0
 51
0.0
  0
LINE
  5
2DC
330
1F
100
AcDbEntity
  8
0
  6
Continuous
 62
     7
370
    25
100
AcDbLine
 10
631.8124267971
 20
207.9896703305
 30
0.0
 11
630.9924267971
 21
207.9896703305
 31
0.0
  0
ARC
  5
2DD
330
1F
100
AcDbEntity
  8
0
  6
Continuous
 62
     7
370
    25
100
AcDbCircle
 10
630.9924267971
 20
207.8396703305
 30
0.0
 40
0.1500000000000057
100
AcDbArc
 50
90.0
 51
180.0
  0
LINE
  5
2DE
330
1F
100
AcDbEntity
  8
0
  6
Continuous
 62
     7
370
    25
100
AcDbLine
 10
630.8424267971
 20
207.8396703305
 30
0.0
 11
630.8424267971
 21
206.4896703305
 31
0.0
  0
ARC
  5
2DF
330
1F
100
AcDbEntity
  8
0
  6
Continuous
 62
     7
370
    25
100
AcDbCircle
 10
630.6924267971
 20
206.4896703305
 30
0.0
 40
0.1500000000000057
100
AcDbArc
 50
270.0
 51
0.0
  0
LINE
  5
2E0
330
1F
100
AcDbEntity
  8
0
  6
Continuous
 62
     7
370
    25
100
AcDbLine
 10
630.6924267971
 20
206.3396703305
 30
0.0
 11
627.9424267971
 21
206.3396703305
 31
0.0
  0
ARC
  5
2E1
330
1F
100
AcDbEntity
  8
0
  6
Continuous
 62
     7
370
    25
100
AcDbCircle
 10
627.9424267971
 20
206.1896703305
 30
0.0
 40
0.1500000000000341
100
AcDbArc
 50
90.0
 51
180.0
  0
LINE
  5
2E2
330
1F
100
AcDbEntity
  8
0
  6
Continuous
 62
     7
370
    25
100
AcDbLine
 10
627.7924267971
 20
206.1896703305
 30
0.0
 11
627.7924267971
 21
198.9746703305
 31
0.0
  0
LINE
  5
2E3
330
1F
100
AcDbEntity
  8
0
  6
Continuous
 62
     7
370
    25
100
AcDbLine
 10
627.7924267971
 20
198.9746703305
 30
0.0
 11
640.4924267971
 21
198.9746703305
 31
0.0
  0
LINE
  5
2E4
330
1F
100
AcDbEntity
  8
0
  6
Continuous
 62
     7
370
    25
100
AcDbLine
 10
640.4924267971
 20
198.9746703305
 30
0.0
 11
640.4924267971
 21
206.1896703305
 31
0.0
  0
ARC
  5
2E5
330
1F
100
AcDbEntity
  8
0
  6
Continuous
 62
     7
370
    25
100
AcDbCircle
 10
640.3424267971
 20
206.1896703305
 30
0.0
 40
0.1499999999999773
100
AcDbArc
 50
0.0
 51
90.0
  0
LINE
  5
2E6
330
1F
100
AcDbEntity
  8
0
  6
Continuous
 62
     7
370
    25
100
AcDbLine
 10
640.3424267971
 20
206.3396703305
 30
0.0
 11
637.5924267971
 21
206.3396703305
 31
0.0
  0
ARC
  5
2E7
330
1F
100
AcDbEntity
  8
0
  6
Continuous
 62
     7
370
    25
100
AcDbCircle
 10
637.5924267971
 20
206.4896703305
 30
0.0
 40
0.1500000000000057
100
AcDbArc
 50
180.0
 51
270.0
  0
LINE
  5
2E8
330
1F
100
AcDbEntity
  8
0
  6
Continuous
 62
     7
370
    25
100
AcDbLine
 10
637.4424267971
 20
206.4896703305
 30
0.0
 11
637.4424267971
 21
207.8396703305
 31
0.0
  0
ARC
  5
2E9
330
1F
100
AcDbEntity
  8
0
  6
Continuous
 62
     7
370
    25
100
AcDbCircle
 10
637.2924267971
 20
207.8396703305
 30
0.0
 40
0.1500000000000909
100
AcDbArc
 50
0.0
 51
90.0
  0
LINE
  5
2EA
330
1F
100
AcDbEntity
  8
0
  6
Continuous
 62
     7
370
    25
100
AcDbLine
 10
637.2924267971
 20
207.9896703305
 30
0.0
 11
636.4724267971
 21
207.9896703305
 31
0.0
  0
ARC
  5
2EB
330
1F
100
AcDbEntity
  8
0
  6
Continuous
 62
     7
370
    25
100
AcDbCircle
 10
636.4724267971
 20
208.0896703305
 30
0.0
 40
0.1000000000000227
100
AcDbArc
 50
180.0
 51
270.0
  0
LINE
  5
2EC
330
1F
100
AcDbEntity
  8
0
  6
Continuous
 62
     7
370
    25
100
AcDbLine
 10
636.3724267971
 20
208.0896703305
 30
0.0
 11
636.3724267971
 21
209.7246703305
 31
0.0
  0
LINE
  5
2ED
330
1F
100
AcDbEntity
  8
0
  6
Continuous
 62
     7
370
    25
100
AcDbLine
 10
643.7487055645
 20
209.7246703305
 30
0.0
 11
636.3724267971
 21
209.7246703305
 31
0.0
  0
LINE
  5
2EE
330
1F
100
AcDbEntity
  8
0
  6
Continuous
 62
     7
370
    25
100
AcDbLine
 10
625.0424267972
 20
188.4246703305
 30
0.0
 11
643.7487055645
 21
188.4246703305
 31
0.0
  0
ARC
  5
2EF
330
1F
100
AcDbEntity
  8
0
  6
Continuous
 62
     7
370
    25
100
AcDbCircle
 10
629.9424267971
 20
206.9396703305
 30
0.0
 40
0.1500000000000057
100
AcDbArc
 50
270.0
 51
0.0
  0
LINE
  5
2F0
330
1F
100
AcDbEntity
  8
0
  6
Continuous
 62
     7
370
    25
100
AcDbLine
 10
630.0924267971
 20
206.9396703305
 30
0.0
 11
630.0924267971
 21
208.0396703305
 31
0.0
  0
ARC
  5
2F1
330
1F
100
AcDbEntity
  8
0
  6
Continuous
 62
     7
370
    25
100
AcDbCircle
 10
629.9424267971
 20
208.0396703305
 30
0.0
 40
0.1499999999999773
100
AcDbArc
 50
0.0
 51
90.0
  0
LINE
  5
2F2
330
1F
100
AcDbEntity
  8
0
  6
Continuous
 62
     7
370
    25
100
AcDbLine
 10
629.9424267971
 20
208.1896703305
 30
0.0
 11
627.6424267971
 21
208.1896703305
 31
0.0
  0
ARC
  5
2F3
330
1F
100
AcDbEntity
  8
0
  6
Continuous
 62
     7
370
    25
100
AcDbCircle
 10
627.6424267971
 20
208.0396703305
 30
0.0
 40
0.1500000000000057
100
AcDbArc
 50
90.0
 51
180.0
  0
LINE
  5
2F4
330
1F
100
AcDbEntity
  8
0
  6
Continuous
 62
     7
370
    25
100
AcDbLine
 10
627.4924267971
 20
208.0396703305
 30
0.0
 11
627.4924267971
 21
206.9396703305
 31
0.0
  0
ARC
  5
2F5
330
1F
100
AcDbEntity
  8
0
  6
Continuous
 62
     7
370
    25
100
AcDbCircle
 10
627.6424267971
 20
206.9396703305
 30
0.0
 40
0.1500000000000057
100
AcDbArc
 50
180.0
 51
270.0
  0
LINE
  5
2F6
330
1F
100
AcDbEntity
  8
0
  6
Continuous
 62
     7
370
    25
100
AcDbLine
 10
627.6424267971
 20
206.7896703305
 30
0.0
 11
629.9424267971
 21
206.7896703305
 31
0.0
  0
ARC
  5
2F7
330
1F
100
AcDbEntity
  8
0
  6
Continuous
 62
     7
370
    25
100
AcDbCircle
 10
638.3424267971
 20
208.0396703305
 30
0.0
 40
0.1500000000000909
100
AcDbArc
 50
90.0
 51
180.0
  0
LINE
  5
2F8
330
1F
100
AcDbEntity
  8
0
  6
Continuous
 62
     7
370
    25
100
AcDbLine
 10
638.1924267971
 20
208.0396703305
 30
0.0
 11
638.1924267971
 21
206.9396703305
 31
0.0
  0
ARC
  5
2F9
330
1F
100
AcDbEntity
  8
0
  6
Continuous
 62
     7
370
    25
100
AcDbCircle
 10
638.3424267971
 20
206.9396703305
 30
0.0
 40
0.1499999999999773
100
AcDbArc
 50
180.0
 51
270.0
  0
LINE
  5
2FA
330
1F
100
AcDbEntity
  8
0
  6
Continuous
 62
     7
370
    25
100
AcDbLine
 10
638.3424267971
 20
206.7896703305
 30
0.0
 11
640.6424267971
 21
206.7896703305
 31
0.0
  0
ARC
  5
2FB
330
1F
100
AcDbEntity
  8
0
  6
Continuous
 62
     7
370
    25
100
AcDbCircle
 10
640.6424267971
 20
206.9396703305
 30
0.0
 40
0.1500000000000057
100
AcDbArc
 50
270.0
 51
360.0
  0
LINE
  5
2FC
330
1F
100
AcDbEntity
  8
0
  6
Continuous
 62
     7
370
    25
100
AcDbLine
 10
640.7924267971
 20
206.9396703305
 30
0.0
 11
640.7924267971
 21
208.0396703305
 31
0.0
  0
ARC
  5
2FD
330
1F
100
AcDbEntity
  8
0
  6
Continuous
 62
     7
370
    25
100
AcDbCircle
 10
640.6424267971
 20
208.0396703305
 30
0.0
 40
0.1500000000000057
100
AcDbArc
 50
0.0
 51
90.0
  0
LINE
  5
2FE
330
1F
100
AcDbEntity
  8
0
  6
Continuous
 62
     7
370
    25
100
AcDbLine
 10
640.6424267971
 20
208.1896703305
 30
0.0
 11
638.3424267971
 21
208.1896703305
 31
0.0
  0
ARC
  5
2FF
330
1F
100
AcDbEntity
  8
0
  6
Continuous
 62
     7
370
    25
100
AcDbCircle
 10
643.7487055645
 20
188.7246703305
 30
0.0
 40
0.3000000000000682
100
AcDbArc
 50
270.0
 51
0.0
  0
ARC
  5
300
330
1F
100
AcDbEntity
  8
0
  6
Continuous
 62
     7
370
    25
100
AcDbCircle
 10
643.7487055645
 20
209.4246703305
 30
0.0
 40
0.3000000000000682
100
AcDbArc
 50
0.0
 51
90.0
  0
LINE
  5
301
330
1F
100
AcDbEntity
  8
0
  6
Continuous
 62
     7
370
    25
100
AcDbLine
 10
644.0487055645
 20
209.4246703305
 30
0.0
 11
644.0487055645
 21
188.7246703305
 31
0.0
  0
LINE
  5
302
330
1F
100
AcDbEntity
  8
0
  6
Continuous
 62
     7
370
    25
100
AcDbLine
 10
591.2478416322
 20
212.9246703305
 30
0.0
 11
591.8023868617
 21
212.9246703305
 31
0.0
  0
ARC
  5
303
330
1F
100
AcDbEntity
  8
0
  6
Continuous
 62
     7
370
    25
100
AcDbCircle
 10
600.0424267972
 20
212.9246703305
 30
0.0
 40
8.794585164970044
100
AcDbArc
 50
90.0
 51
180.0
  0
LINE
  5
304
330
1F
100
AcDbEntity
  8
0
  6
Continuous
 62
     7
370
    25
100
AcDbLine
 10
591.2478416322
 20
212.9246703305
 30
0.0
 11
591.2478416322
 21
184.7630516085
 31
0.0
  0
LINE
  5
305
330
1F
100
AcDbEntity
  8
0
  6
Continuous
 62
     7
370
    25
100
AcDbLine
 10
662.9927618291
 20
178.9246703305
 30
0.0
 11
662.9927618291
 21
212.9246703305
 31
0.0
  0
LINE
  5
306
330
1F
100
AcDbEntity
  8
0
  6
Continuous
 62
     7
370
    25
100
AcDbLine
 10
662.0217082949
 20
178.9246703305
 30
0.0
 11
662.9927618291
 21
178.9246703305
 31
0.0
  0
LINE
  5
307
330
1F
100
AcDbEntity
  8
0
  6
Continuous
 62
     7
370
    25
100
AcDbLine
 10
661.8736482252
 20
182.6737768837
 30
0.0
 11
662.0217082949
 21
178.9246703305
 31
0.0
  0
LINE
  5
308
330
1F
100
AcDbEntity
  8
0
  6
Continuous
 62
     7
370
    25
100
AcDbLine
 10
661.8370119621
 20
212.9246703305
 30
0.0
 11
662.9927618291
 21
212.9246703305
 31
0.0
  0
ELLIPSE
  5
309
330
1F
100
AcDbEntity
  8
0
  6
Continuous
 62
     7
370
    25
100
AcDbEllipse
 10
662.8589995697
 20
208.9246703305
 30
0.0
 11
0.0
 21
1.5
 31
0.0
210
0.0
220
0.0
230
1.0
 40
0.0524077793
 41
0.0
 42
6.283185307179586
  0
LINE
  5
30A
330
1F
100
AcDbEntity
  8
0
  6
Continuous
 62
     7
370
    25
100
AcDbLine
 10
591.0631452994
 20
178.9246703305
 30
0.0
 11
590.0920917652
 21
178.9246703305
 31
0.0
  0
LINE
  5
30B
330
1F
100
AcDbEntity
  8
0
  6
Continuous
 62
     7
370
    25
100
AcDbLine
 10
590.0920917652
 20
212.9246703305
 30
0.0
 11
590.0920917652
 21
178.9246703305
 31
0.0
  0
LINE
  5
30C
330
1F
100
AcDbEntity
  8
0
  6
Continuous
 62
     7
370
    25
100
AcDbLine
 10
591.2478416322
 20
212.9246703305
 30
0.0
 11
590.0920917652
 21
212.9246703305
 31
0.0
  0
LINE
  5
30D
330
1F
100
AcDbEntity
  8
0
  6
Continuous
 62
     7
370
    25
100
AcDbLine
 10
591.2112053691
 20
182.6737768837
 30
0.0
 11
591.0631452994
 21
178.9246703305
 31
0.0
  0
ELLIPSE
  5
30E
330
1F
100
AcDbEntity
  8
0
  6
Continuous
 62
     7
370
    25
100
AcDbEllipse
 10
590.2258540246
 20
208.9246703305
 30
0.0
 11
0.0
 21
1.5
 31
0.0
210
0.0
220
0.0
230
1.0
 40
0.0524077793
 41
0.0
 42
6.283185307179586
  0
ARC
  5
30F
330
1F
100
AcDbEntity
  8
0
  6
Continuous
 62
     7
370
    25
100
AcDbCircle
 10
653.0424267972
 20
212.9246703305
 30
0.0
 40
9.950335031960321
100
AcDbArc
 50
0.0
 51
90.0
  0
LINE
  5
310
330
1F
100
AcDbEntity
  8
0
  6
Continuous
 62
     7
370
    25
100
AcDbLine
 10
653.0424267972
 20
221.7192554955
 30
0.0
 11
653.0424267972
 21
222.8750053625
 31
0.0
  0
LINE
  5
311
330
1F
100
AcDbEntity
  8
0
  6
Continuous
 62
     7
370
    25
100
AcDbLine
 10
653.0424267972
 20
222.8750053625
 30
0.0
 11
600.0424267972
 21
222.8750053625
 31
0.0
  0
LINE
  5
312
330
1F
100
AcDbEntity
  8
0
  6
Continuous
 62
     7
370
    25
100
AcDbLine
 10
600.0424267972
 20
221.7192554955
 30
0.0
 11
600.0424267972
 21
222.8750053625
 31
0.0
  0
ARC
  5
313
330
1F
100
AcDbEntity
  8
0
  6
Continuous
 62
     7
370
    25
100
AcDbCircle
 10
600.0424267972
 20
212.9246703305
 30
0.0
 40
9.950335031960321
100
AcDbArc
 50
90.0
 51
180.0
  0
LINE
  5
314
330
1F
100
AcDbEntity
  8
0
  6
Continuous
 62
     7
370
    25
100
AcDbLine
 10
636.3724267971
 20
209.7246703305
 30
0.0
 11
631.9124267971
 21
209.7246703305
 31
0.0
  0
LINE
  5
315
330
1F
100
AcDbEntity
  8
0
  6
Continuous
 62
     7
370
    25
100
AcDbLine
 10
662.0217082949
 20
178.9246703305
 30
0.0
 11
661.4671630654
 21
178.6066849627
 31
0.0
  0
LINE
  5
316
330
1F
100
AcDbEntity
  8
0
  6
Continuous
 62
     7
370
    25
100
AcDbLine
 10
661.4671630654
 20
178.6066849627
 30
0.0
 11
661.3191029957
 21
182.3557915159
 31
0.0
  0
SPLINE
  5
317
330
1F
100
AcDbEntity
  8
0
  6
Continuous
 62
     7
370
    25
100
AcDbSpline
210
0.0
220
0.0
230
1.0
 70
     8
 71
     3
 72
    36
 73
    32
 74
     0
 42
0.00000001
 43
0.00000001
 40
0.0
 40
0.0
 40
0.0
 40
0.0
 40
0.0009640604842953
 40
0.0009640604842953
 40
0.0019281209685906
 40
0.0019281209685906
 40
0.0028921814528859
 40
0.0028921814528859
 40
0.0038562419371811
 40
0.0038562419371811
 40
0.0048203024214764
 40
0.0048203024214764
 40
0.0057843629057717
 40
0.0057843629057717
 40
0.006748423390067
 40
0.006748423390067
 40
0.0077124838743623
 40
0.0077124838743623
 40
0.0086765443586575
 40
0.0086765443586575
 40
0.0096406048429528
 40
0.0096406048429528
 40
0.0106046653272481
 40
0.0106046653272481
 40
0.0115687258115434
 40
0.0115687258115434
 40
0.0125327862958387
 40
0.0125327862958387
 40
0.0134968467801339
 40
0.0134968467801339
 40
0.0154249677487245
 40
0.0154249677487245
 40
0.0154249677487245
 40
0.0154249677487245
 10
653.0424267971516
 20
169.8355585424534
 30
0.0
 10
653.3252796857049
 20
169.8355559665255
 30
0.0
 10
653.6081317635519
 20
169.8498153265047
 30
0.0
 10
654.1709748994966
 20
169.9066983385309
 30
0.0
 10
654.4509643443331
 20
169.9493244034623
 30
0.0
 10
655.0052485283314
 20
170.062514737252
 30
0.0
 10
655.2795416787495
 20
170.1330786816732
 30
0.0
 10
655.8196572217906
 20
170.3014307830321
 30
0.0
 10
656.0854780662864
 20
170.3992184574243
 30
0.0
 10
656.6059586745199
 20
170.6210285019237
 30
0.0
 10
656.8606169464158
 20
170.7450502362621
 30
0.0
 10
657.3561950433304
 20
171.0180733729658
 30
0.0
 10
657.5971134478914
 20
171.167073992775
 30
0.0
 10
658.0627734853548
 20
171.4885470634802
 30
0.0
 10
658.2875137835587
 20
171.6610185929538
 30
0.0
 10
658.718543002178
 20
172.0276880970121
 30
0.0
 10
658.9248306871605
 20
172.2218850206343
 30
0.0
 10
659.3168668122389
 20
172.6300400423333
 30
0.0
 10
659.5026141286697
 20
172.8439969705447
 30
0.0
 10
659.8516895190484
 20
173.2895067358052
 30
0.0
 10
660.0150165924696
 20
173.521058295926
 30
0.0
 10
660.3175983954394
 20
173.9994139782175
 30
0.0
 10
660.4568522577246
 20
174.2462167293203
 30
0.0
 10
660.7098781636189
 20
174.7525770816954
 30
0.0
 10
660.8236494820043
 20
175.0121332316355
 30
0.0
 10
661.0245587166132
 20
175.5413735830571
 30
0.0
 10
661.1116960569911
 20
175.8110562676303
 30
0.0
 10
661.2584552981347
 20
176.3578203877226
 30
0.0
 10
661.3180774492258
 20
176.6348990398104
 30
0.0
 10
661.4547613702834
 20
177.4730341496842
 30
0.0
 10
661.4895451219473
 20
178.0409775349272
 30
0.0
 10
661.4671630654129
 20
178.6066849627344
 30
0.0
  0
LINE
  5
318
330
1F
100
AcDbEntity
  8
0
  6
Continuous
 62
     7
370
    25
100
AcDbLine
 10
600.0424267972
 20
169.8355585425
 30
0.0
 11
653.0424267972
 21
169.8355585425
 31
0.0
  0
SPLINE
  5
319
330
1F
100
AcDbEntity
  8
0
  6
Continuous
 62
     7
370
    25
100
AcDbSpline
210
0.0
220
0.0
230
1.0
 70
     8
 71
     3
 72
    36
 73
    32
 74
     0
 42
0.00000001
 43
0.00000001
 40
0.0
 40
0.0
 40
0.0
 40
0.0
 40
0.0625
 40
0.0625
 40
0.125
 40
0.125
 40
0.1875
 40
0.1875
 40
0.25
 40
0.25
 40
0.3125
 40
0.3125
 40
0.375
 40
0.375
 40
0.4375
 40
0.4375
 40
0.5
 40
0.5
 40
0.5625
 40
0.5625
 40
0.625
 40
0.625
 40
0.6875
 40
0.6875
 40
0.75
 40
0.75
 40
0.8125
 40
0.8125
 40
0.875
 40
0.875
 40
1.0
 40
1.0
 40
1.0
 40
1.0
 10
600.0424267971516
 20
169.8355585424534
 30
0.0
 10
599.7595739085983
 20
169.8355559665253
 30
0.0
 10
599.4767218307512
 20
169.8498153265044
 30
0.0
 10
598.9138786948065
 20
169.9066983385306
 30
0.0
 10
598.6338892499699
 20
169.9493244034621
 30
0.0
 10
598.0796050659716
 20
170.0625147372518
 30
0.0
 10
597.8053119155534
 20
170.133078681673
 30
0.0
 10
597.2651963725124
 20
170.3014307830319
 30
0.0
 10
596.9993755280166
 20
170.3992184574241
 30
0.0
 10
596.4788949197831
 20
170.6210285019235
 30
0.0
 10
596.2242366478871
 20
170.7450502362619
 30
0.0
 10
595.7286585509725
 20
171.0180733729657
 30
0.0
 10
595.4877401464115
 20
171.1670739927749
 30
0.0
 10
595.0220801089481
 20
171.48854706348
 30
0.0
 10
594.7973398107442
 20
171.6610185929537
 30
0.0
 10
594.3663105921249
 20
172.0276880970119
 30
0.0
 10
594.1600229071424
 20
172.2218850206342
 30
0.0
 10
593.7679867820639
 20
172.6300400423332
 30
0.0
 10
593.582239465633
 20
172.8439969705447
 30
0.0
 10
593.2331640752544
 20
173.2895067358052
 30
0.0
 10
593.0698370018331
 20
173.521058295926
 30
0.0
 10
592.7672551988634
 20
173.9994139782176
 30
0.0
 10
592.6280013365781
 20
174.2462167293203
 30
0.0
 10
592.3749754306838
 20
174.7525770816954
 30
0.0
 10
592.2612041122984
 20
175.0121332316356
 30
0.0
 10
592.0602948776894
 20
175.5413735830572
 30
0.0
 10
591.9731575373115
 20
175.8110562676304
 30
0.0
 10
591.8263982961679
 20
176.3578203877228
 30
0.0
 10
591.7667761450767
 20
176.6348990398106
 30
0.0
 10
591.6300922240191
 20
177.4730341496844
 30
0.0
 10
591.5953084723552
 20
178.0409775349275
 30
0.0
 10
591.6176905288901
 20
178.6066849627344
 30
0.0
  0
LINE
  5
31A
330
1F
100
AcDbEntity
  8
0
  6
Continuous
 62
     7
370
    25
100
AcDbLine
 10
591.6176905289
 20
178.6066849627
 30
0.0
 11
591.7657505986
 21
182.3557915159
 31
0.0
  0
LINE
  5
31B
330
1F
100
AcDbEntity
  8
0
  6
Continuous
 62
     7
370
    25
100
AcDbLine
 10
591.0631452994
 20
178.9246703305
 30
0.0
 11
591.6176905289
 21
178.6066849627
 31
0.0
  0
SPLINE
  5
31C
330
1F
100
AcDbEntity
  8
0
  6
Continuous
 62
     7
370
    25
100
AcDbSpline
210
0.0
220
0.0
230
1.0
 70
     8
 71
     3
 72
    29
 73
    25
 74
     0
 42
0.00000001
 43
0.00000001
 40
0.0
 40
0.0
 40
0.0
 40
0.0
 40
0.0208937473933711
 40
0.0418073244387945
 40
0.0627407416951305
 40
0.0836940097221919
 40
0.1046671390807385
 40
0.1256601403324795
 40
0.1879200358992152
 40
0.2500076039278241
 40
0.3840697395271253
 40
0.4993715417118151
 40
0.5664902903836405
 40
0.6304606921270833
 40
0.6913947205460792
 40
0.7494261742365631
 40
0.7819885598748499
 40
0.8141203436667187
 40
0.8458578413199851
 40
0.8772388293455312
 40
0.9083024781914444
 40
0.9390892640455187
 40
0.9696408590008276
 40
1.0
 40
1.0
 40
1.0
 40
1.0
 10
662.0217082949013
 20
178.9246703304986
 30
0.0
 10
662.0242965983922
 20
178.8328083830182
 30
0.0
 10
662.0294756618584
 20
178.6489973045369
 30
0.0
 10
662.0265113118304
 20
178.3729477884288
 30
0.0
 10
662.015674129925
 20
178.096814642476
 30
0.0
 10
661.9961880110355
 20
177.8208397910638
 30
0.0
 10
661.968243834853
 20
177.5452385093322
 30
0.0
 10
661.9080145432683
 20
177.0905216876137
 30
0.0
 10
661.7847405183791
 20
176.459150224057
 30
0.0
 10
661.4609052063676
 20
175.3532046706596
 30
0.0
 10
660.8694515519204
 20
174.0638666872107
 30
0.0
 10
660.0068402875047
 20
172.8586047939689
 30
0.0
 10
659.1856711716508
 20
172.0058827312163
 30
0.0
 10
658.463510289421
 20
171.3999672728004
 30
0.0
 10
657.7041492757687
 20
170.886219080065
 30
0.0
 10
657.02218977456
 20
170.5186813790809
 30
0.0
 10
656.4407518275959
 20
170.261829837573
 30
0.0
 10
655.9688550726553
 20
170.0843437200107
 30
0.0
 10
655.4897464150379
 20
169.9341607562991
 30
0.0
 10
655.0050694475556
 20
169.8114699659603
 30
0.0
 10
654.5164695795658
 20
169.716136407852
 30
0.0
 10
654.0255690370576
 20
169.6487777143115
 30
0.0
 10
653.5339664607807
 20
169.6067663474313
 30
0.0
 10
653.2059278607322
 20
169.6015824432644
 30
0.0
 10
653.0424267971516
 20
169.5989986807296
 30
0.0
  0
LINE
  5
31D
330
1F
100
AcDbEntity
  8
0
  6
Continuous
 62
     7
370
    25
100
AcDbLine
 10
653.0424267972
 20
169.5989986807
 30
0.0
 11
653.0424267972
 21
169.8355585425
 31
0.0
  0
LINE
  5
31E
330
1F
100
AcDbEntity
  8
0
  6
Continuous
 62
     7
370
    25
100
AcDbLine
 10
600.0424267972
 20
169.5989986807
 30
0.0
 11
600.0424267972
 21
169.8355585425
 31
0.0
  0
SPLINE
  5
31F
330
1F
100
AcDbEntity
  8
0
  6
Continuous
 62
     7
370
    25
100
AcDbSpline
210
0.0
220
0.0
230
1.0
 70
     8
 71
     3
 72
    36
 73
    32
 74
     0
 42
0.00000001
 43
0.00000001
 40
4.67288661335807
 40
4.67288661335807
 40
4.67288661335807
 40
4.67288661335807
 40
4.87417395008576
 40
4.87417395008576
 40
4.9748176184496
 40
4.9748176184496
 40
5.07546128681345
 40
5.07546128681345
 40
5.17610495517729
 40
5.17610495517729
 40
5.27674862354114
 40
5.27674862354114
 40
5.377392291904981
 40
5.377392291904981
 40
5.47803596026883
 40
5.47803596026883
 40
5.57867962863267
 40
5.57867962863267
 40
5.67932329699652
 40
5.67932329699652
 40
5.77996696536036
 40
5.77996696536036
 40
5.88061063372421
 40
5.88061063372421
 40
5.98125430208805
 40
5.98125430208805
 40
6.0818979704519
 40
6.0818979704519
 40
6.18254163881574
 40
6.18254163881574
 40
6.283185307179591
 40
6.283185307179591
 40
6.283185307179591
 40
6.283185307179591
 10
591.063145299402
 20
178.9246703304986
 30
0.0
 10
591.0407606974237
 20
178.3217252523598
 30
0.0
 10
591.0793094463714
 20
177.7166988242934
 30
0.0
 10
591.2270379220122
 20
176.8242598277994
 30
0.0
 10
591.2912394748207
 20
176.5292996434515
 30
0.0
 10
591.4488878501256
 20
175.9473818115075
 30
0.0
 10
591.5423348423957
 20
175.660427086256
 30
0.0
 10
591.7575131877438
 20
175.0974129280237
 30
0.0
 10
591.8792438858313
 20
174.8213550631858
 30
0.0
 10
592.149744334396
 20
174.2829116450608
 30
0.0
 10
592.298513281273
 20
174.0205275836949
 30
0.0
 10
592.6215749220524
 20
173.5120682371576
 30
0.0
 10
592.7958666723464
 20
173.265994354246
 30
0.0
 10
593.1682042667271
 20
172.7926253575494
 30
0.0
 10
593.3662490368979
 20
172.5653315438247
 30
0.0
 10
593.7840867390659
 20
172.1318020079404
 30
0.0
 10
594.0038784775655
 20
171.92556747208
 30
0.0
 10
594.4629882120114
 20
171.5362228790623
 30
0.0
 10
594.7023049065507
 20
171.3531138839314
 30
0.0
 10
595.1980490192769
 20
171.0118536909444
 30
0.0
 10
595.4544750406814
 20
170.8537034214524
 30
0.0
 10
595.981852806891
 20
170.5639431061597
 30
0.0
 10
596.2528030728413
 20
170.4323338468626
 30
0.0
 10
596.806500613099
 20
170.1969717297436
 30
0.0
 10
597.0892463404521
 20
170.0932195096225
 30
0.0
 10
597.6636894698148
 20
169.914608646178
 30
0.0
 10
597.9553852713054
 20
169.8397504861239
 30
0.0
 10
598.5447947820178
 20
169.7196758770332
 30
0.0
 10
598.8425068521349
 20
169.6744597525673
 30
0.0
 10
599.4409557104482
 20
169.6141210729128
 30
0.0
 10
599.7416908362759
 20
169.5989959839026
 30
0.0
 10
600.0424267971516
 20
169.5989986807296
 30
0.0
  0
ARC
  5
320
330
1F
100
AcDbEntity
  8
0
  6
Continuous
 62
     7
370
    25
100
AcDbCircle
 10
653.0424267972
 20
178.9246703305
 30
0.0
 40
9.950335031960321
100
AcDbArc
 50
270.0
 51
0.0
  0
LINE
  5
321
330
1F
100
AcDbEntity
  8
0
  6
Continuous
 62
     7
370
    25
100
AcDbLine
 10
653.0424267972
 20
169.5989986807
 30
0.0
 11
653.0424267972
 21
168.9743352985
 31
0.0
  0
LINE
  5
322
330
1F
100
AcDbEntity
  8
0
  6
Continuous
 62
     7
370
    25
100
AcDbLine
 10
600.0424267972
 20
169.5989986807
 30
0.0
 11
600.0424267972
 21
168.9743352985
 31
0.0
  0
ARC
  5
323
330
1F
100
AcDbEntity
  8
0
  6
Continuous
 62
     7
370
    25
100
AcDbCircle
 10
600.0424267972
 20
178.9246703305
 30
0.0
 40
9.950335031960321
100
AcDbArc
 50
180.0
 51
270.0
  0
LINE
  5
324
330
1F
100
AcDbEntity
  8
0
  6
Continuous
 62
     7
370
    25
100
AcDbLine
 10
653.0424267972
 20
169.5989986807
 30
0.0
 11
600.0424267972
 21
169.5989986807
 31
0.0
  0
LINE
  5
325
330
1F
100
AcDbEntity
  8
0
  6
Continuous
 62
     7
370
    25
100
AcDbLine
 10
600.0424267972
 20
168.9743352985
 30
0.0
 11
653.0424267972
 21
168.9743352985
 31
0.0
  0
ARC
  5
326
330
1F
100
AcDbEntity
  8
0
  6
Continuous
 62
     7
370
    25
100
AcDbCircle
 10
653.0424267972
 20
212.9246703305
 30
0.0
 40
10.94896456671489
100
AcDbArc
 50
0.0
 51
90.0
  0
LINE
  5
327
330
1F
100
AcDbEntity
  8
0
  6
Continuous
 62
     7
370
    25
100
AcDbLine
 10
663.9913913639
 20
212.9246703305
 30
0.0
 11
662.9927618291
 21
212.9246703305
 31
0.0
  0
LINE
  5
328
330
1F
100
AcDbEntity
  8
0
  6
Continuous
 62
     7
370
    25
100
AcDbLine
 10
653.0424267972
 20
223.8736348972
 30
0.0
 11
653.0424267972
 21
222.8750053625
 31
0.0
  0
LINE
  5
329
330
1F
100
AcDbEntity
  8
0
  6
Continuous
 62
     7
370
    25
100
AcDbLine
 10
663.9913913639
 20
212.9246703305
 30
0.0
 11
663.9913913639
 21
178.9246703305
 31
0.0
  0
LINE
  5
32A
330
1F
100
AcDbEntity
  8
0
  6
Continuous
 62
     7
370
    25
100
AcDbLine
 10
663.9913913639
 20
178.9246703305
 30
0.0
 11
662.9927618291
 21
178.9246703305
 31
0.0
  0
ARC
  5
32B
330
1F
100
AcDbEntity
  8
0
  6
Continuous
 62
     7
370
    25
100
AcDbCircle
 10
653.0424267972
 20
178.9246703305
 30
0.0
 40
10.94896456671484
100
AcDbArc
 50
270.0
 51
0.0
  0
LINE
  5
32C
330
1F
100
AcDbEntity
  8
0
  6
Continuous
 62
     7
370
    25
100
AcDbLine
 10
653.0424267972
 20
168.9743352985
 30
0.0
 11
653.0424267972
 21
167.9757057638
 31
0.0
  0
LINE
  5
32D
330
1F
100
AcDbEntity
  8
0
  6
Continuous
 62
     7
370
    25
100
AcDbLine
 10
653.0424267972
 20
167.9757057638
 30
0.0
 11
600.0424267972
 21
167.9757057638
 31
0.0
  0
LINE
  5
32E
330
1F
100
AcDbEntity
  8
0
  6
Continuous
 62
     7
370
    25
100
AcDbLine
 10
600.0424267972
 20
168.9743352985
 30
0.0
 11
600.0424267972
 21
167.9757057638
 31
0.0
  0
LINE
  5
32F
330
1F
100
AcDbEntity
  8
0
  6
Continuous
 62
     7
370
    25
100
AcDbLine
 10
600.0424267972
 20
223.8736348972
 30
0.0
 11
653.0424267972
 21
223.8736348972
 31
0.0
  0
LINE
  5
330
330
1F
100
AcDbEntity
  8
0
  6
Continuous
 62
     7
370
    25
100
AcDbLine
 10
600.0424267972
 20
223.8736348972
 30
0.0
 11
600.0424267972
 21
222.8750053625
 31
0.0
  0
ARC
  5
331
330
1F
100
AcDbEntity
  8
0
  6
Continuous
 62
     7
370
    25
100
AcDbCircle
 10
600.0424267972
 20
212.9246703305
 30
0.0
 40
10.94896456671489
100
AcDbArc
 50
90.0
 51
180.0
  0
LINE
  5
332
330
1F
100
AcDbEntity
  8
0
  6
Continuous
 62
     7
370
    25
100
AcDbLine
 10
590.0920917652
 20
212.9246703305
 30
0.0
 11
589.0934622304
 21
212.9246703305
 31
0.0
  0
ARC
  5
333
330
1F
100
AcDbEntity
  8
0
  6
Continuous
 62
     7
370
    25
100
AcDbCircle
 10
600.0424267972
 20
178.9246703305
 30
0.0
 40
10.94896456671495
100
AcDbArc
 50
180.0
 51
270.0
  0
LINE
  5
334
330
1F
100
AcDbEntity
  8
0
  6
Continuous
 62
     7
370
    25
100
AcDbLine
 10
590.0920917652
 20
178.9246703305
 30
0.0
 11
589.0934622304
 21
178.9246703305
 31
0.0
  0
LINE
  5
335
330
1F
100
AcDbEntity
  8
0
  6
Continuous
 62
     7
370
    25
100
AcDbLine
 10
589.0934622304
 20
178.9246703305
 30
0.0
 11
589.0934622304
 21
212.9246703305
 31
0.0
  0
LINE
  5
336
330
1F
100
AcDbEntity
  8
0
  6
Continuous
 62
     7
370
    25
100
AcDbLine
 10
740.1924267972
 20
263.4746703305
 30
0.0
 11
742.4155927424
 21
264.0675145826
 31
0.0
  0
SPLINE
  5
337
330
1F
100
AcDbEntity
  8
0
  6
Continuous
 62
     7
370
    25
100
AcDbSpline
210
0.0
220
0.0
230
1.0
 70
     8
 71
     3
 72
    22
 73
    18
 74
     0
 42
0.00000001
 43
0.00000001
 40
0.0
 40
0.0
 40
0.0
 40
0.0
 40
0.0360451144072789
 40
0.0718072354567103
 40
0.1073989783582869
 40
0.14293457818561
 40
0.178528810568129
 40
0.21429588668865
 40
0.2503483751051189
 40
0.3751981529188173
 40
0.5000746174550443
 40
0.6248156658341659
 40
0.749530238696792
 40
0.8124598948563212
 40
0.8747725857521715
 40
0.9370815159572968
 40
1.0
 40
1.0
 40
1.0
 40
1.0
 10
740.1924267971516
 20
263.4746703304987
 30
0.0
 10
740.1915374782956
 20
263.5312502292249
 30
0.0
 10
740.189765822704
 20
263.643965812925
 30
0.0
 10
740.1752590079244
 20
263.8120352141156
 30
0.0
 10
740.1520469984722
 20
263.9782547283834
 30
0.0
 10
740.1192977706598
 20
264.1426206989994
 30
0.0
 10
740.0772384458381
 20
264.3051237957504
 30
0.0
 10
740.0257939986877
 20
264.4657746177001
 30
0.0
 10
739.9154534948933
 20
264.7541223504508
 30
0.0
 10
739.7035938467131
 20
265.153228788693
 30
0.0
 10
739.3270134783419
 20
265.6092153776107
 30
0.0
 10
738.8711368976122
 20
265.9856952484061
 30
0.0
 10
738.435049217675
 20
266.2172197957453
 30
0.0
 10
738.0654598018098
 20
266.3503269611759
 30
0.0
 10
737.7795101562673
 20
266.4219053527791
 30
0.0
 10
737.4878460505163
 20
266.4665473202442
 30
0.0
 10
737.2912189140545
 20
266.4719538881222
 30
0.0
 10
737.1924267971516
 20
266.4746703304987
 30
0.0
  0
LINE
  5
338
330
1F
100
AcDbEntity
  8
0
  6
Continuous
 62
     7
370
    25
100
AcDbLine
 10
737.1924267972
 20
266.4746703305
 30
0.0
 11
626.5424267972
 21
266.4746703305
 31
0.0
  0
LINE
  5
339
330
1F
100
AcDbEntity
  8
0
  6
Continuous
 62
     7
370
    25
100
AcDbLine
 10
626.5424267972
 20
268.4473943351
 30
0.0
 11
626.5424267972
 21
266.4746703305
 31
0.0
  0
SPLINE
  5
33A
330
1F
100
AcDbEntity
  8
0
  6
Continuous
 62
     7
370
    25
100
AcDbSpline
210
0.0
220
0.0
230
1.0
 70
     8
 71
     3
 72
    15
 73
    11
 74
     0
 42
0.00000001
 43
0.00000001
 40
0.0147664951495513
 40
0.0147664951495513
 40
0.0147664951495513
 40
0.0147664951495513
 40
0.0164954028412365
 40
0.0164954028412365
 40
0.0182243105329218
 40
0.0216821259162924
 40
0.0285977566830334
 40
0.0424290182165156
 40
0.0700915412834799
 40
0.1254165874174084
 40
0.1254165874174084
 40
0.1254165874174084
 40
0.1254165874174084
 10
738.0424267971516
 20
268.4473949601204
 30
0.0
 10
737.4616976329398
 20
268.4473323677852
 30
0.0
 10
736.8809684638426
 20
268.447394335097
 30
0.0
 10
735.7195101305088
 20
268.447394335097
 30
0.0
 10
733.9773226305086
 20
268.4473943350971
 30
0.0
 10
729.912218463841
 20
268.4473943350971
 30
0.0
 10
721.7820101305059
 20
268.4473943350971
 30
0.0
 10
705.5215934638355
 20
268.4473943350971
 30
0.0
 10
673.000760130495
 20
268.447394335097
 30
0.0
 10
645.1257601304891
 20
268.447394335097
 30
0.0
 10
626.5424267971515
 20
268.447394335097
 30
0.0
  0
SPLINE
  5
33B
330
1F
100
AcDbEntity
  8
0
  6
Continuous
 62
     7
370
    25
100
AcDbSpline
210
0.0
220
0.0
230
1.0
 70
     8
 71
     3
 72
    47
 73
    43
 74
     0
 42
0.00000001
 43
0.00000001
 40
0.0
 40
0.0
 40
0.0
 40
0.0
 40
0.0303832084506538
 40
0.0610864792125282
 40
0.092083079989349
 40
0.1233558145395646
 40
0.1548691448428667
 40
0.1865605467985303
 40
0.2183776988755686
 40
0.2502790212098582
 40
0.2821993051973956
 40
0.3140518618824878
 40
0.3457614219573245
 40
0.3772649669493576
 40
0.4084920258173911
 40
0.4393564934229974
 40
0.4697799244418651
 40
0.4996939337255913
 40
0.5290404356874356
 40
0.5577679558469216
 40
0.5858282202472188
 40
0.6131770647620456
 40
0.6397753386384393
 40
0.6655952454073952
 40
0.6906282387945442
 40
0.7148681511329793
 40
0.7383087879804474
 40
0.7609446572623749
 40
0.782772816915893
 40
0.803804554562332
 40
0.8240575766670828
 40
0.8435478109727709
 40
0.8622897898231372
 40
0.8802970677981823
 40
0.897582754325758
 40
0.9141645904131456
 40
0.9300645627787076
 40
0.9453030995114012
 40
0.9598990229508454
 40
0.9738697864902112
 40
0.9872316791078372
 40
1.0
 40
1.0
 40
1.0
 40
1.0
 10
742.4152742507829
 20
264.0692398184455
 30
0.0
 10
742.414317672573
 20
264.1388435911763
 30
0.0
 10
742.4123944393822
 20
264.2787843555936
 30
0.0
 10
742.3967008794278
 20
264.4892533781564
 30
0.0
 10
742.3713075012847
 20
264.7007676956794
 30
0.0
 10
742.3350852151464
 20
264.9126095983394
 30
0.0
 10
742.28820060355
 20
265.1239717524031
 30
0.0
 10
742.2305874099787
 20
265.3339632555339
 30
0.0
 10
742.162322041096
 20
265.5416745368437
 30
0.0
 10
742.0835003421724
 20
265.7461775584881
 30
0.0
 10
741.9944936890938
 20
265.946544516933
 30
0.0
 10
741.8958476290205
 20
266.1418519788664
 30
0.0
 10
741.7881079376173
 20
266.3311973146692
 30
0.0
 10
741.6718078683691
 20
266.5137120772407
 30
0.0
 10
741.5477188825496
 20
266.6886495946702
 30
0.0
 10
741.4168649632012
 20
266.8554466212927
 30
0.0
 10
741.2801850042914
 20
267.0135453952956
 30
0.0
 10
741.1385761952552
 20
267.1624815277525
 30
0.0
 10
740.9928779495854
 20
267.3018507344488
 30
0.0
 10
740.84417823487
 20
267.4316312945849
 30
0.0
 10
740.6934724302278
 20
267.5518607252705
 30
0.0
 10
740.5416714077846
 20
267.662610146607
 30
0.0
 10
740.3895908988598
 20
267.7639867509267
 30
0.0
 10
740.2379475913096
 20
267.8561680587768
 30
0.0
 10
740.0874696122507
 20
267.939590623773
 30
0.0
 10
739.9387604420555
 20
268.0146998454253
 30
0.0
 10
739.792355425818
 20
268.0819358969339
 30
0.0
 10
739.6487270230872
 20
268.1417315023572
 30
0.0
 10
739.508256487258
 20
268.1945071705893
 30
0.0
 10
739.3712543830371
 20
268.2407498406259
 30
0.0
 10
739.237952982146
 20
268.2809718905521
 30
0.0
 10
739.1085304186661
 20
268.3156573128296
 30
0.0
 10
738.9831349177433
 20
268.3452641525622
 30
0.0
 10
738.86188591754
 20
268.3702239911576
 30
0.0
 10
738.7448646526707
 20
268.39094407959
 30
0.0
 10
738.6321070395354
 20
268.4078143897144
 30
0.0
 10
738.5236093593127
 20
268.4212135545446
 30
0.0
 10
738.4193434619389
 20
268.4314909282236
 30
0.0
 10
738.3192723762326
 20
268.4389904554957
 30
0.0
 10
738.2233518165573
 20
268.4439678994055
 30
0.0
 10
738.1315309481715
 20
268.4468843018352
 30
0.0
 10
738.0716749529122
 20
268.4472273381533
 30
0.0
 10
738.0424267971516
 20
268.4473949601204
 30
0.0
  0
SPLINE
  5
33C
330
1F
100
AcDbEntity
  8
0
  6
Continuous
 62
     7
370
    25
100
AcDbSpline
210
0.0
220
0.0
230
1.0
 70
     8
 71
     3
 72
    15
 73
    11
 74
     0
 42
0.00000001
 43
0.00000001
 40
0.0
 40
0.0
 40
0.0
 40
0.0
 40
0.001742187499997
 40
0.001742187499997
 40
0.0034843749999939
 40
0.0069687499999879
 40
0.0139374999999758
 40
0.0278749999999516
 40
0.0557499999999033
 40
0.1114999999998066
 40
0.1114999999998066
 40
0.1114999999998066
 40
0.1114999999998066
 10
738.0424267971686
 20
123.401945700877
 30
0.0
 10
737.4616976329568
 20
123.4020082932122
 30
0.0
 10
736.8809684638594
 20
123.4019463259003
 30
0.0
 10
735.7195101305256
 20
123.4019463259003
 30
0.0
 10
733.9773226305248
 20
123.4019463259003
 30
0.0
 10
729.9122184638568
 20
123.4019463259003
 30
0.0
 10
721.7820101305203
 20
123.4019463259002
 30
0.0
 10
705.5215934638477
 20
123.4019463259002
 30
0.0
 10
673.0007601305022
 20
123.4019463259002
 30
0.0
 10
645.1257601304918
 20
123.4019463259003
 30
0.0
 10
626.5424267971515
 20
123.4019463259003
 30
0.0
  0
LINE
  5
33D
330
1F
100
AcDbEntity
  8
0
  6
Continuous
 62
     7
370
    25
100
AcDbLine
 10
626.5424267972
 20
123.4019463259
 30
0.0
 11
626.5424267972
 21
125.3746703305
 31
0.0
  0
LINE
  5
33E
330
1F
100
AcDbEntity
  8
0
  6
Continuous
 62
     7
370
    25
100
AcDbLine
 10
737.1924267972
 20
125.3746703305
 30
0.0
 11
626.5424267972
 21
125.3746703305
 31
0.0
  0
SPLINE
  5
33F
330
1F
100
AcDbEntity
  8
0
  6
Continuous
 62
     7
370
    25
100
AcDbSpline
210
0.0
220
0.0
230
1.0
 70
     8
 71
     3
 72
    22
 73
    18
 74
     0
 42
0.00000001
 43
0.00000001
 40
0.0
 40
0.0
 40
0.0
 40
0.0
 40
0.0360298390062463
 40
0.0717770513670128
 40
0.1073541118208305
 40
0.1428751114650282
 40
0.1784546807025861
 40
0.2142068865751855
 40
0.2502441568464282
 40
0.3750426027914981
 40
0.4998676449055589
 40
0.6246238389032113
 40
0.7493535150459483
 40
0.8123279374634572
 40
0.8746841286883841
 40
0.9370366071533719
 40
1.0
 40
1.0
 40
1.0
 40
1.0
 10
737.1924267971516
 20
125.3746703304986
 30
0.0
 10
737.2489827220809
 20
125.3755589266238
 30
0.0
 10
737.3616509337833
 20
125.3773291485142
 30
0.0
 10
737.5296505477636
 20
125.3918240695965
 30
0.0
 10
737.6958026347972
 20
125.4150169994571
 30
0.0
 10
737.8601035470958
 20
125.4477392938386
 30
0.0
 10
738.0225439696536
 20
125.4897640172464
 30
0.0
 10
738.1831344954703
 20
125.5411661263007
 30
0.0
 10
738.4713797185636
 20
125.6514168763992
 30
0.0
 10
738.8703616188693
 20
125.8631077980871
 30
0.0
 10
739.3263471948612
 20
126.2394667001831
 30
0.0
 10
739.7029498045246
 20
126.6952005552937
 30
0.0
 10
739.9346559990474
 20
127.131326639663
 30
0.0
 10
740.0679095145828
 20
127.5010370337764
 30
0.0
 10
740.1395883526981
 20
127.7871757422189
 30
0.0
 10
740.1842926723906
 20
128.0790414326039
 30
0.0
 10
740.189706624566
 20
128.2758076197366
 30
0.0
 10
740.1924267971516
 20
128.3746703304986
 30
0.0
  0
LINE
  5
340
330
1F
100
AcDbEntity
  8
0
  6
Continuous
 62
     7
370
    25
100
AcDbLine
 10
740.1924267972
 20
128.3746703305
 30
0.0
 11
742.4165497253
 21
127.781570883
 31
0.0
  0
SPLINE
  5
341
330
1F
100
AcDbEntity
  8
0
  6
Continuous
 62
     7
370
    25
100
AcDbSpline
210
0.0
220
0.0
230
1.0
 70
     8
 71
     3
 72
    14
 73
    10
 74
     0
 42
0.00000001
 43
0.00000001
 40
0.0
 40
0.0
 40
0.0
 40
0.0
 40
0.25
 40
0.25
 40
0.5
 40
0.5
 40
0.75
 40
0.75
 40
1.0
 40
1.0
 40
1.0
 40
1.0
 10
742.4152743627094
 20
127.7763952372523
 30
0.0
 10
742.4152641177371
 20
127.2023194815303
 30
0.0
 10
742.3023999904252
 20
126.633016444158
 30
0.0
 10
741.8633025723893
 20
125.5717790142486
 30
0.0
 10
741.5409354855652
 20
125.0893605931968
 30
0.0
 10
740.7290937083368
 20
124.2770493558894
 30
0.0
 10
740.2466270978985
 20
123.9547624836184
 30
0.0
 10
739.1856580494999
 20
123.5150572678731
 30
0.0
 10
738.6164628724198
 20
123.4019354559084
 30
0.0
 10
738.0424267971516
 20
123.4019457008769
 30
0.0
  0
LINE
  5
342
330
1F
100
AcDbEntity
  8
0
  6
Continuous
 62
     7
370
    25
100
AcDbLine
 10
740.1924267972
 20
128.3746703305
 30
0.0
 11
740.1924267972
 21
263.4746703305
 31
0.0
  0
LINE
  5
343
330
1F
100
AcDbEntity
  8
0
  6
Continuous
 62
     7
370
    25
100
AcDbLine
 10
742.4152742373
 20
127.776395436
 30
0.0
 11
742.4152742373
 21
264.0692398185
 31
0.0
  0
LINE
  5
344
330
1F
100
AcDbEntity
  8
0
  6
Continuous
 62
     7
370
    25
100
AcDbLine
 10
515.8924267972
 20
125.3746703305
 30
0.0
 11
626.5424267972
 21
125.3746703305
 31
0.0
  0
SPLINE
  5
345
330
1F
100
AcDbEntity
  8
0
  6
Continuous
 62
     7
370
    25
100
AcDbSpline
210
0.0
220
0.0
230
1.0
 70
     8
 71
     3
 72
    15
 73
    11
 74
     0
 42
0.00000001
 43
0.00000001
 40
0.0
 40
0.0
 40
0.0
 40
0.0
 40
0.124999999788997
 40
0.24999999981914
 40
0.3749999998492834
 40
0.4999999998794269
 40
0.62499999990957
 40
0.749999999939713
 40
0.874999999969857
 40
1.0
 40
1.0
 40
1.0
 40
1.0
 10
515.8924267971516
 20
125.3746703304986
 30
0.0
 10
515.6538693498306
 20
125.3746703304986
 30
0.0
 10
515.2216493076196
 20
125.4295331862421
 30
0.0
 10
514.6619621294055
 20
125.6187791351301
 30
0.0
 10
514.1767325099815
 20
125.8936451843002
 30
0.0
 10
513.7596096371125
 20
126.2418531704593
 30
0.0
 10
513.4114016509533
 20
126.6589760433288
 30
0.0
 10
513.136535601783
 20
127.1442056627526
 30
0.0
 10
512.9472896528952
 20
127.7038928409666
 30
0.0
 10
512.8924267971515
 20
128.1361128831777
 30
0.0
 10
512.8924267971515
 20
128.3746703304986
 30
0.0
  0
LINE
  5
346
330
1F
100
AcDbEntity
  8
0
  6
Continuous
 62
     7
370
    25
100
AcDbLine
 10
512.8924267972
 20
128.3746703305
 30
0.0
 11
512.8924267972
 21
263.4746703305
 31
0.0
  0
SPLINE
  5
347
330
1F
100
AcDbEntity
  8
0
  6
Continuous
 62
     7
370
    25
100
AcDbSpline
210
0.0
220
0.0
230
1.0
 70
     8
 71
     3
 72
    15
 73
    11
 74
     0
 42
0.00000001
 43
0.00000001
 40
0.0
 40
0.0
 40
0.0
 40
0.0
 40
0.1250000000301432
 40
0.2500000000602865
 40
0.37500000009043
 40
0.500000000120573
 40
0.625000000150717
 40
0.75000000018086
 40
0.875000000211003
 40
1.0
 40
1.0
 40
1.0
 40
1.0
 10
512.8924267971515
 20
263.4746703304987
 30
0.0
 10
512.8924267971515
 20
263.7132277778196
 30
0.0
 10
512.9472896528952
 20
264.1454478200307
 30
0.0
 10
513.136535601783
 20
264.7051349982448
 30
0.0
 10
513.4114016509533
 20
265.1903646176685
 30
0.0
 10
513.7596096371125
 20
265.6074874905379
 30
0.0
 10
514.1767325099815
 20
265.9556954766971
 30
0.0
 10
514.6619621294055
 20
266.2305615258672
 30
0.0
 10
515.2216493076196
 20
266.4198074747553
 30
0.0
 10
515.6538693498306
 20
266.4746703304987
 30
0.0
 10
515.8924267971516
 20
266.4746703304987
 30
0.0
  0
LINE
  5
348
330
1F
100
AcDbEntity
  8
0
  6
Continuous
 62
     7
370
    25
100
AcDbLine
 10
515.8924267972
 20
266.4746703305
 30
0.0
 11
626.5424267972
 21
266.4746703305
 31
0.0
  0
SPLINE
  5
349
330
1F
100
AcDbEntity
  8
0
  6
Continuous
 62
     7
370
    25
100
AcDbSpline
210
0.0
220
0.0
230
1.0
 70
     8
 71
     3
 72
    15
 73
    11
 74
     0
 42
0.00000001
 43
0.00000001
 40
0.0
 40
0.0
 40
0.0
 40
0.0
 40
0.001742187499997
 40
0.001742187499997
 40
0.0034843749999939
 40
0.0069687499999879
 40
0.0139374999999758
 40
0.0278749999999517
 40
0.0557499999999034
 40
0.1114999999998068
 40
0.1114999999998068
 40
0.1114999999998068
 40
0.1114999999998068
 10
515.0424267971345
 20
268.4473949601204
 30
0.0
 10
515.6231559613462
 20
268.4473323677851
 30
0.0
 10
516.2038851304436
 20
268.4473943350971
 30
0.0
 10
517.3653434637774
 20
268.4473943350971
 30
0.0
 10
519.1075309637781
 20
268.447394335097
 30
0.0
 10
523.1726351304465
 20
268.447394335097
 30
0.0
 10
531.3028434637826
 20
268.447394335097
 30
0.0
 10
547.5632601304554
 20
268.4473943350971
 30
0.0
 10
580.0840934638009
 20
268.447394335097
 30
0.0
 10
607.9590934638113
 20
268.447394335097
 30
0.0
 10
626.5424267971515
 20
268.447394335097
 30
0.0
  0
LINE
  5
34A
330
1F
100
AcDbEntity
  8
0
  6
Continuous
 62
     7
370
    25
100
AcDbLine
 10
512.8924267972
 20
263.4746703305
 30
0.0
 11
510.668303869
 21
264.067769778
 31
0.0
  0
SPLINE
  5
34B
330
1F
100
AcDbEntity
  8
0
  6
Continuous
 62
     7
370
    25
100
AcDbSpline
210
0.0
220
0.0
230
1.0
 70
     8
 71
     3
 72
    14
 73
    10
 74
     0
 42
0.00000001
 43
0.00000001
 40
0.0
 40
0.0
 40
0.0
 40
0.0
 40
0.25
 40
0.25
 40
0.5
 40
0.5
 40
0.75
 40
0.75
 40
1.0
 40
1.0
 40
1.0
 40
1.0
 10
510.6695792315937
 20
264.0729454237451
 30
0.0
 10
510.6695894765655
 20
264.6470211794672
 30
0.0
 10
510.7824536038785
 20
265.2163242168393
 30
0.0
 10
511.2215510219132
 20
266.2775616467488
 30
0.0
 10
511.5439181087372
 20
266.7599800678017
 30
0.0
 10
512.355759885967
 20
267.5722913051069
 30
0.0
 10
512.8382264964044
 20
267.8945781773778
 30
0.0
 10
513.8991955448035
 20
268.3342833931252
 30
0.0
 10
514.4683907218832
 20
268.44740520509
 30
0.0
 10
515.0424267971516
 20
268.4473949601204
 30
0.0
  0
LINE
  5
34C
330
1F
100
AcDbEntity
  8
0
  6
Continuous
 62
     7
370
    25
100
AcDbLine
 10
512.8924267972
 20
128.3746703305
 30
0.0
 11
510.668303869
 21
127.781570883
 31
0.0
  0
SPLINE
  5
34D
330
1F
100
AcDbEntity
  8
0
  6
Continuous
 62
     7
370
    25
100
AcDbSpline
210
0.0
220
0.0
230
1.0
 70
     8
 71
     3
 72
    15
 73
    11
 74
     0
 42
0.00000001
 43
0.00000001
 40
0.0147664951495439
 40
0.0147664951495439
 40
0.0147664951495439
 40
0.0147664951495439
 40
0.0164954028412296
 40
0.0164954028412296
 40
0.0182243105329154
 40
0.0216821259162869
 40
0.0285977566830298
 40
0.0424290182165157
 40
0.0700915412834874
 40
0.125416587417431
 40
0.125416587417431
 40
0.125416587417431
 40
0.125416587417431
 10
515.0424267971516
 20
123.401945700877
 30
0.0
 10
515.6231559613633
 20
123.4020082932122
 30
0.0
 10
516.2038851304608
 20
123.4019463259003
 30
0.0
 10
517.3653434637944
 20
123.4019463259003
 30
0.0
 10
519.1075309637946
 20
123.4019463259002
 30
0.0
 10
523.1726351304624
 20
123.4019463259003
 30
0.0
 10
531.3028434637974
 20
123.4019463259003
 30
0.0
 10
547.5632601304676
 20
123.4019463259003
 30
0.0
 10
580.084093463808
 20
123.4019463259003
 30
0.0
 10
607.9590934638142
 20
123.4019463259003
 30
0.0
 10
626.5424267971515
 20
123.4019463259003
 30
0.0
  0
SPLINE
  5
34E
330
1F
100
AcDbEntity
  8
0
  6
Continuous
 62
     7
370
    25
100
AcDbSpline
210
0.0
220
0.0
230
1.0
 70
     8
 71
     3
 72
    38
 73
    34
 74
     0
 42
0.00000001
 43
0.00000001
 40
0.0
 40
0.0
 40
0.0
 40
0.0
 40
0.031524425538003
 40
0.0636426131077726
 40
0.0963457092713145
 40
0.1296348056882687
 40
0.1634801318961212
 40
0.1978283364827862
 40
0.2326400060792737
 40
0.2678760267348596
 40
0.3034474517165651
 40
0.3392619319762222
 40
0.3752417303485899
 40
0.4112996745865219
 40
0.4473168474529826
 40
0.4831787381975328
 40
0.5187817717053654
 40
0.5540321614657333
 40
0.5888363797496682
 40
0.6231009883846774
 40
0.6567375133020217
 40
0.6896898189659618
 40
0.7219197063889414
 40
0.7533840974618241
 40
0.78403823465393
 40
0.8138665342197944
 40
0.8428756625060642
 40
0.8710662961557665
 40
0.898433630263437
 40
0.9249847507672816
 40
0.9507476194297686
 40
0.9757464458054094
 40
1.0
 40
1.0
 40
1.0
 40
1.0
 10
510.6695792315937
 20
127.7763952372624
 30
0.0
 10
510.6706082417309
 20
127.7042055094033
 30
0.0
 10
510.6726856433945
 20
127.558466361359
 30
0.0
 10
510.68977418751
 20
127.3383821253665
 30
0.0
 10
510.7177708233586
 20
127.1154089608579
 30
0.0
 10
510.7582177075004
 20
126.8903005176939
 30
0.0
 10
510.8112410414793
 20
126.6639547763799
 30
0.0
 10
510.8772586168834
 20
126.4374089923615
 30
0.0
 10
510.9565462491184
 20
126.2117757804121
 30
0.0
 10
511.0492878505176
 20
125.9882915004059
 30
0.0
 10
511.1552334038195
 20
125.7682042238442
 30
0.0
 10
511.2740818472694
 20
125.552855490299
 30
0.0
 10
511.4055324323845
 20
125.3436364147929
 30
0.0
 10
511.5489739899512
 20
125.1418818032125
 30
0.0
 10
511.7033128246164
 20
124.9486873338319
 30
0.0
 10
511.8675107518542
 20
124.7651911398989
 30
0.0
 10
512.0406084758623
 20
124.5925414345985
 30
0.0
 10
512.2213199156708
 20
124.4315070077221
 30
0.0
 10
512.4081314231124
 20
124.2824698511526
 30
0.0
 10
512.5996630269873
 20
124.1458218025117
 30
0.0
 10
512.794678125718
 20
124.0219378334985
 30
0.0
 10
512.9918841247737
 20
123.9107944661055
 30
0.0
 10
513.1900302022503
 20
123.8120502257396
 30
0.0
 10
513.388007787944
 20
123.7253751244668
 30
0.0
 10
513.5848406405734
 20
123.6504368002135
 30
0.0
 10
513.7796795442044
 20
123.5867389511822
 30
0.0
 10
513.9718085588764
 20
123.5336119075716
 30
0.0
 10
514.1606270485487
 20
123.4904039230577
 30
0.0
 10
514.3456086125639
 20
123.4564940600026
 30
0.0
 10
514.5263540897383
 20
123.4312066947371
 30
0.0
 10
514.7025848906256
 20
123.4140546178525
 30
0.0
 10
514.8741082182974
 20
123.4037818700029
 30
0.0
 10
514.9868894614622
 20
123.4025515516501
 30
0.0
 10
515.0424267971516
 20
123.401945700877
 30
0.0
  0
LINE
  5
34F
330
1F
100
AcDbEntity
  8
0
  6
Continuous
 62
     7
370
    25
100
AcDbLine
 10
510.669579357
 20
127.776395436
 30
0.0
 11
510.669579357
 21
264.072945225
 31
0.0
  0
LINE
  5
350
330
1F
100
AcDbEntity
  8
0
  6
Continuous
 62
     7
370
    25
100
AcDbLine
 10
742.4152742373
 20
264.0746703305
 30
0.0
 11
742.4424267972
 21
264.0746703305
 31
0.0
  0
LINE
  5
351
330
1F
100
AcDbEntity
  8
0
  6
Continuous
 62
     7
370
    25
100
AcDbLine
 10
738.0424267972
 20
268.4473949601
 30
0.0
 11
738.0424267972
 21
268.4746703305
 31
0.0
  0
SPLINE
  5
352
330
1F
100
AcDbEntity
  8
0
  6
Continuous
 62
     7
370
    25
100
AcDbSpline
210
0.0
220
0.0
230
1.0
 70
     8
 71
     3
 72
    14
 73
    10
 74
     0
 42
0.00000001
 43
0.00000001
 40
0.0
 40
0.0
 40
0.0
 40
0.0
 40
0.0017184181561805
 40
0.0017184181561805
 40
0.003436836312361
 40
0.003436836312361
 40
0.0051552544685415
 40
0.0051552544685415
 40
0.0068736726247221
 40
0.0068736726247221
 40
0.0068736726247221
 40
0.0068736726247221
 10
742.4424267971516
 20
264.0746703304986
 30
0.0
 10
742.442426796871
 20
264.652156543023
 30
0.0
 10
742.3284745069758
 20
265.2248251724502
 30
0.0
 10
741.8864684659178
 20
266.2922516482442
 30
0.0
 10
741.5620740998272
 20
266.7774730159043
 30
0.0
 10
740.7452258359486
 20
267.5945006627708
 30
0.0
 10
740.2598374358765
 20
267.9186454894066
 30
0.0
 10
739.1925084139232
 20
268.360885578609
 30
0.0
 10
738.6198871989236
 20
268.4746703308593
 30
0.0
 10
738.0424267971516
 20
268.4746703304987
 30
0.0
  0
LINE
  5
353
330
1F
100
AcDbEntity
  8
0
  6
Continuous
 62
     7
370
    25
100
AcDbLine
 10
738.0424267972
 20
123.4019457009
 30
0.0
 11
738.0424267972
 21
123.3746703305
 31
0.0
  0
LINE
  5
354
330
1F
100
AcDbEntity
  8
0
  6
Continuous
 62
     7
370
    25
100
AcDbLine
 10
742.4152863337
 20
127.7746703305
 30
0.0
 11
742.4424267972
 21
127.7746703305
 31
0.0
  0
SPLINE
  5
355
330
1F
100
AcDbEntity
  8
0
  6
Continuous
 62
     7
370
    25
100
AcDbSpline
210
0.0
220
0.0
230
1.0
 70
     8
 71
     3
 72
    14
 73
    10
 74
     0
 42
0.00000001
 43
0.00000001
 40
0.0
 40
0.0
 40
0.0
 40
0.0
 40
0.0017184181561805
 40
0.0017184181561805
 40
0.003436836312361
 40
0.003436836312361
 40
0.0051552544685415
 40
0.0051552544685415
 40
0.0068736726247221
 40
0.0068736726247221
 40
0.0068736726247221
 40
0.0068736726247221
 10
742.4424267971516
 20
127.7746703304987
 30
0.0
 10
742.442426796871
 20
127.1971841179744
 30
0.0
 10
742.3284745069758
 20
126.6245154885471
 30
0.0
 10
741.8864684659178
 20
125.5570890127531
 30
0.0
 10
741.5620740998272
 20
125.071867645093
 30
0.0
 10
740.7452258359486
 20
124.2548399982265
 30
0.0
 10
740.2598374358765
 20
123.9306951715908
 30
0.0
 10
739.1925084139232
 20
123.4884550823882
 30
0.0
 10
738.6198871989236
 20
123.3746703301379
 30
0.0
 10
738.0424267971516
 20
123.3746703304986
 30
0.0
  0
LINE
  5
356
330
1F
100
AcDbEntity
  8
0
  6
Continuous
 62
     7
370
    25
100
AcDbLine
 10
515.0424267972
 20
123.4019457009
 30
0.0
 11
515.0424267972
 21
123.3746703305
 31
0.0
  0
LINE
  5
357
330
1F
100
AcDbEntity
  8
0
  6
Continuous
 62
     7
370
    25
100
AcDbLine
 10
738.0424267972
 20
123.3746703305
 30
0.0
 11
515.0424267972
 21
123.3746703305
 31
0.0
  0
LINE
  5
358
330
1F
100
AcDbEntity
  8
0
  6
Continuous
 62
     7
370
    25
100
AcDbLine
 10
515.0424267971
 20
268.4473949601
 30
0.0
 11
515.0424267972
 21
268.4746703305
 31
0.0
  0
LINE
  5
359
330
1F
100
AcDbEntity
  8
0
  6
Continuous
 62
     7
370
    25
100
AcDbLine
 10
738.0424267972
 20
268.4746703305
 30
0.0
 11
515.0424267972
 21
268.4746703305
 31
0.0
  0
LINE
  5
35A
330
1F
100
AcDbEntity
  8
0
  6
Continuous
 62
     7
370
    25
100
AcDbLine
 10
510.6695672606
 20
127.7746703305
 30
0.0
 11
510.6424267972
 21
127.7746703305
 31
0.0
  0
SPLINE
  5
35B
330
1F
100
AcDbEntity
  8
0
  6
Continuous
 62
     7
370
    25
100
AcDbSpline
210
0.0
220
0.0
230
1.0
 70
     8
 71
     3
 72
    14
 73
    10
 74
     0
 42
0.00000001
 43
0.00000001
 40
0.0
 40
0.0
 40
0.0
 40
0.0
 40
0.25
 40
0.25
 40
0.5
 40
0.5
 40
0.75
 40
0.75
 40
1.0
 40
1.0
 40
1.0
 40
1.0
 10
510.6424267971515
 20
127.7746703304987
 30
0.0
 10
510.6424267974326
 20
127.1971841179744
 30
0.0
 10
510.756379087329
 20
126.6245154885471
 30
0.0
 10
511.198385128384
 20
125.5570890127531
 30
0.0
 10
511.5227794944742
 20
125.0718676450904
 30
0.0
 10
512.3396277583562
 20
124.254839998229
 30
0.0
 10
512.8250161584258
 20
123.9306951715934
 30
0.0
 10
513.8923451803806
 20
123.4884550823857
 30
0.0
 10
514.4649663953792
 20
123.3746703301352
 30
0.0
 10
515.0424267971516
 20
123.3746703304986
 30
0.0
  0
LINE
  5
35C
330
1F
100
AcDbEntity
  8
0
  6
Continuous
 62
     7
370
    25
100
AcDbLine
 10
510.6695672606
 20
264.0746703305
 30
0.0
 11
510.6424267972
 21
264.0746703305
 31
0.0
  0
SPLINE
  5
35D
330
1F
100
AcDbEntity
  8
0
  6
Continuous
 62
     7
370
    25
100
AcDbSpline
210
0.0
220
0.0
230
1.0
 70
     8
 71
     3
 72
    23
 73
    19
 74
     0
 42
0.00000001
 43
0.00000001
 40
0.0
 40
0.0
 40
0.0
 40
0.0
 40
0.0315338342457166
 40
0.0628423003168045
 40
0.0940004534619401
 40
0.1250844377836216
 40
0.1561709424023218
 40
0.1873366378335071
 40
0.2186576130452394
 40
0.2502088336067566
 40
0.3749695003713936
 40
0.4998105935523045
 40
0.6245160862956816
 40
0.7493021538001409
 40
0.8122694844689385
 40
0.8746311251507931
 40
0.9370028153758877
 40
1.0
 40
1.0
 40
1.0
 40
1.0
 10
510.6424267971515
 20
264.0746703304986
 30
0.0
 10
510.6434253861784
 20
264.1472661690811
 30
0.0
 10
510.6454154274471
 20
264.2919390133158
 30
0.0
 10
510.6616848829842
 20
264.5078387306352
 30
0.0
 10
510.6877098963793
 20
264.721676508326
 30
0.0
 10
510.7244237954128
 20
264.9334485388146
 30
0.0
 10
510.7715791833633
 20
265.1431520405564
 30
0.0
 10
510.8292353730117
 20
265.3507787174177
 30
0.0
 10
510.897395132118
 20
265.5563423496866
 30
0.0
 10
511.0530465089432
 20
265.9592970421913
 30
0.0
 10
511.3586317796055
 20
266.5352664904604
 30
0.0
 10
511.9103999426133
 20
267.2040028885071
 30
0.0
 10
512.5788035483735
 20
267.7564512121708
 30
0.0
 10
513.218416358391
 20
268.0963476212477
 30
0.0
 10
513.7607264410083
 20
268.2919752169128
 30
0.0
 10
514.1804323501384
 20
268.3971450441431
 30
0.0
 10
514.6086359934991
 20
268.4627388305007
 30
0.0
 10
514.8973497093665
 20
268.470679957125
 30
0.0
 10
515.0424267971516
 20
268.4746703304987
 30
0.0
  0
LINE
  5
35E
330
1F
100
AcDbEntity
  8
0
  6
Continuous
 62
     7
370
    25
100
AcDbLine
 10
742.4424267972
 20
127.7746703305
 30
0.0
 11
742.4424267972
 21
264.0746703305
 31
0.0
  0
LINE
  5
35F
330
1F
100
AcDbEntity
  8
0
  6
Continuous
 62
     7
370
    25
100
AcDbLine
 10
510.6424267972
 20
127.7746703305
 30
0.0
 11
510.6424267972
 21
264.0746703305
 31
0.0
  0
SPLINE
  5
360
330
1F
100
AcDbEntity
  8
0
  6
Continuous
 62
     7
370
    25
100
AcDbSpline
210
0.0
220
0.0
230
1.0
 70
     8
 71
     3
 72
    20
 73
    16
 74
     0
 42
0.00000001
 43
0.00000001
 40
0.0
 40
0.0
 40
0.0
 40
0.0
 40
0.1250000000000004
 40
0.1250000000000004
 40
0.2500000000000007
 40
0.2500000000000007
 40
0.3750000000000011
 40
0.3750000000000011
 40
0.5000000000000014
 40
0.5000000000000014
 40
0.6250000000000018
 40
0.6250000000000018
 40
0.7500000000000022
 40
0.7500000000000022
 40
1.0
 40
1.0
 40
1.0
 40
1.0
 10
743.0424267971516
 20
264.0746703304986
 30
0.0
 10
743.0424267971516
 20
264.4120217151506
 30
0.0
 10
743.0079255843148
 20
264.7495014517502
 30
0.0
 10
742.8740200924399
 20
265.4041000238594
 30
0.0
 10
742.7747185622829
 20
265.7210174069095
 30
0.0
 10
742.522525733119
 20
266.3182896234233
 30
0.0
 10
742.3714862551018
 20
266.5958851081706
 30
0.0
 10
742.0245101098274
 20
267.11448628095
 30
0.0
 10
741.8282646212247
 20
267.355910738924
 30
0.0
 10
741.3861660525029
 20
267.8054737584368
 30
0.0
 10
741.1370572761059
 20
268.0155475287833
 30
0.0
 10
740.5962405621752
 20
268.3857453285384
 30
0.0
 10
740.3051831471926
 20
268.5457218178479
 30
0.0
 10
739.3872850900907
 20
268.9361277615528
 30
0.0
 10
738.7150844371031
 20
269.0746703304987
 30
0.0
 10
738.0424267971516
 20
269.0746703304986
 30
0.0
  0
LINE
  5
361
330
1F
100
AcDbEntity
  8
0
  6
Continuous
 62
     7
370
    25
100
AcDbLine
 10
743.0424267972
 20
127.7746703305
 30
0.0
 11
743.0424267972
 21
264.0746703305
 31
0.0
  0
SPLINE
  5
362
330
1F
100
AcDbEntity
  8
0
  6
Continuous
 62
     7
370
    25
100
AcDbSpline
210
0.0
220
0.0
230
1.0
 70
     8
 71
     3
 72
    20
 73
    16
 74
     0
 42
0.00000001
 43
0.00000001
 40
0.0
 40
0.0
 40
0.0
 40
0.0
 40
0.1250000000000004
 40
0.1250000000000004
 40
0.2500000000000007
 40
0.2500000000000007
 40
0.3750000000000011
 40
0.3750000000000011
 40
0.5000000000000014
 40
0.5000000000000014
 40
0.6250000000000018
 40
0.6250000000000018
 40
0.7500000000000022
 40
0.7500000000000022
 40
1.0
 40
1.0
 40
1.0
 40
1.0
 10
743.0424267971516
 20
127.7746703304987
 30
0.0
 10
743.0424267971516
 20
127.4373189458467
 30
0.0
 10
743.0079255843144
 20
127.099839209247
 30
0.0
 10
742.8740200924398
 20
126.4452406371379
 30
0.0
 10
742.7747185622828
 20
126.128323254088
 30
0.0
 10
742.5225257331186
 20
125.5310510375741
 30
0.0
 10
742.3714862551016
 20
125.2534555528267
 30
0.0
 10
742.024510109827
 20
124.7348543800474
 30
0.0
 10
741.8282646212244
 20
124.4934299220734
 30
0.0
 10
741.386166052503
 20
124.0438669025606
 30
0.0
 10
741.1370572761058
 20
123.8337931322141
 30
0.0
 10
740.596240562175
 20
123.463595332459
 30
0.0
 10
740.3051831471925
 20
123.3036188431495
 30
0.0
 10
739.3872850900908
 20
122.9132128994446
 30
0.0
 10
738.7150844371031
 20
122.7746703304986
 30
0.0
 10
738.0424267971516
 20
122.7746703304987
 30
0.0
  0
LINE
  5
363
330
1F
100
AcDbEntity
  8
0
  6
Continuous
 62
     7
370
    25
100
AcDbLine
 10
738.0424267972
 20
122.7746703305
 30
0.0
 11
515.0424267972
 21
122.7746703305
 31
0.0
  0
SPLINE
  5
364
330
1F
100
AcDbEntity
  8
0
  6
Continuous
 62
     7
370
    25
100
AcDbSpline
210
0.0
220
0.0
230
1.0
 70
     8
 71
     3
 72
    25
 73
    21
 74
     0
 42
0.00000001
 43
0.00000001
 40
0.0
 40
0.0
 40
0.0
 40
0.0
 40
0.0280238204529838
 40
0.0558616951910177
 40
0.0835660387410366
 40
0.1111900257378772
 40
0.1387872953151946
 40
0.1664116422414594
 40
0.1941167035577434
 40
0.2219556497740209
 40
0.2499808893766423
 40
0.3747245422215813
 40
0.4995024099758894
 40
0.6243479524462837
 40
0.7492375706821927
 40
0.7997001478759918
 40
0.849693100612739
 40
0.8995301361897913
 40
0.9495278968631288
 40
1.0
 40
1.0
 40
1.0
 40
1.0
 10
510.0424267971516
 20
127.7746703304987
 30
0.0
 10
510.0433224692197
 20
127.7013561911988
 30
0.0
 10
510.0451078703268
 20
127.5552143719692
 30
0.0
 10
510.0596882870372
 20
127.3369949211736
 30
0.0
 10
510.0830064202244
 20
127.1206361714993
 30
0.0
 10
510.1159004291102
 20
126.90614016358
 30
0.0
 10
510.158146848742
 20
126.6935097453556
 30
0.0
 10
510.2098061187625
 20
126.4827461378262
 30
0.0
 10
510.2708563032259
 20
126.2738560554527
 30
0.0
 10
510.34131952372
 20
126.0668249710342
 30
0.0
 10
510.512641134498
 20
125.6264903129659
 30
0.0
 10
510.8552367232949
 20
124.980212076312
 30
0.0
 10
511.482034560521
 20
124.2198532747065
 30
0.0
 10
512.2417341615708
 20
123.5915121022222
 30
0.0
 10
512.9401255826008
 20
123.2201240429051
 30
0.0
 10
513.4931459170677
 20
123.0149231320644
 30
0.0
 10
513.8717744947943
 20
122.9072645452729
 30
0.0
 10
514.2565478493274
 20
122.830995197988
 30
0.0
 10
514.6474681245384
 20
122.783366046107
 30
0.0
 10
514.9103601806755
 20
122.777578011271
 30
0.0
 10
515.0424267971516
 20
122.7746703304986
 30
0.0
  0
LINE
  5
365
330
1F
100
AcDbEntity
  8
0
  6
Continuous
 62
     7
370
    25
100
AcDbLine
 10
510.0424267972
 20
127.7746703305
 30
0.0
 11
510.0424267972
 21
264.0746703305
 31
0.0
  0
SPLINE
  5
366
330
1F
100
AcDbEntity
  8
0
  6
Continuous
 62
     7
370
    25
100
AcDbSpline
210
0.0
220
0.0
230
1.0
 70
     8
 71
     3
 72
    20
 73
    16
 74
     0
 42
0.00000001
 43
0.00000001
 40
0.0
 40
0.0
 40
0.0
 40
0.0
 40
0.1250000000000002
 40
0.1250000000000002
 40
0.2500000000000005
 40
0.2500000000000005
 40
0.3750000000000008
 40
0.3750000000000008
 40
0.500000000000001
 40
0.500000000000001
 40
0.6250000000000012
 40
0.6250000000000012
 40
0.7500000000000016
 40
0.7500000000000016
 40
1.0
 40
1.0
 40
1.0
 40
1.0
 10
510.0424267971516
 20
264.0746703304986
 30
0.0
 10
510.0424267971515
 20
264.4120217151506
 30
0.0
 10
510.0769280099886
 20
264.7495014517502
 30
0.0
 10
510.2108335018635
 20
265.4041000238594
 30
0.0
 10
510.3101350320203
 20
265.7210174069094
 30
0.0
 10
510.5623278611846
 20
266.3182896234231
 30
0.0
 10
510.7133673392017
 20
266.5958851081706
 30
0.0
 10
511.060343484476
 20
267.1144862809499
 30
0.0
 10
511.2565889730787
 20
267.3559107389239
 30
0.0
 10
511.6986875418003
 20
267.8054737584367
 30
0.0
 10
511.9477963181973
 20
268.0155475287832
 30
0.0
 10
512.4886130321282
 20
268.3857453285383
 30
0.0
 10
512.7796704471107
 20
268.5457218178478
 30
0.0
 10
513.6975685042123
 20
268.9361277615527
 30
0.0
 10
514.3697691572002
 20
269.0746703304987
 30
0.0
 10
515.0424267971516
 20
269.0746703304986
 30
0.0
  0
LINE
  5
367
330
1F
100
AcDbEntity
  8
0
  6
Continuous
 62
     7
370
    25
100
AcDbLine
 10
738.0424267972
 20
269.0746703305
 30
0.0
 11
515.0424267972
 21
269.0746703305
 31
0.0
  0
SPLINE
  5
368
330
1F
100
AcDbEntity
  8
0
  6
Continuous
 62
     7
370
    25
100
AcDbSpline
210
0.0
220
0.0
230
1.0
 70
    24
 71
     3
 72
    10
 73
     6
 74
     0
 42
0.00000001
 43
0.00000001
 40
0.0
 40
0.0
 40
0.0
 40
0.0
 40
0.25
 40
0.5
 40
0.7144129577077662
 40
0.7144129577077662
 40
0.7144129577077662
 40
0.7144129577077662
 10
738.0424267971516
 20
122.7746703304987
 30
0.0
 10
738.0424267971516
 20
122.1737785821159
 30
0.0
 10
738.0424267971516
 20
121.0135922198674
 30
0.0
 10
738.0424267971516
 20
119.4852694760247
 30
0.0
 10
738.0424267971516
 20
118.5757244267837
 30
0.0
 10
738.0424267971516
 20
118.1746692493145
 30
0.0
  0
SPLINE
  5
369
330
1F
100
AcDbEntity
  8
0
  6
Continuous
 62
     7
370
    25
100
AcDbSpline
210
0.0
220
0.0
230
1.0
 70
    24
 71
     3
 72
     8
 73
     4
 74
     0
 42
0.00000001
 43
0.00000001
 40
0.0
 40
0.0
 40
0.0
 40
0.0
 40
1.0
 40
1.0
 40
1.0
 40
1.0
 10
738.0424267971516
 20
118.1746692493145
 30
0.0
 10
738.0424267971516
 20
117.6404843607058
 30
0.0
 10
738.0424267971516
 20
117.1397987613158
 30
0.0
 10
738.0424267971516
 20
116.6746703304987
 30
0.0
  0
LINE
  5
36A
330
1F
100
AcDbEntity
  8
0
  6
Continuous
 62
     7
370
    25
100
AcDbLine
 10
515.0424267972
 20
116.6746703305
 30
0.0
 11
738.0424267972
 21
116.6746703305
 31
0.0
  0
SPLINE
  5
36B
330
1F
100
AcDbEntity
  8
0
  6
Continuous
 62
     7
370
    25
100
AcDbSpline
210
0.0
220
0.0
230
1.0
 70
    24
 71
     3
 72
     8
 73
     4
 74
     0
 42
0.00000001
 43
0.00000001
 40
0.0
 40
0.0
 40
0.0
 40
0.0
 40
1.0
 40
1.0
 40
1.0
 40
1.0
 10
515.0424267971515
 20
118.1746703305001
 30
0.0
 10
515.0424267971515
 20
117.6404880794431
 30
0.0
 10
515.0424267971516
 20
117.1397987371958
 30
0.0
 10
515.0424267971516
 20
116.6746703304987
 30
0.0
  0
SPLINE
  5
36C
330
1F
100
AcDbEntity
  8
0
  6
Continuous
 62
     7
370
    25
100
AcDbSpline
210
0.0
220
0.0
230
1.0
 70
    24
 71
     3
 72
     8
 73
     4
 74
     0
 42
0.00000001
 43
0.00000001
 40
0.0
 40
0.0
 40
0.0
 40
0.0
 40
1.0
 40
1.0
 40
1.0
 40
1.0
 10
515.0424267971516
 20
122.7746703304987
 30
0.0
 10
515.0424267971516
 20
121.0575313531853
 30
0.0
 10
515.0424267971516
 20
119.5109599069399
 30
0.0
 10
515.0424267971516
 20
118.1746714118479
 30
0.0
  0
SPLINE
  5
36D
330
1F
100
AcDbEntity
  8
0
  6
Continuous
 62
     7
370
    25
100
AcDbSpline
210
0.0
220
0.0
230
1.0
 70
    24
 71
     3
 72
    10
 73
     6
 74
     0
 42
0.00000001
 43
0.00000001
 40
0.0
 40
0.0
 40
0.0
 40
0.0
 40
0.5
 40
0.5
 40
1.0
 40
1.0
 40
1.0
 40
1.0
 10
501.5424267971694
 20
127.7746703304987
 30
0.0
 10
502.7531155296312
 20
127.7746703304987
 30
0.0
 10
504.0844998662334
 20
127.7746703304987
 30
0.0
 10
506.9365211139973
 20
127.7746703304987
 30
0.0
 10
508.4570844016887
 20
127.7746703304986
 30
0.0
 10
510.0424267971515
 20
127.7746703304987
 30
0.0
  0
SPLINE
  5
36E
330
1F
100
AcDbEntity
  8
0
  6
Continuous
 62
     7
370
    25
100
AcDbSpline
210
0.0
220
0.0
230
1.0
 70
    24
 71
     3
 72
     8
 73
     4
 74
     0
 42
0.00000001
 43
0.00000001
 40
0.0
 40
0.0
 40
0.0
 40
0.0
 40
1.0
 40
1.0
 40
1.0
 40
1.0
 10
500.0424267971515
 20
127.7746703304987
 30
0.0
 10
500.5187234478552
 20
127.7746703304987
 30
0.0
 10
501.0193363277514
 20
127.7746703304987
 30
0.0
 10
501.5424267971694
 20
127.7746703304987
 30
0.0
  0
LINE
  5
36F
330
1F
100
AcDbEntity
  8
0
  6
Continuous
 62
     7
370
    25
100
AcDbLine
 10
500.0424267972
 20
264.0746703305
 30
0.0
 11
500.0424267972
 21
127.7746703305
 31
0.0
  0
SPLINE
  5
370
330
1F
100
AcDbEntity
  8
0
  6
Continuous
 62
     7
370
    25
100
AcDbSpline
210
0.0
220
0.0
230
1.0
 70
    24
 71
     3
 72
     8
 73
     4
 74
     0
 42
0.00000001
 43
0.00000001
 40
0.0
 40
0.0
 40
0.0
 40
0.0
 40
1.0
 40
1.0
 40
1.0
 40
1.0
 10
500.0424267971516
 20
264.0746703304986
 30
0.0
 10
500.5187232537428
 20
264.0746703304986
 30
0.0
 10
501.019347576148
 20
264.0746703304986
 30
0.0
 10
501.5424289636053
 20
264.0746703304986
 30
0.0
  0
SPLINE
  5
371
330
1F
100
AcDbEntity
  8
0
  6
Continuous
 62
     7
370
    25
100
AcDbSpline
210
0.0
220
0.0
230
1.0
 70
    24
 71
     3
 72
    11
 73
     7
 74
     0
 42
0.00000001
 43
0.00000001
 40
0.1776516320569171
 40
0.1776516320569171
 40
0.1776516320569171
 40
0.1776516320569171
 40
0.25
 40
0.5
 40
0.75
 40
1.0
 40
1.0
 40
1.0
 40
1.0
 10
501.5424267971629
 20
264.0746703304986
 30
0.0
 10
501.7554506096292
 20
264.0746703304986
 30
0.0
 10
502.7211734711213
 20
264.0746703304986
 30
0.0
 10
504.5626972771222
 20
264.0746703304986
 30
0.0
 10
507.1984546488336
 20
264.0746703304986
 30
0.0
 10
509.0785147437824
 20
264.0746703304986
 30
0.0
 10
510.0424267971516
 20
264.0746703304986
 30
0.0
  0
SPLINE
  5
372
330
1F
100
AcDbEntity
  8
0
  6
Continuous
 62
     7
370
    25
100
AcDbSpline
210
0.0
220
0.0
230
1.0
 70
    24
 71
     3
 72
    10
 73
     6
 74
     0
 42
0.00000001
 43
0.00000001
 40
0.0
 40
0.0
 40
0.0
 40
0.0
 40
0.25
 40
0.5
 40
0.7144129577077662
 40
0.7144129577077662
 40
0.7144129577077662
 40
0.7144129577077662
 10
515.0424267971516
 20
269.0746703304986
 30
0.0
 10
515.0424267971516
 20
269.6755620788813
 30
0.0
 10
515.0424267971516
 20
270.8357484411299
 30
0.0
 10
515.0424267971516
 20
272.3640711849726
 30
0.0
 10
515.0424267971516
 20
273.2736162342136
 30
0.0
 10
515.0424267971516
 20
273.6746714116828
 30
0.0
  0
SPLINE
  5
373
330
1F
100
AcDbEntity
  8
0
  6
Continuous
 62
     7
370
    25
100
AcDbSpline
210
0.0
220
0.0
230
1.0
 70
    24
 71
     3
 72
     8
 73
     4
 74
     0
 42
0.00000001
 43
0.00000001
 40
0.0
 40
0.0
 40
0.0
 40
0.0
 40
1.0
 40
1.0
 40
1.0
 40
1.0
 10
515.0424267971516
 20
273.6746714116828
 30
0.0
 10
515.0424267971516
 20
274.2088563002915
 30
0.0
 10
515.0424267971516
 20
274.7095418996815
 30
0.0
 10
515.0424267971516
 20
275.1746703304987
 30
0.0
  0
LINE
  5
374
330
1F
100
AcDbEntity
  8
0
  6
Continuous
 62
     7
370
    25
100
AcDbLine
 10
515.0424267972
 20
275.1746703305
 30
0.0
 11
738.0424267972
 21
275.1746703305
 31
0.0
  0
SPLINE
  5
375
330
1F
100
AcDbEntity
  8
0
  6
Continuous
 62
     7
370
    25
100
AcDbSpline
210
0.0
220
0.0
230
1.0
 70
    24
 71
     3
 72
     8
 73
     4
 74
     0
 42
0.00000001
 43
0.00000001
 40
0.0
 40
0.0
 40
0.0
 40
0.0
 40
1.0
 40
1.0
 40
1.0
 40
1.0
 10
738.0424267971516
 20
273.6746703304972
 30
0.0
 10
738.0424267971516
 20
274.2088525815542
 30
0.0
 10
738.0424267971516
 20
274.7095419238015
 30
0.0
 10
738.0424267971516
 20
275.1746703304987
 30
0.0
  0
SPLINE
  5
376
330
1F
100
AcDbEntity
  8
0
  6
Continuous
 62
     7
370
    25
100
AcDbSpline
210
0.0
220
0.0
230
1.0
 70
    24
 71
     3
 72
     8
 73
     4
 74
     0
 42
0.00000001
 43
0.00000001
 40
0.0
 40
0.0
 40
0.0
 40
0.0
 40
1.0
 40
1.0
 40
1.0
 40
1.0
 10
738.0424267971516
 20
269.0746703304987
 30
0.0
 10
738.0424267971516
 20
270.7918097709916
 30
0.0
 10
738.0424267971516
 20
272.3383815879464
 30
0.0
 10
738.0424267971516
 20
273.6746703304972
 30
0.0
  0
SPLINE
  5
377
330
1F
100
AcDbEntity
  8
0
  6
Continuous
 62
     7
370
    25
100
AcDbSpline
210
0.0
220
0.0
230
1.0
 70
     8
 71
     3
 72
    17
 73
    13
 74
     0
 42
0.00000001
 43
0.00000001
 40
0.0
 40
0.0
 40
0.0
 40
0.0
 40
0.4999999999999979
 40
0.4999999999999979
 40
0.7499999999999969
 40
0.7499999999999969
 40
0.8124999999999944
 40
0.8437499999999953
 40
0.8437499999999953
 40
0.8749999999999962
 40
0.8749999999999962
 40
1.0
 40
1.0
 40
1.0
 40
1.0
 10
515.0424267971516
 20
118.1746703353443
 30
0.0
 10
513.3698155669761
 20
118.1746703353443
 30
0.0
 10
511.6992386542151
 20
118.1746703304986
 30
0.0
 10
509.1952234983883
 20
118.1746703304987
 30
0.0
 10
508.3608132468603
 20
118.1746703304986
 30
0.0
 10
507.3179082141017
 20
118.1746703304987
 30
0.0
 10
507.0050421720475
 20
118.1746703304987
 30
0.0
 10
506.6921713778793
 20
118.1746703304987
 30
0.0
 10
506.4835885740062
 20
118.1746703304986
 30
0.0
 10
506.3792109890845
 20
118.1746703304986
 30
0.0
 10
505.8597116394599
 20
118.1746703304987
 30
0.0
 10
505.4495573624899
 20
118.1746703304988
 30
0.0
 10
505.0424267971516
 20
118.1746703304988
 30
0.0
  0
SPLINE
  5
378
330
1F
100
AcDbEntity
  8
0
  6
Continuous
 62
     7
370
    25
100
AcDbSpline
210
0.0
220
0.0
230
1.0
 70
     8
 71
     3
 72
    20
 73
    16
 74
     0
 42
0.00000001
 43
0.00000001
 40
0.0
 40
0.0
 40
0.0
 40
0.0
 40
0.1249999999999991
 40
0.1249999999999991
 40
0.2499999999999982
 40
0.2499999999999982
 40
0.3749999999999973
 40
0.3749999999999973
 40
0.4999999999999964
 40
0.4999999999999964
 40
0.7499999999999947
 40
0.7499999999999947
 40
0.8749999999999973
 40
0.8749999999999973
 40
1.0
 40
1.0
 40
1.0
 40
1.0
 10
505.0424267971516
 20
118.1746703304987
 30
0.0
 10
504.8182824050998
 20
118.1746703304986
 30
0.0
 10
504.595295942311
 20
118.196050221381
 30
0.0
 10
504.1531420108021
 20
118.2820465031822
 30
0.0
 10
503.9314959947741
 20
118.3477908778642
 30
0.0
 10
503.5080526383277
 20
118.5206268810886
 30
0.0
 10
503.3060786070177
 20
118.6270533302866
 30
0.0
 10
502.9222772425107
 20
118.8804190384137
 30
0.0
 10
502.7407324455554
 20
119.0279924679735
 30
0.0
 10
502.2517530560805
 20
119.5129713561968
 30
0.0
 10
501.9876186911511
 20
119.905866903711
 30
0.0
 10
501.7230961881938
 20
120.5412357976686
 30
0.0
 10
501.6550109949319
 20
120.7644785954109
 30
0.0
 10
501.5649541230667
 20
121.2161742969913
 30
0.0
 10
501.5424267971516
 20
121.4443530411527
 30
0.0
 10
501.5424267971516
 20
121.6746703304987
 30
0.0
  0
SPLINE
  5
379
330
1F
100
AcDbEntity
  8
0
  6
Continuous
 62
     7
370
    25
100
AcDbSpline
210
0.0
220
0.0
230
1.0
 70
    24
 71
     3
 72
    16
 73
    12
 74
     0
 42
0.00000001
 43
0.00000001
 40
0.0
 40
0.0
 40
0.0
 40
0.0
 40
0.0624999999999991
 40
0.0624999999999991
 40
0.1249999999999983
 40
0.1249999999999983
 40
0.2499999999999966
 40
0.2499999999999966
 40
0.5
 40
0.5
 40
1.0
 40
1.0
 40
1.0
 40
1.0
 10
501.5424267971516
 20
121.6746703304987
 30
0.0
 10
501.5424267971516
 20
121.8011588793797
 30
0.0
 10
501.5424267971516
 20
121.9278087402593
 30
0.0
 10
501.5424267971516
 20
122.1814694615735
 30
0.0
 10
501.5424267971516
 20
122.3085494801205
 30
0.0
 10
501.5424267971516
 20
122.6897818341804
 30
0.0
 10
501.5424267971516
 20
122.943929538449
 30
0.0
 10
501.5424267971516
 20
123.7063508522224
 30
0.0
 10
501.5424267971516
 20
124.2145900498667
 30
0.0
 10
501.5424267971516
 20
125.739308952341
 30
0.0
 10
501.5424267971513
 20
126.7559241335804
 30
0.0
 10
501.5424267971514
 20
127.7746703319141
 30
0.0
  0
SPLINE
  5
37A
330
1F
100
AcDbEntity
  8
0
  6
Continuous
 62
     7
370
    25
100
AcDbSpline
210
0.0
220
0.0
230
1.0
 70
    24
 71
     3
 72
    10
 73
     6
 74
     0
 42
0.00000001
 43
0.00000001
 40
0.0
 40
0.0
 40
0.0
 40
0.0
 40
0.5
 40
0.5
 40
1.0
 40
1.0
 40
1.0
 40
1.0
 10
751.5424267971338
 20
264.0746703304986
 30
0.0
 10
750.331738064672
 20
264.0746703304986
 30
0.0
 10
749.0003537280699
 20
264.0746703304986
 30
0.0
 10
746.1483324803058
 20
264.0746703304986
 30
0.0
 10
744.6277691926146
 20
264.0746703304987
 30
0.0
 10
743.0424267971517
 20
264.0746703304986
 30
0.0
  0
SPLINE
  5
37B
330
1F
100
AcDbEntity
  8
0
  6
Continuous
 62
     7
370
    25
100
AcDbSpline
210
0.0
220
0.0
230
1.0
 70
    24
 71
     3
 72
     8
 73
     4
 74
     0
 42
0.00000001
 43
0.00000001
 40
0.0
 40
0.0
 40
0.0
 40
0.0
 40
1.0
 40
1.0
 40
1.0
 40
1.0
 10
753.0424267971516
 20
264.0746703304986
 30
0.0
 10
752.5661301464479
 20
264.0746703304986
 30
0.0
 10
752.0655172665518
 20
264.0746703304986
 30
0.0
 10
751.5424267971338
 20
264.0746703304986
 30
0.0
  0
LINE
  5
37C
330
1F
100
AcDbEntity
  8
0
  6
Continuous
 62
     7
370
    25
100
AcDbLine
 10
753.0424267972
 20
264.0746703305
 30
0.0
 11
753.0424267972
 21
127.7746703305
 31
0.0
  0
SPLINE
  5
37D
330
1F
100
AcDbEntity
  8
0
  6
Continuous
 62
     7
370
    25
100
AcDbSpline
210
0.0
220
0.0
230
1.0
 70
    24
 71
     3
 72
     8
 73
     4
 74
     0
 42
0.00000001
 43
0.00000001
 40
0.0
 40
0.0
 40
0.0
 40
0.0
 40
1.0
 40
1.0
 40
1.0
 40
1.0
 10
753.0424267971516
 20
127.7746703304987
 30
0.0
 10
752.5661303405604
 20
127.7746703304987
 30
0.0
 10
752.0655060181551
 20
127.7746703304987
 30
0.0
 10
751.5424246306978
 20
127.7746703304987
 30
0.0
  0
SPLINE
  5
37E
330
1F
100
AcDbEntity
  8
0
  6
Continuous
 62
     7
370
    25
100
AcDbSpline
210
0.0
220
0.0
230
1.0
 70
    24
 71
     3
 72
    11
 73
     7
 74
     0
 42
0.00000001
 43
0.00000001
 40
0.1776516320569216
 40
0.1776516320569216
 40
0.1776516320569216
 40
0.1776516320569216
 40
0.25
 40
0.5
 40
0.75
 40
1.0
 40
1.0
 40
1.0
 40
1.0
 10
751.5424267971403
 20
127.7746703304987
 30
0.0
 10
751.3294029846738
 20
127.7746703304987
 30
0.0
 10
750.3636801231819
 20
127.7746703304987
 30
0.0
 10
748.522156317181
 20
127.7746703304987
 30
0.0
 10
745.8863989454696
 20
127.7746703304987
 30
0.0
 10
744.0063388505208
 20
127.7746703304987
 30
0.0
 10
743.0424267971516
 20
127.7746703304987
 30
0.0
  0
SPLINE
  5
37F
330
1F
100
AcDbEntity
  8
0
  6
Continuous
 62
     7
370
    25
100
AcDbSpline
210
0.0
220
0.0
230
1.0
 70
     8
 71
     3
 72
    20
 73
    16
 74
     0
 42
0.00000001
 43
0.00000001
 40
0.0
 40
0.0
 40
0.0
 40
0.0
 40
0.1250000000000009
 40
0.1250000000000009
 40
0.2500000000000017
 40
0.2500000000000017
 40
0.3750000000000026
 40
0.3750000000000026
 40
0.5000000000000034
 40
0.5000000000000034
 40
0.7500000000000051
 40
0.7500000000000051
 40
0.8750000000000026
 40
0.8750000000000026
 40
1.0
 40
1.0
 40
1.0
 40
1.0
 10
748.0424267971516
 20
273.6746703304987
 30
0.0
 10
748.2665711892033
 20
273.6746703304987
 30
0.0
 10
748.4895576519923
 20
273.6532904396163
 30
0.0
 10
748.931711583501
 20
273.5672941578151
 30
0.0
 10
749.153357599529
 20
273.5015497831332
 30
0.0
 10
749.5768009559755
 20
273.3287137799086
 30
0.0
 10
749.7787749872855
 20
273.2222873307107
 30
0.0
 10
750.1625763517925
 20
272.9689216225837
 30
0.0
 10
750.3441211487478
 20
272.8213481930238
 30
0.0
 10
750.8331005382228
 20
272.3363693048004
 30
0.0
 10
751.0972349031522
 20
271.9434737572862
 30
0.0
 10
751.3617574061094
 20
271.3081048633286
 30
0.0
 10
751.4298425993712
 20
271.0848620655864
 30
0.0
 10
751.5198994712365
 20
270.6331663640059
 30
0.0
 10
751.5424267971516
 20
270.4049876198446
 30
0.0
 10
751.5424267971516
 20
270.1746703304987
 30
0.0
  0
SPLINE
  5
380
330
1F
100
AcDbEntity
  8
0
  6
Continuous
 62
     7
370
    25
100
AcDbSpline
210
0.0
220
0.0
230
1.0
 70
    24
 71
     3
 72
    16
 73
    12
 74
     0
 42
0.00000001
 43
0.00000001
 40
0.0
 40
0.0
 40
0.0
 40
0.0
 40
0.0624999999999953
 40
0.0624999999999953
 40
0.1249999999999906
 40
0.1249999999999906
 40
0.2499999999999881
 40
0.2499999999999881
 40
0.4999999999999898
 40
0.4999999999999898
 40
1.0
 40
1.0
 40
1.0
 40
1.0
 10
751.5424267971515
 20
270.1746703304987
 30
0.0
 10
751.5424267971515
 20
270.0481817816175
 30
0.0
 10
751.5424267971515
 20
269.921531920738
 30
0.0
 10
751.5424267971516
 20
269.6678711994238
 30
0.0
 10
751.5424267971515
 20
269.5407911808767
 30
0.0
 10
751.5424267971516
 20
269.1595588268169
 30
0.0
 10
751.5424267971515
 20
268.9054111225483
 30
0.0
 10
751.5424267971515
 20
268.1429898087749
 30
0.0
 10
751.5424267971515
 20
267.6347506111306
 30
0.0
 10
751.5424267971515
 20
266.1100317086563
 30
0.0
 10
751.5424267971516
 20
265.0934165274169
 30
0.0
 10
751.5424267971516
 20
264.0746703290832
 30
0.0
  0
SPLINE
  5
381
330
1F
100
AcDbEntity
  8
0
  6
Continuous
 62
     7
370
    25
100
AcDbSpline
210
0.0
220
0.0
230
1.0
 70
     8
 71
     3
 72
    17
 73
    13
 74
     0
 42
0.00000001
 43
0.00000001
 40
0.0
 40
0.0
 40
0.0
 40
0.0
 40
0.5000000000000062
 40
0.5000000000000062
 40
0.7500000000000093
 40
0.7500000000000093
 40
0.8125000000000111
 40
0.8437500000000099
 40
0.8437500000000099
 40
0.8750000000000088
 40
0.8750000000000088
 40
1.0
 40
1.0
 40
1.0
 40
1.0
 10
738.0424267971506
 20
273.674670325653
 30
0.0
 10
739.7150380480231
 20
273.674670325653
 30
0.0
 10
741.3856149528532
 20
273.6746703304987
 30
0.0
 10
743.8896301273393
 20
273.6746703304987
 30
0.0
 10
744.7240403842299
 20
273.6746703304987
 30
0.0
 10
745.7669454260407
 20
273.6746703304987
 30
0.0
 10
746.0798114707922
 20
273.6746703304985
 30
0.0
 10
746.3926822676752
 20
273.6746703304987
 30
0.0
 10
746.6012650733662
 20
273.6746703304987
 30
0.0
 10
746.7056426594165
 20
273.6746703304987
 30
0.0
 10
747.225142006163
 20
273.6746703304987
 30
0.0
 10
747.6352962623251
 20
273.6746703304986
 30
0.0
 10
748.0424267971516
 20
273.6746703304986
 30
0.0
  0
SPLINE
  5
382
330
1F
100
AcDbEntity
  8
0
  6
Continuous
 62
     7
370
    25
100
AcDbSpline
210
0.0
220
0.0
230
1.0
 70
    24
 71
     3
 72
    16
 73
    12
 74
     0
 42
0.00000001
 43
0.00000001
 40
0.0
 40
0.0
 40
0.0
 40
0.0
 40
0.0624999999999987
 40
0.0624999999999987
 40
0.1249999999999975
 40
0.1249999999999975
 40
0.2499999999999949
 40
0.2499999999999949
 40
0.4999999999999966
 40
0.4999999999999966
 40
1.0
 40
1.0
 40
1.0
 40
1.0
 10
751.5424267971515
 20
121.6746703304987
 30
0.0
 10
751.5424267971515
 20
121.8011588793797
 30
0.0
 10
751.5424267971515
 20
121.9278087402593
 30
0.0
 10
751.5424267971515
 20
122.1814694615735
 30
0.0
 10
751.5424267971516
 20
122.3085494801205
 30
0.0
 10
751.5424267971517
 20
122.6897818341804
 30
0.0
 10
751.5424267971516
 20
122.9439295384489
 30
0.0
 10
751.5424267971516
 20
123.7063508522224
 30
0.0
 10
751.5424267971516
 20
124.2145900498667
 30
0.0
 10
751.5424267971515
 20
125.7393089523411
 30
0.0
 10
751.5424267971515
 20
126.7559241335805
 30
0.0
 10
751.5424267971515
 20
127.7746703319142
 30
0.0
  0
SPLINE
  5
383
330
1F
100
AcDbEntity
  8
0
  6
Continuous
 62
     7
370
    25
100
AcDbSpline
210
0.0
220
0.0
230
1.0
 70
     8
 71
     3
 72
    20
 73
    16
 74
     0
 42
0.00000001
 43
0.00000001
 40
0.0
 40
0.0
 40
0.0
 40
0.0
 40
0.1250000000000005
 40
0.1250000000000005
 40
0.2500000000000009
 40
0.2500000000000009
 40
0.3750000000000014
 40
0.3750000000000014
 40
0.5000000000000019
 40
0.5000000000000019
 40
0.7499999999999974
 40
0.7499999999999974
 40
0.8749999999999988
 40
0.8749999999999988
 40
1.0
 40
1.0
 40
1.0
 40
1.0
 10
748.0424267971516
 20
118.1746703304987
 30
0.0
 10
748.2665711892033
 20
118.1746703304986
 30
0.0
 10
748.4895576519922
 20
118.196050221381
 30
0.0
 10
748.931711583501
 20
118.2820465031822
 30
0.0
 10
749.153357599529
 20
118.3477908778642
 30
0.0
 10
749.5768009559755
 20
118.5206268810886
 30
0.0
 10
749.7787749872855
 20
118.6270533302866
 30
0.0
 10
750.1625763517924
 20
118.8804190384137
 30
0.0
 10
750.3441211487477
 20
119.0279924679735
 30
0.0
 10
750.8331005382228
 20
119.5129713561968
 30
0.0
 10
751.0972349031521
 20
119.9058669037111
 30
0.0
 10
751.3617574061093
 20
120.5412357976687
 30
0.0
 10
751.4298425993712
 20
120.7644785954109
 30
0.0
 10
751.5198994712364
 20
121.2161742969914
 30
0.0
 10
751.5424267971515
 20
121.4443530411527
 30
0.0
 10
751.5424267971515
 20
121.6746703304987
 30
0.0
  0
SPLINE
  5
384
330
1F
100
AcDbEntity
  8
0
  6
Continuous
 62
     7
370
    25
100
AcDbSpline
210
0.0
220
0.0
230
1.0
 70
     8
 71
     3
 72
    17
 73
    13
 74
     0
 42
0.00000001
 43
0.00000001
 40
0.0
 40
0.0
 40
0.0
 40
0.0
 40
0.5000000000000063
 40
0.5000000000000063
 40
0.7500000000000115
 40
0.7500000000000115
 40
0.8125000000000098
 40
0.8437500000000088
 40
0.8437500000000088
 40
0.8750000000000079
 40
0.8750000000000079
 40
1.0
 40
1.0
 40
1.0
 40
1.0
 10
738.0424267971516
 20
118.1746703353443
 30
0.0
 10
739.7150380205401
 20
118.1746703353443
 30
0.0
 10
741.3856149671927
 20
118.1746703304987
 30
0.0
 10
743.8896301128447
 20
118.1746703304987
 30
0.0
 10
744.7240403609853
 20
118.1746703304987
 30
0.0
 10
745.7669453895114
 20
118.1746703304986
 30
0.0
 10
746.0798114302962
 20
118.1746703304987
 30
0.0
 10
746.392682223195
 20
118.1746703304987
 30
0.0
 10
746.6012650262217
 20
118.1746703304987
 30
0.0
 10
746.7056426107113
 20
118.1746703304987
 30
0.0
 10
747.2251419581693
 20
118.1746703304987
 30
0.0
 10
747.6352962334654
 20
118.1746703304987
 30
0.0
 10
748.0424267971516
 20
118.1746703304988
 30
0.0
  0
SPLINE
  5
385
330
1F
100
AcDbEntity
  8
0
  6
Continuous
 62
     7
370
    25
100
AcDbSpline
210
0.0
220
0.0
230
1.0
 70
    24
 71
     3
 72
    16
 73
    12
 74
     0
 42
0.00000001
 43
0.00000001
 40
0.0
 40
0.0
 40
0.0
 40
0.0
 40
0.0624999999999987
 40
0.0624999999999987
 40
0.1249999999999974
 40
0.1249999999999974
 40
0.2499999999999949
 40
0.2499999999999949
 40
0.4999999999999966
 40
0.4999999999999966
 40
1.0
 40
1.0
 40
1.0
 40
1.0
 10
501.5424267971516
 20
270.1746703304987
 30
0.0
 10
501.5424267971516
 20
270.0481817816175
 30
0.0
 10
501.5424267971517
 20
269.921531920738
 30
0.0
 10
501.5424267971517
 20
269.6678711994238
 30
0.0
 10
501.5424267971516
 20
269.5407911808768
 30
0.0
 10
501.5424267971516
 20
269.1595588268169
 30
0.0
 10
501.5424267971517
 20
268.9054111225483
 30
0.0
 10
501.5424267971517
 20
268.1429898087748
 30
0.0
 10
501.5424267971516
 20
267.6347506111306
 30
0.0
 10
501.5424267971517
 20
266.1100317086562
 30
0.0
 10
501.5424267971517
 20
265.0934165274168
 30
0.0
 10
501.5424267971517
 20
264.0746703290831
 30
0.0
  0
SPLINE
  5
386
330
1F
100
AcDbEntity
  8
0
  6
Continuous
 62
     7
370
    25
100
AcDbSpline
210
0.0
220
0.0
230
1.0
 70
     8
 71
     3
 72
    20
 73
    16
 74
     0
 42
0.00000001
 43
0.00000001
 40
0.0
 40
0.0
 40
0.0
 40
0.0
 40
0.1249999999999992
 40
0.1249999999999992
 40
0.2499999999999984
 40
0.2499999999999984
 40
0.3749999999999976
 40
0.3749999999999976
 40
0.4999999999999967
 40
0.4999999999999967
 40
0.7499999999999949
 40
0.7499999999999949
 40
0.8749999999999974
 40
0.8749999999999974
 40
1.0
 40
1.0
 40
1.0
 40
1.0
 10
505.0424267971516
 20
273.6746703304987
 30
0.0
 10
504.8182824050999
 20
273.6746703304987
 30
0.0
 10
504.5952959423109
 20
273.6532904396163
 30
0.0
 10
504.1531420108021
 20
273.5672941578152
 30
0.0
 10
503.9314959947741
 20
273.5015497831332
 30
0.0
 10
503.5080526383277
 20
273.3287137799087
 30
0.0
 10
503.3060786070177
 20
273.2222873307106
 30
0.0
 10
502.9222772425107
 20
272.9689216225837
 30
0.0
 10
502.7407324455554
 20
272.8213481930237
 30
0.0
 10
502.2517530560805
 20
272.3363693048004
 30
0.0
 10
501.9876186911511
 20
271.9434737572861
 30
0.0
 10
501.7230961881938
 20
271.3081048633287
 30
0.0
 10
501.6550109949319
 20
271.0848620655864
 30
0.0
 10
501.5649541230667
 20
270.6331663640059
 30
0.0
 10
501.5424267971516
 20
270.4049876198446
 30
0.0
 10
501.5424267971516
 20
270.1746703304987
 30
0.0
  0
SPLINE
  5
387
330
1F
100
AcDbEntity
  8
0
  6
Continuous
 62
     7
370
    25
100
AcDbSpline
210
0.0
220
0.0
230
1.0
 70
     8
 71
     3
 72
    17
 73
    13
 74
     0
 42
0.00000001
 43
0.00000001
 40
0.0
 40
0.0
 40
0.0
 40
0.0
 40
0.4999999999999918
 40
0.4999999999999918
 40
0.7499999999999877
 40
0.7499999999999877
 40
0.8124999999999867
 40
0.8437499999999881
 40
0.8437499999999881
 40
0.8749999999999896
 40
0.8749999999999896
 40
1.0
 40
1.0
 40
1.0
 40
1.0
 10
515.0424267971521
 20
273.674670325653
 30
0.0
 10
513.3698155530668
 20
273.674670325653
 30
0.0
 10
511.6992386143444
 20
273.6746703304987
 30
0.0
 10
509.1952234500333
 20
273.6746703304987
 30
0.0
 10
508.3608131965304
 20
273.6746703304987
 30
0.0
 10
507.3179081589522
 20
273.6746703304987
 30
0.0
 10
507.0050421154702
 20
273.6746703304987
 30
0.0
 10
506.6921713198566
 20
273.6746703304987
 30
0.0
 10
506.4835885150121
 20
273.6746703304987
 30
0.0
 10
506.3792109293939
 20
273.6746703304987
 30
0.0
 10
505.8597115848142
 20
273.6746703304987
 30
0.0
 10
505.4495573303259
 20
273.6746703304985
 30
0.0
 10
505.0424267971516
 20
273.6746703304986
 30
0.0
  0
LINE
  5
388
330
1F
100
AcDbEntity
  8
0
  6
Continuous
 62
     7
370
    25
100
AcDbLine
 10
738.0424267972
 20
275.1746703305
 30
0.0
 11
748.0424267972
 21
275.1746703305
 31
0.0
  0
SPLINE
  5
389
330
1F
100
AcDbEntity
  8
0
  6
Continuous
 62
     7
370
    25
100
AcDbSpline
210
0.0
220
0.0
230
1.0
 70
     8
 71
     3
 72
    14
 73
    10
 74
     0
 42
0.00000001
 43
0.00000001
 40
0.0
 40
0.0
 40
0.0
 40
0.0
 40
0.25
 40
0.25
 40
0.5
 40
0.5
 40
0.75
 40
0.75
 40
1.0
 40
1.0
 40
1.0
 40
1.0
 10
748.0424267971516
 20
275.1746703304987
 30
0.0
 10
748.6969252666495
 20
275.1746703304987
 30
0.0
 10
749.3511662189479
 20
275.0445337138402
 30
0.0
 10
750.560521699006
 20
274.5436022722699
 30
0.0
 10
751.1151603970262
 20
274.1730045424895
 30
0.0
 10
752.0407610091426
 20
273.2474039303732
 30
0.0
 10
752.4113587389228
 20
272.6927652323532
 30
0.0
 10
752.9122901804931
 20
271.4834097522951
 30
0.0
 10
753.0424267971516
 20
270.8291687999965
 30
0.0
 10
753.0424267971516
 20
270.1746703304987
 30
0.0
  0
LINE
  5
38A
330
1F
100
AcDbEntity
  8
0
  6
Continuous
 62
     7
370
    25
100
AcDbLine
 10
753.0424267972
 20
270.1746703305
 30
0.0
 11
753.0424267972
 21
264.0746703305
 31
0.0
  0
LINE
  5
38B
330
1F
100
AcDbEntity
  8
0
  6
Continuous
 62
     7
370
    25
100
AcDbLine
 10
515.0424267972
 20
116.6746703305
 30
0.0
 11
505.0424267972
 21
116.6746703305
 31
0.0
  0
SPLINE
  5
38C
330
1F
100
AcDbEntity
  8
0
  6
Continuous
 62
     7
370
    25
100
AcDbSpline
210
0.0
220
0.0
230
1.0
 70
     8
 71
     3
 72
    14
 73
    10
 74
     0
 42
0.00000001
 43
0.00000001
 40
0.0
 40
0.0
 40
0.0
 40
0.0
 40
0.25
 40
0.25
 40
0.5
 40
0.5
 40
0.75
 40
0.75
 40
1.0
 40
1.0
 40
1.0
 40
1.0
 10
505.0424267971516
 20
116.6746703304987
 30
0.0
 10
504.3879283276538
 20
116.6746703304986
 30
0.0
 10
503.7336873753552
 20
116.8048069471571
 30
0.0
 10
502.5243318952971
 20
117.3057383887274
 30
0.0
 10
501.969693197277
 20
117.6763361185077
 30
0.0
 10
501.0440925851607
 20
118.6019367306241
 30
0.0
 10
500.6734948553803
 20
119.1565754286442
 30
0.0
 10
500.17256341381
 20
120.3659309087023
 30
0.0
 10
500.0424267971516
 20
121.0201718610008
 30
0.0
 10
500.0424267971516
 20
121.6746703304987
 30
0.0
  0
LINE
  5
38D
330
1F
100
AcDbEntity
  8
0
  6
Continuous
 62
     7
370
    25
100
AcDbLine
 10
500.0424267972
 20
121.6746703305
 30
0.0
 11
500.0424267972
 21
127.7746703305
 31
0.0
  0
LINE
  5
38E
330
1F
100
AcDbEntity
  8
0
  6
Continuous
 62
     7
370
    25
100
AcDbLine
 10
500.0424267972
 20
270.1746703305
 30
0.0
 11
500.0424267972
 21
264.0746703305
 31
0.0
  0
SPLINE
  5
38F
330
1F
100
AcDbEntity
  8
0
  6
Continuous
 62
     7
370
    25
100
AcDbSpline
210
0.0
220
0.0
230
1.0
 70
     8
 71
     3
 72
    11
 73
     7
 74
     0
 42
0.00000001
 43
0.00000001
 40
0.0
 40
0.0
 40
0.0
 40
0.0
 40
0.25
 40
0.5
 40
0.75
 40
1.0
 40
1.0
 40
1.0
 40
1.0
 10
505.0424267971515
 20
275.1746703304941
 30
0.0
 10
504.4070528985177
 20
275.1746703304939
 30
0.0
 10
503.109394691388
 20
274.9282935000903
 30
0.0
 10
501.4165721028268
 20
273.8109300975066
 30
0.0
 10
500.2920766106279
 20
272.118275804671
 30
0.0
 10
500.0424267971583
 20
270.8141414076601
 30
0.0
 10
500.0424267971577
 20
270.1746703304987
 30
0.0
  0
LINE
  5
390
330
1F
100
AcDbEntity
  8
0
  6
Continuous
 62
     7
370
    25
100
AcDbLine
 10
515.0424267972
 20
275.1746703305
 30
0.0
 11
505.0424267972
 21
275.1746703305
 31
0.0
  0
LINE
  5
391
330
1F
100
AcDbEntity
  8
0
  6
Continuous
 62
     7
370
    25
100
AcDbLine
 10
753.0424267972
 20
121.6746703305
 30
0.0
 11
753.0424267972
 21
127.7746703305
 31
0.0
  0
SPLINE
  5
392
330
1F
100
AcDbEntity
  8
0
  6
Continuous
 62
     7
370
    25
100
AcDbSpline
210
0.0
220
0.0
230
1.0
 70
     8
 71
     3
 72
    26
 73
    22
 74
     0
 42
0.00000001
 43
0.00000001
 40
0.0
 40
0.0
 40
0.0
 40
0.0
 40
0.0247905077859675
 40
0.0496832744816084
 40
0.0746715583268538
 40
0.0997487283474806
 40
0.1249084988746118
 40
0.1436297730871214
 40
0.1873098441384714
 40
0.2501424576408229
 40
0.3745650384208921
 40
0.4372378685733565
 40
0.4998586030397826
 40
0.6243632200980685
 40
0.6870599251810176
 40
0.7494628885513713
 40
0.8743777344451729
 40
0.8971951792927634
 40
0.9371524869587824
 40
0.9818875824792208
 40
1.0
 40
1.0
 40
1.0
 40
1.0
 10
748.0424267971517
 20
116.6746703304987
 30
0.0
 10
748.1072828397225
 20
116.675409640959
 30
0.0
 10
748.2372624509777
 20
116.6768913114777
 30
0.0
 10
748.4323137876952
 20
116.6888267224281
 30
0.0
 10
748.6275171138975
 20
116.7078650331071
 30
0.0
 10
748.8225125109789
 20
116.734752863427
 30
0.0
 10
749.0001933654527
 20
116.7662154910634
 30
0.0
 10
749.2241999514433
 20
116.8141808791683
 30
0.0
 10
749.5411052925892
 20
116.8983836108644
 30
0.0
 10
750.1107067596357
 20
117.1019774119223
 30
0.0
 10
750.6918751973346
 20
117.4122076941968
 30
0.0
 10
751.2173102560142
 20
117.8018022459575
 30
0.0
 10
751.7025461617972
 20
118.2407663562477
 30
0.0
 10
752.1205985288319
 20
118.7495528562481
 30
0.0
 10
752.4570314270867
 20
119.3101858184276
 30
0.0
 10
752.7376963765576
 20
119.901832267711
 30
0.0
 10
752.8988607288151
 20
120.4320629371658
 30
0.0
 10
752.9865746769452
 20
120.9151607691017
 30
0.0
 10
753.0228300462571
 20
121.1942474762989
 30
0.0
 10
753.0406275534395
 20
121.4628766114473
 30
0.0
 10
753.0420242689737
 20
121.6272876778567
 30
0.0
 10
753.0424267971516
 20
121.6746703304986
 30
0.0
  0
LINE
  5
393
330
1F
100
AcDbEntity
  8
0
  6
Continuous
 62
     7
370
    25
100
AcDbLine
 10
738.0424267972
 20
116.6746703305
 30
0.0
 11
748.0424267972
 21
116.6746703305
 31
0.0
  0
LINE
  5
394
330
1F
100
AcDbEntity
  8
0
  6
Continuous
 62
     7
370
    25
100
AcDbLine
 10
753.2424267972
 20
195.9246703305
 30
0.0
 11
753.2424267972
 21
121.0746703305
 31
0.0
  0
SPLINE
  5
395
330
1F
100
AcDbEntity
  8
0
  6
Continuous
 62
     7
370
    25
100
AcDbSpline
210
0.0
220
0.0
230
1.0
 70
     8
 71
     3
 72
    14
 73
    10
 74
     0
 42
0.00000001
 43
0.00000001
 40
0.0
 40
0.0
 40
0.0
 40
0.0
 40
0.25
 40
0.25
 40
0.5
 40
0.5
 40
0.75
 40
0.75
 40
1.0
 40
1.0
 40
1.0
 40
1.0
 10
753.2424267971516
 20
121.0746703304986
 30
0.0
 10
753.2424267971516
 20
120.4294399374609
 30
0.0
 10
753.1545345622866
 20
119.8045495529284
 30
0.0
 10
752.7447984505202
 20
118.6325137503807
 30
0.0
 10
752.4158803061141
 20
118.085382139664
 30
0.0
 10
751.531714987986
 20
117.2012168215363
 30
0.0
 10
750.9845833772753
 20
116.8722986771272
 30
0.0
 10
749.8125475747163
 20
116.4625625653664
 30
0.0
 10
749.1876571901936
 20
116.3746703304987
 30
0.0
 10
748.5424267971515
 20
116.3746703304987
 30
0.0
  0
SPLINE
  5
396
330
1F
100
AcDbEntity
  8
0
  6
Continuous
 62
     7
370
    25
100
AcDbSpline
210
0.0
220
0.0
230
1.0
 70
     8
 71
     3
 72
    14
 73
    10
 74
     0
 42
0.00000001
 43
0.00000001
 40
0.0
 40
0.0
 40
0.0
 40
0.0
 40
0.25
 40
0.25
 40
0.5
 40
0.5
 40
0.75
 40
0.75
 40
1.0
 40
1.0
 40
1.0
 40
1.0
 10
753.2424267971516
 20
270.7746703304986
 30
0.0
 10
753.2424267971516
 20
271.4199007235364
 30
0.0
 10
753.1545345622866
 20
272.0447911080689
 30
0.0
 10
752.7447984505202
 20
273.2168269106166
 30
0.0
 10
752.4158803061141
 20
273.7639585213333
 30
0.0
 10
751.531714987986
 20
274.6481238394611
 30
0.0
 10
750.9845833772753
 20
274.9770419838702
 30
0.0
 10
749.8125475747163
 20
275.3867780956309
 30
0.0
 10
749.1876571901936
 20
275.4746703304987
 30
0.0
 10
748.5424267971515
 20
275.4746703304987
 30
0.0
  0
LINE
  5
397
330
1F
100
AcDbEntity
  8
0
  6
Continuous
 62
     7
370
    25
100
AcDbLine
 10
753.2424267972
 20
195.9246703305
 30
0.0
 11
753.2424267972
 21
270.7746703305
 31
0.0
  0
LINE
  5
398
330
1F
100
AcDbEntity
  8
0
  6
Continuous
 62
     7
370
    25
100
AcDbLine
 10
748.5424267972
 20
116.3746703305
 30
0.0
 11
626.5424267972
 21
116.3746703305
 31
0.0
  0
LINE
  5
399
330
1F
100
AcDbEntity
  8
0
  6
Continuous
 62
     7
370
    25
100
AcDbLine
 10
748.5424267972
 20
275.4746703305
 30
0.0
 11
626.5424267972
 21
275.4746703305
 31
0.0
  0
LINE
  5
39A
330
1F
100
AcDbEntity
  8
0
  6
Continuous
 62
     7
370
    25
100
AcDbLine
 10
504.5424267972
 20
275.4746703305
 30
0.0
 11
626.5424267972
 21
275.4746703305
 31
0.0
  0
LINE
  5
39B
330
1F
100
AcDbEntity
  8
0
  6
Continuous
 62
     7
370
    25
100
AcDbLine
 10
504.5424267972
 20
116.3746703305
 30
0.0
 11
626.5424267972
 21
116.3746703305
 31
0.0
  0
SPLINE
  5
39C
330
1F
100
AcDbEntity
  8
0
  6
Continuous
 62
     7
370
    25
100
AcDbSpline
210
0.0
220
0.0
230
1.0
 70
     8
 71
     3
 72
    14
 73
    10
 74
     0
 42
0.00000001
 43
0.00000001
 40
0.0
 40
0.0
 40
0.0
 40
0.0
 40
0.25
 40
0.25
 40
0.5
 40
0.5
 40
0.75
 40
0.75
 40
1.0
 40
1.0
 40
1.0
 40
1.0
 10
499.8424267971516
 20
270.7746703304986
 30
0.0
 10
499.8424267971516
 20
271.4199007235364
 30
0.0
 10
499.9303190320165
 20
272.0447911080689
 30
0.0
 10
500.340055143783
 20
273.2168269106166
 30
0.0
 10
500.6689732881891
 20
273.7639585213333
 30
0.0
 10
501.5531386063171
 20
274.6481238394611
 30
0.0
 10
502.100270217028
 20
274.9770419838702
 30
0.0
 10
503.2723060195869
 20
275.3867780956309
 30
0.0
 10
503.8971964041096
 20
275.4746703304987
 30
0.0
 10
504.5424267971516
 20
275.4746703304987
 30
0.0
  0
SPLINE
  5
39D
330
1F
100
AcDbEntity
  8
0
  6
Continuous
 62
     7
370
    25
100
AcDbSpline
210
0.0
220
0.0
230
1.0
 70
     8
 71
     3
 72
    14
 73
    10
 74
     0
 42
0.00000001
 43
0.00000001
 40
0.0
 40
0.0
 40
0.0
 40
0.0
 40
0.25
 40
0.25
 40
0.5
 40
0.5
 40
0.75
 40
0.75
 40
1.0
 40
1.0
 40
1.0
 40
1.0
 10
499.8424267971516
 20
121.0746703304986
 30
0.0
 10
499.8424267971516
 20
120.4294399374609
 30
0.0
 10
499.9303190320165
 20
119.8045495529284
 30
0.0
 10
500.340055143783
 20
118.6325137503807
 30
0.0
 10
500.6689732881891
 20
118.085382139664
 30
0.0
 10
501.5531386063171
 20
117.2012168215363
 30
0.0
 10
502.100270217028
 20
116.8722986771272
 30
0.0
 10
503.2723060195869
 20
116.4625625653664
 30
0.0
 10
503.8971964041096
 20
116.3746703304987
 30
0.0
 10
504.5424267971516
 20
116.3746703304987
 30
0.0
  0
LINE
  5
39E
330
1F
100
AcDbEntity
  8
0
  6
Continuous
 62
     7
370
    25
100
AcDbLine
 10
499.8424267972
 20
195.9246703305
 30
0.0
 11
499.8424267972
 21
270.7746703305
 31
0.0
  0
LINE
  5
39F
330
1F
100
AcDbEntity
  8
0
  6
Continuous
 62
     7
370
    25
100
AcDbLine
 10
499.8424267972
 20
195.9246703305
 30
0.0
 11
499.8424267972
 21
121.0746703305
 31
0.0
  0
SPLINE
  5
3A0
330
1F
100
AcDbEntity
  8
0
  6
Continuous
 62
     8
370
    25
100
AcDbSpline
210
0.0
220
0.0
230
1.0
 70
    24
 71
     3
 72
    10
 73
     6
 74
     0
 42
0.00000001
 43
0.00000001
 40
0.0
 40
0.0
 40
0.0
 40
0.0
 40
0.0776060380506682
 40
0.4915126855005656
 40
1.0
 40
1.0
 40
1.0
 40
1.0
 10
753.0424267971516
 20
195.9246703304987
 30
0.0
 10
753.0560027389191
 20
195.9246703304987
 30
0.0
 10
753.1419850640576
 20
195.9246703304987
 30
0.0
 10
753.2171732732423
 20
195.9246703304987
 30
0.0
 10
753.2334525399818
 20
195.9246703304987
 30
0.0
 10
753.2424267971516
 20
195.9246703304987
 30
0.0
  0
SPLINE
  5
3A1
330
1F
100
AcDbEntity
  8
0
  6
Continuous
 62
     8
370
    25
100
AcDbSpline
210
0.0
220
0.0
230
1.0
 70
    24
 71
     3
 72
    10
 73
     6
 74
     0
 42
0.00000001
 43
0.00000001
 40
0.0
 40
0.0
 40
0.0
 40
0.0
 40
0.2527894177820075
 40
0.5880858743755991
 40
0.9999999999999999
 40
0.9999999999999999
 40
0.9999999999999999
 40
0.9999999999999999
 10
752.9230793767238
 20
121.0746703304986
 30
0.0
 10
752.9803449090966
 20
121.0746703304986
 30
0.0
 10
753.1135666672404
 20
121.0746703304986
 30
0.0
 10
753.2209832326896
 20
121.0746703304987
 30
0.0
 10
753.2348064720512
 20
121.0746703304986
 30
0.0
 10
753.2424267971516
 20
121.0746703304986
 30
0.0
  0
SPLINE
  5
3A2
330
1F
100
AcDbEntity
  8
0
  6
Continuous
 62
     8
370
    25
100
AcDbSpline
210
0.0
220
0.0
230
1.0
 70
    24
 71
     3
 72
    11
 73
     7
 74
     0
 42
0.00000001
 43
0.00000001
 40
0.0
 40
0.0
 40
0.0
 40
0.0
 40
0.0652611699845059
 40
0.318272253303151
 40
0.624184539971355
 40
1.0
 40
1.0
 40
1.0
 40
1.0
 10
748.5424267971515
 20
116.7741265141885
 30
0.0
 10
748.5424267971515
 20
116.751959606134
 30
0.0
 10
748.5424267971515
 20
116.6438537941032
 30
0.0
 10
748.5424267971515
 20
116.5159473151396
 30
0.0
 10
748.5424267971515
 20
116.3927707847313
 30
0.0
 10
748.5424267971515
 20
116.3811026261164
 30
0.0
 10
748.5424267971515
 20
116.3746703304987
 30
0.0
  0
SPLINE
  5
3A3
330
1F
100
AcDbEntity
  8
0
  6
Continuous
 62
     8
370
    25
100
AcDbSpline
210
0.0
220
0.0
230
1.0
 70
    24
 71
     3
 72
    10
 73
     6
 74
     0
 42
0.00000001
 43
0.00000001
 40
0.0
 40
0.0
 40
0.0
 40
0.0
 40
0.2527894177820159
 40
0.5880858743756038
 40
1.0
 40
1.0
 40
1.0
 40
1.0
 10
752.9230793767238
 20
270.7746703304986
 30
0.0
 10
752.9803449090966
 20
270.7746703304986
 30
0.0
 10
753.1135666672404
 20
270.7746703304986
 30
0.0
 10
753.2209832326896
 20
270.7746703304986
 30
0.0
 10
753.2348064720512
 20
270.7746703304987
 30
0.0
 10
753.2424267971516
 20
270.7746703304986
 30
0.0
  0
SPLINE
  5
3A4
330
1F
100
AcDbEntity
  8
0
  6
Continuous
 62
     8
370
    25
100
AcDbSpline
210
0.0
220
0.0
230
1.0
 70
    24
 71
     3
 72
    11
 73
     7
 74
     0
 42
0.00000001
 43
0.00000001
 40
0.0
 40
0.0
 40
0.0
 40
0.0
 40
0.0652611699845114
 40
0.318272253303155
 40
0.6241845399713574
 40
1.0
 40
1.0
 40
1.0
 40
1.0
 10
748.5424267971515
 20
275.0752141468088
 30
0.0
 10
748.5424267971515
 20
275.0973810548633
 30
0.0
 10
748.5424267971516
 20
275.2054868668941
 30
0.0
 10
748.5424267971515
 20
275.3333933458577
 30
0.0
 10
748.5424267971515
 20
275.456569876266
 30
0.0
 10
748.5424267971515
 20
275.4682380348809
 30
0.0
 10
748.5424267971515
 20
275.4746703304987
 30
0.0
  0
SPLINE
  5
3A5
330
1F
100
AcDbEntity
  8
0
  6
Continuous
 62
     8
370
    25
100
AcDbSpline
210
0.0
220
0.0
230
1.0
 70
    24
 71
     3
 72
    10
 73
     6
 74
     0
 42
0.00000001
 43
0.00000001
 40
0.0
 40
0.0
 40
0.0
 40
0.0
 40
0.2290532352995204
 40
0.5750008497712723
 40
1.0
 40
1.0
 40
1.0
 40
1.0
 10
626.5424267971515
 20
116.6746703304986
 30
0.0
 10
626.5424267971515
 20
116.6246437684719
 30
0.0
 10
626.5424267971515
 20
116.4990602304839
 30
0.0
 10
626.5424267971515
 20
116.3965424000639
 30
0.0
 10
626.5424267971515
 20
116.3824429319708
 30
0.0
 10
626.5424267971515
 20
116.3746703304987
 30
0.0
  0
SPLINE
  5
3A6
330
1F
100
AcDbEntity
  8
0
  6
Continuous
 62
     8
370
    25
100
AcDbSpline
210
0.0
220
0.0
230
1.0
 70
    24
 71
     3
 72
    10
 73
     6
 74
     0
 42
0.00000001
 43
0.00000001
 40
0.0
 40
0.0
 40
0.0
 40
0.0
 40
0.2290532352995204
 40
0.5750008497712723
 40
1.0
 40
1.0
 40
1.0
 40
1.0
 10
626.5424267971515
 20
275.1746703304987
 30
0.0
 10
626.5424267971515
 20
275.2246968925254
 30
0.0
 10
626.5424267971515
 20
275.3502804305134
 30
0.0
 10
626.5424267971515
 20
275.4527982609334
 30
0.0
 10
626.5424267971515
 20
275.4668977290265
 30
0.0
 10
626.5424267971515
 20
275.4746703304987
 30
0.0
  0
SPLINE
  5
3A7
330
1F
100
AcDbEntity
  8
0
  6
Continuous
 62
     8
370
    25
100
AcDbSpline
210
0.0
220
0.0
230
1.0
 70
    24
 71
     3
 72
    11
 73
     7
 74
     0
 42
0.00000001
 43
0.00000001
 40
0.0
 40
0.0
 40
0.0
 40
0.0
 40
0.0652611699844999
 40
0.3182722533031466
 40
0.6241845399713527
 40
1.0
 40
1.0
 40
1.0
 40
1.0
 10
504.5424267971516
 20
275.0752141468088
 30
0.0
 10
504.5424267971516
 20
275.0973810548633
 30
0.0
 10
504.5424267971516
 20
275.2054868668941
 30
0.0
 10
504.5424267971517
 20
275.3333933458576
 30
0.0
 10
504.5424267971514
 20
275.456569876266
 30
0.0
 10
504.5424267971516
 20
275.468238034881
 30
0.0
 10
504.5424267971516
 20
275.4746703304987
 30
0.0
  0
SPLINE
  5
3A8
330
1F
100
AcDbEntity
  8
0
  6
Continuous
 62
     8
370
    25
100
AcDbSpline
210
0.0
220
0.0
230
1.0
 70
    24
 71
     3
 72
    11
 73
     7
 74
     0
 42
0.00000001
 43
0.00000001
 40
0.0
 40
0.0
 40
0.0
 40
0.0
 40
0.0652611699844999
 40
0.3182722533031466
 40
0.6241845399713527
 40
1.0
 40
1.0
 40
1.0
 40
1.0
 10
504.5424267971516
 20
116.7741265141885
 30
0.0
 10
504.5424267971516
 20
116.751959606134
 30
0.0
 10
504.5424267971516
 20
116.6438537941031
 30
0.0
 10
504.5424267971517
 20
116.5159473151396
 30
0.0
 10
504.5424267971514
 20
116.3927707847313
 30
0.0
 10
504.5424267971516
 20
116.3811026261164
 30
0.0
 10
504.5424267971516
 20
116.3746703304987
 30
0.0
  0
SPLINE
  5
3A9
330
1F
100
AcDbEntity
  8
0
  6
Continuous
 62
     8
370
    25
100
AcDbSpline
210
0.0
220
0.0
230
1.0
 70
    24
 71
     3
 72
    10
 73
     6
 74
     0
 42
0.00000001
 43
0.00000001
 40
0.0
 40
0.0
 40
0.0
 40
0.0
 40
0.2527894177819458
 40
0.5880858743755653
 40
1.0
 40
1.0
 40
1.0
 40
1.0
 10
500.1617742175794
 20
270.7746703304986
 30
0.0
 10
500.1045086852065
 20
270.7746703304987
 30
0.0
 10
499.9712869270627
 20
270.7746703304987
 30
0.0
 10
499.8638703616135
 20
270.7746703304986
 30
0.0
 10
499.8500471222519
 20
270.7746703304986
 30
0.0
 10
499.8424267971516
 20
270.7746703304986
 30
0.0
  0
SPLINE
  5
3AA
330
1F
100
AcDbEntity
  8
0
  6
Continuous
 62
     8
370
    25
100
AcDbSpline
210
0.0
220
0.0
230
1.0
 70
    24
 71
     3
 72
    10
 73
     6
 74
     0
 42
0.00000001
 43
0.00000001
 40
0.0
 40
0.0
 40
0.0
 40
0.0
 40
0.2527894177819466
 40
0.5880858743755656
 40
1.0
 40
1.0
 40
1.0
 40
1.0
 10
500.1617742175794
 20
121.0746703304986
 30
0.0
 10
500.1045086852065
 20
121.0746703304986
 30
0.0
 10
499.9712869270627
 20
121.0746703304987
 30
0.0
 10
499.8638703616135
 20
121.0746703304986
 30
0.0
 10
499.8500471222519
 20
121.0746703304986
 30
0.0
 10
499.8424267971515
 20
121.0746703304986
 30
0.0
  0
SPLINE
  5
3AB
330
1F
100
AcDbEntity
  8
0
  6
Continuous
 62
     8
370
    25
100
AcDbSpline
210
0.0
220
0.0
230
1.0
 70
    24
 71
     3
 72
    10
 73
     6
 74
     0
 42
0.00000001
 43
0.00000001
 40
0.0
 40
0.0
 40
0.0
 40
0.0
 40
0.0776060380505578
 40
0.4915126855005047
 40
1.0
 40
1.0
 40
1.0
 40
1.0
 10
500.0424267971515
 20
195.9246703304987
 30
0.0
 10
500.028850855384
 20
195.9246703304987
 30
0.0
 10
499.9428685302454
 20
195.9246703304987
 30
0.0
 10
499.8676803210609
 20
195.9246703304987
 30
0.0
 10
499.8514010543213
 20
195.9246703304987
 30
0.0
 10
499.8424267971516
 20
195.9246703304987
 30
0.0
  0
LINE
  5
3AC
330
1F
100
AcDbEntity
  8
SLD-0
  6
HIDDEN
100
AcDbLine
 10
600.8945746855
 20
209.1282648277
 30
0.0
 11
618.1659907343
 21
209.1282648277
 31
0.0
  0
LINE
  5
3AD
330
1F
100
AcDbEntity
  8
SLD-0
  6
HIDDEN
100
AcDbLine
 10
600.8945746855
 20
209.1282648277
 30
0.0
 11
600.8945746855
 21
188.5670552458
 31
0.0
  0
LINE
  5
3AE
330
1F
100
AcDbEntity
  8
SLD-0
  6
HIDDEN
100
AcDbLine
 10
600.8945746855
 20
188.5670552458
 30
0.0
 11
618.1659907343
 21
188.5670552458
 31
0.0
  0
LINE
  5
3AF
330
1F
100
AcDbEntity
  8
SLD-0
  6
HIDDEN
100
AcDbLine
 10
618.1659907343
 20
209.1282648277
 30
0.0
 11
618.1659907343
 21
188.5670552458
 31
0.0
  0
LINE
  5
3B0
330
1F
100
AcDbEntity
  8
SLD-0
  6
HIDDEN
100
AcDbLine
 10
660.3325488428
 20
181.5543298326
 30
0.0
 11
592.3615665904
 21
181.5543298326
 31
0.0
  0
LINE
  5
3B1
330
1F
100
AcDbEntity
  8
SLD-0
  6
HIDDEN
100
AcDbLine
 10
600.1467033444
 20
170.7020581912
 30
0.0
 11
652.9874397127
 21
170.7020581912
 31
0.0
  0
ARC
  5
3B2
330
1F
100
AcDbEntity
  8
SLD-0
  6
HIDDEN
 62
     7
100
AcDbCircle
 10
601.1871545838
 20
179.6670136796
 30
0.0
 40
9.025129677193995
100
AcDbArc
 50
167.9293361305
 51
263.380005571
  0
ARC
  5
3B3
330
1F
100
AcDbEntity
  8
SLD-0
  6
HIDDEN
 62
     7
100
AcDbCircle
 10
651.6303603186
 20
179.6077513672
 30
0.0
 40
8.917244688353257
100
AcDbArc
 50
272.9166788069
 51
12.6088343782
  0
DIMENSION
  5
3B4
330
1F
100
AcDbEntity
  8
SLD-0
 62
     7
100
AcDbDimension
  2
_D_7
 10
779.8368388367
 20
202.6571703305
 30
0.0
 11
779.8368388367
 21
158.0456120797
 31
0.0
 70
   160
  1
<>
 71
     2
 42
-1.0
  3
SLDDIMSTYLE0
100
AcDbAlignedDimension
 13
748.5424267972
 23
116.3746703305
 33
0.0
 14
644.4174267971
 24
202.6571703305
 34
0.0
 50
90.0
100
AcDbRotatedDimension
  0
DIMENSION
  5
3C8
330
1F
100
AcDbEntity
  8
SLD-0
 62
     7
100
AcDbDimension
  2
_D_8
 10
753.2424267972
 20
291.153485989
 30
0.0
 11
688.6150063749
 21
291.153485989
 31
0.0
 70
   160
  1
<>
 71
     2
 42
-1.0
  3
SLDDIMSTYLE0
100
AcDbAlignedDimension
 13
634.1424267971
 23
210.1896703305
 33
0.0
 14
753.2424267972
 24
270.7746703305
 34
0.0
100
AcDbRotatedDimension
  0
MTEXT
  5
3DC
330
1F
100
AcDbEntity
  8
SLD-0
100
AcDbMText
 10
662.1004637683
 20
105.6277662392
 30
0.0
 40
4.7625
 41
0.0
 71
     1
 72
     1
  1
VENTING AREA
  7
SLDTEXTSTYLE0
 73
     1
 44
1.0
  0
LEADER
  5
3DD
330
1F
100
AcDbEntity
  8
SLD-0
100
AcDbLeader
  3
SLDDIMSTYLE1
 76
     3
 10
624.622588784
 20
176.0609248549
 30
0.0
 10
656.8937644342
 20
103.5307647107
 30
0.0
 10
660.8937644342
 20
103.5307647107
 30
0.0
  0
MTEXT
  5
3DE
330
1F
100
AcDbEntity
  8
SLD-0
100
AcDbMText
 10
501.4900957447
 20
105.6277662392
 30
0.0
 40
4.7625
 41
0.0
 71
     1
 72
     1
  1
MAGNETIC DOCKING AREA
  7
SLDTEXTSTYLE0
 73
     1
 44
1.0
  0
LEADER
  5
3DF
330
1F
100
AcDbEntity
  8
SLD-0
100
AcDbLeader
  3
SLDDIMSTYLE1
 76
     3
 10
609.5822698419
 20
199.1450259034
 30
0.0
 10
590.8759581664
 20
103.5307647107
 30
0.0
 10
586.8759581664
 20
103.5307647107
 30
0.0
  0
LINE
  5
3E0
330
1F
100
AcDbEntity
  8
SLD-0
  6
CENTERX2
 62
     7
370
    18
100
AcDbLine
 10
634.1424267971
 20
194.9746703305
 30
0.0
 11
634.1424267971
 21
210.1896703305
 31
0.0
  0
LINE
  5
3E1
330
1F
100
AcDbEntity
  8
SLD-0
  6
CENTERX2
 62
     7
370
    18
100
AcDbLine
 10
624.9954525527
 20
202.6571703305
 30
0.0
 11
644.4174267971
 21
202.6571703305
 31
0.0
  0
SPLINE
  5
3E2
330
1F
100
AcDbEntity
  8
0
  6
Continuous
 62
     7
370
    25
100
AcDbSpline
210
0.0
220
0.0
230
1.0
 70
     8
 71
     3
 72
    13
 73
     9
 74
     0
 42
0.00000001
 43
0.00000001
 40
0.0
 40
0.0
 40
0.0
 40
0.0
 40
0.2556264752451953
 40
0.3784036203769676
 40
0.4999978565217474
 40
0.6215924399378157
 40
0.7443705568284901
 40
1.0
 40
1.0
 40
1.0
 40
1.0
 10
654.3579065793376
 20
428.8698352527568
 30
0.0
 10
654.3288107588659
 20
429.3539880906059
 30
0.0
 10
654.2857402443825
 20
430.070679061219
 30
0.0
 10
653.9433869473737
 20
431.0947688027167
 30
0.0
 10
653.5882833975974
 20
431.8273441304005
 30
0.0
 10
653.1314048607416
 20
432.5011522794418
 30
0.0
 10
652.4156965375046
 20
433.3096598077669
 30
0.0
 10
651.8165699714208
 20
433.7052647672198
 30
0.0
 10
651.4118360108939
 20
433.9725117415778
 30
0.0
  0
LINE
  5
3E3
330
1F
100
AcDbEntity
  8
0
  6
Continuous
 62
     7
370
    25
100
AcDbLine
 10
654.3579065793
 20
367.7517554831
 30
0.0
 11
654.3579065793
 21
428.8698352528
 31
0.0
  0
LINE
  5
3E4
330
1F
100
AcDbEntity
  8
0
  6
Continuous
 62
     7
370
    25
100
AcDbLine
 10
651.4118360109
 20
433.9725117416
 30
0.0
 11
565.1448087061
 21
483.7734065628
 31
0.0
  0
SPLINE
  5
3E5
330
1F
100
AcDbEntity
  8
0
  6
Continuous
 62
     7
370
    25
100
AcDbSpline
210
0.0
220
0.0
230
1.0
 70
     8
 71
     3
 72
     9
 73
     5
 74
     0
 42
0.00000001
 43
0.00000001
 40
0.0
 40
0.0
 40
0.0
 40
0.0
 40
0.4719693408915536
 40
1.0
 40
1.0
 40
1.0
 40
1.0
 10
657.4629961846987
 20
426.271268644037
 30
0.0
 10
657.4482372003733
 20
426.8759414484498
 30
0.0
 10
657.4169661345508
 20
428.1571111177988
 30
0.0
 10
657.3712430342426
 20
429.457819026324
 30
0.0
 10
657.3470998354504
 20
430.1446326805702
 30
0.0
  0
SPLINE
  5
3E6
330
1F
100
AcDbEntity
  8
0
  6
Continuous
 62
     7
370
    25
100
AcDbSpline
210
0.0
220
0.0
230
1.0
 70
     8
 71
     3
 72
     9
 73
     5
 74
     0
 42
0.00000001
 43
0.00000001
 40
0.0
 40
0.0
 40
0.0
 40
0.0
 40
0.8492001491905062
 40
1.0
 40
1.0
 40
1.0
 40
1.0
 10
657.369061563463
 20
429.2909909348108
 30
0.0
 10
657.361605582242
 20
429.4690483738616
 30
0.0
 10
657.3528255776364
 20
429.6787250198449
 30
0.0
 10
657.3409180471366
 20
429.889102936629
 30
0.0
 10
657.3391223933137
 20
429.9208278950936
 30
0.0
  0
LINE
  5
3E7
330
1F
100
AcDbEntity
  8
0
  6
Continuous
 62
     7
370
    25
100
AcDbLine
 10
657.2951080035
 20
430.8341695072
 30
0.0
 11
657.2700741856
 21
430.9628640297
 31
0.0
  0
SPLINE
  5
3E8
330
1F
100
AcDbEntity
  8
0
  6
Continuous
 62
     7
370
    25
100
AcDbSpline
210
0.0
220
0.0
230
1.0
 70
     8
 71
     3
 72
    16
 73
    12
 74
     0
 42
0.00000001
 43
0.00000001
 40
0.0
 40
0.0
 40
0.0
 40
0.0
 40
0.1113891196597446
 40
0.2141589898384444
 40
0.2867607254994212
 40
0.330687696286253
 40
0.3777165413044003
 40
0.4369262216961296
 40
0.5880541965336428
 40
0.7786709308473507
 40
1.0
 40
1.0
 40
1.0
 40
1.0
 10
657.1908217812472
 20
431.3816380554442
 30
0.0
 10
657.0913769150169
 20
431.8002250418094
 30
0.0
 10
656.9001821900601
 20
432.6050089060981
 30
0.0
 10
656.4858285155824
 20
433.5155145181932
 30
0.0
 10
656.1413281056306
 20
434.141763344967
 30
0.0
 10
655.8291897683238
 20
434.6212994728823
 30
0.0
 10
655.5172363968937
 20
435.043710034158
 30
0.0
 10
654.9734573006918
 20
435.6848780385042
 30
0.0
 10
654.1515352817763
 20
436.3521928623576
 30
0.0
 10
652.6843160857093
 20
437.5591827516712
 30
0.0
 10
651.5335513866036
 20
438.3129051055921
 30
0.0
 10
650.9152718034068
 20
438.7178629072959
 30
0.0
  0
LINE
  5
3E9
330
1F
100
AcDbEntity
  8
0
  6
Continuous
 62
     7
370
    25
100
AcDbLine
 10
657.4659680209
 20
314.8625511224
 30
0.0
 11
657.4659680209
 21
426.1570637824
 31
0.0
  0
LINE
  5
3EA
330
1F
100
AcDbEntity
  8
0
  6
Continuous
 62
     7
370
    25
100
AcDbLine
 10
650.9119590899
 20
438.7197747022
 30
0.0
 11
493.2271468853
 21
529.7492791704
 31
0.0
  0
LINE
  5
3EB
330
1F
100
AcDbEntity
  8
0
  6
Continuous
 62
     7
370
    25
100
AcDbLine
 10
654.3579065793
 20
306.6336757135
 30
0.0
 11
654.3579065793
 21
367.7517554831
 31
0.0
  0
LINE
  5
3EC
330
1F
100
AcDbEntity
  8
0
  6
Continuous
 62
     7
370
    25
100
AcDbLine
 10
565.1448087061
 20
483.7734065628
 30
0.0
 11
478.8777814014
 21
533.5743013839
 31
0.0
  0
SPLINE
  5
3ED
330
1F
100
AcDbEntity
  8
0
  6
Continuous
 62
     7
370
    25
100
AcDbSpline
210
0.0
220
0.0
230
1.0
 70
     8
 71
     3
 72
     9
 73
     5
 74
     0
 42
0.00000001
 43
0.00000001
 40
0.0
 40
0.0
 40
0.0
 40
0.0
 40
0.5270559466442856
 40
1.0
 40
1.0
 40
1.0
 40
1.0
 10
657.369061563463
 20
308.7719835889546
 30
0.0
 10
657.3811039480463
 20
309.8356431779968
 30
0.0
 10
657.4039523470825
 20
311.8537583246231
 30
0.0
 10
657.4460536734421
 20
313.8959912844527
 30
0.0
 10
657.4659652453822
 20
314.8618532183712
 30
0.0
  0
SPLINE
  5
3EE
330
1F
100
AcDbEntity
  8
0
  6
Continuous
 62
     7
370
    25
100
AcDbSpline
210
0.0
220
0.0
230
1.0
 70
     8
 71
     3
 72
    11
 73
     7
 74
     0
 42
0.00000001
 43
0.00000001
 40
0.0
 40
0.0
 40
0.0
 40
0.0
 40
0.2711108178475852
 40
0.5250217902218868
 40
0.7654091673644621
 40
1.0
 40
1.0
 40
1.0
 40
1.0
 10
652.6534575293604
 20
303.4478589025057
 30
0.0
 10
652.9352817010201
 20
303.6438159944146
 30
0.0
 10
653.4810505209712
 20
304.0232982445787
 30
0.0
 10
654.0088383289058
 20
304.8322044155482
 30
0.0
 10
654.3099634081105
 20
305.7132844816226
 30
0.0
 10
654.3420560732064
 20
306.3293848939327
 30
0.0
 10
654.3579065793376
 20
306.63367571346
 30
0.0
  0
SPLINE
  5
3EF
330
1F
100
AcDbEntity
  8
0
  6
Continuous
 62
     7
370
    25
100
AcDbSpline
210
0.0
220
0.0
230
1.0
 70
     8
 71
     3
 72
     9
 73
     5
 74
     0
 42
0.00000001
 43
0.00000001
 40
0.0
 40
0.0
 40
0.0
 40
0.0
 40
0.4459443138285997
 40
1.0
 40
1.0
 40
1.0
 40
1.0
 10
650.2006905933462
 20
304.3086940606321
 30
0.0
 10
650.3367964299993
 20
304.2346586613793
 30
0.0
 10
650.642004574677
 20
304.0686392796832
 30
0.0
 10
650.9703024451236
 20
303.9910293713098
 30
0.0
 10
651.1521977470024
 20
303.9480291602724
 30
0.0
  0
LINE
  5
3F0
330
1F
100
AcDbEntity
  8
0
  6
Continuous
 62
     7
370
    25
100
AcDbLine
 10
652.2379357404
 20
304.0658154779
 30
0.0
 11
652.2820146025
 21
304.0912616634
 31
0.0
  0
SPLINE
  5
3F1
330
1F
100
AcDbEntity
  8
0
  6
Continuous
 62
     7
370
    25
100
AcDbSpline
210
0.0
220
0.0
230
1.0
 70
     8
 71
     3
 72
     9
 73
     5
 74
     0
 42
0.00000001
 43
0.00000001
 40
0.0
 40
0.0
 40
0.0
 40
0.0
 40
0.849098220193015
 40
1.0
 40
1.0
 40
1.0
 40
1.0
 10
657.4487688395706
 20
313.8017280621525
 30
0.0
 10
657.4525807482638
 20
313.9435135990673
 30
0.0
 10
657.4570701095682
 20
314.1104972689689
 30
0.0
 10
657.4554735073305
 20
314.2767463970912
 30
0.0
 10
657.4552325772112
 20
314.3018336864162
 30
0.0
  0
LINE
  5
3F2
330
1F
100
AcDbEntity
  8
0
  6
Continuous
 62
     7
370
    25
100
AcDbLine
 10
655.2726643173
 20
305.6879303847
 30
0.0
 11
656.3333244891
 21
306.3002364685
 31
0.0
  0
LINE
  5
3F3
330
1F
100
AcDbEntity
  8
0
  6
Continuous
 62
     7
370
    25
100
AcDbLine
 10
477.2918665238
 20
404.1268335071
 30
0.0
 11
650.2006905933
 21
304.3086940606
 31
0.0
  0
SPLINE
  5
3F4
330
1F
100
AcDbEntity
  8
0
  6
Continuous
 62
     7
370
    25
100
AcDbSpline
210
0.0
220
0.0
230
1.0
 70
     8
 71
     3
 72
     9
 73
     5
 74
     0
 42
0.00000001
 43
0.00000001
 40
0.0
 40
0.0
 40
0.0
 40
0.0
 40
0.3527965917154
 40
1.0
 40
1.0
 40
1.0
 40
1.0
 10
484.7390711812152
 20
533.9113571406324
 30
0.0
 10
484.4132879743329
 20
534.0631834972381
 30
0.0
 10
483.489857265158
 20
534.493534470493
 30
0.0
 10
482.5594270533314
 20
534.9155453747802
 30
0.0
 10
481.9572494490662
 20
535.1886722703681
 30
0.0
  0
SPLINE
  5
3F5
330
1F
100
AcDbEntity
  8
0
  6
Continuous
 62
     7
370
    25
100
AcDbSpline
210
0.0
220
0.0
230
1.0
 70
     8
 71
     3
 72
    14
 73
    10
 74
     0
 42
0.00000001
 43
0.00000001
 40
0.0
 40
0.0
 40
0.0
 40
0.0
 40
0.21737944092654
 40
0.4052538037035774
 40
0.545545463715467
 40
0.6419126019525047
 40
0.7764495579403672
 40
0.9562623229051677
 40
1.0
 40
1.0
 40
1.0
 40
1.0
 10
493.232168910134
 20
529.7463794976127
 30
0.0
 10
492.6580369120396
 20
530.0632232339185
 30
0.0
 10
491.587700292054
 20
530.6539052633244
 30
0.0
 10
490.1027313034862
 20
531.3749853685259
 30
0.0
 10
488.957811049472
 20
531.9195777612202
 30
0.0
 10
487.9476160880452
 20
532.3950452817692
 30
0.0
 10
486.8227617566187
 20
532.9227722226042
 30
0.0
 10
485.8418221183607
 20
533.3800046329663
 30
0.0
 10
485.231423105149
 20
533.6701564673709
 30
0.0
 10
485.1119984478194
 20
533.7269247167411
 30
0.0
  0
SPLINE
  5
3F6
330
1F
100
AcDbEntity
  8
0
  6
Continuous
 62
     7
370
    25
100
AcDbSpline
210
0.0
220
0.0
230
1.0
 70
     8
 71
     3
 72
    11
 73
     7
 74
     0
 42
0.00000001
 43
0.00000001
 40
0.0
 40
0.0
 40
0.0
 40
0.0
 40
0.2345909597834206
 40
0.474979017055516
 40
0.7288896938609787
 40
1.0
 40
1.0
 40
1.0
 40
1.0
 10
478.8777814013766
 20
533.5743013839484
 30
0.0
 10
478.6063730488481
 20
533.7126833992941
 30
0.0
 10
478.0568494328329
 20
533.9928670589188
 30
0.0
 10
477.1433924318643
 20
534.172573156426
 30
0.0
 10
476.1791077570897
 20
534.1199699279998
 30
0.0
 10
475.5776399309044
 20
533.8371539056492
 30
0.0
 10
475.2670540080802
 20
533.6911133836677
 30
0.0
  0
SPLINE
  5
3F7
330
1F
100
AcDbEntity
  8
0
  6
Continuous
 62
     7
370
    25
100
AcDbSpline
210
0.0
220
0.0
230
1.0
 70
     8
 71
     3
 72
     9
 73
     5
 74
     0
 42
0.00000001
 43
0.00000001
 40
0.0
 40
0.0
 40
0.0
 40
0.0
 40
0.444879309574389
 40
1.0
 40
1.0
 40
1.0
 40
1.0
 10
474.963781517337
 20
532.1761738782347
 30
0.0
 10
474.9143652187425
 20
532.0286996590144
 30
0.0
 10
474.8032872307781
 20
531.6972070136009
 30
0.0
 10
474.7921417473226
 20
531.3363716531458
 30
0.0
 10
474.7859546588517
 20
531.1360644787198
 30
0.0
  0
LINE
  5
3F8
330
1F
100
AcDbEntity
  8
0
  6
Continuous
 62
     7
370
    25
100
AcDbLine
 10
475.6384940608
 20
533.0477140825
 30
0.0
 11
475.5944151986
 21
533.022267897
 31
0.0
  0
LINE
  5
3F9
330
1F
100
AcDbEntity
  8
0
  6
Continuous
 62
     7
370
    25
100
AcDbLine
 10
479.5067829976
 20
535.4106212438
 30
0.0
 11
478.4461228258
 21
534.79831516
 31
0.0
  0
LINE
  5
3FA
330
1F
100
AcDbEntity
  8
0
  6
Continuous
 62
     7
370
    25
100
AcDbLine
 10
474.7859546589
 20
531.1360644787
 30
0.0
 11
474.7859546589
 21
408.4671365181
 31
0.0
  0
SPLINE
  5
3FB
330
1F
100
AcDbEntity
  8
0
  6
Continuous
 62
     7
370
    25
100
AcDbSpline
210
0.0
220
0.0
230
1.0
 70
     8
 71
     3
 72
    14
 73
    10
 74
     0
 42
0.00000001
 43
0.00000001
 40
0.0
 40
0.0
 40
0.0
 40
0.0
 40
0.0921507686949209
 40
0.250714019537604
 40
0.4092723808383303
 40
0.5677650312886351
 40
0.7274849244154186
 40
0.8900221569637002
 40
1.0
 40
1.0
 40
1.0
 40
1.0
 10
474.7859546588517
 20
408.467136518123
 30
0.0
 10
474.7913531819718
 20
408.315093017566
 30
0.0
 10
474.8060409100307
 20
407.9014292173711
 30
0.0
 10
474.9546494556346
 20
407.2086315382884
 30
0.0
 10
475.2556133216393
 20
406.4149723233769
 30
0.0
 10
475.6802556449756
 20
405.661007179746
 30
0.0
 10
476.2104742757758
 20
404.9826664835277
 30
0.0
 10
476.7577442709544
 20
404.4657398273564
 30
0.0
 10
477.1382908354224
 20
404.2242789349368
 30
0.0
 10
477.2918665238325
 20
404.1268335071235
 30
0.0
  0
SPLINE
  5
3FC
330
1F
100
AcDbEntity
  8
0
  6
Continuous
 62
     7
370
    25
100
AcDbSpline
210
0.0
220
0.0
230
1.0
 70
     8
 71
     3
 72
    14
 73
    10
 74
     0
 42
0.00000001
 43
0.00000001
 40
0.0
 40
0.0
 40
0.0
 40
0.0
 40
0.25
 40
0.25
 40
0.5
 40
0.5
 40
0.75
 40
0.75
 40
1.0
 40
1.0
 40
1.0
 40
1.0
 10
653.5506849450557
 20
427.9681120287664
 30
0.0
 10
653.5506849450557
 20
428.4949689777508
 30
0.0
 10
653.488535749769
 20
429.0410954464315
 30
0.0
 10
653.1988085666419
 20
430.1653664548794
 30
0.0
 10
652.966228316277
 20
430.7463874651118
 30
0.0
 10
652.3410290241387
 20
431.8292644007731
 30
0.0
 10
651.9541485520036
 20
432.3211808320623
 30
0.0
 10
651.1253940882208
 20
433.1341768576962
 30
0.0
 10
650.6835298598265
 20
433.4610272439757
 30
0.0
 10
650.2272830734789
 20
433.7244129074128
 30
0.0
  0
LINE
  5
3FD
330
1F
100
AcDbEntity
  8
0
  6
Continuous
 62
     7
370
    25
100
AcDbLine
 10
653.5506849451
 20
366.8500322591
 30
0.0
 11
653.5506849451
 21
427.9681120288
 31
0.0
  0
LINE
  5
3FE
330
1F
100
AcDbEntity
  8
0
  6
Continuous
 62
     7
370
    25
100
AcDbLine
 10
653.5506849451
 20
366.8500322591
 30
0.0
 11
653.5506849451
 21
305.7319524895
 31
0.0
  0
SPLINE
  5
3FF
330
1F
100
AcDbEntity
  8
0
  6
Continuous
 62
     7
370
    25
100
AcDbSpline
210
0.0
220
0.0
230
1.0
 70
     8
 71
     3
 72
    14
 73
    10
 74
     0
 42
0.00000001
 43
0.00000001
 40
0.0
 40
0.0
 40
0.0
 40
0.0
 40
0.25
 40
0.25
 40
0.5
 40
0.5
 40
0.75
 40
0.75
 40
1.0
 40
1.0
 40
1.0
 40
1.0
 10
653.5506849450557
 20
305.7319524894696
 30
0.0
 10
653.5506849450557
 20
305.2050955404852
 30
0.0
 10
653.488535749769
 20
304.7307250053145
 30
0.0
 10
653.1988085666419
 20
303.9409658822194
 30
0.0
 10
652.966228316277
 20
303.6284763132059
 30
0.0
 10
652.3410290241387
 20
303.2674391154566
 30
0.0
 10
651.9541485520036
 20
303.2222053693862
 30
0.0
 10
651.1253940882208
 20
303.3660688803081
 30
0.0
 10
650.6835298598265
 20
303.5493840729529
 30
0.0
 10
650.2272830734789
 20
303.81276973639
 30
0.0
  0
LINE
  5
400
330
1F
100
AcDbEntity
  8
0
  6
Continuous
 62
     7
370
    25
100
AcDbLine
 10
650.2272830735
 20
303.8127697364
 30
0.0
 11
563.9602557687
 21
353.6136645576
 31
0.0
  0
LINE
  5
401
330
1F
100
AcDbEntity
  8
0
  6
Continuous
 62
     7
370
    25
100
AcDbLine
 10
477.693228464
 20
403.4145593788
 30
0.0
 11
563.9602557687
 21
353.6136645576
 31
0.0
  0
SPLINE
  5
402
330
1F
100
AcDbEntity
  8
0
  6
Continuous
 62
     7
370
    25
100
AcDbSpline
210
0.0
220
0.0
230
1.0
 70
     8
 71
     3
 72
    14
 73
    10
 74
     0
 42
0.00000001
 43
0.00000001
 40
0.0
 40
0.0
 40
0.0
 40
0.0
 40
0.25
 40
0.25
 40
0.5
 40
0.5
 40
0.75
 40
0.75
 40
1.0
 40
1.0
 40
1.0
 40
1.0
 10
474.3698265923848
 20
409.170860257407
 30
0.0
 10
474.3698265923848
 20
408.6440033084226
 30
0.0
 10
474.4319757876715
 20
408.0978768397418
 30
0.0
 10
474.7217029707985
 20
406.973605831294
 30
0.0
 10
474.9542832211634
 20
406.3925848210616
 30
0.0
 10
475.5794825133017
 20
405.3097078854003
 30
0.0
 10
475.9663629854368
 20
404.8177914541111
 30
0.0
 10
476.7951174492197
 20
404.0047954284772
 30
0.0
 10
477.2369816776139
 20
403.6779450421977
 30
0.0
 10
477.6932284639616
 20
403.4145593787607
 30
0.0
  0
LINE
  5
403
330
1F
100
AcDbEntity
  8
0
  6
Continuous
 62
     7
370
    25
100
AcDbLine
 10
474.3698265924
 20
470.2889400271
 30
0.0
 11
474.3698265924
 21
409.1708602574
 31
0.0
  0
LINE
  5
404
330
1F
100
AcDbEntity
  8
0
  6
Continuous
 62
     7
370
    25
100
AcDbLine
 10
474.3698265924
 20
470.2889400271
 30
0.0
 11
474.3698265924
 21
531.4070197967
 31
0.0
  0
SPLINE
  5
405
330
1F
100
AcDbEntity
  8
0
  6
Continuous
 62
     7
370
    25
100
AcDbSpline
210
0.0
220
0.0
230
1.0
 70
     8
 71
     3
 72
    14
 73
    10
 74
     0
 42
0.00000001
 43
0.00000001
 40
0.0
 40
0.0
 40
0.0
 40
0.0
 40
0.25
 40
0.25
 40
0.5
 40
0.5
 40
0.75
 40
0.75
 40
1.0
 40
1.0
 40
1.0
 40
1.0
 10
474.3698265923848
 20
531.4070197967038
 30
0.0
 10
474.3698265923848
 20
531.9338767456882
 30
0.0
 10
474.4319757876715
 20
532.4082472808589
 30
0.0
 10
474.7217029707985
 20
533.198006403954
 30
0.0
 10
474.9542832211634
 20
533.5104959729675
 30
0.0
 10
475.5794825133017
 20
533.8715331707168
 30
0.0
 10
475.9663629854368
 20
533.916766916787
 30
0.0
 10
476.7951174492197
 20
533.7729034058652
 30
0.0
 10
477.2369816776139
 20
533.5895882132204
 30
0.0
 10
477.6932284639616
 20
533.3262025497834
 30
0.0
  0
LINE
  5
406
330
1F
100
AcDbEntity
  8
0
  6
Continuous
 62
     7
370
    25
100
AcDbLine
 10
477.693228464
 20
533.3262025498
 30
0.0
 11
563.9602557687
 21
483.5253077286
 31
0.0
  0
LINE
  5
407
330
1F
100
AcDbEntity
  8
0
  6
Continuous
 62
     7
370
    25
100
AcDbLine
 10
650.2272830735
 20
433.7244129074
 30
0.0
 11
563.9602557687
 21
483.5253077286
 31
0.0
  0
ARC
  5
408
330
1F
100
AcDbEntity
  8
0
  6
Continuous
 62
     7
370
    25
100
AcDbCircle
 10
651.2790246102
 20
305.5751053864
 30
0.0
 40
1.791027950343388
100
AcDbArc
 50
304.0563514556
 51
7.2558289382
  0
LINE
  5
409
330
1F
100
AcDbEntity
  8
0
  6
Continuous
 62
     7
370
    25
100
AcDbLine
 10
653.0557101982
 20
428.4702399788
 30
0.0
 11
653.0557101982
 21
305.8013120182
 31
0.0
  0
ARC
  5
40A
330
1F
100
AcDbEntity
  8
0
  6
Continuous
 62
     7
370
    25
100
AcDbCircle
 10
647.3216780509
 20
428.2093096954
 30
0.0
 40
5.739965964998952
100
AcDbArc
 50
2.6054784838
 51
57.394521661
  0
LINE
  5
40B
330
1F
100
AcDbEntity
  8
0
  6
Continuous
 62
     7
370
    25
100
AcDbLine
 10
477.5058422969
 20
532.8628015137
 30
0.0
 11
650.4146663664
 21
433.0446620672
 31
0.0
  0
ARC
  5
40C
330
1F
100
AcDbEntity
  8
0
  6
Continuous
 62
     7
370
    25
100
AcDbCircle
 10
476.4117858903
 20
531.3356297467
 30
0.0
 40
1.87861997933038
100
AcDbArc
 50
54.3824225328
 51
114.3071190427
  0
ARC
  5
40D
330
1F
100
AcDbEntity
  8
0
  6
Continuous
 62
     7
370
    25
100
AcDbCircle
 10
647.2775991882
 20
428.1838635096
 30
0.0
 40
5.739965965571614
100
AcDbArc
 50
2.6054784868
 51
57.394521658
  0
LINE
  5
40E
330
1F
100
AcDbEntity
  8
0
  6
Continuous
 62
     7
370
    25
100
AcDbLine
 10
486.5391329521
 20
518.3640168889
 30
0.0
 11
486.5391329521
 21
407.0205117802
 31
0.0
  0
LINE
  5
40F
330
1F
100
AcDbEntity
  8
0
  6
Continuous
 62
     7
370
    25
100
AcDbLine
 10
486.5391329521
 20
407.0205117802
 30
0.0
 11
640.3914264027
 21
318.203473295
 31
0.0
  0
LINE
  5
410
330
1F
100
AcDbEntity
  8
0
  6
Continuous
 62
     7
370
    25
100
AcDbLine
 10
640.3914264027
 20
318.203473295
 30
0.0
 11
640.3914264027
 21
429.5469784037
 31
0.0
  0
LINE
  5
411
330
1F
100
AcDbEntity
  8
0
  6
Continuous
 62
     7
370
    25
100
AcDbLine
 10
640.3914264027
 20
429.5469784037
 30
0.0
 11
486.5391329521
 21
518.3640168889
 31
0.0
  0
LINE
  5
412
330
1F
100
AcDbEntity
  8
0
  6
Continuous
 62
     7
370
    25
100
AcDbLine
 10
653.0116313361
 20
305.7758658327
 30
0.0
 11
653.0116313361
 21
428.4447937933
 31
0.0
  0
LINE
  5
413
330
1F
100
AcDbEntity
  8
0
  6
Continuous
 62
     7
370
    25
100
AcDbLine
 10
650.3705875043
 20
433.0192158817
 30
0.0
 11
477.4617634347
 21
532.8373553282
 31
0.0
  0
SPLINE
  5
414
330
1F
100
AcDbEntity
  8
0
  6
Continuous
 62
     7
370
    25
100
AcDbSpline
210
0.0
220
0.0
230
1.0
 70
     8
 71
     3
 72
    11
 73
     7
 74
     0
 42
0.00000001
 43
0.00000001
 40
0.0
 40
0.0
 40
0.0
 40
0.0
 40
0.25
 40
0.5
 40
0.75
 40
1.0
 40
1.0
 40
1.0
 40
1.0
 10
653.8335276575344
 20
435.9694954049049
 30
0.0
 10
654.2828048498474
 20
435.7101332024623
 30
0.0
 10
655.2003877677712
 20
434.9792471219977
 30
0.0
 10
656.3973940994887
 20
433.3758572554915
 30
0.0
 10
657.1925324874362
 20
431.5347123242081
 30
0.0
 10
657.3690615634627
 20
430.3679252984489
 30
0.0
 10
657.369061563463
 20
429.8457710659259
 30
0.0
  0
ARC
  5
415
330
1F
100
AcDbEntity
  8
0
  6
Continuous
 62
     7
370
    25
100
AcDbCircle
 10
648.6323208848
 20
428.8841607208
 30
0.0
 40
7.684024037860277
100
AcDbArc
 50
2.6054784857
 51
57.39452166
  0
ARC
  5
416
330
1F
100
AcDbEntity
  8
0
  6
Continuous
 62
     7
370
    25
100
AcDbCircle
 10
479.5665216161
 20
532.8883529511
 30
0.0
 40
2.160181871447348
100
AcDbArc
 50
50.3157392486
 51
147.4934762701
  0
LINE
  5
417
330
1F
100
AcDbEntity
  8
0
  6
Continuous
 62
     7
370
    25
100
AcDbLine
 10
652.7728674858
 20
435.357189321
 30
0.0
 11
480.9459196574
 21
534.5507749075
 31
0.0
  0
LINE
  5
418
330
1F
100
AcDbEntity
  8
0
  6
Continuous
 62
     7
370
    25
100
AcDbLine
 10
656.3084013917
 20
429.2334649821
 30
0.0
 11
656.3084013917
 21
307.977154417
 31
0.0
  0
ARC
  5
419
330
1F
100
AcDbEntity
  8
0
  6
Continuous
 62
     7
370
    25
100
AcDbCircle
 10
654.1865345395
 20
307.6128348316
 30
0.0
 40
2.152916091925333
100
AcDbArc
 50
270.010093212
 51
9.7425556824
  0
LINE
  5
41A
330
1F
100
AcDbEntity
  8
0
  6
Continuous
 62
     7
370
    25
100
AcDbLine
 10
657.193012027
 20
431.382159103
 30
0.0
 11
657.2705773949
 21
431.0135295333
 31
0.0
  0
LINE
  5
41B
330
1F
100
AcDbEntity
  8
0
  6
Continuous
 62
     7
370
    25
100
AcDbLine
 10
657.2705773949
 20
431.0135295333
 30
0.0
 11
657.2771430826
 21
430.9265240542
 31
0.0
  0
LINE
  5
41C
330
1F
100
AcDbEntity
  8
0
  6
Continuous
 62
     7
370
    25
100
AcDbLine
 10
657.3690615635
 20
429.8457710659
 30
0.0
 11
657.3690615635
 21
424.8648721134
 31
0.0
  0
LINE
  5
41D
330
1F
100
AcDbEntity
  8
0
  6
Continuous
 62
     7
370
    25
100
AcDbLine
 10
646.7624598457
 20
440.051535964
 30
0.0
 11
653.8335276575
 21
435.9694954049
 31
0.0
  0
LINE
  5
41E
330
1F
100
AcDbEntity
  8
0
  6
Continuous
 62
     7
370
    25
100
AcDbLine
 10
489.0776476411
 20
531.0810404323
 30
0.0
 11
482.0065798292
 21
535.1630809914
 31
0.0
  0
LINE
  5
41F
330
1F
100
AcDbEntity
  8
0
  6
Continuous
 62
     7
370
    25
100
AcDbLine
 10
646.7624598457
 20
440.051535964
 30
0.0
 11
489.0776476411
 21
531.0810404323
 31
0.0
  0
LINE
  5
420
330
1F
100
AcDbEntity
  8
0
  6
Continuous
 62
     7
370
    25
100
AcDbLine
 10
657.3690615635
 20
424.8648721134
 30
0.0
 11
657.3690615635
 21
313.5703594534
 31
0.0
  0
LINE
  5
421
330
1F
100
AcDbEntity
  8
0
  6
Continuous
 62
     7
370
    25
100
AcDbLine
 10
657.3690615635
 20
308.5894605009
 30
0.0
 11
657.3690615635
 21
313.5703594534
 31
0.0
  0
LINE
  5
422
330
1F
100
AcDbEntity
  8
0
  6
Continuous
 62
     7
370
    25
100
AcDbLine
 10
486.581559359
 20
518.3395246456
 30
0.0
 11
486.581559359
 21
407.0450040236
 31
0.0
  0
LINE
  5
423
330
1F
100
AcDbEntity
  8
0
  6
Continuous
 62
     7
370
    25
100
AcDbLine
 10
486.581559359
 20
407.0450040236
 30
0.0
 11
640.3914264027
 21
318.2524577817
 31
0.0
  0
SPLINE
  5
424
330
1F
100
AcDbEntity
  8
0
  6
Continuous
 62
     7
370
    25
100
AcDbSpline
210
0.0
220
0.0
230
1.0
 70
     8
 71
     3
 72
    10
 73
     6
 74
     0
 42
0.00000001
 43
0.00000001
 40
0.0
 40
0.0
 40
0.0
 40
0.0
 40
0.0001021259017869
 40
0.500051062950893
 40
1.0
 40
1.0
 40
1.0
 40
1.0
 10
656.3332933547919
 20
306.3003082491336
 30
0.0
 10
656.3333714577411
 20
306.3003234199701
 30
0.0
 10
656.7157961132978
 20
306.3746061712467
 30
0.0
 10
657.1876521148108
 20
307.1266169537543
 30
0.0
 10
657.3085917472455
 20
308.1018459851761
 30
0.0
 10
657.369061563463
 20
308.5894605008869
 30
0.0
  0
LWPOLYLINE
  5
425
330
1F
100
AcDbEntity
  8
0
  6
Continuous
 62
     7
370
    25
100
AcDbPolyline
 90
        8
 70
   128
 43
0.0
 10
651.1681925593
 20
303.9326845943
 10
651.3812712228
 20
303.8994234298
 10
651.8378728413
 20
303.9176628468
 10
652.2380875072
 20
304.0659031052
 10
652.5665351952
 20
304.3384474152
 10
652.810593845
 20
304.7248220517
 10
652.9608844194
 20
305.2101788541
 10
653.0116313361
 20
305.7758658327
  0
LINE
  5
426
330
1F
100
AcDbEntity
  8
0
  6
Continuous
 62
     7
370
    25
100
AcDbLine
 10
486.5391329521
 20
407.0205117802
 30
0.0
 11
486.581559359
 21
407.0450040236
 31
0.0
  0
SPLINE
  5
427
330
1F
100
AcDbEntity
  8
0
  6
Continuous
 62
     7
370
    25
100
AcDbSpline
210
0.0
220
0.0
230
1.0
 70
     8
 71
     3
 72
     9
 73
     5
 74
     0
 42
0.00000001
 43
0.00000001
 40
0.0
 40
0.0
 40
0.0
 40
0.0
 40
0.5000510733827208
 40
1.0
 40
1.0
 40
1.0
 40
1.0
 10
482.0065798291995
 20
535.1630809913655
 30
0.0
 10
481.5384162839966
 20
535.3776119649765
 30
0.0
 10
480.6021848266059
 20
535.8066300893844
 30
0.0
 10
479.8719128318532
 20
535.5425673475744
 30
0.0
 10
479.506814131938
 20
535.410549463247
 30
0.0
  0
SPLINE
  5
428
330
1F
100
AcDbEntity
  8
0
  6
Continuous
 62
     7
370
    25
100
AcDbSpline
210
0.0
220
0.0
230
1.0
 70
     8
 71
     3
 72
     9
 73
     5
 74
     0
 42
0.00000001
 43
0.00000001
 40
0.0
 40
0.0
 40
0.0
 40
0.0
 40
0.7258998503773002
 40
1.0
 40
1.0
 40
1.0
 40
1.0
 10
485.1114361305349
 20
533.7257405154528
 30
0.0
 10
484.9210560791105
 20
533.829300941873
 30
0.0
 10
484.6587884242466
 20
533.9719658375421
 30
0.0
 10
484.363679367956
 20
534.0907639874866
 30
0.0
 10
484.2827899314718
 20
534.1233265781613
 30
0.0
  0
LWPOLYLINE
  5
429
330
1F
100
AcDbEntity
  8
0
  6
Continuous
 62
     7
370
    25
100
AcDbPolyline
 90
        8
 70
   128
 43
0.0
 10
477.4617634347
 20
532.8373553282
 10
476.9465213431
 20
533.0761975901
 10
476.4510797161
 20
533.1886599452
 10
475.9944780976
 20
533.1704205282
 10
475.5942634318
 20
533.0221802698
 10
475.2658157438
 20
532.7496359598
 10
475.021757094
 20
532.3632613233
 10
474.9530727715
 20
532.1891619348
  0
MTEXT
  5
42A
330
1F
100
AcDbEntity
  8
SLD-0
100
AcDbMText
 10
551.7036309075
 20
329.6596402422
 30
0.0
 40
4.7625
 41
0.0
 71
     2
 72
     1
  1
FRONT ISOMETRIC VIEW
  7
SLDTEXTSTYLE0
 73
     1
 44
1.0
  0
SPLINE
  5
42B
330
1F
100
AcDbEntity
  8
0
  6
Continuous
 62
     7
370
    25
100
AcDbSpline
210
0.0
220
0.0
230
1.0
 70
     8
 71
     3
 72
     8
 73
     4
 74
     0
 42
0.00000001
 43
0.00000001
 40
0.0
 40
0.0
 40
0.0
 40
0.0
 40
1.0
 40
1.0
 40
1.0
 40
1.0
 10
56.11969363814115
 20
371.2298120363175
 30
0.0
 10
55.78636030480794
 20
371.2298120363175
 30
0.0
 10
54.51969363814113
 20
371.1298120363174
 30
0.0
 10
54.51969363814113
 20
369.1298120363174
 30
0.0
  0
SPLINE
  5
42C
330
1F
100
AcDbEntity
  8
0
  6
Continuous
 62
     7
370
    25
100
AcDbSpline
210
0.0
220
0.0
230
1.0
 70
    24
 71
     3
 72
     8
 73
     4
 74
     0
 42
0.00000001
 43
0.00000001
 40
0.0
 40
0.0
 40
0.0
 40
0.0
 40
1.0
 40
1.0
 40
1.0
 40
1.0
 10
56.11969363814115
 20
371.2298120363175
 30
0.0
 10
56.11969363814115
 20
371.2298120363175
 30
0.0
 10
57.21969363814114
 20
371.2298120363175
 30
0.0
 10
59.21969363814114
 20
371.2298120363175
 30
0.0
  0
SPLINE
  5
42D
330
1F
100
AcDbEntity
  8
0
  6
Continuous
 62
     7
370
    25
100
AcDbSpline
210
0.0
220
0.0
230
1.0
 70
    24
 71
     3
 72
    14
 73
    10
 74
     0
 42
0.00000001
 43
0.00000001
 40
0.0
 40
0.0
 40
0.0
 40
0.0
 40
0.25
 40
0.25
 40
0.5
 40
0.5
 40
0.75
 40
0.75
 40
1.0
 40
1.0
 40
1.0
 40
1.0
 10
54.51969363814113
 20
369.1298120363174
 30
0.0
 10
54.51969363814113
 20
369.1298120363174
 30
0.0
 10
54.60758587300615
 20
369.1298120363174
 30
0.0
 10
55.01732198477252
 20
369.1298120363174
 30
0.0
 10
55.34624012917872
 20
369.1298120363174
 30
0.0
 10
56.23040544730672
 20
369.1298120363174
 30
0.0
 10
56.77753705801748
 20
369.1298120363174
 30
0.0
 10
57.94957286057647
 20
369.1298120363174
 30
0.0
 10
58.5744632450991
 20
369.1298120363174
 30
0.0
 10
59.21969363814114
 20
369.1298120363174
 30
0.0
  0
LINE
  5
42E
330
1F
100
AcDbEntity
  8
0
  6
Continuous
 62
     7
370
    25
100
AcDbLine
 10
303.2196936381
 20
371.2298120363
 30
0.0
 11
181.2196936381
 21
371.2298120363
 31
0.0
  0
LINE
  5
42F
330
1F
100
AcDbEntity
  8
0
  6
Continuous
 62
     7
370
    25
100
AcDbLine
 10
303.2196936381
 20
369.1298120363
 30
0.0
 11
181.2196936381
 21
369.1298120363
 31
0.0
  0
SPLINE
  5
430
330
1F
100
AcDbEntity
  8
0
  6
Continuous
 62
     7
370
    25
100
AcDbSpline
210
0.0
220
0.0
230
1.0
 70
    24
 71
     3
 72
     8
 73
     4
 74
     0
 42
0.00000001
 43
0.00000001
 40
0.0
 40
0.0
 40
0.0
 40
0.0
 40
1.0
 40
1.0
 40
1.0
 40
1.0
 10
306.3196936381411
 20
371.2298120363175
 30
0.0
 10
306.3196936381411
 20
371.2298120363175
 30
0.0
 10
305.2196936381412
 20
371.2298120363175
 30
0.0
 10
303.2196936381412
 20
371.2298120363175
 30
0.0
  0
SPLINE
  5
431
330
1F
100
AcDbEntity
  8
0
  6
Continuous
 62
     7
370
    25
100
AcDbSpline
210
0.0
220
0.0
230
1.0
 70
     8
 71
     3
 72
     8
 73
     4
 74
     0
 42
0.00000001
 43
0.00000001
 40
0.0
 40
0.0
 40
0.0
 40
0.0
 40
1.0
 40
1.0
 40
1.0
 40
1.0
 10
306.3196936381411
 20
371.2298120363175
 30
0.0
 10
306.6530269714743
 20
371.2298120363175
 30
0.0
 10
307.9196936381412
 20
371.1298120363174
 30
0.0
 10
307.9196936381412
 20
369.1298120363174
 30
0.0
  0
SPLINE
  5
432
330
1F
100
AcDbEntity
  8
0
  6
Continuous
 62
     7
370
    25
100
AcDbSpline
210
0.0
220
0.0
230
1.0
 70
    24
 71
     3
 72
    14
 73
    10
 74
     0
 42
0.00000001
 43
0.00000001
 40
0.0
 40
0.0
 40
0.0
 40
0.0
 40
0.25
 40
0.25
 40
0.5
 40
0.5
 40
0.75
 40
0.75
 40
1.0
 40
1.0
 40
1.0
 40
1.0
 10
307.9196936381412
 20
369.1298120363174
 30
0.0
 10
307.9196936381412
 20
369.1298120363174
 30
0.0
 10
307.8318014032761
 20
369.1298120363174
 30
0.0
 10
307.4220652915097
 20
369.1298120363174
 30
0.0
 10
307.0931471471035
 20
369.1298120363174
 30
0.0
 10
306.2089818289755
 20
369.1298120363174
 30
0.0
 10
305.6618502182648
 20
369.1298120363174
 30
0.0
 10
304.4898144157058
 20
369.1298120363174
 30
0.0
 10
303.8649240311831
 20
369.1298120363174
 30
0.0
 10
303.2196936381412
 20
369.1298120363174
 30
0.0
  0
LINE
  5
433
330
1F
100
AcDbEntity
  8
0
  6
Continuous
 62
     7
370
    25
100
AcDbLine
 10
59.2196936381
 20
371.2298120363
 30
0.0
 11
181.2196936381
 21
371.2298120363
 31
0.0
  0
LINE
  5
434
330
1F
100
AcDbEntity
  8
0
  6
Continuous
 62
     7
370
    25
100
AcDbLine
 10
59.2196936381
 20
369.1298120363
 30
0.0
 11
181.2196936381
 21
369.1298120363
 31
0.0
  0
LINE
  5
435
330
1F
100
AcDbEntity
  8
0
  6
Continuous
 62
     7
370
    25
100
AcDbLine
 10
69.7196936381
 20
374.7298120363
 30
0.0
 11
59.7196936381
 21
374.7298120363
 31
0.0
  0
SPLINE
  5
436
330
1F
100
AcDbEntity
  8
0
  6
Continuous
 62
     7
370
    25
100
AcDbSpline
210
0.0
220
0.0
230
1.0
 70
    24
 71
     3
 72
    14
 73
    10
 74
     0
 42
0.00000001
 43
0.00000001
 40
0.0
 40
0.0
 40
0.0
 40
0.0
 40
0.25
 40
0.25
 40
0.5
 40
0.5
 40
0.75
 40
0.75
 40
1.0
 40
1.0
 40
1.0
 40
1.0
 10
59.71969363814115
 20
374.7298120363175
 30
0.0
 10
59.06519516864331
 20
374.7298120363175
 30
0.0
 10
58.41095421634475
 20
374.7298120363175
 30
0.0
 10
57.20159873628668
 20
374.7298120363175
 30
0.0
 10
56.64696003826654
 20
374.7298120363175
 30
0.0
 10
55.72135942615019
 20
374.7298120363175
 30
0.0
 10
55.35076169636985
 20
374.7298120363175
 30
0.0
 10
54.84983025479958
 20
374.7298120363175
 30
0.0
 10
54.71969363814114
 20
374.7298120363175
 30
0.0
 10
54.71969363814114
 20
374.7298120363175
 30
0.0
  0
SPLINE
  5
437
330
1F
100
AcDbEntity
  8
0
  6
Continuous
 62
     7
370
    25
100
AcDbSpline
210
0.0
220
0.0
230
1.0
 70
     8
 71
     3
 72
     8
 73
     4
 74
     0
 42
0.00000001
 43
0.00000001
 40
0.0
 40
0.0
 40
0.0
 40
0.0
 40
1.0
 40
1.0
 40
1.0
 40
1.0
 10
54.71969363814105
 20
374.7298120363175
 30
0.0
 10
55.19599028884475
 20
375.2965944095262
 30
0.0
 10
55.69660316874098
 20
375.8429417217941
 30
0.0
 10
56.21969363815896
 20
376.3668473610611
 30
0.0
  0
LINE
  5
438
330
1F
100
AcDbEntity
  8
0
  6
Continuous
 62
     7
370
    25
100
AcDbLine
 10
69.7196936381
 20
382.0298120363
 30
0.0
 11
292.7196936381
 21
382.0298120363
 31
0.0
  0
LINE
  5
439
330
1F
100
AcDbEntity
  8
0
  6
Continuous
 62
     7
370
    25
100
AcDbLine
 10
292.7196936381
 20
374.7298120363
 30
0.0
 11
69.7196936381
 21
374.7298120363
 31
0.0
  0
LINE
  5
43A
330
1F
100
AcDbEntity
  8
0
  6
Continuous
 62
     7
370
    25
100
AcDbLine
 10
292.7196936381
 20
374.7298120363
 30
0.0
 11
302.7196936381
 21
374.7298120363
 31
0.0
  0
LINE
  5
43B
330
1F
100
AcDbEntity
  8
0
  6
Continuous
 62
     7
370
    25
100
AcDbLine
 10
302.7196936381
 20
373.2298120363
 30
0.0
 11
59.7196936381
 21
373.2298120363
 31
0.0
  0
SPLINE
  5
43C
330
1F
100
AcDbEntity
  8
0
  6
Continuous
 62
     7
370
    25
100
AcDbSpline
210
0.0
220
0.0
230
1.0
 70
    24
 71
     3
 72
    11
 73
     7
 74
     0
 42
0.00000001
 43
0.00000001
 40
0.0
 40
0.0
 40
0.0
 40
0.0
 40
0.25
 40
0.5
 40
0.75
 40
1.0
 40
1.0
 40
1.0
 40
1.0
 10
302.7196936381413
 20
374.7298120363233
 30
0.0
 10
303.355067536775
 20
374.7298120363234
 30
0.0
 10
304.6527257439047
 20
374.7298120363234
 30
0.0
 10
306.345548332466
 20
374.7298120363235
 30
0.0
 10
307.4700438246648
 20
374.7298120363236
 30
0.0
 10
307.7196936381345
 20
374.7298120363236
 30
0.0
 10
307.719693638135
 20
374.7298120363236
 30
0.0
  0
LINE
  5
43D
330
1F
100
AcDbEntity
  8
0
  6
Continuous
 62
     7
370
    25
100
AcDbLine
 10
307.7196936381
 20
374.7298120363
 30
0.0
 11
307.7196936381
 21
373.2298120363
 31
0.0
  0
LINE
  5
43E
330
1F
100
AcDbEntity
  8
0
  6
Continuous
 62
     7
370
    25
100
AcDbLine
 10
302.7196936381
 20
373.2298120363
 30
0.0
 11
307.7196936381
 21
373.2298120363
 31
0.0
  0
LINE
  5
43F
330
1F
100
AcDbEntity
  8
0
  6
Continuous
 62
     7
370
    25
100
AcDbLine
 10
54.7196936381
 20
374.7298120363
 30
0.0
 11
54.7196936381
 21
373.2298120363
 31
0.0
  0
LINE
  5
440
330
1F
100
AcDbEntity
  8
0
  6
Continuous
 62
     7
370
    25
100
AcDbLine
 10
59.7196936381
 20
373.2298120363
 30
0.0
 11
54.7196936381
 21
373.2298120363
 31
0.0
  0
SPLINE
  5
441
330
1F
100
AcDbEntity
  8
0
  6
Continuous
 62
     7
370
    25
100
AcDbSpline
210
0.0
220
0.0
230
1.0
 70
     8
 71
     3
 72
     8
 73
     4
 74
     0
 42
0.00000001
 43
0.00000001
 40
0.0
 40
0.0
 40
0.0
 40
0.0
 40
1.0
 40
1.0
 40
1.0
 40
1.0
 10
307.7196936381411
 20
374.7298120363175
 30
0.0
 10
307.2433971815499
 20
375.2965941785366
 30
0.0
 10
306.7427728591446
 20
375.8429313893646
 30
0.0
 10
306.2196914716874
 20
376.3668451980317
 30
0.0
  0
LWPOLYLINE
  5
442
330
1F
100
AcDbEntity
  8
0
  6
Continuous
 62
     7
370
    25
100
AcDbPolyline
 90
        2
 70
   128
 43
0.0
 10
307.7196936381
 20
374.7298120363
 10
307.7196936381
 20
374.7298120363
  0
ARC
  5
443
330
1F
100
AcDbEntity
  8
0
  6
Continuous
 62
     7
370
    25
100
AcDbCircle
 10
54.8196936381
 20
371.8298120363
 30
0.0
 40
1.400000000000013
100
AcDbArc
 50
0.0
 51
90.0
  0
ARC
  5
444
330
1F
100
AcDbEntity
  8
0
  6
Continuous
 62
     7
370
    25
100
AcDbCircle
 10
307.6196936381
 20
371.8298120363
 30
0.0
 40
1.399999999999977
100
AcDbArc
 50
90.0
 51
180.0
  0
LINE
  5
445
330
1F
100
AcDbEntity
  8
0
  6
Continuous
 62
     7
370
    25
100
AcDbLine
 10
58.9546895793
 20
368.4298119997
 30
0.0
 11
56.3700754329
 21
368.4298119814
 31
0.0
  0
ARC
  5
446
330
1F
100
AcDbEntity
  8
0
  6
Continuous
 62
     7
370
    25
100
AcDbCircle
 10
56.3700754329
 20
369.7863290916
 30
0.0
 40
1.356517110130937
100
AcDbArc
 50
212.0004697157
 51
270.0
  0
LINE
  5
447
330
1F
100
AcDbEntity
  8
0
  6
Continuous
 62
     7
370
    25
100
AcDbLine
 10
303.4846936323
 20
369.0674751117
 30
0.0
 11
58.9546895793
 21
369.0674751117
 31
0.0
  0
LINE
  5
448
330
1F
100
AcDbEntity
  8
0
  6
Continuous
 62
     7
370
    25
100
AcDbLine
 10
303.4846936323
 20
368.4298119997
 30
0.0
 11
58.9546895793
 21
368.4298119997
 31
0.0
  0
LWPOLYLINE
  5
449
330
1F
100
AcDbEntity
  8
0
  6
Continuous
 62
     7
370
    25
100
AcDbPolyline
 90
        9
 70
   128
 43
0.0
 10
306.0693077787
 20
368.4298119997
 10
306.0196451427
 20
368.4298119994
 10
305.8725657416
 20
368.4298119983
 10
305.6337217546
 20
368.4298119967
 10
305.312291822
 20
368.4298119944
 10
304.9206283159
 20
368.4298119916
 10
304.4737826452
 20
368.4298119884
 10
303.9889268384
 20
368.429811985
 10
303.4846936323
 20
368.4298119997
  0
ARC
  5
44A
330
1F
100
AcDbEntity
  8
0
  6
Continuous
 62
     7
370
    25
100
AcDbCircle
 10
306.0693077787
 20
369.7863290916
 30
0.0
 40
1.356517110077598
100
AcDbArc
 50
270.0
 51
327.9995302829
  0
SPLINE
  5
44B
330
1F
100
AcDbEntity
  8
0
  6
Continuous
 62
     7
370
    25
100
AcDbSpline
210
0.0
220
0.0
230
1.0
 70
     8
 71
     3
 72
    10
 73
     6
 74
     0
 42
0.00000001
 43
0.00000001
 40
0.0
 40
0.0
 40
0.0
 40
0.0
 40
0.5
 40
0.5
 40
1.0
 40
1.0
 40
1.0
 40
1.0
 10
56.21969363815896
 20
376.3668473610611
 30
0.0
 10
57.43038237062072
 20
377.5794227976571
 30
0.0
 10
58.7617667072229
 20
378.6714279194802
 30
0.0
 10
61.61378795498688
 20
380.5715332817393
 30
0.0
 10
63.13435124267815
 20
381.3795844719266
 30
0.0
 10
64.71969363814104
 20
382.0298120363175
 30
0.0
  0
SPLINE
  5
44C
330
1F
100
AcDbEntity
  8
0
  6
Continuous
 62
     7
370
    25
100
AcDbSpline
210
0.0
220
0.0
230
1.0
 70
    24
 71
     3
 72
    20
 73
    16
 74
     0
 42
0.00000001
 43
0.00000001
 40
0.0
 40
0.0
 40
0.0
 40
0.0
 40
0.1250000000000004
 40
0.1250000000000004
 40
0.2500000000000007
 40
0.2500000000000007
 40
0.3750000000000011
 40
0.3750000000000011
 40
0.5000000000000014
 40
0.5000000000000014
 40
0.6250000000000018
 40
0.6250000000000018
 40
0.7500000000000022
 40
0.7500000000000022
 40
1.0
 40
1.0
 40
1.0
 40
1.0
 10
64.71969363814114
 20
382.0298120363175
 30
0.0
 10
64.71969363814112
 20
382.0298120363175
 30
0.0
 10
64.75419485097802
 20
382.0298120363175
 30
0.0
 10
64.8881003428529
 20
382.0298120363175
 30
0.0
 10
64.98740187300976
 20
382.0298120363175
 30
0.0
 10
65.23959470217379
 20
382.0298120363175
 30
0.0
 10
65.39063418019097
 20
382.0298120363175
 30
0.0
 10
65.73761032546531
 20
382.0298120363175
 30
0.0
 10
65.9338558140681
 20
382.0298120363175
 30
0.0
 10
66.3759543827899
 20
382.0298120363175
 30
0.0
 10
66.6250631591868
 20
382.0298120363175
 30
0.0
 10
67.16587987311755
 20
382.0298120363175
 30
0.0
 10
67.45693728810019
 20
382.0298120363175
 30
0.0
 10
68.37483534520202
 20
382.0298120363175
 30
0.0
 10
69.04703599818964
 20
382.0298120363175
 30
0.0
 10
69.71969363814114
 20
382.0298120363175
 30
0.0
  0
SPLINE
  5
44D
330
1F
100
AcDbEntity
  8
0
  6
Continuous
 62
     7
370
    25
100
AcDbSpline
210
0.0
220
0.0
230
1.0
 70
    24
 71
     3
 72
    20
 73
    16
 74
     0
 42
0.00000001
 43
0.00000001
 40
0.0
 40
0.0
 40
0.0
 40
0.0
 40
0.1250000000000002
 40
0.1250000000000002
 40
0.2500000000000005
 40
0.2500000000000005
 40
0.3750000000000008
 40
0.3750000000000008
 40
0.500000000000001
 40
0.500000000000001
 40
0.6250000000000012
 40
0.6250000000000012
 40
0.7500000000000016
 40
0.7500000000000016
 40
1.0
 40
1.0
 40
1.0
 40
1.0
 10
297.7196936381412
 20
382.0298120363175
 30
0.0
 10
297.7196936381412
 20
382.0298120363175
 30
0.0
 10
297.6851924253041
 20
382.0298120363175
 30
0.0
 10
297.5512869334293
 20
382.0298120363175
 30
0.0
 10
297.4519854032724
 20
382.0298120363175
 30
0.0
 10
297.1997925741081
 20
382.0298120363175
 30
0.0
 10
297.048753096091
 20
382.0298120363175
 30
0.0
 10
296.7017769508167
 20
382.0298120363175
 30
0.0
 10
296.505531462214
 20
382.0298120363175
 30
0.0
 10
296.0634328934925
 20
382.0298120363175
 30
0.0
 10
295.8143241170953
 20
382.0298120363175
 30
0.0
 10
295.2735074031645
 20
382.0298120363175
 30
0.0
 10
294.982449988182
 20
382.0298120363175
 30
0.0
 10
294.0645519310804
 20
382.0298120363175
 30
0.0
 10
293.3923512780926
 20
382.0298120363175
 30
0.0
 10
292.7196936381412
 20
382.0298120363175
 30
0.0
  0
SPLINE
  5
44E
330
1F
100
AcDbEntity
  8
0
  6
Continuous
 62
     7
370
    25
100
AcDbSpline
210
0.0
220
0.0
230
1.0
 70
     8
 71
     3
 72
    11
 73
     7
 74
     0
 42
0.00000001
 43
0.00000001
 40
0.1776516320569171
 40
0.1776516320569171
 40
0.1776516320569171
 40
0.1776516320569171
 40
0.25
 40
0.5
 40
0.75
 40
1.0
 40
1.0
 40
1.0
 40
1.0
 10
306.2196936381299
 20
376.3668430281413
 30
0.0
 10
306.0066698256634
 20
376.5802058929294
 30
0.0
 10
305.0409469641714
 20
377.5142750156282
 30
0.0
 10
303.1994231581705
 20
379.0369757623853
 30
0.0
 10
300.5636657864592
 20
380.7273201781289
 30
0.0
 10
298.6836056915103
 20
381.6344638840553
 30
0.0
 10
297.7196936381412
 20
382.0298120363175
 30
0.0
  0
LINE
  5
44F
330
1F
100
AcDbEntity
  8
0
  6
Continuous
 62
     7
370
    25
100
AcDbLine
 10
306.2196936381
 20
371.8298120363
 30
0.0
 11
306.2196936381
 21
371.2298120363
 31
0.0
  0
LINE
  5
450
330
1F
100
AcDbEntity
  8
0
  6
Continuous
 62
     7
370
    25
100
AcDbLine
 10
56.2196936381
 20
371.8298120363
 30
0.0
 11
56.2196936381
 21
371.2298120363
 31
0.0
  0
SPLINE
  5
451
330
1F
100
AcDbEntity
  8
0
  6
Continuous
 62
     7
370
    25
100
AcDbSpline
210
0.0
220
0.0
230
1.0
 70
     8
 71
     3
 72
    14
 73
    10
 74
     0
 42
0.00000001
 43
0.00000001
 40
0.0
 40
0.0
 40
0.0
 40
0.0
 40
0.25
 40
0.25
 40
0.5
 40
0.5
 40
0.75
 40
0.75
 40
1.0
 40
1.0
 40
1.0
 40
1.0
 10
297.092541203699
 20
382.5479113493312
 30
0.0
 10
297.0925309587273
 20
382.5481068291131
 30
0.0
 10
296.9796668314142
 20
382.548302308895
 30
0.0
 10
296.5405694133795
 20
382.5486932684589
 30
0.0
 10
296.2182023265555
 20
382.5488887482408
 30
0.0
 10
295.4063605493257
 20
382.5492797078047
 30
0.0
 10
294.9238939388883
 20
382.5494751875851
 30
0.0
 10
293.8629248904891
 20
382.549866147152
 30
0.0
 10
293.2937297134095
 20
382.5500616269309
 30
0.0
 10
292.7196936381412
 20
382.5502571067144
 30
0.0
  0
LINE
  5
452
330
1F
100
AcDbEntity
  8
0
  6
Continuous
 62
     7
370
    25
100
AcDbLine
 10
297.0925531747
 20
382.5476829284
 30
0.0
 11
297.1196936381
 21
382.0298120363
 31
0.0
  0
SPLINE
  5
453
330
1F
100
AcDbEntity
  8
0
  6
Continuous
 62
     7
370
    25
100
AcDbSpline
210
0.0
220
0.0
230
1.0
 70
     8
 71
     3
 72
    15
 73
    11
 74
     0
 42
0.00000001
 43
0.00000001
 40
0.0147664951495513
 40
0.0147664951495513
 40
0.0147664951495513
 40
0.0147664951495513
 40
0.0164954028412365
 40
0.0164954028412365
 40
0.0182243105329218
 40
0.0216821259162924
 40
0.0285977566830334
 40
0.0424290182165156
 40
0.0700915412834799
 40
0.1254165874174084
 40
0.1254165874174084
 40
0.1254165874174084
 40
0.1254165874174084
 10
69.71969363814114
 20
382.5502571067144
 30
0.0
 10
70.30042280235294
 20
382.5514514396181
 30
0.0
 10
70.88115197145014
 20
382.5502690328686
 30
0.0
 10
72.04261030478392
 20
382.5502690328686
 30
0.0
 10
73.78479780478415
 20
382.5502690328686
 30
0.0
 10
77.84990197145174
 20
382.5502690328686
 30
0.0
 10
85.98011030478683
 20
382.5502690328686
 30
0.0
 10
102.2405269714571
 20
382.5502690328687
 30
0.0
 10
134.7613603047976
 20
382.5502690328685
 30
0.0
 10
162.6363603048037
 20
382.5502690328686
 30
0.0
 10
181.2196936381412
 20
382.5502690328686
 30
0.0
  0
SPLINE
  5
454
330
1F
100
AcDbEntity
  8
0
  6
Continuous
 62
     7
370
    25
100
AcDbSpline
210
0.0
220
0.0
230
1.0
 70
     8
 71
     3
 72
    15
 73
    11
 74
     0
 42
0.00000001
 43
0.00000001
 40
0.0
 40
0.0
 40
0.0
 40
0.0
 40
0.001742187499997
 40
0.001742187499997
 40
0.0034843749999939
 40
0.0069687499999879
 40
0.0139374999999758
 40
0.0278749999999517
 40
0.0557499999999034
 40
0.1114999999998068
 40
0.1114999999998068
 40
0.1114999999998068
 40
0.1114999999998068
 10
292.7196936381583
 20
382.5502571067144
 30
0.0
 10
292.1389644739465
 20
382.5514514396199
 30
0.0
 10
291.5582353048491
 20
382.5502690328686
 30
0.0
 10
290.3967769715154
 20
382.5502690328686
 30
0.0
 10
288.6545894715146
 20
382.5502690328686
 30
0.0
 10
284.5894853048463
 20
382.5502690328686
 30
0.0
 10
276.4592769715101
 20
382.5502690328686
 30
0.0
 10
260.1988603048374
 20
382.5502690328687
 30
0.0
 10
227.6780269714918
 20
382.5502690328686
 30
0.0
 10
199.8030269714815
 20
382.5502690328686
 30
0.0
 10
181.2196936381412
 20
382.5502690328686
 30
0.0
  0
LINE
  5
455
330
1F
100
AcDbEntity
  8
0
  6
Continuous
 62
     7
370
    25
100
AcDbLine
 10
291.8696936381
 20
384.0298120363
 30
0.0
 11
181.2196936381
 21
384.0298120363
 31
0.0
  0
SPLINE
  5
456
330
1F
100
AcDbEntity
  8
0
  6
Continuous
 62
     7
370
    25
100
AcDbSpline
210
0.0
220
0.0
230
1.0
 70
    24
 71
     3
 72
    15
 73
    11
 74
     0
 42
0.00000001
 43
0.00000001
 40
0.0
 40
0.0
 40
0.0
 40
0.0
 40
0.1250000000301432
 40
0.2500000000602865
 40
0.37500000009043
 40
0.500000000120573
 40
0.625000000150717
 40
0.75000000018086
 40
0.875000000211003
 40
1.0
 40
1.0
 40
1.0
 40
1.0
 10
294.8696936381411
 20
384.0298120363175
 30
0.0
 10
294.8696936381411
 20
384.0298120363175
 30
0.0
 10
294.8148307823976
 20
384.0298120363175
 30
0.0
 10
294.6255848335098
 20
384.0298120363175
 30
0.0
 10
294.3507187843393
 20
384.0298120363175
 30
0.0
 10
294.0025107981804
 20
384.0298120363175
 30
0.0
 10
293.5853879253111
 20
384.0298120363175
 30
0.0
 10
293.1001583058871
 20
384.0298120363175
 30
0.0
 10
292.5404711276731
 20
384.0298120363175
 30
0.0
 10
292.1082510854621
 20
384.0298120363175
 30
0.0
 10
291.8696936381411
 20
384.0298120363175
 30
0.0
  0
LINE
  5
457
330
1F
100
AcDbEntity
  8
0
  6
Continuous
 62
     7
370
    25
100
AcDbLine
 10
294.8696936381
 20
384.0298120363
 30
0.0
 11
297.0938165663
 21
382.5470634176
 31
0.0
  0
LINE
  5
458
330
1F
100
AcDbEntity
  8
0
  6
Continuous
 62
     7
370
    25
100
AcDbLine
 10
65.346846198
 20
382.5479137429
 30
0.0
 11
65.3196936381
 21
382.0298120363
 31
0.0
  0
SPLINE
  5
459
330
1F
100
AcDbEntity
  8
0
  6
Continuous
 62
     7
370
    25
100
AcDbSpline
210
0.0
220
0.0
230
1.0
 70
     8
 71
     3
 72
    47
 73
    43
 74
     0
 42
0.00000001
 43
0.00000001
 40
0.0
 40
0.0
 40
0.0
 40
0.0
 40
0.0303832084506538
 40
0.0610864792125282
 40
0.092083079989349
 40
0.1233558145395646
 40
0.1548691448428667
 40
0.1865605467985303
 40
0.2183776988755686
 40
0.2502790212098582
 40
0.2821993051973956
 40
0.3140518618824878
 40
0.3457614219573245
 40
0.3772649669493576
 40
0.4084920258173911
 40
0.4393564934229974
 40
0.4697799244418651
 40
0.4996939337255913
 40
0.5290404356874356
 40
0.5577679558469216
 40
0.5858282202472188
 40
0.6131770647620456
 40
0.6397753386384393
 40
0.6655952454073952
 40
0.6906282387945442
 40
0.7148681511329793
 40
0.7383087879804474
 40
0.7609446572623749
 40
0.782772816915893
 40
0.803804554562332
 40
0.8240575766670828
 40
0.8435478109727709
 40
0.8622897898231372
 40
0.8802970677981823
 40
0.897582754325758
 40
0.9141645904131456
 40
0.9300645627787076
 40
0.9453030995114012
 40
0.9598990229508454
 40
0.9738697864902112
 40
0.9872316791078372
 40
1.0
 40
1.0
 40
1.0
 40
1.0
 10
65.34684618450983
 20
382.547913485053
 30
0.0
 10
65.34780276271971
 20
382.5478942973977
 30
0.0
 10
65.34972599591046
 20
382.5478557199609
 30
0.0
 10
65.36541955586482
 20
382.5478058370745
 30
0.0
 10
65.39081293400797
 20
382.5477613409661
 30
0.0
 10
65.42703522014634
 20
382.54772287226
 30
0.0
 10
65.47391983174282
 20
382.5476902614129
 30
0.0
 10
65.53153302531402
 20
382.5476635283606
 30
0.0
 10
65.59979839419674
 20
382.5476426666308
 30
0.0
 10
65.67862009312037
 20
382.5476276909795
 30
0.0
 10
65.7676267461989
 20
382.5476185916615
 30
0.0
 10
65.86627280627218
 20
382.547615362345
 30
0.0
 10
65.97401249767545
 20
382.5476180075576
 30
0.0
 10
66.09031256692354
 20
382.5476265270465
 30
0.0
 10
66.2144015527432
 20
382.5476409140909
 30
0.0
 10
66.34525547209154
 20
382.5476611732053
 30
0.0
 10
66.48193543100136
 20
382.5476873064539
 30
0.0
 10
66.6235442400376
 20
382.547719316203
 30
0.0
 10
66.76924248570742
 20
382.547757201927
 30
0.0
 10
66.91794220042264
 20
382.547800961242
 30
0.0
 10
67.06864800506493
 20
382.5478505949097
 30
0.0
 10
67.22044902750807
 20
382.5479061033741
 30
0.0
 10
67.372529536433
 20
382.5479674932897
 30
0.0
 10
67.52417284398305
 20
382.5480347847097
 30
0.0
 10
67.67465082304201
 20
382.5481079543989
 30
0.0
 10
67.82335999323726
 20
382.5481869999097
 30
0.0
 10
67.96976500947471
 20
382.5482719221632
 30
0.0
 10
68.11339341220558
 20
382.5483627197278
 30
0.0
 10
68.25386394803465
 20
382.5484594279512
 30
0.0
 10
68.39086605225562
 20
382.5485620333173
 30
0.0
 10
68.52416745314673
 20
382.5486705153094
 30
0.0
 10
68.65359001662667
 20
382.5487848750123
 30
0.0
 10
68.7789855175493
 20
382.548905112447
 30
0.0
 10
68.9002345177527
 20
382.5490312256625
 30
0.0
 10
69.01725578262204
 20
382.5491632364442
 30
0.0
 10
69.13001339575727
 20
382.5493011531734
 30
0.0
 10
69.23851107597997
 20
382.5494449388374
 30
0.0
 10
69.34277697335392
 20
382.5495946283999
 30
0.0
 10
69.44284805906024
 20
382.5497501003531
 30
0.0
 10
69.53876861873543
 20
382.5499117744272
 30
0.0
 10
69.6305894871212
 20
382.5500781812234
 30
0.0
 10
69.69044548238057
 20
382.5501983749879
 30
0.0
 10
69.71969363814115
 20
382.5502571067144
 30
0.0
  0
LINE
  5
45A
330
1F
100
AcDbEntity
  8
0
  6
Continuous
 62
     7
370
    25
100
AcDbLine
 10
67.5696936381
 20
384.0298120363
 30
0.0
 11
65.3465276929
 21
382.5477014062
 31
0.0
  0
SPLINE
  5
45B
330
1F
100
AcDbEntity
  8
0
  6
Continuous
 62
     7
370
    25
100
AcDbSpline
210
0.0
220
0.0
230
1.0
 70
    24
 71
     3
 72
    22
 73
    18
 74
     0
 42
0.00000001
 43
0.00000001
 40
0.0
 40
0.0
 40
0.0
 40
0.0
 40
0.0360451144072789
 40
0.0718072354567103
 40
0.1073989783582869
 40
0.14293457818561
 40
0.178528810568129
 40
0.21429588668865
 40
0.2503483751051189
 40
0.3751981529188173
 40
0.5000746174550443
 40
0.6248156658341659
 40
0.749530238696792
 40
0.8124598948563212
 40
0.8747725857521715
 40
0.9370815159572968
 40
1.0
 40
1.0
 40
1.0
 40
1.0
 10
67.56969363814113
 20
384.0298120363175
 30
0.0
 10
67.57058295699716
 20
384.0298120363175
 30
0.0
 10
67.57235461258873
 20
384.0298120363175
 30
0.0
 10
67.58686142736838
 20
384.0298120363175
 30
0.0
 10
67.61007343682049
 20
384.0298120363175
 30
0.0
 10
67.64282266463285
 20
384.0298120363175
 30
0.0
 10
67.68488198945457
 20
384.0298120363175
 30
0.0
 10
67.73632643660503
 20
384.0298120363175
 30
0.0
 10
67.84666694039947
 20
384.0298120363175
 30
0.0
 10
68.05852658857955
 20
384.0298120363175
 30
0.0
 10
68.43510695695089
 20
384.0298120363175
 30
0.0
 10
68.8909835376805
 20
384.0298120363175
 30
0.0
 10
69.32707121761769
 20
384.0298120363175
 30
0.0
 10
69.6966606334829
 20
384.0298120363175
 30
0.0
 10
69.98261027902545
 20
384.0298120363175
 30
0.0
 10
70.27427438477643
 20
384.0298120363175
 30
0.0
 10
70.47090152123819
 20
384.0298120363175
 30
0.0
 10
70.56969363814115
 20
384.0298120363175
 30
0.0
  0
LINE
  5
45C
330
1F
100
AcDbEntity
  8
0
  6
Continuous
 62
     7
370
    25
100
AcDbLine
 10
70.5696936381
 20
384.0298120363
 30
0.0
 11
181.2196936381
 21
384.0298120363
 31
0.0
  0
ARC
  5
45D
330
1F
100
AcDbEntity
  8
0
  6
Continuous
 62
     7
370
    25
100
AcDbCircle
 10
143.7707290714
 20
385.0298120363
 30
0.0
 40
1.000000000000024
100
AcDbArc
 50
270.0
 51
357.0
  0
ARC
  5
45E
330
1F
100
AcDbEntity
  8
0
  6
Continuous
 62
     7
370
    25
100
AcDbCircle
 10
218.6686582049
 20
385.0298120363
 30
0.0
 40
1.000000000000024
100
AcDbArc
 50
183.0
 51
270.0
  0
LINE
  5
45F
330
1F
100
AcDbEntity
  8
0
  6
Continuous
 62
     7
370
    25
100
AcDbLine
 10
207.7196936381
 20
407.0304972689
 30
0.0
 11
216.5142788031
 21
407.0304972689
 31
0.0
  0
LINE
  5
460
330
1F
100
AcDbEntity
  8
0
  6
Continuous
 62
     7
370
    25
100
AcDbLine
 10
216.5142788031
 20
407.0304972689
 30
0.0
 11
217.6700286701
 21
384.9774760801
 31
0.0
  0
LINE
  5
461
330
1F
100
AcDbEntity
  8
0
  6
Continuous
 62
     7
370
    25
100
AcDbLine
 10
145.9251084732
 20
407.0304972689
 30
0.0
 11
144.7693586062
 21
384.9774760801
 31
0.0
  0
LINE
  5
462
330
1F
100
AcDbEntity
  8
0
  6
Continuous
 62
     7
370
    25
100
AcDbLine
 10
154.7196936381
 20
407.0304972689
 30
0.0
 11
145.9251084732
 21
407.0304972689
 31
0.0
  0
LINE
  5
463
330
1F
100
AcDbEntity
  8
0
  6
Continuous
 62
     7
370
    25
100
AcDbLine
 10
207.7196936381
 20
407.0304972689
 30
0.0
 11
154.7196936381
 21
407.0304972689
 31
0.0
  0
LINE
  5
464
330
1F
100
AcDbEntity
  8
0
  6
Continuous
 62
     7
370
    25
100
AcDbLine
 10
154.7196936381
 20
407.5298120363
 30
0.0
 11
207.7196936381
 21
407.5298120363
 31
0.0
  0
LINE
  5
465
330
1F
100
AcDbEntity
  8
0
  6
Continuous
 62
     7
370
    25
100
AcDbLine
 10
215.9597335736
 20
407.5298120363
 30
0.0
 11
207.7196936381
 21
407.5298120363
 31
0.0
  0
LINE
  5
466
330
1F
100
AcDbEntity
  8
0
  6
Continuous
 62
     7
370
    25
100
AcDbLine
 10
216.5142788031
 20
407.0304972689
 30
0.0
 11
215.9597335736
 21
407.5298120363
 31
0.0
  0
LINE
  5
467
330
1F
100
AcDbEntity
  8
0
  6
Continuous
 62
     7
370
    25
100
AcDbLine
 10
146.4796537027
 20
407.5298120363
 30
0.0
 11
154.7196936381
 21
407.5298120363
 31
0.0
  0
LINE
  5
468
330
1F
100
AcDbEntity
  8
0
  6
Continuous
 62
     7
370
    25
100
AcDbLine
 10
145.9251084732
 20
407.0304972689
 30
0.0
 11
146.4796537027
 21
407.5298120363
 31
0.0
  0
ENDSEC
  0
SECTION
  2
OBJECTS
  0
DICTIONARY
  5
C
330
0
100
AcDbDictionary
281
     1
  3
ACAD_GROUP
350
D
  3
ACAD_LAYOUT
350
1A
  3
ACAD_MLINESTYLE
350
17
  3
ACAD_PLOTSETTINGS
350
19
  3
ACAD_PLOTSTYLENAME
350
E
  3
ACAD_SCALELIST
350
47
  3
DWGPROPS
350
469
  0
DICTIONARY
  5
D
102
{ACAD_REACTORS
330
C
102
}
330
C
100
AcDbDictionary
281
     1
  0
DICTIONARY
  5
1A
102
{ACAD_REACTORS
330
C
102
}
330
C
100
AcDbDictionary
281
     1
  3
Layout1
350
1E
  3
Layout2
350
26
  3
Model
350
22
  0
DICTIONARY
  5
17
102
{ACAD_REACTORS
330
C
102
}
330
C
100
AcDbDictionary
281
     1
  3
Standard
350
18
  0
DICTIONARY
  5
19
102
{ACAD_REACTORS
330
C
102
}
330
C
100
AcDbDictionary
281
     1
  0
ACDBDICTIONARYWDFLT
  5
E
102
{ACAD_REACTORS
330
C
102
}
330
C
100
AcDbDictionary
281
     1
  3
Normal
350
F
100
AcDbDictionaryWithDefault
340
F
  0
DICTIONARY
  5
47
102
{ACAD_REACTORS
330
C
102
}
330
C
100
AcDbDictionary
281
     1
  3
A0
350
48
  3
A1
350
49
  3
A2
350
4A
  3
A3
350
4B
  3
A4
350
4C
  3
A5
350
4D
  3
A6
350
4E
  3
A7
350
4F
  3
A8
350
50
  3
A9
350
51
  3
B0
350
52
  3
B1
350
53
  3
B2
350
54
  3
B3
350
55
  3
B4
350
56
  3
B5
350
57
  3
B6
350
58
  3
B7
350
59
  3
B8
350
5A
  3
B9
350
5B
  3
C0
350
5C
  3
C1
350
5D
  3
C2
350
5E
  3
C3
350
5F
  3
C4
350
60
  3
C5
350
61
  3
C6
350
62
  3
C7
350
63
  3
C8
350
64
  3
C9
350
65
  3
D0
350
66
  3
D1
350
67
  3
D2
350
68
  0
XRECORD
  5
469
102
{ACAD_REACTORS
330
C
102
}
330
C
100
AcDbXrecord
280
     1
  1
DWGPROPS COOKIE
  2

  3

  4

  6

  7

  8
Suzanne.Stasiak
  9

300
=
301
=
302
=
303
=
304
=
305
=
306
=
307
=
308
=
309
=
 40
0.0
 41
2459556.909067072
 42
2459556.909071412
  1

 90
        0
  0
LAYOUT
  5
1E
102
{ACAD_REACTORS
330
1A
102
}
330
1A
100
AcDbPlotSettings
  1

  2
none_device
  4

  6

 40
0.0
 41
0.0
 42
0.0
 43
0.0
 44
0.0
 45
0.0
 46
0.0
 47
0.0
 48
0.0
 49
0.0
140
0.0
141
0.0
142
1.0
143
1.0
 70
   688
 72
     1
 73
     0
 74
     5
  7

 75
    16
147
1.0
148
0.0
149
0.0
100
AcDbLayout
  1
Layout1
 70
     1
 71
     1
 10
0.0
 20
0.0
 11
420.0
 21
297.0
 12
0.0
 22
0.0
 32
0.0
 14
1.0000000000E+20
 24
1.0000000000E+20
 34
1.0000000000E+20
 15
-1.0000000000E+20
 25
-1.0000000000E+20
 35
-1.0000000000E+20
146
0.0
 13
0.0
 23
0.0
 33
0.0
 16
1.0
 26
0.0
 36
0.0
 17
0.0
 27
1.0
 37
0.0
 76
     0
330
1B
  0
LAYOUT
  5
26
102
{ACAD_REACTORS
330
1A
102
}
330
1A
100
AcDbPlotSettings
  1

  2
none_device
  4

  6

 40
0.0
 41
0.0
 42
0.0
 43
0.0
 44
0.0
 45
0.0
 46
0.0
 47
0.0
 48
0.0
 49
0.0
140
0.0
141
0.0
142
1.0
143
1.0
 70
   688
 72
     1
 73
     0
 74
     5
  7

 75
    16
147
1.0
148
0.0
149
0.0
100
AcDbLayout
  1
Layout2
 70
     1
 71
     2
 10
0.0
 20
0.0
 11
0.0
 21
0.0
 12
0.0
 22
0.0
 32
0.0
 14
0.0
 24
0.0
 34
0.0
 15
0.0
 25
0.0
 35
0.0
146
0.0
 13
0.0
 23
0.0
 33
0.0
 16
1.0
 26
0.0
 36
0.0
 17
0.0
 27
1.0
 37
0.0
 76
     0
330
23
  0
LAYOUT
  5
22
102
{ACAD_REACTORS
330
1A
102
}
330
1A
100
AcDbPlotSettings
  1

  2
none_device
  4
Letter_(8.50_x_11.00_Inches)
  6

 40
6.35
 41
6.35
 42
6.35000508
 43
6.35000508
 44
215.9
 45
279.4
 46
0.0
 47
0.0
 48
0.0
 49
0.0
140
0.0
141
0.0
142
1.0
143
1.0
 70
  1712
 72
     1
 73
     0
 74
     0
  7

 75
     0
147
1.0
148
0.0
149
0.0
100
AcDbLayout
  1
Model
 70
     1
 71
     0
 10
0.0
 20
0.0
 11
863.6
 21
558.8
 12
0.0
 22
0.0
 32
0.0
 14
0.0
 24
0.0
 34
0.0
 15
863.6
 25
558.8
 35
0.0
146
0.0
 13
0.0
 23
0.0
 33
0.0
 16
1.0
 26
0.0
 36
0.0
 17
0.0
 27
1.0
 37
0.0
 76
     0
330
1F
331
29
  0
MLINESTYLE
  5
18
102
{ACAD_REACTORS
330
17
102
}
330
17
100
AcDbMlineStyle
  2
Standard
 70
     0
  3

 62
   256
 51
90.0
 52
90.0
 71
     2
 49
0.5
 62
   256
  6
BYLAYER
 49
-0.5
 62
   256
  6
BYLAYER
  0
ACDBPLACEHOLDER
  5
F
102
{ACAD_REACTORS
330
E
102
}
330
E
  0
SCALE
  5
48
102
{ACAD_REACTORS
330
47
102
}
330
47
100
AcDbScale
 70
     0
300
1:1
140
1.0
141
1.0
290
     1
  0
SCALE
  5
49
102
{ACAD_REACTORS
330
47
102
}
330
47
100
AcDbScale
 70
     0
300
1:2
140
1.0
141
2.0
290
     0
  0
SCALE
  5
4A
102
{ACAD_REACTORS
330
47
102
}
330
47
100
AcDbScale
 70
     0
300
1:4
140
1.0
141
4.0
290
     0
  0
SCALE
  5
4B
102
{ACAD_REACTORS
330
47
102
}
330
47
100
AcDbScale
 70
     0
300
1:5
140
1.0
141
5.0
290
     0
  0
SCALE
  5
4C
102
{ACAD_REACTORS
330
47
102
}
330
47
100
AcDbScale
 70
     0
300
1:8
140
1.0
141
8.0
290
     0
  0
SCALE
  5
4D
102
{ACAD_REACTORS
330
47
102
}
330
47
100
AcDbScale
 70
     0
300
1:10
140
1.0
141
10.0
290
     0
  0
SCALE
  5
4E
102
{ACAD_REACTORS
330
47
102
}
330
47
100
AcDbScale
 70
     0
300
1:16
140
1.0
141
16.0
290
     0
  0
SCALE
  5
4F
102
{ACAD_REACTORS
330
47
102
}
330
47
100
AcDbScale
 70
     0
300
1:20
140
1.0
141
20.0
290
     0
  0
SCALE
  5
50
102
{ACAD_REACTORS
330
47
102
}
330
47
100
AcDbScale
 70
     0
300
1:30
140
1.0
141
30.0
290
     0
  0
SCALE
  5
51
102
{ACAD_REACTORS
330
47
102
}
330
47
100
AcDbScale
 70
     0
300
1:40
140
1.0
141
40.0
290
     0
  0
SCALE
  5
52
102
{ACAD_REACTORS
330
47
102
}
330
47
100
AcDbScale
 70
     0
300
1:50
140
1.0
141
50.0
290
     0
  0
SCALE
  5
53
102
{ACAD_REACTORS
330
47
102
}
330
47
100
AcDbScale
 70
     0
300
1:100
140
1.0
141
100.0
290
     0
  0
SCALE
  5
54
102
{ACAD_REACTORS
330
47
102
}
330
47
100
AcDbScale
 70
     0
300
2:1
140
2.0
141
1.0
290
     0
  0
SCALE
  5
55
102
{ACAD_REACTORS
330
47
102
}
330
47
100
AcDbScale
 70
     0
300
4:1
140
4.0
141
1.0
290
     0
  0
SCALE
  5
56
102
{ACAD_REACTORS
330
47
102
}
330
47
100
AcDbScale
 70
     0
300
8:1
140
8.0
141
1.0
290
     0
  0
SCALE
  5
57
102
{ACAD_REACTORS
330
47
102
}
330
47
100
AcDbScale
 70
     0
300
10:1
140
10.0
141
1.0
290
     0
  0
SCALE
  5
58
102
{ACAD_REACTORS
330
47
102
}
330
47
100
AcDbScale
 70
     0
300
100:1
140
100.0
141
1.0
290
     0
  0
SCALE
  5
59
102
{ACAD_REACTORS
330
47
102
}
330
47
100
AcDbScale
 70
     0
300
1/128" = 1'-0"
140
0.0078125
141
12.0
290
     0
  0
SCALE
  5
5A
102
{ACAD_REACTORS
330
47
102
}
330
47
100
AcDbScale
 70
     0
300
1/64" = 1'-0"
140
0.015625
141
12.0
290
     0
  0
SCALE
  5
5B
102
{ACAD_REACTORS
330
47
102
}
330
47
100
AcDbScale
 70
     0
300
1/32" = 1'-0"
140
0.03125
141
12.0
290
     0
  0
SCALE
  5
5C
102
{ACAD_REACTORS
330
47
102
}
330
47
100
AcDbScale
 70
     0
300
1/16" = 1'-0"
140
0.0625
141
12.0
290
     0
  0
SCALE
  5
5D
102
{ACAD_REACTORS
330
47
102
}
330
47
100
AcDbScale
 70
     0
300
3/32" = 1'-0"
140
0.09375
141
12.0
290
     0
  0
SCALE
  5
5E
102
{ACAD_REACTORS
330
47
102
}
330
47
100
AcDbScale
 70
     0
300
1/8" = 1'-0"
140
0.125
141
12.0
290
     0
  0
SCALE
  5
5F
102
{ACAD_REACTORS
330
47
102
}
330
47
100
AcDbScale
 70
     0
300
3/16" = 1'-0"
140
0.1875
141
12.0
290
     0
  0
SCALE
  5
60
102
{ACAD_REACTORS
330
47
102
}
330
47
100
AcDbScale
 70
     0
300
1/4" = 1'-0"
140
0.25
141
12.0
290
     0
  0
SCALE
  5
61
102
{ACAD_REACTORS
330
47
102
}
330
47
100
AcDbScale
 70
     0
300
3/8" = 1'-0"
140
0.375
141
12.0
290
     0
  0
SCALE
  5
62
102
{ACAD_REACTORS
330
47
102
}
330
47
100
AcDbScale
 70
     0
300
1/2" = 1'-0"
140
0.5
141
12.0
290
     0
  0
SCALE
  5
63
102
{ACAD_REACTORS
330
47
102
}
330
47
100
AcDbScale
 70
     0
300
3/4" = 1'-0"
140
0.75
141
12.0
290
     0
  0
SCALE
  5
64
102
{ACAD_REACTORS
330
47
102
}
330
47
100
AcDbScale
 70
     0
300
1" = 1'-0"
140
1.0
141
12.0
290
     0
  0
SCALE
  5
65
102
{ACAD_REACTORS
330
47
102
}
330
47
100
AcDbScale
 70
     0
300
1-1/2" = 1'-0"
140
1.5
141
12.0
290
     0
  0
SCALE
  5
66
102
{ACAD_REACTORS
330
47
102
}
330
47
100
AcDbScale
 70
     0
300
3" = 1'-0"
140
3.0
141
12.0
290
     0
  0
SCALE
  5
67
102
{ACAD_REACTORS
330
47
102
}
330
47
100
AcDbScale
 70
     0
300
6" = 1'-0"
140
6.0
141
12.0
290
     0
  0
SCALE
  5
68
102
{ACAD_REACTORS
330
47
102
}
330
47
100
AcDbScale
 70
     0
300
1'-0" = 1'-0"
140
12.0
141
12.0
290
     0
  0
ENDSEC
  0
EOF
