  0
SECTION
  2
HEADER
  9
$ACADVER
  1
AC1015
  9
$ACADMAINTVER
 70
     6
  9
$DWGCODEPAGE
  3
ANSI_1252
  9
$INSBASE
 10
0.0
 20
0.0
 30
0.0
  9
$EXTMIN
 10
0.0
 20
0.0
 30
0.0
  9
$EXTMAX
 10
863.6
 20
558.8
 30
0.0
  9
$LIMMIN
 10
0.0
 20
0.0
  9
$LIMMAX
 10
863.6
 20
558.8
  9
$ORTHOMODE
 70
     0
  9
$REGENMODE
 70
     1
  9
$FILLMODE
 70
     1
  9
$QTEXTMODE
 70
     0
  9
$MIRRTEXT
 70
     1
  9
$LTSCALE
 40
2.0
  9
$ATTMODE
 70
     1
  9
$TEXTSIZE
 40
6.35
  9
$TRACEWID
 40
1.0
  9
$TEXTSTYLE
  7
STANDARD
  9
$CLAYER
  8
0
  9
$CELTYPE
  6
ByLayer
  9
$CECOLOR
 62
   256
  9
$CELTSCALE
 40
1.0
  9
$DISPSILH
 70
     0
  9
$DIMSCALE
 40
1.0
  9
$DIMASZ
 40
4.0
  9
$DIMEXO
 40
1.524
  9
$DIMDLI
 40
3.75
  9
$DIMRND
 40
0.0
  9
$DIMDLE
 40
0.0
  9
$DIMEXE
 40
1.524
  9
$DIMTP
 40
0.0
  9
$DIMTM
 40
0.0
  9
$DIMTXT
 40
6.35
  9
$DIMCEN
 40
2.5
  9
$DIMTSZ
 40
0.0
  9
$DIMTOL
 70
     0
  9
$DIMLIM
 70
     0
  9
$DIMTIH
 70
     1
  9
$DIMTOH
 70
     1
  9
$DIMSE1
 70
     0
  9
$DIMSE2
 70
     0
  9
$DIMTAD
 70
     0
  9
$DIMZIN
 70
     1
  9
$DIMBLK
  1

  9
$DIMASO
 70
     1
  9
$DIMSHO
 70
     1
  9
$DIMPOST
  1

  9
$DIMAPOST
  1

  9
$DIMALT
 70
     0
  9
$DIMALTD
 70
     3
  9
$DIMALTF
 40
0.0393700787
  9
$DIMLFAC
 40
1.0
  9
$DIMTOFL
 70
     1
  9
$DIMTVP
 40
0.0
  9
$DIMTIX
 70
     0
  9
$DIMSOXD
 70
     0
  9
$DIMSAH
 70
     0
  9
$DIMBLK1
  1

  9
$DIMBLK2
  1

  9
$DIMSTYLE
  2
ISO-25
  9
$DIMCLRD
 70
     0
  9
$DIMCLRE
 70
     0
  9
$DIMCLRT
 70
     0
  9
$DIMTFAC
 40
1.0
  9
$DIMGAP
 40
3.048
  9
$DIMJUST
 70
     0
  9
$DIMSD1
 70
     0
  9
$DIMSD2
 70
     0
  9
$DIMTOLJ
 70
     0
  9
$DIMTZIN
 70
     1
  9
$DIMALTZ
 70
     0
  9
$DIMALTTZ
 70
     0
  9
$DIMUPT
 70
     0
  9
$DIMDEC
 70
     2
  9
$DIMTDEC
 70
     2
  9
$DIMALTU
 70
     2
  9
$DIMALTTD
 70
     3
  9
$DIMTXSTY
  7
STANDARD
  9
$DIMAUNIT
 70
     0
  9
$DIMADEC
 70
     0
  9
$DIMALTRND
 40
0.0
  9
$DIMAZIN
 70
     0
  9
$DIMDSEP
 70
    44
  9
$DIMATFIT
 70
     3
  9
$DIMFRAC
 70
     0
  9
$DIMLDRBLK
  1

  9
$DIMLUNIT
 70
     2
  9
$DIMLWD
 70
    -2
  9
$DIMLWE
 70
    -2
  9
$DIMTMOVE
 70
     0
  9
$LUNITS
 70
     2
  9
$LUPREC
 70
     2
  9
$SKETCHINC
 40
1.0
  9
$FILLETRAD
 40
10.0
  9
$AUNITS
 70
     0
  9
$AUPREC
 70
     0
  9
$MENU
  1
.
  9
$ELEVATION
 40
0.0
  9
$PELEVATION
 40
0.0
  9
$THICKNESS
 40
0.0
  9
$LIMCHECK
 70
     0
  9
$CHAMFERA
 40
0.0
  9
$CHAMFERB
 40
0.0
  9
$CHAMFERC
 40
0.0
  9
$CHAMFERD
 40
0.0
  9
$SKPOLY
 70
     0
  9
$TDCREATE
 40
2459523.620837778
  9
$TDUCREATE
 40
2459523.912504444
  9
$TDUPDATE
 40
2459523.620840972
  9
$TDUUPDATE
 40
2459523.912507639
  9
$TDINDWG
 40
0.0000000116
  9
$TDUSRTIMER
 40
0.0000000116
  9
$USRTIMER
 70
     1
  9
$ANGBASE
 50
0.0
  9
$ANGDIR
 70
     0
  9
$PDMODE
 70
     0
  9
$PDSIZE
 40
-1.0
  9
$PLINEWID
 40
0.0
  9
$SPLFRAME
 70
     0
  9
$SPLINETYPE
 70
     6
  9
$SPLINESEGS
 70
     8
  9
$HANDSEED
  5
57D
  9
$SURFTAB1
 70
     6
  9
$SURFTAB2
 70
     6
  9
$SURFTYPE
 70
     6
  9
$SURFU
 70
     6
  9
$SURFV
 70
     6
  9
$UCSBASE
  2

  9
$UCSNAME
  2

  9
$UCSORG
 10
0.0
 20
0.0
 30
0.0
  9
$UCSXDIR
 10
1.0
 20
0.0
 30
0.0
  9
$UCSYDIR
 10
0.0
 20
1.0
 30
0.0
  9
$UCSORTHOREF
  2

  9
$UCSORTHOVIEW
 70
     0
  9
$UCSORGTOP
 10
0.0
 20
0.0
 30
0.0
  9
$UCSORGBOTTOM
 10
0.0
 20
0.0
 30
0.0
  9
$UCSORGLEFT
 10
0.0
 20
0.0
 30
0.0
  9
$UCSORGRIGHT
 10
0.0
 20
0.0
 30
0.0
  9
$UCSORGFRONT
 10
0.0
 20
0.0
 30
0.0
  9
$UCSORGBACK
 10
0.0
 20
0.0
 30
0.0
  9
$PUCSBASE
  2

  9
$PUCSNAME
  2

  9
$PUCSORG
 10
0.0
 20
0.0
 30
0.0
  9
$PUCSXDIR
 10
1.0
 20
0.0
 30
0.0
  9
$PUCSYDIR
 10
0.0
 20
1.0
 30
0.0
  9
$PUCSORTHOREF
  2

  9
$PUCSORTHOVIEW
 70
     0
  9
$PUCSORGTOP
 10
0.0
 20
0.0
 30
0.0
  9
$PUCSORGBOTTOM
 10
0.0
 20
0.0
 30
0.0
  9
$PUCSORGLEFT
 10
0.0
 20
0.0
 30
0.0
  9
$PUCSORGRIGHT
 10
0.0
 20
0.0
 30
0.0
  9
$PUCSORGFRONT
 10
0.0
 20
0.0
 30
0.0
  9
$PUCSORGBACK
 10
0.0
 20
0.0
 30
0.0
  9
$USERI1
 70
     0
  9
$USERI2
 70
     0
  9
$USERI3
 70
     0
  9
$USERI4
 70
     0
  9
$USERI5
 70
     0
  9
$USERR1
 40
0.0
  9
$USERR2
 40
0.0
  9
$USERR3
 40
0.0
  9
$USERR4
 40
0.0
  9
$USERR5
 40
0.0
  9
$WORLDVIEW
 70
     1
  9
$SHADEDGE
 70
     3
  9
$SHADEDIF
 70
    70
  9
$TILEMODE
 70
     1
  9
$MAXACTVP
 70
    64
  9
$PINSBASE
 10
0.0
 20
0.0
 30
0.0
  9
$PLIMCHECK
 70
     0
  9
$PEXTMIN
 10
1.0000000000E+20
 20
1.0000000000E+20
 30
1.0000000000E+20
  9
$PEXTMAX
 10
-1.0000000000E+20
 20
-1.0000000000E+20
 30
-1.0000000000E+20
  9
$PLIMMIN
 10
0.0
 20
0.0
  9
$PLIMMAX
 10
420.0
 20
297.0
  9
$UNITMODE
 70
     0
  9
$VISRETAIN
 70
     1
  9
$PLINEGEN
 70
     0
  9
$PSLTSCALE
 70
     1
  9
$TREEDEPTH
 70
  3020
  9
$CMLSTYLE
  2
Standard
  9
$CMLJUST
 70
     0
  9
$CMLSCALE
 40
20.0
  9
$PROXYGRAPHICS
 70
     1
  9
$MEASUREMENT
 70
     1
  9
$CELWEIGHT
370
    -1
  9
$ENDCAPS
280
     0
  9
$JOINSTYLE
280
     0
  9
$LWDISPLAY
290
     1
  9
$INSUNITS
 70
     4
  9
$HYPERLINKBASE
  1

  9
$STYLESHEET
  1

  9
$XEDIT
290
     1
  9
$CEPSNTYPE
380
     0
  9
$PSTYLEMODE
290
     1
  9
$FINGERPRINTGUID
  2
{73907ffb-ba15-4846-89fb-debc69720cd6}
  9
$VERSIONGUID
  2
{FAEB1C32-E019-11D5-929B-00C0DF256EC4}
  9
$EXTNAMES
290
     1
  9
$PSVPSCALE
 40
0.0
  9
$OLESTARTUP
290
     0
  0
ENDSEC
  0
SECTION
  2
CLASSES
  0
CLASS
  1
ACDBDICTIONARYWDFLT
  2
AcDbDictionaryWithDefault
  3
ObjectDBX Classes
 90
        0
280
     0
281
     0
  0
CLASS
  1
VISUALSTYLE
  2
AcDbVisualStyle
  3
ObjectDBX Classes
 90
     4095
280
     0
281
     0
  0
CLASS
  1
MATERIAL
  2
AcDbMaterial
  3
ObjectDBX Classes
 90
     1153
280
     0
281
     0
  0
CLASS
  1
SCALE
  2
AcDbScale
  3
ObjectDBX Classes
 90
     1153
280
     0
281
     0
  0
CLASS
  1
TABLESTYLE
  2
AcDbTableStyle
  3
ObjectDBX Classes
 90
     4095
280
     0
281
     0
  0
CLASS
  1
MLEADERSTYLE
  2
AcDbMLeaderStyle
  3
ACDB_MLEADERSTYLE_CLASS
 90
     4095
280
     0
281
     0
  0
CLASS
  1
SUN
  2
AcDbSun
  3
SCENEOE
 90
     1153
280
     0
281
     0
  0
CLASS
  1
ACDBPLACEHOLDER
  2
AcDbPlaceHolder
  3
ObjectDBX Classes
 90
        0
280
     0
281
     0
  0
CLASS
  1
LAYOUT
  2
AcDbLayout
  3
ObjectDBX Classes
 90
        0
280
     0
281
     0
  0
ENDSEC
  0
SECTION
  2
TABLES
  0
TABLE
  2
VPORT
  5
8
330
0
100
AcDbSymbolTable
 70
     1
  0
VPORT
  5
29
330
8
100
AcDbSymbolTableRecord
100
AcDbViewportTableRecord
  2
*Active
 70
     0
 10
0.0
 20
0.0
 11
1.0
 21
1.0
 12
431.8
 22
279.4
 13
0.0
 23
0.0
 14
10.0
 24
10.0
 15
10.0
 25
10.0
 16
0.0
 26
0.0
 36
1.0
 17
0.0
 27
0.0
 37
0.0
 40
558.8
 41
1.5454545455
 42
50.0
 43
0.0
 44
0.0
 50
0.0
 51
0.0
 71
     0
 72
  2000
 73
     1
 74
     3
 75
     0
 76
     0
 77
     0
 78
     0
281
     0
 65
     1
110
0.0
120
0.0
130
0.0
111
1.0
121
0.0
131
0.0
112
0.0
122
1.0
132
0.0
 79
     0
146
0.0
  0
ENDTAB
  0
TABLE
  2
LTYPE
  5
5
330
0
100
AcDbSymbolTable
 70
     6
  0
LTYPE
  5
14
330
5
100
AcDbSymbolTableRecord
100
AcDbLinetypeTableRecord
  2
ByBlock
 70
     0
  3

 72
    65
 73
     0
 40
0.0
  0
LTYPE
  5
15
330
5
100
AcDbSymbolTableRecord
100
AcDbLinetypeTableRecord
  2
ByLayer
 70
     0
  3

 72
    65
 73
     0
 40
0.0
  0
LTYPE
  5
16
330
5
100
AcDbSymbolTableRecord
100
AcDbLinetypeTableRecord
  2
Continuous
 70
     0
  3
Solid line
 72
    65
 73
     0
 40
0.0
  0
LTYPE
  5
6E
330
5
100
AcDbSymbolTableRecord
100
AcDbLinetypeTableRecord
  2
HIDDEN
 70
     0
  3
Hidden __ __ __ __ __ __ __ __ __ __ __ __ __ __
 72
    65
 73
     2
 40
1.905
 49
1.27
 74
     0
 49
-0.635
 74
     0
  0
LTYPE
  5
6F
330
5
100
AcDbSymbolTableRecord
100
AcDbLinetypeTableRecord
  2
PHANTOM
 70
     0
  3
Phantom ______  __  __  ______  __  __  ______
 72
    65
 73
     6
 40
12.7
 49
6.35
 74
     0
 49
-1.27
 74
     0
 49
1.27
 74
     0
 49
-1.27
 74
     0
 49
1.27
 74
     0
 49
-1.27
 74
     0
  0
LTYPE
  5
70
330
5
100
AcDbSymbolTableRecord
100
AcDbLinetypeTableRecord
  2
CENTER
 70
     0
  3
Center ____ _ ____ _ ____ _ ____ _ ____ _ ____
 72
    65
 73
     4
 40
10.16
 49
6.35
 74
     0
 49
-1.27
 74
     0
 49
1.27
 74
     0
 49
-1.27
 74
     0
  0
LTYPE
  5
71
330
5
100
AcDbSymbolTableRecord
100
AcDbLinetypeTableRecord
  2
CENTERX2
 70
     0
  3
Center (2x) ________  __  ________  __  _____
 72
    65
 73
     4
 40
20.32
 49
12.7
 74
     0
 49
-2.54
 74
     0
 49
2.54
 74
     0
 49
-2.54
 74
     0
  0
LTYPE
  5
72
330
5
100
AcDbSymbolTableRecord
100
AcDbLinetypeTableRecord
  2
DOT2
 70
     0
  3
Dot (.5x) ........................................
 72
    65
 73
     2
 40
0.635
 49
0.0
 74
     0
 49
-0.635
 74
     0
  0
ENDTAB
  0
TABLE
  2
LAYER
  5
2
330
0
100
AcDbSymbolTable
 70
     6
  0
LAYER
  5
10
330
2
100
AcDbSymbolTableRecord
100
AcDbLayerTableRecord
  2
0
 70
     0
 62
     7
  6
Continuous
370
    -3
390
F
  0
LAYER
  5
73
330
2
100
AcDbSymbolTableRecord
100
AcDbLayerTableRecord
  2
SLD-0
 70
     0
 62
   179
  6
Continuous
370
    -3
390
F
  0
LAYER
  5
74
330
2
100
AcDbSymbolTableRecord
100
AcDbLayerTableRecord
  2
WIRE_BOND
 70
     0
 62
     6
  6
Continuous
370
   100
390
F
  0
LAYER
  5
75
330
2
100
AcDbSymbolTableRecord
100
AcDbLayerTableRecord
  2
HIGHLIGHT-BLUE
 70
     0
 62
     5
  6
Continuous
370
    70
390
F
  0
LAYER
  5
76
330
2
100
AcDbSymbolTableRecord
100
AcDbLayerTableRecord
  2
MANUAL_DIM
 70
     0
 62
   114
  6
Continuous
370
    -3
390
F
  0
LAYER
  5
77
330
2
100
AcDbSymbolTableRecord
100
AcDbLayerTableRecord
  2
TORQUE_9-10
 70
     0
 62
   155
  6
Continuous
370
    -3
390
F
  0
ENDTAB
  0
TABLE
  2
STYLE
  5
3
330
0
100
AcDbSymbolTable
 70
     5
  0
STYLE
  5
11
330
3
100
AcDbSymbolTableRecord
100
AcDbTextStyleTableRecord
  2
STANDARD
 70
     0
 40
0.0
 41
1.0
 50
0.0
 71
     0
 42
6.35
  3
GOTHIC.TTF
  4

1001
ACAD
1000
CENTURY GOTHIC
1071
       34
  0
STYLE
  5
109
330
3
100
AcDbSymbolTableRecord
100
AcDbTextStyleTableRecord
  2
SLDTEXTSTYLE0
 70
     0
 40
0.0
 41
0.913
 50
0.0
 71
     0
 42
6.35
  3
GOTHIC.TTF
  4

1001
ACAD
1000
Century Gothic
1071
      290
  0
STYLE
  5
115
330
3
100
AcDbSymbolTableRecord
100
AcDbTextStyleTableRecord
  2
SLDTEXTSTYLE1
 70
     0
 40
0.0
 41
0.9412371134
 50
0.0
 71
     0
 42
6.35
  3
GOTHIC.TTF
  4

1001
ACAD
1000
Century Gothic
1071
      290
  0
STYLE
  5
11B
330
3
100
AcDbSymbolTableRecord
100
AcDbTextStyleTableRecord
  2
SLDTEXTSTYLE2
 70
     0
 40
0.0
 41
0.9412371134
 50
0.0
 71
     0
 42
6.35
  3
GOTHIC.TTF
  4
bigfont
1001
ACAD
1000
Century Gothic
1071
      290
  0
STYLE
  5
121
330
3
100
AcDbSymbolTableRecord
100
AcDbTextStyleTableRecord
  2
SLDTEXTSTYLE3
 70
     0
 40
0.0
 41
0.948
 50
0.0
 71
     0
 42
6.35
  3
ARIAL.TTF
  4

1001
ACAD
1000
Arial
1071
      290
  0
ENDTAB
  0
TABLE
  2
VIEW
  5
6
330
0
100
AcDbSymbolTable
 70
     0
  0
ENDTAB
  0
TABLE
  2
UCS
  5
7
330
0
100
AcDbSymbolTable
 70
     0
  0
ENDTAB
  0
TABLE
  2
APPID
  5
9
330
0
100
AcDbSymbolTable
 70
     1
  0
APPID
  5
12
330
9
100
AcDbSymbolTableRecord
100
AcDbRegAppTableRecord
  2
ACAD
 70
     0
  0
ENDTAB
  0
TABLE
  2
DIMSTYLE
  5
A
330
0
100
AcDbSymbolTable
 70
     5
100
AcDbDimStyleTable
  0
DIMSTYLE
105
27
330
A
100
AcDbSymbolTableRecord
100
AcDbDimStyleTableRecord
  2
ISO-25
 70
     0
 41
2.5
 42
0.625
 43
3.75
 44
1.25
 73
     0
 74
     0
 77
     1
 78
     8
140
2.5
141
2.5
143
0.0393700787
147
0.625
171
     3
172
     1
178
     0
271
     2
272
     2
274
     3
278
    44
283
     0
284
     8
340
11
  0
DIMSTYLE
105
2C9
102
{ACAD_REACTORS
330
2C8
330
341
102
}
330
A
100
AcDbSymbolTableRecord
100
AcDbDimStyleTableRecord
  2
SLDDIMSTYLE0
 70
     0
 41
4.0
 44
0.0
 45
0.000000001
 78
     4
 79
     1
140
4.7625
147
1.190625
173
     1
178
     0
271
     1
272
     2
276
     2
284
    12
340
109
  0
DIMSTYLE
105
2D6
330
A
100
AcDbSymbolTableRecord
100
AcDbDimStyleTableRecord
  2
SLDDIMSTYLE1
 70
     0
 41
4.0
 44
0.0
 45
0.000000001
146
4.0
147
0.0
173
     1
178
     0
271
     0
272
     0
276
     2
340
11
  0
DIMSTYLE
105
2FA
102
{ACAD_REACTORS
330
2F9
330
336
102
}
330
A
100
AcDbSymbolTableRecord
100
AcDbDimStyleTableRecord
  2
SLDDIMSTYLE2
 70
     0
 41
4.0
 44
0.0
 45
0.000000001
 78
    12
 79
     3
140
4.7625
147
1.190625
173
     1
178
     0
271
     1
272
     2
276
     2
284
    12
340
109
  0
DIMSTYLE
105
34D
102
{ACAD_REACTORS
330
34C
102
}
330
A
100
AcDbSymbolTableRecord
100
AcDbDimStyleTableRecord
  2
SLDDIMSTYLE3
 70
     0
 41
4.0
 44
0.0
 45
0.000000001
 78
     4
 79
     1
140
4.7625
147
1.190625
172
     1
173
     1
178
     0
271
     1
272
     2
276
     2
284
    12
289
     0
340
109
  0
ENDTAB
  0
TABLE
  2
BLOCK_RECORD
  5
1
330
0
100
AcDbSymbolTable
 70
    16
  0
BLOCK_RECORD
  5
1F
330
1
100
AcDbSymbolTableRecord
100
AcDbBlockTableRecord
  2
*Model_Space
340
22
  0
BLOCK_RECORD
  5
1B
330
1
100
AcDbSymbolTableRecord
100
AcDbBlockTableRecord
  2
*Paper_Space
340
1E
  0
BLOCK_RECORD
  5
23
330
1
100
AcDbSymbolTableRecord
100
AcDbBlockTableRecord
  2
*Paper_Space0
340
26
  0
BLOCK_RECORD
  5
78
330
1
100
AcDbSymbolTableRecord
100
AcDbBlockTableRecord
  2
QSC Logo
340
0
102
{BLKREFS
331
101
102
}
  0
BLOCK_RECORD
  5
102
330
1
100
AcDbSymbolTableRecord
100
AcDbBlockTableRecord
  2
SW_NOTE_0
340
0
102
{BLKREFS
331
110
102
}
  0
BLOCK_RECORD
  5
112
330
1
100
AcDbSymbolTableRecord
100
AcDbBlockTableRecord
  2
SW_NOTE_0_1
340
0
102
{BLKREFS
331
11D
102
}
  0
BLOCK_RECORD
  5
123
330
1
100
AcDbSymbolTableRecord
100
AcDbBlockTableRecord
  2
SW_NOTE_0_2
340
0
102
{BLKREFS
331
128
102
}
  0
BLOCK_RECORD
  5
146
330
1
100
AcDbSymbolTableRecord
100
AcDbBlockTableRecord
  2
SW_NOTE_0_3
340
0
102
{BLKREFS
331
14C
102
}
  0
BLOCK_RECORD
  5
14D
330
1
100
AcDbSymbolTableRecord
100
AcDbBlockTableRecord
  2
SW_NOTE_0_4
340
0
102
{BLKREFS
331
155
102
}
  0
BLOCK_RECORD
  5
157
330
1
100
AcDbSymbolTableRecord
100
AcDbBlockTableRecord
  2
SW_NOTE_0_5
340
0
102
{BLKREFS
331
15D
102
}
  0
BLOCK_RECORD
  5
17A
330
1
100
AcDbSymbolTableRecord
100
AcDbBlockTableRecord
  2
SW_TABLEANNOTATION_0
340
0
102
{BLKREFS
331
1A2
102
}
  0
BLOCK_RECORD
  5
2CA
330
1
100
AcDbSymbolTableRecord
100
AcDbBlockTableRecord
  2
_D
340
0
  0
BLOCK_RECORD
  5
2FB
330
1
100
AcDbSymbolTableRecord
100
AcDbBlockTableRecord
  2
_D_1
340
0
  0
BLOCK_RECORD
  5
337
330
1
100
AcDbSymbolTableRecord
100
AcDbBlockTableRecord
  2
_D_2
340
0
  0
BLOCK_RECORD
  5
342
330
1
100
AcDbSymbolTableRecord
100
AcDbBlockTableRecord
  2
_D_3
340
0
  0
BLOCK_RECORD
  5
34E
330
1
100
AcDbSymbolTableRecord
100
AcDbBlockTableRecord
  2
_D_4
340
0
  0
BLOCK_RECORD
  5
35A
330
1
100
AcDbSymbolTableRecord
100
AcDbBlockTableRecord
  2
SW_NOTE_0_6
340
0
102
{BLKREFS
331
362
102
}
  0
BLOCK_RECORD
  5
364
330
1
100
AcDbSymbolTableRecord
100
AcDbBlockTableRecord
  2
SW_SYMBOL_MOD_CL
340
0
102
{BLKREFS
331
369
102
}
  0
ENDTAB
  0
ENDSEC
  0
SECTION
  2
BLOCKS
  0
BLOCK
  5
20
330
1F
100
AcDbEntity
  8
0
100
AcDbBlockBegin
  2
*Model_Space
 70
     0
 10
0.0
 20
0.0
 30
0.0
  3
*Model_Space
  1

  0
ENDBLK
  5
21
330
1F
100
AcDbEntity
  8
0
100
AcDbBlockEnd
  0
BLOCK
  5
1C
330
1B
100
AcDbEntity
 67
     1
  8
0
100
AcDbBlockBegin
  2
*Paper_Space
 70
     0
 10
0.0
 20
0.0
 30
0.0
  3
*Paper_Space
  1

  0
ENDBLK
  5
1D
330
1B
100
AcDbEntity
 67
     1
  8
0
100
AcDbBlockEnd
  0
BLOCK
  5
24
330
23
100
AcDbEntity
  8
0
100
AcDbBlockBegin
  2
*Paper_Space0
 70
     0
 10
0.0
 20
0.0
 30
0.0
  3
*Paper_Space0
  1

  0
ENDBLK
  5
25
330
23
100
AcDbEntity
  8
0
100
AcDbBlockEnd
  0
BLOCK
  5
79
330
78
100
AcDbEntity
  8
0
100
AcDbBlockBegin
  2
QSC Logo
 70
     0
 10
0.0
 20
0.0
 30
0.0
  3
QSC Logo
  1

  0
ARC
  5
7B
330
78
100
AcDbEntity
  8
SLD-0
  6
Continuous
370
    25
100
AcDbCircle
 10
60.1992795138
 20
10.8757345045
 30
0.0
 40
0.565625588076033
100
AcDbArc
 50
270.0
 51
0.0
  0
ARC
  5
7C
330
78
100
AcDbEntity
  8
SLD-0
  6
Continuous
370
    25
100
AcDbCircle
 10
60.1992795161
 20
12.0073744142
 30
0.0
 40
0.5656255857900288
100
AcDbArc
 50
0.000000539
 51
89.9999999245
  0
ARC
  5
7D
330
78
100
AcDbEntity
  8
SLD-0
  6
Continuous
370
    25
100
AcDbCircle
 10
60.1992795169
 20
1.857339148
 30
0.0
 40
0.5656255850413672
100
AcDbArc
 50
270.1250535673
 51
0.0
  0
ARC
  5
7E
330
78
100
AcDbEntity
  8
SLD-0
  6
Continuous
370
    25
100
AcDbCircle
 10
60.1992795161
 20
2.99686688
 30
0.0
 40
0.5656255857900412
100
AcDbArc
 50
0.0
 51
90.0
  0
ARC
  5
7F
330
78
100
AcDbEntity
  8
SLD-0
  6
Continuous
370
    25
100
AcDbCircle
 10
47.1655159553
 20
9.7444833261
 30
0.0
 40
0.565625590361968
100
AcDbArc
 50
90.0
 51
180.0
  0
ARC
  5
80
330
78
100
AcDbEntity
  8
SLD-0
  6
Continuous
370
    25
100
AcDbCircle
 10
34.7887755437
 20
5.2340677561
 30
0.0
 40
0.5656255880763794
100
AcDbArc
 50
0.0
 51
89.9999995368
  0
ARC
  5
81
330
78
100
AcDbEntity
  8
SLD-0
  6
Continuous
370
    25
100
AcDbCircle
 10
22.1252435498
 20
2.9478675597
 30
0.0
 40
0.5656255880759771
100
AcDbArc
 50
90.0
 51
180.0
  0
ARC
  5
82
330
78
100
AcDbEntity
  8
SLD-0
  6
Continuous
370
    25
100
AcDbCircle
 10
22.1252435498
 20
1.8762124218
 30
0.0
 40
0.5656255880760186
100
AcDbArc
 50
180.0
 51
270.0
  0
ARC
  5
83
330
78
100
AcDbEntity
  8
SLD-0
  6
Continuous
370
    25
100
AcDbCircle
 10
27.1275598492
 20
9.7219160751
 30
0.0
 40
0.565625585790027
100
AcDbArc
 50
90.0
 51
180.0
  0
ARC
  5
84
330
78
100
AcDbEntity
  8
SLD-0
  6
Continuous
370
    25
100
AcDbCircle
 10
39.808280732
 20
10.8531672489
 30
0.0
 40
0.5656255880761591
100
AcDbArc
 50
270.0
 51
0.0
  0
ARC
  5
85
330
78
100
AcDbEntity
  8
SLD-0
  6
Continuous
370
    25
100
AcDbCircle
 10
39.808280732
 20
12.0073744096
 30
0.0
 40
0.5656255880761591
100
AcDbArc
 50
359.9999995369
 51
90.0
  0
ARC
  5
86
330
78
100
AcDbEntity
  8
SLD-0
  6
Continuous
370
    25
100
AcDbCircle
 10
12.0321031895
 20
0.217548301
 30
0.0
 40
0.2175483009960733
100
AcDbArc
 50
180.0
 51
270.0
  0
ARC
  5
87
330
78
100
AcDbEntity
  8
SLD-0
  6
Continuous
370
    25
100
AcDbCircle
 10
15.4195515276
 20
0.217548301
 30
0.0
 40
0.2175483009960455
100
AcDbArc
 50
270.0
 51
0.0
  0
ARC
  5
88
330
78
100
AcDbEntity
  8
SLD-0
  6
Continuous
370
    25
100
AcDbCircle
 10
5.2684984251
 20
4.2067791851
 30
0.0
 40
0.5656255880762124
100
AcDbArc
 50
180.0
 51
270.0
  0
ARC
  5
89
330
78
100
AcDbEntity
  8
SLD-0
  6
Continuous
370
    25
100
AcDbCircle
 10
11.9826252409
 20
4.7308054208
 30
0.0
 40
0.2175483032820367
100
AcDbArc
 50
90.0000000001
 51
180.0
  0
ARC
  5
8A
330
78
100
AcDbEntity
  8
SLD-0
  6
Continuous
370
    25
100
AcDbCircle
 10
15.35281037
 20
4.7308054276
 30
0.0
 40
0.2175482964241411
100
AcDbArc
 50
360.0
 51
89.9999987958
  0
ARC
  5
8B
330
78
100
AcDbEntity
  8
SLD-0
  6
Continuous
370
    25
100
AcDbCircle
 10
16.5694959544
 20
4.2067791942
 30
0.0
 40
0.5656255857899861
100
AcDbArc
 50
270.0
 51
0.0
  0
ARC
  5
8C
330
78
100
AcDbEntity
  8
SLD-0
  6
Continuous
370
    25
100
AcDbCircle
 10
5.2684984274
 20
9.8469354674
 30
0.0
 40
0.5656255903621616
100
AcDbArc
 50
90.0
 51
180.0
  0
ARC
  5
8D
330
78
100
AcDbEntity
  8
SLD-0
  6
Continuous
370
    25
100
AcDbCircle
 10
16.5694959544
 20
9.846935472
 30
0.0
 40
0.5656255857899861
100
AcDbArc
 50
0.0000004631
 51
90.0000004631
  0
ARC
  5
8E
330
78
100
AcDbEntity
  8
SLD-0
  6
Continuous
370
    25
100
AcDbCircle
 10
27.1275598515
 20
8.6516957222
 30
0.0
 40
0.5656255880759762
100
AcDbArc
 50
180.0
 51
270.0
  0
ARC
  5
8F
330
78
100
AcDbEntity
  8
SLD-0
  6
Continuous
370
    25
100
AcDbCircle
 10
34.788775546
 20
4.0791187335
 30
0.0
 40
0.5656255857899879
100
AcDbArc
 50
270.0
 51
0.0
  0
ARC
  5
90
330
78
100
AcDbEntity
  8
SLD-0
  6
Continuous
370
    25
100
AcDbCircle
 10
47.165515953
 20
4.1281180539
 30
0.0
 40
0.5656255880759771
100
AcDbArc
 50
180.0
 51
270.0
  0
LINE
  5
91
330
78
100
AcDbEntity
  8
SLD-0
  6
Continuous
370
    25
100
AcDbLine
 10
60.7649051019
 20
10.8757345045
 30
0.0
 11
60.7649051019
 21
12.0073744195
 31
0.0
  0
LINE
  5
92
330
78
100
AcDbEntity
  8
SLD-0
  6
Continuous
370
    25
100
AcDbLine
 10
60.1992795169
 20
12.573
 30
0.0
 11
44.9931123687
 21
12.573
 31
0.0
  0
LINE
  5
93
330
78
100
AcDbEntity
  8
SLD-0
  6
Continuous
370
    25
100
AcDbLine
 10
41.7982576378
 20
6.9614311124
 30
0.0
 11
41.7992503698
 21
6.8753664631
 31
0.0
  0
LINE
  5
94
330
78
100
AcDbEntity
  8
SLD-0
  6
Continuous
370
    25
100
AcDbLine
 10
44.9931123687
 20
1.3105925442
 30
0.0
 11
60.2005140483
 21
1.2917149102
 31
0.0
  0
LINE
  5
95
330
78
100
AcDbEntity
  8
SLD-0
  6
Continuous
370
    25
100
AcDbLine
 10
60.7649051019
 20
1.857339148
 30
0.0
 11
60.7649051019
 21
2.99686688
 31
0.0
  0
LINE
  5
96
330
78
100
AcDbEntity
  8
SLD-0
  6
Continuous
370
    25
100
AcDbLine
 10
60.1992795161
 20
3.5624924658
 30
0.0
 11
47.165515953
 21
3.5624924658
 31
0.0
  0
LINE
  5
97
330
78
100
AcDbEntity
  8
SLD-0
  6
Continuous
370
    25
100
AcDbLine
 10
46.5998903649
 20
4.1281180539
 30
0.0
 11
46.5998903649
 21
9.7444833261
 31
0.0
  0
LINE
  5
98
330
78
100
AcDbEntity
  8
SLD-0
  6
Continuous
370
    25
100
AcDbLine
 10
47.1655159553
 20
10.3101089164
 30
0.0
 11
60.1992795138
 21
10.3101089164
 31
0.0
  0
LINE
  5
99
330
78
100
AcDbEntity
  8
SLD-0
  6
Continuous
370
    25
100
AcDbLine
 10
23.9251579121
 20
5.7996933442
 30
0.0
 11
34.7887755483
 21
5.7996933442
 31
0.0
  0
LINE
  5
9A
330
78
100
AcDbEntity
  8
SLD-0
  6
Continuous
370
    25
100
AcDbLine
 10
35.3544011318
 20
5.2340677561
 30
0.0
 11
35.3544011318
 21
4.0791187335
 31
0.0
  0
LINE
  5
9B
330
78
100
AcDbEntity
  8
SLD-0
  6
Continuous
370
    25
100
AcDbLine
 10
34.788775546
 20
3.5134931478
 30
0.0
 11
22.1252435498
 21
3.5134931478
 31
0.0
  0
LINE
  5
9C
330
78
100
AcDbEntity
  8
SLD-0
  6
Continuous
370
    25
100
AcDbLine
 10
21.5596179617
 20
2.9478675597
 30
0.0
 11
21.5596179617
 21
1.8762124218
 31
0.0
  0
LINE
  5
9D
330
78
100
AcDbEntity
  8
SLD-0
  6
Continuous
370
    25
100
AcDbLine
 10
22.1252435498
 20
1.3105868337
 30
0.0
 11
37.846372651
 21
1.3105868337
 31
0.0
  0
LINE
  5
9E
330
78
100
AcDbEntity
  8
SLD-0
  6
Continuous
370
    25
100
AcDbLine
 10
37.846372651
 20
8.0860701342
 30
0.0
 11
27.1275598515
 21
8.0860701342
 31
0.0
  0
LINE
  5
9F
330
78
100
AcDbEntity
  8
SLD-0
  6
Continuous
370
    25
100
AcDbLine
 10
26.5619342634
 20
8.6516957222
 30
0.0
 11
26.5619342634
 21
9.7219160751
 31
0.0
  0
LINE
  5
A0
330
78
100
AcDbEntity
  8
SLD-0
  6
Continuous
370
    25
100
AcDbLine
 10
27.1275598492
 20
10.2875416608
 30
0.0
 11
39.808280732
 21
10.2875416608
 31
0.0
  0
LINE
  5
A1
330
78
100
AcDbEntity
  8
SLD-0
  6
Continuous
370
    25
100
AcDbLine
 10
40.3739063201
 20
10.8531672489
 30
0.0
 11
40.3739063201
 21
12.0073744051
 31
0.0
  0
LINE
  5
A2
330
78
100
AcDbEntity
  8
SLD-0
  6
Continuous
370
    25
100
AcDbLine
 10
39.808280732
 20
12.5729999977
 30
0.0
 11
23.9251579121
 21
12.5729999977
 31
0.0
  0
LINE
  5
A3
330
78
100
AcDbEntity
  8
SLD-0
  6
Continuous
370
    25
100
AcDbLine
 10
3.0259137302
 20
1.3105868383
 30
0.0
 11
11.8145548885
 21
1.3105868383
 31
0.0
  0
LINE
  5
A4
330
78
100
AcDbEntity
  8
SLD-0
  6
Continuous
370
    25
100
AcDbLine
 10
11.8145548885
 20
1.3105868383
 30
0.0
 11
11.8145548885
 21
0.217548301
 31
0.0
  0
LINE
  5
A5
330
78
100
AcDbEntity
  8
SLD-0
  6
Continuous
370
    25
100
AcDbLine
 10
12.0321031895
 20
0.0
 30
0.0
 11
15.4195515276
 21
0.0
 31
0.0
  0
LINE
  5
A6
330
78
100
AcDbEntity
  8
SLD-0
  6
Continuous
370
    25
100
AcDbLine
 10
15.6370998286
 20
0.217548301
 30
0.0
 11
15.6370998286
 21
1.3105868383
 31
0.0
  0
LINE
  5
A7
330
78
100
AcDbEntity
  8
SLD-0
  6
Continuous
370
    25
100
AcDbLine
 10
15.6370998286
 20
1.3105868383
 30
0.0
 11
17.3652756133
 21
1.3105868383
 31
0.0
  0
LINE
  5
A8
330
78
100
AcDbEntity
  8
SLD-0
  6
Continuous
370
    25
100
AcDbLine
 10
20.0316643354
 20
3.4154941383
 30
0.0
 11
20.0316643354
 21
10.4548832319
 31
0.0
  0
LINE
  5
A9
330
78
100
AcDbEntity
  8
SLD-0
  6
Continuous
370
    25
100
AcDbLine
 10
17.3652756133
 20
12.5597905365
 30
0.0
 11
3.0259137302
 21
12.5597905365
 31
0.0
  0
LINE
  5
AA
330
78
100
AcDbEntity
  8
SLD-0
  6
Continuous
370
    25
100
AcDbLine
 10
17.1351215402
 20
4.2067791942
 30
0.0
 11
17.1351215402
 21
9.8469354765
 31
0.0
  0
LINE
  5
AB
330
78
100
AcDbEntity
  8
SLD-0
  6
Continuous
370
    25
100
AcDbLine
 10
5.2684984251
 20
3.641153597
 30
0.0
 11
11.7650769377
 21
3.641153597
 31
0.0
  0
LINE
  5
AC
330
78
100
AcDbEntity
  8
SLD-0
  6
Continuous
370
    25
100
AcDbLine
 10
11.7650769377
 20
3.641153597
 30
0.0
 11
11.7650769377
 21
4.7308054208
 31
0.0
  0
LINE
  5
AD
330
78
100
AcDbEntity
  8
SLD-0
  6
Continuous
370
    25
100
AcDbLine
 10
11.9826252409
 20
4.948353724
 30
0.0
 11
15.3528103746
 21
4.948353724
 31
0.0
  0
LINE
  5
AE
330
78
100
AcDbEntity
  8
SLD-0
  6
Continuous
370
    25
100
AcDbLine
 10
15.5703586664
 20
3.6411536085
 30
0.0
 11
16.5694959544
 21
3.6411536085
 31
0.0
  0
LINE
  5
AF
330
78
100
AcDbEntity
  8
SLD-0
  6
Continuous
370
    25
100
AcDbLine
 10
15.5703586664
 20
3.6411536085
 30
0.0
 11
15.5703586664
 21
4.7308054276
 31
0.0
  0
LINE
  5
B0
330
78
100
AcDbEntity
  8
SLD-0
  6
Continuous
370
    25
100
AcDbLine
 10
4.7028728371
 20
4.2067791851
 30
0.0
 11
4.7028728371
 21
9.8469354674
 31
0.0
  0
LINE
  5
B1
330
78
100
AcDbEntity
  8
SLD-0
  6
Continuous
370
    25
100
AcDbLine
 10
5.2684984274
 20
10.4125610577
 30
0.0
 11
16.5694959498
 21
10.4125610577
 31
0.0
  0
SPLINE
  5
B2
330
78
100
AcDbEntity
  8
SLD-0
  6
Continuous
370
    25
100
AcDbSpline
210
0.0
220
0.0
230
1.0
 70
     8
 71
     3
 72
    13
 73
     9
 74
     0
 42
0.00000001
 43
0.00000001
 40
0.0
 40
0.0
 40
0.0
 40
0.0
 40
0.1310616762
 40
0.2699656353
 40
0.4157607805
 40
0.5899807757
 40
0.76586761
 40
0.9948829976
 40
0.9948829976
 40
0.9948829976
 40
0.9948829976
 10
44.99311236868792
 20
12.57299999999997
 30
0.0
 10
44.67346489317598
 20
12.54919244385597
 30
0.0
 10
44.01504335048406
 20
12.500152774092
 30
0.0
 10
43.12275103245616
 20
11.94723759747601
 30
0.0
 10
42.48219163082384
 20
11.01899259392404
 30
0.0
 10
42.065666812872
 20
9.883953287171995
 30
0.0
 10
41.83105460086806
 20
8.496463401756
 30
0.0
 10
41.80945316274004
 20
7.516038683411982
 30
0.0
 10
41.79825763775996
 20
6.961431112415998
 30
0.0
  0
SPLINE
  5
B3
330
78
100
AcDbEntity
  8
SLD-0
  6
Continuous
370
    25
100
AcDbSpline
210
0.0
220
0.0
230
1.0
 70
     8
 71
     3
 72
    13
 73
     9
 74
     0
 42
0.00000001
 43
0.00000001
 40
0.0
 40
0.0
 40
0.0
 40
0.0
 40
0.2222860645
 40
0.3981728988
 40
0.572392894
 40
0.7181880393
 40
0.8570919984
 40
0.9881536746
 40
0.9881536746
 40
0.9881536746
 40
0.9881536746
 10
41.79925036983584
 20
6.875366463107991
 30
0.0
 10
41.81022525009598
 20
6.337062442944019
 30
0.0
 10
41.83377594213616
 20
5.373111111516005
 30
0.0
 10
42.06566662084826
 20
4.001704744860016
 30
0.0
 10
42.48219642685186
 20
2.866792384260047
 30
0.0
 10
43.12273584884402
 20
1.938153438900053
 30
0.0
 10
44.01509626681205
 20
1.386559958904049
 30
0.0
 10
44.673357286584
 20
1.334408105879981
 30
0.0
 10
44.99311236868792
 20
1.310592544163991
 30
0.0
  0
SPLINE
  5
B4
330
78
100
AcDbEntity
  8
SLD-0
  6
Continuous
370
    25
100
AcDbSpline
210
0.0
220
0.0
230
1.0
 70
     8
 71
     3
 72
    13
 73
     9
 74
     0
 42
0.00000001
 43
0.00000001
 40
0.0
 40
0.0
 40
0.0
 40
0.0
 40
0.1604571392
 40
0.3334692485
 40
0.4767982758
 40
0.6242014838
 40
0.7505998515
 40
1.0
 40
1.0
 40
1.0
 40
1.0
 10
37.84637265102003
 20
1.310586833736069
 30
0.0
 10
38.111432851404
 20
1.323349009380026
 30
0.0
 10
38.66229287744388
 20
1.349871922044041
 30
0.0
 10
39.40304357628016
 20
1.671471906732017
 30
0.0
 10
39.96122363492422
 20
2.212054639128047
 30
0.0
 10
40.27578005127624
 20
2.831811856812
 30
0.0
 10
40.51694576350801
 20
3.663222513012002
 30
0.0
 10
40.52673227581188
 20
4.285410804828055
 30
0.0
 10
40.53322713099633
 20
4.698328483943998
 30
0.0
  0
SPLINE
  5
B5
330
78
100
AcDbEntity
  8
SLD-0
  6
Continuous
370
    25
100
AcDbSpline
210
0.0
220
0.0
230
1.0
 70
     8
 71
     3
 72
    13
 73
     9
 74
     0
 42
0.00000001
 43
0.00000001
 40
0.0
 40
0.0
 40
0.0
 40
0.0
 40
0.2494001485
 40
0.3757985162
 40
0.5232017242
 40
0.6665307515
 40
0.8395428608
 40
1.0
 40
1.0
 40
1.0
 40
1.0
 10
40.53322713099633
 20
4.698328483943998
 30
0.0
 10
40.52673227581188
 20
5.111246167632019
 30
0.0
 10
40.51694576350801
 20
5.733434454875994
 30
0.0
 10
40.27578005127624
 20
6.564845120219973
 30
0.0
 10
39.96122363492422
 20
7.184602337903994
 30
0.0
 10
39.40304357628016
 20
7.725185061155979
 30
0.0
 10
38.66229287744388
 20
8.04678504584401
 30
0.0
 10
38.111432851404
 20
8.073307967652003
 30
0.0
 10
37.84637265102003
 20
8.086070134152024
 30
0.0
  0
SPLINE
  5
B6
330
78
100
AcDbEntity
  8
SLD-0
  6
Continuous
370
    25
100
AcDbSpline
210
0.0
220
0.0
230
1.0
 70
     8
 71
     3
 72
    13
 73
     9
 74
     0
 42
0.00000001
 43
0.00000001
 40
0.0
 40
0.0
 40
0.0
 40
0.0
 40
0.1133740464
 40
0.2392044088
 40
0.3655787964
 40
0.4912154373
 40
0.7445390876
 40
1.0
 40
1.0
 40
1.0
 40
1.0
 10
23.92515791209809
 20
12.57299999771398
 30
0.0
 10
23.74371232680589
 20
12.564062953866
 30
0.0
 10
23.36088587833812
 20
12.54520695601803
 30
0.0
 10
22.79223505729805
 20
12.37531107940203
 30
0.0
 10
22.28352147833418
 20
12.03223838581805
 30
0.0
 10
21.76386602437802
 20
11.40028540385406
 30
0.0
 10
21.43686584932197
 20
10.40820330166212
 30
0.0
 10
21.40140262840212
 20
9.594771217074124
 30
0.0
 10
21.38359654463401
 20
9.186346670958107
 30
0.0
  0
SPLINE
  5
B7
330
78
100
AcDbEntity
  8
SLD-0
  6
Continuous
370
    25
100
AcDbSpline
210
0.0
220
0.0
230
1.0
 70
     8
 71
     3
 72
    13
 73
     9
 74
     0
 42
0.00000001
 43
0.00000001
 40
0.0
 40
0.0
 40
0.0
 40
0.0
 40
0.2554609124
 40
0.5087845627
 40
0.6344212036
 40
0.7607955912
 40
0.8866259536
 40
1.0
 40
1.0
 40
1.0
 40
1.0
 10
21.38359654463401
 20
9.186346670958107
 30
0.0
 10
21.40140262840212
 20
8.777922120270093
 30
0.0
 10
21.43686584932197
 20
7.964490031110036
 30
0.0
 10
21.76386602437791
 20
6.972407933490049
 30
0.0
 10
22.28352147833418
 20
6.340454951526089
 30
0.0
 10
22.79223505729805
 20
5.99738226251409
 30
0.0
 10
23.36088587833812
 20
5.827486381326144
 30
0.0
 10
23.74371232680589
 20
5.808630383478161
 30
0.0
 10
23.92515791209809
 20
5.799693344202134
 30
0.0
  0
SPLINE
  5
B8
330
78
100
AcDbEntity
  8
SLD-0
  6
Continuous
370
    25
100
AcDbSpline
210
0.0
220
0.0
230
1.0
 70
     8
 71
     3
 72
    12
 73
     8
 74
     0
 42
0.00000001
 43
0.00000001
 40
0.0
 40
0.0
 40
0.0
 40
0.0
 40
0.2415790084
 40
0.4893269843
 40
0.7378634303
 40
0.8656387112
 40
1.0
 40
1.0
 40
1.0
 40
1.0
 10
17.36527561329587
 20
1.310586838308064
 30
0.0
 10
17.67515455360796
 20
1.32022062295202
 30
0.0
 10
18.30282552838786
 20
1.339734211560001
 30
0.0
 10
19.22135649955209
 20
1.667306782728029
 30
0.0
 10
19.77919844050796
 20
2.285677111644041
 30
0.0
 10
20.02496508435619
 20
2.903543459855995
 30
0.0
 10
20.02939415906419
 20
3.242009337660015
 30
0.0
 10
20.03166433537234
 20
3.415494138264058
 30
0.0
  0
SPLINE
  5
B9
330
78
100
AcDbEntity
  8
SLD-0
  6
Continuous
370
    25
100
AcDbSpline
210
0.0
220
0.0
230
1.0
 70
     8
 71
     3
 72
    12
 73
     8
 74
     0
 42
0.00000001
 43
0.00000001
 40
0.0
 40
0.0
 40
0.0
 40
0.0
 40
0.1343612888
 40
0.2621365697
 40
0.5106730157
 40
0.7584209916
 40
1.0
 40
1.0
 40
1.0
 40
1.0
 10
20.03166433537234
 20
10.45488323192401
 30
0.0
 10
20.02939415906419
 20
10.62836804167197
 30
0.0
 10
20.02496508435619
 20
10.966833919476
 30
0.0
 10
19.77919844050796
 20
11.58470026768804
 30
0.0
 10
19.22135649955209
 20
12.203070596604
 30
0.0
 10
18.30282552838786
 20
12.5306431632
 30
0.0
 10
17.67515455360796
 20
12.55015674723599
 30
0.0
 10
17.36527561329587
 20
12.55979053645198
 30
0.0
  0
SPLINE
  5
BA
330
78
100
AcDbEntity
  8
SLD-0
  6
Continuous
370
    25
100
AcDbSpline
210
0.0
220
0.0
230
1.0
 70
     8
 71
     3
 72
    12
 73
     8
 74
     0
 42
0.00000001
 43
0.00000001
 40
0.0
 40
0.0
 40
0.0
 40
0.0
 40
0.1341799809
 40
0.290831959
 40
0.5815217441
 40
0.760783857
 40
1.0
 40
1.0
 40
1.0
 40
1.0
 10
3.02591373022798
 20
12.55979053645198
 30
0.0
 10
2.713146790103982
 20
12.50633569543196
 30
0.0
 10
2.035231793891812
 20
12.39047358019199
 30
0.0
 10
0.8940706934400522
 20
11.53791477223201
 30
0.0
 10
0.3535588864800321
 20
10.10357019413996
 30
0.0
 10
0.0373102586279095
 20
8.477608423463984
 30
0.0
 10
0.0135704640958911
 20
7.494152629139994
 30
0.0
 10
0.0
 20
6.931976464188041
 30
0.0
  0
SPLINE
  5
BB
330
78
100
AcDbEntity
  8
SLD-0
  6
Continuous
370
    25
100
AcDbSpline
210
0.0
220
0.0
230
1.0
 70
     8
 71
     3
 72
    12
 73
     8
 74
     0
 42
0.00000001
 43
0.00000001
 40
0.0
 40
0.0
 40
0.0
 40
0.0
 40
0.2392679579
 40
0.4185688994
 40
0.7093216488
 40
0.8660075581
 40
1.0
 40
1.0
 40
1.0
 40
1.0
 10
0.0
 20
6.931976464188041
 30
0.0
 10
0.0135758864880375
 20
6.369822208260004
 30
0.0
 10
0.0373251542040709
 20
5.386404745583995
 30
0.0
 10
0.353505540384047
 20
3.760167054707997
 30
0.0
 10
0.8943475920479838
 20
2.327157829800044
 30
0.0
 10
2.034320580575899
 20
1.471830593544013
 30
0.0
 10
2.713045524875946
 20
1.361462586696033
 30
0.0
 10
3.02591373022798
 20
1.310586838308064
 30
0.0
  0
ENDBLK
  5
7A
330
78
100
AcDbEntity
  8
0
100
AcDbBlockEnd
  0
BLOCK
  5
103
330
102
100
AcDbEntity
  8
0
100
AcDbBlockBegin
  2
SW_NOTE_0
 70
     0
 10
0.0
 20
0.0
 30
0.0
  3
SW_NOTE_0
  1

  0
LINE
  5
105
330
102
100
AcDbEntity
  8
SLD-0
 62
     0
100
AcDbLine
 10
-23.4572216868
 20
-13.7120303698
 30
0.0
 11
-23.4572216868
 21
-1.5235585161
 31
0.0
  0
LINE
  5
106
330
102
100
AcDbEntity
  8
SLD-0
 62
     0
100
AcDbLine
 10
-23.4572216868
 20
-1.5235585161
 30
0.0
 11
-11.2687498331
 21
-1.5235585161
 31
0.0
  0
LINE
  5
107
330
102
100
AcDbEntity
  8
SLD-0
 62
     0
100
AcDbLine
 10
-11.2687498331
 20
-1.5235585161
 30
0.0
 11
-11.2687498331
 21
-13.7120303698
 31
0.0
  0
LINE
  5
108
330
102
100
AcDbEntity
  8
SLD-0
 62
     0
100
AcDbLine
 10
-11.2687498331
 20
-13.7120303698
 30
0.0
 11
-23.4572216868
 21
-13.7120303698
 31
0.0
  0
MTEXT
  5
10A
330
102
100
AcDbEntity
  8
SLD-0
 62
     0
100
AcDbMText
 10
0.0
 20
6.0833496094
 30
0.0
 40
4.7625
 41
0.0
 71
     1
 72
     1
  1
NET WEIGHT WITH HARDWARE SHOWN APPROXIMATLY 0.77KG. [1.7 LBS].
  7
SLDTEXTSTYLE0
 73
     1
 44
1.0
  0
MTEXT
  5
10B
330
102
100
AcDbEntity
  8
SLD-0
 62
     0
100
AcDbMText
 10
-19.999999553
 20
6.0833496094
 30
0.0
 40
4.7625
 41
0.0
 71
     1
 72
     1
  1
1.
  7
SLDTEXTSTYLE0
 73
     1
 44
1.0
  0
MTEXT
  5
10C
330
102
100
AcDbEntity
  8
SLD-0
 62
     0
100
AcDbMText
 10
0.0
 20
-4.709445028
 30
0.0
 40
4.7625
 41
0.0
 71
     1
 72
     1
  1
MOUNTING HOLES FOR OPTIONAL MOUNTING TRAY ACCESSORY.
  7
SLDTEXTSTYLE0
 73
     1
 44
1.0
  0
MTEXT
  5
10D
330
102
100
AcDbEntity
  8
SLD-0
 62
     0
100
AcDbMText
 10
-19.999999553
 20
-4.709445028
 30
0.0
 40
4.7625
 41
0.0
 71
     1
 72
     1
  1
2.
  7
SLDTEXTSTYLE0
 73
     1
 44
1.0
  0
MTEXT
  5
10E
330
102
100
AcDbEntity
  8
SLD-0
 62
     0
100
AcDbMText
 10
0.0
 20
-17.5022399932
 30
0.0
 40
4.7625
 41
0.0
 71
     1
 72
     1
  1
PARTS ARE SYMMETRICAL ABOUT CENTER LINES UNLESS OTHERWISE NOTED.
  7
SLDTEXTSTYLE0
 73
     1
 44
1.0
  0
MTEXT
  5
10F
330
102
100
AcDbEntity
  8
SLD-0
 62
     0
100
AcDbMText
 10
-19.999999553
 20
-17.5022399932
 30
0.0
 40
4.7625
 41
0.0
 71
     1
 72
     1
  1
3.
  7
SLDTEXTSTYLE0
 73
     1
 44
1.0
  0
ENDBLK
  5
104
330
102
100
AcDbEntity
  8
0
100
AcDbBlockEnd
  0
BLOCK
  5
113
330
112
100
AcDbEntity
  8
0
100
AcDbBlockBegin
  2
SW_NOTE_0_1
 70
     0
 10
0.0
 20
0.0
 30
0.0
  3
SW_NOTE_0_1
  1

  0
MTEXT
  5
116
330
112
100
AcDbEntity
  8
0
  6
Continuous
 62
     0
370
     0
100
AcDbMText
 10
0.0
 20
3.3796386719
 30
0.0
 40
2.6458333333
 41
0.0
 71
     1
 72
     1
  1
THIS DOCUMENT CONTAINS CONFIDENTIAL OR PROPRIETARY 
  7
SLDTEXTSTYLE1
 73
     1
 44
1.0
  0
MTEXT
  5
117
330
112
100
AcDbEntity
  8
0
  6
Continuous
 62
     0
370
     0
100
AcDbMText
 10
0.0
 20
-0.1481390633
 30
0.0
 40
2.6458333333
 41
0.0
 71
     1
 72
     1
  1
INFORMATION WHICH IS THE PROPERTY OF QSC, LLC THAT MAY NOT BE 
  7
SLDTEXTSTYLE1
 73
     1
 44
1.0
  0
MTEXT
  5
118
330
112
100
AcDbEntity
  8
0
  6
Continuous
 62
     0
370
     0
100
AcDbMText
 10
0.0
 20
-3.6759167984
 30
0.0
 40
2.6458333333
 41
0.0
 71
     1
 72
     1
  1
DISCLOSED, REPRODUCED OR USED WITHOUT EXPRESS WRITTEN CONSENT 
  7
SLDTEXTSTYLE1
 73
     1
 44
1.0
  0
MTEXT
  5
119
330
112
100
AcDbEntity
  8
0
  6
Continuous
 62
     0
370
     0
100
AcDbMText
 10
0.0
 20
-7.2036945336
 30
0.0
 40
2.6458333333
 41
0.0
 71
     1
 72
     1
  1
FROM QSC, LLC. NO PORTION OF THIS DOCUMENT MAY BE REPRODUCED, 
  7
SLDTEXTSTYLE1
 73
     1
 44
1.0
  0
MTEXT
  5
11A
330
112
100
AcDbEntity
  8
0
  6
Continuous
 62
     0
370
     0
100
AcDbMText
 10
0.0
 20
-10.7314722687
 30
0.0
 40
2.6458333333
 41
0.0
 71
     1
 72
     1
  1
REDISTRIBUTED, OR OTHERWISE DISCLOSED TO ANY THIRD PARTY WITHOUT 
  7
SLDTEXTSTYLE1
 73
     1
 44
1.0
  0
MTEXT
  5
11C
330
112
100
AcDbEntity
  8
0
  6
Continuous
 62
     0
370
     0
100
AcDbMText
 10
0.0
 20
-14.2592500038
 30
0.0
 40
2.6458333333
 41
0.0
 71
     1
 72
     1
  1
QSC\U+2019S WRITTEN PERMISSION.
  7
SLDTEXTSTYLE2
 73
     1
 44
1.0
  0
ENDBLK
  5
114
330
112
100
AcDbEntity
  8
0
100
AcDbBlockEnd
  0
BLOCK
  5
124
330
123
100
AcDbEntity
  8
0
100
AcDbBlockBegin
  2
SW_NOTE_0_2
 70
     0
 10
0.0
 20
0.0
 30
0.0
  3
SW_NOTE_0_2
  1

  0
MTEXT
  5
126
330
123
100
AcDbEntity
  8
0
  6
Continuous
 62
     0
370
     0
100
AcDbMText
 10
0.0
 20
3.89334375
 30
0.0
 40
3.048
 41
0.0
 71
     1
 72
     1
  1
1675 MACARTHUR BOULEVARD
  7
SLDTEXTSTYLE0
 73
     1
 44
1.0
  0
MTEXT
  5
127
330
123
100
AcDbEntity
  8
0
  6
Continuous
 62
     0
370
     0
100
AcDbMText
 10
0.0
 20
-1.1546560381
 30
0.0
 40
3.048
 41
0.0
 71
     1
 72
     1
  1
COSTA MESA, CA 92626 USA
  7
SLDTEXTSTYLE0
 73
     1
 44
1.0
  0
ENDBLK
  5
125
330
123
100
AcDbEntity
  8
0
100
AcDbBlockEnd
  0
BLOCK
  5
147
330
146
100
AcDbEntity
  8
0
100
AcDbBlockBegin
  2
SW_NOTE_0_3
 70
     0
 10
0.0
 20
0.0
 30
0.0
  3
SW_NOTE_0_3
  1

  0
MTEXT
  5
149
330
146
100
AcDbEntity
  8
0
  6
Continuous
 62
     0
370
     0
100
AcDbMText
 10
0.0
 20
4.0555664063
 30
0.0
 40
3.175
 41
0.0
 71
     1
 72
     1
  1
%%p
  7
SLDTEXTSTYLE0
 73
     1
 44
1.0
  0
MTEXT
  5
14A
330
146
100
AcDbEntity
  8
0
  6
Continuous
 62
     0
370
     0
100
AcDbMText
 10
3.0268332921
 20
4.0555664063
 30
0.0
 40
3.175
 41
0.0
 71
     1
 72
     1
  1
1
  7
SLDTEXTSTYLE0
 73
     1
 44
1.0
  0
MTEXT
  5
14B
330
146
100
AcDbEntity
  8
0
  6
Continuous
 62
     0
370
     0
100
AcDbMText
 10
5.3728055209
 20
4.0555664063
 30
0.0
 40
3.175
 41
0.0
 71
     1
 72
     1
  1
%%d
  7
SLDTEXTSTYLE0
 73
     1
 44
1.0
  0
ENDBLK
  5
148
330
146
100
AcDbEntity
  8
0
100
AcDbBlockEnd
  0
BLOCK
  5
14E
330
14D
100
AcDbEntity
  8
0
100
AcDbBlockBegin
  2
SW_NOTE_0_4
 70
     0
 10
0.0
 20
0.0
 30
0.0
  3
SW_NOTE_0_4
  1

  0
MTEXT
  5
150
330
14D
100
AcDbEntity
  8
0
  6
Continuous
 62
     0
370
     0
100
AcDbMText
 10
0.0
 20
4.0555664063
 30
0.0
 40
3.175
 41
0.0
 71
     1
 72
     1
  1
.X 
  7
SLDTEXTSTYLE0
 73
     1
 44
1.0
  0
MTEXT
  5
151
330
14D
100
AcDbEntity
  8
0
  6
Continuous
 62
     0
370
     0
100
AcDbMText
 10
4.9153706059
 20
4.0555664063
 30
0.0
 40
3.175
 41
0.0
 71
     1
 72
     1
  1
%%p
  7
SLDTEXTSTYLE0
 73
     1
 44
1.0
  0
MTEXT
  5
152
330
14D
100
AcDbEntity
  8
0
  6
Continuous
 62
     0
370
     0
100
AcDbMText
 10
7.9422034323
 20
4.0555664063
 30
0.0
 40
3.175
 41
0.0
 71
     1
 72
     1
  1
 3.0 [.12]
  7
SLDTEXTSTYLE0
 73
     1
 44
1.0
  0
MTEXT
  5
153
330
14D
100
AcDbEntity
  8
0
  6
Continuous
 62
     0
370
     0
100
AcDbMText
 10
0.0
 20
-0.1777668759
 30
0.0
 40
3.175
 41
0.0
 71
     1
 72
     1
  1
.XX 
  7
SLDTEXTSTYLE0
 73
     1
 44
1.0
  0
MTEXT
  5
154
330
14D
100
AcDbEntity
  8
0
  6
Continuous
 62
     0
370
     0
100
AcDbMText
 10
7.4906479567
 20
-0.1777668759
 30
0.0
 40
3.175
 41
0.0
 71
     1
 72
     1
  1
%%p
  7
SLDTEXTSTYLE0
 73
     1
 44
1.0
  0
ENDBLK
  5
14F
330
14D
100
AcDbEntity
  8
0
100
AcDbBlockEnd
  0
BLOCK
  5
158
330
157
100
AcDbEntity
  8
0
100
AcDbBlockBegin
  2
SW_NOTE_0_5
 70
     0
 10
0.0
 20
0.0
 30
0.0
  3
SW_NOTE_0_5
  1

  0
MTEXT
  5
15A
330
157
100
AcDbEntity
  8
0
  6
Continuous
 62
     0
370
     0
100
AcDbMText
 10
49.70859375
 20
8.1111328125
 30
0.0
 40
6.35
 41
0.0
 71
     2
 72
     1
  1
PROCESSOR, ENDPOINT, 
  7
SLDTEXTSTYLE0
 73
     1
 44
1.0
  0
MTEXT
  5
15B
330
157
100
AcDbEntity
  8
0
  6
Continuous
 62
     0
370
     0
100
AcDbMText
 10
48.7237573802
 20
-0.3555337518
 30
0.0
 40
6.35
 41
0.0
 71
     2
 72
     1
  1
QIO-ML4i, QIO-L4o, QIO-
  7
SLDTEXTSTYLE0
 73
     1
 44
1.0
  0
MTEXT
  5
15C
330
157
100
AcDbEntity
  8
0
  6
Continuous
 62
     0
370
     0
100
AcDbMText
 10
47.9028155506
 20
-8.8222003162
 30
0.0
 40
6.35
 41
0.0
 71
     2
 72
     1
  1
ML2X2, FREE-STANDING
  7
SLDTEXTSTYLE0
 73
     1
 44
1.0
  0
ENDBLK
  5
159
330
157
100
AcDbEntity
  8
0
100
AcDbBlockEnd
  0
BLOCK
  5
17B
330
17A
100
AcDbEntity
  8
0
100
AcDbBlockBegin
  2
SW_TABLEANNOTATION_0
 70
     0
 10
0.0
 20
0.0
 30
0.0
  3
SW_TABLEANNOTATION_0
  1

  0
LINE
  5
17D
330
17A
100
AcDbEntity
  8
SLD-0
 62
     0
100
AcDbLine
 10
0.0
 20
0.0
 30
0.0
 11
0.0
 21
-11.575361408
 31
0.0
  0
LINE
  5
17E
330
17A
100
AcDbEntity
  8
SLD-0
 62
     0
100
AcDbLine
 10
0.0
 20
-11.575361408
 30
0.0
 11
0.0
 21
-23.0844684809
 31
0.0
  0
LINE
  5
17F
330
17A
100
AcDbEntity
  8
SLD-0
 62
     0
100
AcDbLine
 10
18.1778195311
 20
-11.575361408
 30
0.0
 11
18.1778195311
 21
-23.0844684809
 31
0.0
  0
LINE
  5
180
330
17A
100
AcDbEntity
  8
SLD-0
 62
     0
100
AcDbLine
 10
222.8345361832
 20
-11.575361408
 30
0.0
 11
222.8345361832
 21
-23.0844684809
 31
0.0
  0
LINE
  5
181
330
17A
100
AcDbEntity
  8
SLD-0
 62
     0
100
AcDbLine
 10
245.4117937222
 20
-11.575361408
 30
0.0
 11
245.4117937222
 21
-23.0844684809
 31
0.0
  0
LINE
  5
182
330
17A
100
AcDbEntity
  8
SLD-0
 62
     0
100
AcDbLine
 10
285.8115490213
 20
0.0
 30
0.0
 11
285.8115490213
 21
-11.575361408
 31
0.0
  0
LINE
  5
183
330
17A
100
AcDbEntity
  8
SLD-0
 62
     0
100
AcDbLine
 10
285.8115490213
 20
-11.575361408
 30
0.0
 11
285.8115490213
 21
-23.0844684809
 31
0.0
  0
LINE
  5
184
330
17A
100
AcDbEntity
  8
SLD-0
 62
     0
100
AcDbLine
 10
0.0
 20
0.0
 30
0.0
 11
18.1778195311
 21
0.0
 31
0.0
  0
LINE
  5
185
330
17A
100
AcDbEntity
  8
SLD-0
 62
     0
100
AcDbLine
 10
0.0
 20
-11.575361408
 30
0.0
 11
18.1778195311
 21
-11.575361408
 31
0.0
  0
LINE
  5
186
330
17A
100
AcDbEntity
  8
SLD-0
 62
     0
100
AcDbLine
 10
18.1778195311
 20
0.0
 30
0.0
 11
222.8345361832
 21
0.0
 31
0.0
  0
LINE
  5
187
330
17A
100
AcDbEntity
  8
SLD-0
 62
     0
100
AcDbLine
 10
18.1778195311
 20
-11.575361408
 30
0.0
 11
222.8345361832
 21
-11.575361408
 31
0.0
  0
LINE
  5
188
330
17A
100
AcDbEntity
  8
SLD-0
 62
     0
100
AcDbLine
 10
222.8345361832
 20
0.0
 30
0.0
 11
245.4117937222
 21
0.0
 31
0.0
  0
LINE
  5
189
330
17A
100
AcDbEntity
  8
SLD-0
 62
     0
100
AcDbLine
 10
222.8345361832
 20
-11.575361408
 30
0.0
 11
245.4117937222
 21
-11.575361408
 31
0.0
  0
LINE
  5
18A
330
17A
100
AcDbEntity
  8
SLD-0
 62
     0
100
AcDbLine
 10
245.4117937222
 20
0.0
 30
0.0
 11
285.8115490213
 21
0.0
 31
0.0
  0
LINE
  5
18B
330
17A
100
AcDbEntity
  8
SLD-0
 62
     0
100
AcDbLine
 10
245.4117937222
 20
-11.575361408
 30
0.0
 11
285.8115490213
 21
-11.575361408
 31
0.0
  0
LINE
  5
18C
330
17A
100
AcDbEntity
  8
SLD-0
 62
     0
100
AcDbLine
 10
0.0
 20
-23.0844684809
 30
0.0
 11
18.1778195311
 21
-23.0844684809
 31
0.0
  0
LINE
  5
18D
330
17A
100
AcDbEntity
  8
SLD-0
 62
     0
100
AcDbLine
 10
18.1778195311
 20
-23.0844684809
 30
0.0
 11
222.8345361832
 21
-23.0844684809
 31
0.0
  0
LINE
  5
18E
330
17A
100
AcDbEntity
  8
SLD-0
 62
     0
100
AcDbLine
 10
222.8345361832
 20
-23.0844684809
 30
0.0
 11
245.4117937222
 21
-23.0844684809
 31
0.0
  0
LINE
  5
18F
330
17A
100
AcDbEntity
  8
SLD-0
 62
     0
100
AcDbLine
 10
245.4117937222
 20
-23.0844684809
 30
0.0
 11
285.8115490213
 21
-23.0844684809
 31
0.0
  0
LINE
  5
190
330
17A
100
AcDbEntity
  8
SLD-0
 62
     0
100
AcDbLine
 10
0.0
 20
-23.0844684809
 30
0.0
 11
0.0
 21
-33.9916931848
 31
0.0
  0
LINE
  5
191
330
17A
100
AcDbEntity
  8
SLD-0
 62
     0
100
AcDbLine
 10
18.1778195311
 20
-23.0844684809
 30
0.0
 11
18.1778195311
 21
-33.9916931848
 31
0.0
  0
LINE
  5
192
330
17A
100
AcDbEntity
  8
SLD-0
 62
     0
100
AcDbLine
 10
222.8345361832
 20
-23.0844684809
 30
0.0
 11
222.8345361832
 21
-33.9916931848
 31
0.0
  0
LINE
  5
193
330
17A
100
AcDbEntity
  8
SLD-0
 62
     0
100
AcDbLine
 10
245.4117937222
 20
-23.0844684809
 30
0.0
 11
245.4117937222
 21
-33.9916931848
 31
0.0
  0
LINE
  5
194
330
17A
100
AcDbEntity
  8
SLD-0
 62
     0
100
AcDbLine
 10
285.8115490213
 20
-23.0844684809
 30
0.0
 11
285.8115490213
 21
-33.9916931848
 31
0.0
  0
LINE
  5
195
330
17A
100
AcDbEntity
  8
SLD-0
 62
     0
100
AcDbLine
 10
0.0
 20
-33.9916931848
 30
0.0
 11
18.1778195311
 21
-33.9916931848
 31
0.0
  0
LINE
  5
196
330
17A
100
AcDbEntity
  8
SLD-0
 62
     0
100
AcDbLine
 10
18.1778195311
 20
-33.9916931848
 30
0.0
 11
222.8345361832
 21
-33.9916931848
 31
0.0
  0
LINE
  5
197
330
17A
100
AcDbEntity
  8
SLD-0
 62
     0
100
AcDbLine
 10
222.8345361832
 20
-33.9916931848
 30
0.0
 11
245.4117937222
 21
-33.9916931848
 31
0.0
  0
LINE
  5
198
330
17A
100
AcDbEntity
  8
SLD-0
 62
     0
100
AcDbLine
 10
245.4117937222
 20
-33.9916931848
 30
0.0
 11
285.8115490213
 21
-33.9916931848
 31
0.0
  0
MTEXT
  5
199
330
17A
100
AcDbEntity
  8
SLD-0
 62
     0
100
AcDbMText
 10
129.0612062283
 20
-3.7294055806
 30
0.0
 40
4.2333333333
 41
0.0
 71
     1
 72
     1
  1
REVISIONS
  7
SLDTEXTSTYLE0
 73
     1
 44
1.0
  0
MTEXT
  5
19A
330
17A
100
AcDbEntity
  8
SLD-0
 62
     0
100
AcDbMText
 10
3.8795578758
 20
-15.271639821
 30
0.0
 40
4.2333333333
 41
0.0
 71
     1
 72
     1
  1
REV
  7
SLDTEXTSTYLE0
 73
     1
 44
1.0
  0
MTEXT
  5
19B
330
17A
100
AcDbEntity
  8
SLD-0
 62
     0
100
AcDbMText
 10
102.78497377
 20
-15.271639821
 30
0.0
 40
4.2333333333
 41
0.0
 71
     1
 72
     1
  1
DESCRIPTION
  7
SLDTEXTSTYLE0
 73
     1
 44
1.0
  0
MTEXT
  5
19C
330
17A
100
AcDbEntity
  8
SLD-0
 62
     0
100
AcDbMText
 10
230.8344921814
 20
-15.271639821
 30
0.0
 40
4.2333333333
 41
0.0
 71
     1
 72
     1
  1
BY
  7
SLDTEXTSTYLE0
 73
     1
 44
1.0
  0
MTEXT
  5
19D
330
17A
100
AcDbEntity
  8
SLD-0
 62
     0
100
AcDbMText
 10
258.7050665118
 20
-15.271639821
 30
0.0
 40
4.2333333333
 41
0.0
 71
     1
 72
     1
  1
DATE
  7
SLDTEXTSTYLE0
 73
     1
 44
1.0
  0
MTEXT
  5
19E
330
17A
100
AcDbEntity
  8
SLD-0
 62
     0
100
AcDbMText
 10
6.9996812845
 20
-26.4798057094
 30
0.0
 40
4.2333333333
 41
0.0
 71
     1
 72
     1
  1
A
  7
SLDTEXTSTYLE0
 73
     1
 44
1.0
  0
MTEXT
  5
19F
330
17A
100
AcDbEntity
  8
SLD-0
 62
     0
100
AcDbMText
 10
19.1778195311
 20
-26.4798057094
 30
0.0
 40
4.2333333333
 41
0.0
 71
     1
 72
     1
  1
INITIAL RELEASE
  7
SLDTEXTSTYLE0
 73
     1
 44
1.0
  0
MTEXT
  5
1A0
330
17A
100
AcDbEntity
  8
SLD-0
 62
     0
100
AcDbMText
 10
231.3087821724
 20
-26.4798057094
 30
0.0
 40
4.2333333333
 41
0.0
 71
     1
 72
     1
  1
SS
  7
SLDTEXTSTYLE0
 73
     1
 44
1.0
  0
MTEXT
  5
1A1
330
17A
100
AcDbEntity
  8
SLD-0
 62
     0
100
AcDbMText
 10
252.5196964801
 20
-26.4798057094
 30
0.0
 40
4.2333333333
 41
0.0
 71
     1
 72
     1
  1
3-NOV-21
  7
SLDTEXTSTYLE0
 73
     1
 44
1.0
  0
ENDBLK
  5
17C
330
17A
100
AcDbEntity
  8
0
100
AcDbBlockEnd
  0
BLOCK
  5
2CB
330
2CA
100
AcDbEntity
  8
0
100
AcDbBlockBegin
  2
_D
 70
     0
 10
0.0
 20
0.0
 30
0.0
  3
_D
  1

  0
SOLID
  5
2CD
330
2CA
100
AcDbEntity
  8
SLD-0
 62
     7
100
AcDbTrace
 10
297.3124677661
 20
480.9101228244
 30
0.0
 11
301.3124677661
 21
480.4101228244
 31
0.0
 12
301.3124677661
 22
481.4101228244
 32
0.0
 13
301.3124677661
 23
481.4101228244
 33
0.0
  0
SOLID
  5
2CE
330
2CA
100
AcDbEntity
  8
SLD-0
 62
     7
100
AcDbTrace
 10
406.3124677661
 20
480.9101228244
 30
0.0
 11
402.3124677661
 21
481.4101228244
 31
0.0
 12
402.3124677661
 22
480.4101228244
 32
0.0
 13
402.3124677661
 23
480.4101228244
 33
0.0
  0
LINE
  5
2CF
330
2CA
100
AcDbEntity
  8
SLD-0
 62
     7
100
AcDbLine
 10
297.3124677661
 20
444.4899071769
 30
0.0
 11
297.3124677661
 21
482.4341228244
 31
0.0
  0
LINE
  5
2D0
330
2CA
100
AcDbEntity
  8
SLD-0
 62
     7
100
AcDbLine
 10
406.3124677661
 20
444.4899071769
 30
0.0
 11
406.3124677661
 21
482.4341228244
 31
0.0
  0
LINE
  5
2D1
330
2CA
100
AcDbEntity
  8
SLD-0
 62
     7
100
AcDbLine
 10
297.3124677661
 20
480.9101228244
 30
0.0
 11
344.9911283561
 21
480.9101228244
 31
0.0
  0
LINE
  5
2D2
330
2CA
100
AcDbEntity
  8
SLD-0
 62
     7
100
AcDbLine
 10
406.3124677661
 20
480.9101228244
 30
0.0
 11
360.8220307388
 21
480.9101228244
 31
0.0
  0
MTEXT
  5
2D3
330
2CA
100
AcDbEntity
  8
SLD-0
 62
     7
100
AcDbMText
 10
344.9911283561
 20
483.2099309351
 30
0.0
 40
4.7625
 41
0.0
 71
     1
 72
     1
  1
109.0
  7
SLDTEXTSTYLE0
 73
     1
 44
1.0
  0
ENDBLK
  5
2CC
330
2CA
100
AcDbEntity
  8
0
100
AcDbBlockEnd
  0
BLOCK
  5
2FC
330
2FB
100
AcDbEntity
  8
0
100
AcDbBlockBegin
  2
_D_1
 70
     0
 10
0.0
 20
0.0
 30
0.0
  3
_D_1
  1

  0
SOLID
  5
2FE
330
2FB
100
AcDbEntity
  8
SLD-0
 62
     7
100
AcDbTrace
 10
35.5624247068
 20
442.9659071769
 30
0.0
 11
35.0624247068
 21
438.9659071769
 31
0.0
 12
36.0624247068
 22
438.9659071769
 32
0.0
 13
36.0624247068
 23
438.9659071769
 33
0.0
  0
SOLID
  5
2FF
330
2FB
100
AcDbEntity
  8
SLD-0
 62
     7
100
AcDbTrace
 10
35.5624247068
 20
400.5659071769
 30
0.0
 11
36.0624247068
 21
404.5659071769
 31
0.0
 12
35.0624247068
 22
404.5659071769
 32
0.0
 13
35.0624247068
 23
404.5659071769
 33
0.0
  0
LINE
  5
300
330
2FB
100
AcDbEntity
  8
SLD-0
 62
     7
100
AcDbLine
 10
47.5509851619
 20
442.9659071769
 30
0.0
 11
34.0384247068
 21
442.9659071769
 31
0.0
  0
LINE
  5
301
330
2FB
100
AcDbEntity
  8
SLD-0
 62
     7
100
AcDbLine
 10
47.5509851619
 20
400.5659071769
 30
0.0
 11
34.0384247068
 21
400.5659071769
 31
0.0
  0
LINE
  5
302
330
2FB
100
AcDbEntity
  8
SLD-0
 62
     7
100
AcDbLine
 10
35.5624247068
 20
442.9659071769
 30
0.0
 11
35.5624247068
 21
427.2793685221
 31
0.0
  0
LINE
  5
303
330
2FB
100
AcDbEntity
  8
SLD-0
 62
     7
100
AcDbLine
 10
35.5624247068
 20
400.5659071769
 30
0.0
 11
35.5624247068
 21
419.7122850591
 31
0.0
  0
MTEXT
  5
304
330
2FB
100
AcDbEntity
  8
SLD-0
 62
     7
100
AcDbMText
 10
29.4064523378
 20
425.7956349013
 30
0.0
 40
4.7625
 41
0.0
 71
     1
 72
     1
  1
42.4
  7
SLDTEXTSTYLE0
 73
     1
 44
1.0
  0
ENDBLK
  5
2FD
330
2FB
100
AcDbEntity
  8
0
100
AcDbBlockEnd
  0
BLOCK
  5
338
330
337
100
AcDbEntity
  8
0
100
AcDbBlockBegin
  2
_D_2
 70
     0
 10
0.0
 20
0.0
 30
0.0
  3
_D_2
  1

  0
SOLID
  5
33A
330
337
100
AcDbEntity
  8
SLD-0
 62
     7
100
AcDbTrace
 10
438.3124677661
 20
325.5409077114
 30
0.0
 11
437.8124677661
 21
321.5409077114
 31
0.0
 12
438.8124677661
 22
321.5409077114
 32
0.0
 13
438.8124677661
 23
321.5409077114
 33
0.0
  0
SOLID
  5
33B
330
337
100
AcDbEntity
  8
SLD-0
 62
     7
100
AcDbTrace
 10
438.3124677661
 20
109.6409077114
 30
0.0
 11
438.8124677661
 21
113.6409077114
 31
0.0
 12
437.8124677661
 22
113.6409077114
 32
0.0
 13
437.8124677661
 23
113.6409077114
 33
0.0
  0
LINE
  5
33C
330
337
100
AcDbEntity
  8
SLD-0
 62
     7
100
AcDbLine
 10
407.8364677661
 20
325.5409077114
 30
0.0
 11
439.8364677661
 21
325.5409077114
 31
0.0
  0
LINE
  5
33D
330
337
100
AcDbEntity
  8
SLD-0
 62
     7
100
AcDbLine
 10
407.8364677661
 20
109.6409077114
 30
0.0
 11
439.8364677661
 21
109.6409077114
 31
0.0
  0
LINE
  5
33E
330
337
100
AcDbEntity
  8
SLD-0
 62
     7
100
AcDbLine
 10
438.3124677661
 20
325.5409077114
 30
0.0
 11
438.3124677661
 21
231.5420629032
 31
0.0
  0
LINE
  5
33F
330
337
100
AcDbEntity
  8
SLD-0
 62
     7
100
AcDbLine
 10
438.3124677661
 20
109.6409077114
 30
0.0
 11
438.3124677661
 21
223.9749794402
 31
0.0
  0
MTEXT
  5
340
330
337
100
AcDbEntity
  8
SLD-0
 62
     7
100
AcDbMText
 10
430.3970165747
 20
230.0583292824
 30
0.0
 40
4.7625
 41
0.0
 71
     1
 72
     1
  1
215.9
  7
SLDTEXTSTYLE0
 73
     1
 44
1.0
  0
ENDBLK
  5
339
330
337
100
AcDbEntity
  8
0
100
AcDbBlockEnd
  0
BLOCK
  5
343
330
342
100
AcDbEntity
  8
0
100
AcDbBlockBegin
  2
_D_3
 70
     0
 10
0.0
 20
0.0
 30
0.0
  3
_D_3
  1

  0
SOLID
  5
345
330
342
100
AcDbEntity
  8
SLD-0
 62
     7
100
AcDbTrace
 10
306.8124677661
 20
345.5409077114
 30
0.0
 11
310.8124677661
 21
345.0409077114
 31
0.0
 12
310.8124677661
 22
346.0409077114
 32
0.0
 13
310.8124677661
 23
346.0409077114
 33
0.0
  0
SOLID
  5
346
330
342
100
AcDbEntity
  8
SLD-0
 62
     7
100
AcDbTrace
 10
396.8124677661
 20
345.5409077114
 30
0.0
 11
392.8124677661
 21
346.0409077114
 31
0.0
 12
392.8124677661
 22
345.0409077114
 32
0.0
 13
392.8124677661
 23
345.0409077114
 33
0.0
  0
LINE
  5
347
330
342
100
AcDbEntity
  8
SLD-0
 62
     7
100
AcDbLine
 10
306.8124677661
 20
319.0649077114
 30
0.0
 11
306.8124677661
 21
347.0649077114
 31
0.0
  0
LINE
  5
348
330
342
100
AcDbEntity
  8
SLD-0
 62
     7
100
AcDbLine
 10
396.8124677661
 20
319.0649077114
 30
0.0
 11
396.8124677661
 21
347.0649077114
 31
0.0
  0
LINE
  5
349
330
342
100
AcDbEntity
  8
SLD-0
 62
     7
100
AcDbLine
 10
306.8124677661
 20
345.5409077114
 30
0.0
 11
348.7957542339
 21
345.5409077114
 31
0.0
  0
LINE
  5
34A
330
342
100
AcDbEntity
  8
SLD-0
 62
     7
100
AcDbLine
 10
396.8124677661
 20
345.5409077114
 30
0.0
 11
361.1076989719
 21
345.5409077114
 31
0.0
  0
MTEXT
  5
34B
330
342
100
AcDbEntity
  8
SLD-0
 62
     7
100
AcDbMText
 10
348.7957542339
 20
347.840715822
 30
0.0
 40
4.7625
 41
0.0
 71
     1
 72
     1
  1
90.0
  7
SLDTEXTSTYLE0
 73
     1
 44
1.0
  0
ENDBLK
  5
344
330
342
100
AcDbEntity
  8
0
100
AcDbBlockEnd
  0
BLOCK
  5
34F
330
34E
100
AcDbEntity
  8
0
100
AcDbBlockBegin
  2
_D_4
 70
     0
 10
0.0
 20
0.0
 30
0.0
  3
_D_4
  1

  0
SOLID
  5
351
330
34E
100
AcDbEntity
  8
SLD-0
 62
     7
100
AcDbTrace
 10
287.5401734441
 20
325.5409077114
 30
0.0
 11
288.0401734441
 21
329.5409077114
 31
0.0
 12
287.0401734441
 22
329.5409077114
 32
0.0
 13
287.0401734441
 23
329.5409077114
 33
0.0
  0
SOLID
  5
352
330
34E
100
AcDbEntity
  8
SLD-0
 62
     7
100
AcDbTrace
 10
287.5401734441
 20
317.5409077114
 30
0.0
 11
287.0401734441
 21
313.5409077114
 31
0.0
 12
288.0401734441
 22
313.5409077114
 32
0.0
 13
288.0401734441
 23
313.5409077114
 33
0.0
  0
LINE
  5
353
330
34E
100
AcDbEntity
  8
SLD-0
 62
     7
100
AcDbLine
 10
295.7884677661
 20
325.5409077114
 30
0.0
 11
286.0161734441
 21
325.5409077114
 31
0.0
  0
LINE
  5
354
330
34E
100
AcDbEntity
  8
SLD-0
 62
     7
100
AcDbLine
 10
305.2884677661
 20
317.5409077114
 30
0.0
 11
286.0161734441
 21
317.5409077114
 31
0.0
  0
LINE
  5
355
330
34E
100
AcDbEntity
  8
SLD-0
 62
     7
100
AcDbLine
 10
283.5401734441
 20
334.5274774548
 30
0.0
 11
287.5401734441
 21
334.5274774548
 31
0.0
  0
LINE
  5
356
330
34E
100
AcDbEntity
  8
SLD-0
 62
     7
100
AcDbLine
 10
287.5401734441
 20
334.5274774548
 30
0.0
 11
287.5401734441
 21
325.5409077114
 31
0.0
  0
LINE
  5
357
330
34E
100
AcDbEntity
  8
SLD-0
 62
     7
100
AcDbLine
 10
287.5401734441
 20
317.5409077114
 30
0.0
 11
287.5401734441
 21
309.5409077114
 31
0.0
  0
MTEXT
  5
358
330
34E
100
AcDbEntity
  8
SLD-0
 62
     7
100
AcDbMText
 10
265.6102432042
 20
336.8272855655
 30
0.0
 40
4.7625
 41
0.0
 71
     1
 72
     1
  1
2X 
  7
SLDTEXTSTYLE0
 73
     1
 44
1.0
  0
MTEXT
  5
359
330
34E
100
AcDbEntity
  8
SLD-0
 62
     7
100
AcDbMText
 10
274.7471882134
 20
336.8272855655
 30
0.0
 40
4.7625
 41
0.0
 71
     1
 72
     1
  1
8.0
  7
SLDTEXTSTYLE0
 73
     1
 44
1.0
  0
ENDBLK
  5
350
330
34E
100
AcDbEntity
  8
0
100
AcDbBlockEnd
  0
BLOCK
  5
35B
330
35A
100
AcDbEntity
  8
0
100
AcDbBlockBegin
  2
SW_NOTE_0_6
 70
     0
 10
0.0
 20
0.0
 30
0.0
  3
SW_NOTE_0_6
  1

  0
LINE
  5
35D
330
35A
100
AcDbEntity
  8
SLD-0
 62
     0
100
AcDbLine
 10
-11.641443539
 20
-5.8910826542
 30
0.0
 11
-11.641443539
 21
5.7503608847
 31
0.0
  0
LINE
  5
35E
330
35A
100
AcDbEntity
  8
SLD-0
 62
     0
100
AcDbLine
 10
-11.641443539
 20
5.7503608847
 30
0.0
 11
0.0
 21
5.7503608847
 31
0.0
  0
LINE
  5
35F
330
35A
100
AcDbEntity
  8
SLD-0
 62
     0
100
AcDbLine
 10
0.0
 20
5.7503608847
 30
0.0
 11
0.0
 21
-5.8910826542
 31
0.0
  0
LINE
  5
360
330
35A
100
AcDbEntity
  8
SLD-0
 62
     0
100
AcDbLine
 10
0.0
 20
-5.8910826542
 30
0.0
 11
-11.641443539
 21
-5.8910826542
 31
0.0
  0
MTEXT
  5
361
330
35A
100
AcDbEntity
  8
SLD-0
 62
     0
100
AcDbMText
 10
-5.9276574375
 20
2.2944670319
 30
0.0
 40
4.7625
 41
0.0
 71
     2
 72
     1
  1
2.
  7
SLDTEXTSTYLE0
 73
     1
 44
1.0
  0
ENDBLK
  5
35C
330
35A
100
AcDbEntity
  8
0
100
AcDbBlockEnd
  0
BLOCK
  5
365
330
364
100
AcDbEntity
  8
0
100
AcDbBlockBegin
  2
SW_SYMBOL_MOD_CL
 70
     0
 10
0.0
 20
0.0
 30
0.0
  3
SW_SYMBOL_MOD_CL
  1

  0
MTEXT
  5
367
330
364
100
AcDbEntity
  8
SLD-0
 62
     0
100
AcDbMText
 10
800.0
 20
1200.0
 30
0.0
 40
1565.749235474
 41
0.0
 71
     5
 72
     1
  1
C
  7
SLDTEXTSTYLE0
 73
     1
 44
1.0
  0
MTEXT
  5
368
330
364
100
AcDbEntity
  8
SLD-0
 62
     0
100
AcDbMText
 10
1200.0
 20
600.0
 30
0.0
 40
1565.749235474
 41
0.0
 71
     5
 72
     1
  1
L
  7
SLDTEXTSTYLE0
 73
     1
 44
1.0
  0
ENDBLK
  5
366
330
364
100
AcDbEntity
  8
0
100
AcDbBlockEnd
  0
ENDSEC
  0
SECTION
  2
ENTITIES
  0
LINE
  5
BC
330
1F
100
AcDbEntity
  8
0
  6
Continuous
 62
     7
370
    18
100
AcDbLine
 10
17.7770582316
 20
541.0189283994
 30
0.0
 11
845.8170582316
 21
541.0189283994
 31
0.0
  0
LINE
  5
BD
330
1F
100
AcDbEntity
  8
0
  6
Continuous
 62
     7
370
    18
100
AcDbLine
 10
17.7770582316
 20
541.0189283994
 30
0.0
 11
17.7770582316
 21
17.7789283994
 31
0.0
  0
LINE
  5
BE
330
1F
100
AcDbEntity
  8
0
  6
Continuous
 62
     7
370
    18
100
AcDbLine
 10
845.8170582316
 20
17.7789283994
 30
0.0
 11
17.7770582316
 21
17.7789283994
 31
0.0
  0
LINE
  5
BF
330
1F
100
AcDbEntity
  8
0
  6
Continuous
 62
     7
370
    18
100
AcDbLine
 10
845.8170582316
 20
17.7789283994
 30
0.0
 11
845.8170582316
 21
541.0189283994
 31
0.0
  0
LINE
  5
C0
330
1F
100
AcDbEntity
  8
0
  6
Continuous
 62
     7
370
    18
100
AcDbLine
 10
591.8170582316
 20
17.7789283994
 30
0.0
 11
591.8170582316
 21
93.9789283994
 31
0.0
  0
LINE
  5
C1
330
1F
100
AcDbEntity
  8
0
  6
Continuous
 62
     7
370
    18
100
AcDbLine
 10
591.8170582316
 20
93.9789283994
 30
0.0
 11
845.8170582316
 21
93.9789283994
 31
0.0
  0
LINE
  5
C2
330
1F
100
AcDbEntity
  8
0
  6
Continuous
 62
     7
370
    18
100
AcDbLine
 10
658.7200825955
 20
93.9789283994
 30
0.0
 11
658.7200825955
 21
17.7789283994
 31
0.0
  0
LINE
  5
C3
330
1F
100
AcDbEntity
  8
0
  6
Continuous
 62
     7
370
    18
100
AcDbLine
 10
728.0448273613
 20
93.9789283994
 30
0.0
 11
728.0448273613
 21
17.7789283994
 31
0.0
  0
LINE
  5
C4
330
1F
100
AcDbEntity
  8
0
  6
Continuous
 62
     7
370
    18
100
AcDbLine
 10
728.0448273613
 20
24.1289283994
 30
0.0
 11
845.8170582316
 21
24.1289283994
 31
0.0
  0
LINE
  5
C5
330
1F
100
AcDbEntity
  8
0
  6
Continuous
 62
     7
370
    18
100
AcDbLine
 10
728.0448273613
 20
36.8289283994
 30
0.0
 11
845.8170582316
 21
36.8289283994
 31
0.0
  0
LINE
  5
C6
330
1F
100
AcDbEntity
  8
0
  6
Continuous
 62
     7
370
    18
100
AcDbLine
 10
728.0448273613
 20
74.9289283994
 30
0.0
 11
845.8170582316
 21
74.9289283994
 31
0.0
  0
LINE
  5
C7
330
1F
100
AcDbEntity
  8
0
  6
Continuous
 62
     7
370
    18
100
AcDbLine
 10
737.2248385306
 20
36.8289283994
 30
0.0
 11
737.2248385306
 21
24.1289283994
 31
0.0
  0
LINE
  5
C8
330
1F
100
AcDbEntity
  8
0
  6
Continuous
 62
     7
370
    18
100
AcDbLine
 10
811.2044175569
 20
24.1289283994
 30
0.0
 11
811.2044175569
 21
17.7789283994
 31
0.0
  0
LINE
  5
C9
330
1F
100
AcDbEntity
  8
0
  6
Continuous
 62
     7
370
    18
100
AcDbLine
 10
761.3548385306
 20
36.8289283994
 30
0.0
 11
761.3548385306
 21
24.1289283994
 31
0.0
  0
LINE
  5
CA
330
1F
100
AcDbEntity
  8
0
  6
Continuous
 62
     7
370
    18
100
AcDbLine
 10
751.7322172939
 20
24.1289283994
 30
0.0
 11
751.7322172939
 21
17.7789283994
 31
0.0
  0
LINE
  5
CB
330
1F
100
AcDbEntity
  8
0
  6
Continuous
 62
     7
370
    18
100
AcDbLine
 10
638.8070582316
 20
17.7789283994
 30
0.0
 11
638.8070582316
 21
26.9229283994
 31
0.0
  0
LINE
  5
CC
330
1F
100
AcDbEntity
  8
0
  6
Continuous
 62
     7
370
    18
100
AcDbLine
 10
658.6478221355
 20
31.2789283994
 30
0.0
 11
727.9725669014
 21
31.2789283994
 31
0.0
  0
LINE
  5
CD
330
1F
100
AcDbEntity
  8
0
  6
Continuous
 62
     7
370
    18
100
AcDbLine
 10
658.7200825955
 20
44.7789283994
 30
0.0
 11
728.0448273613
 21
44.7789283994
 31
0.0
  0
LINE
  5
CE
330
1F
100
AcDbEntity
  8
0
  6
Continuous
 62
     7
370
    18
100
AcDbLine
 10
658.7200825955
 20
58.2789283994
 30
0.0
 11
728.0448273613
 21
58.2789283994
 31
0.0
  0
LINE
  5
CF
330
1F
100
AcDbEntity
  8
0
  6
Continuous
 62
     7
370
    18
100
AcDbLine
 10
658.7200825955
 20
76.5625228009
 30
0.0
 11
728.0448273613
 21
76.5625228009
 31
0.0
  0
LINE
  5
D0
330
1F
100
AcDbEntity
  8
0
  6
Continuous
 62
     7
370
    18
100
AcDbLine
 10
658.7200825955
 20
71.2285228009
 30
0.0
 11
728.0448273613
 21
71.2285228009
 31
0.0
  0
LINE
  5
D1
330
1F
100
AcDbEntity
  8
0
  6
Continuous
 62
     7
370
    18
100
AcDbLine
 10
658.7200825955
 20
54.4891628938
 30
0.0
 11
591.8170582316
 21
54.4891628938
 31
0.0
  0
LINE
  5
D2
330
1F
100
AcDbEntity
  8
0
  6
CENTER
 62
     7
370
    18
100
AcDbLine
 10
647.9842335774
 20
22.5236503539
 30
0.0
 11
657.3272635762
 21
22.5236503539
 31
0.0
  0
LINE
  5
D3
330
1F
100
AcDbEntity
  8
0
  6
Continuous
 62
     7
370
    18
100
AcDbLine
 10
845.8170582316
 20
148.5889283994
 30
0.0
 11
852.1670582316
 21
148.5889283994
 31
0.0
  0
LINE
  5
D4
330
1F
100
AcDbEntity
  8
0
  6
Continuous
 62
     7
370
    18
100
AcDbLine
 10
848.9920582316
 20
277.5658412947
 30
0.0
 11
845.8170582316
 21
279.3989283994
 31
0.0
  0
LINE
  5
D5
330
1F
100
AcDbEntity
  8
0
  6
Continuous
 62
     7
370
    18
100
AcDbLine
 10
848.9920582316
 20
281.232015504
 30
0.0
 11
848.9920582316
 21
277.5658412947
 31
0.0
  0
LINE
  5
D6
330
1F
100
AcDbEntity
  8
0
  6
Continuous
 62
     7
370
    18
100
AcDbLine
 10
845.8170582316
 20
279.3989283994
 30
0.0
 11
848.9920582316
 21
281.232015504
 31
0.0
  0
LINE
  5
D7
330
1F
100
AcDbEntity
  8
0
  6
Continuous
 62
     7
370
    18
100
AcDbLine
 10
845.8170582316
 20
279.3989283994
 30
0.0
 11
852.1670582316
 21
279.3989283994
 31
0.0
  0
LINE
  5
D8
330
1F
100
AcDbEntity
  8
0
  6
Continuous
 62
     7
370
    18
100
AcDbLine
 10
845.8170582316
 20
410.2089283994
 30
0.0
 11
852.1670582316
 21
410.2089283994
 31
0.0
  0
LINE
  5
D9
330
1F
100
AcDbEntity
  8
0
  6
Continuous
 62
     7
370
    18
100
AcDbLine
 10
742.3120582316
 20
541.0189283994
 30
0.0
 11
742.3120582316
 21
547.3689283994
 31
0.0
  0
LINE
  5
DA
330
1F
100
AcDbEntity
  8
0
  6
Continuous
 62
     7
370
    18
100
AcDbLine
 10
535.3020582316
 20
17.7789283994
 30
0.0
 11
535.3020582316
 21
11.4289283994
 31
0.0
  0
LINE
  5
DB
330
1F
100
AcDbEntity
  8
0
  6
Continuous
 62
     7
370
    18
100
AcDbLine
 10
742.3120582316
 20
17.7789283994
 30
0.0
 11
742.3120582316
 21
11.4289283994
 31
0.0
  0
LINE
  5
DC
330
1F
100
AcDbEntity
  8
0
  6
Continuous
 62
     7
370
    18
100
AcDbLine
 10
638.8070582316
 20
17.7789283994
 30
0.0
 11
638.8070582316
 21
11.4289283994
 31
0.0
  0
LINE
  5
DD
330
1F
100
AcDbEntity
  8
0
  6
Continuous
 62
     7
370
    18
100
AcDbLine
 10
328.2920582316
 20
17.7789283994
 30
0.0
 11
328.2920582316
 21
11.4289283994
 31
0.0
  0
LINE
  5
DE
330
1F
100
AcDbEntity
  8
0
  6
Continuous
 62
     7
370
    18
100
AcDbLine
 10
224.7870582316
 20
17.7789283994
 30
0.0
 11
224.7870582316
 21
11.4289283994
 31
0.0
  0
LINE
  5
DF
330
1F
100
AcDbEntity
  8
0
  6
Continuous
 62
     7
370
    18
100
AcDbLine
 10
121.2820582316
 20
17.7789283994
 30
0.0
 11
121.2820582316
 21
11.4289283994
 31
0.0
  0
LINE
  5
E0
330
1F
100
AcDbEntity
  8
0
  6
Continuous
 62
     7
370
    18
100
AcDbLine
 10
638.8070582316
 20
541.0189283994
 30
0.0
 11
638.8070582316
 21
547.3689283994
 31
0.0
  0
LINE
  5
E1
330
1F
100
AcDbEntity
  8
0
  6
Continuous
 62
     7
370
    18
100
AcDbLine
 10
535.3020582316
 20
541.0189283994
 30
0.0
 11
535.3020582316
 21
547.3689283994
 31
0.0
  0
LINE
  5
E2
330
1F
100
AcDbEntity
  8
0
  6
Continuous
 62
     7
370
    18
100
AcDbLine
 10
433.6301453363
 20
544.1939283994
 30
0.0
 11
429.963971127
 21
544.1939283994
 31
0.0
  0
LINE
  5
E3
330
1F
100
AcDbEntity
  8
0
  6
Continuous
 62
     7
370
    18
100
AcDbLine
 10
431.7970582316
 20
541.0189283994
 30
0.0
 11
429.963971127
 21
544.1939283994
 31
0.0
  0
LINE
  5
E4
330
1F
100
AcDbEntity
  8
0
  6
Continuous
 62
     7
370
    18
100
AcDbLine
 10
431.7970582316
 20
541.0189283994
 30
0.0
 11
433.6301453363
 21
544.1939283994
 31
0.0
  0
LINE
  5
E5
330
1F
100
AcDbEntity
  8
0
  6
Continuous
 62
     7
370
    18
100
AcDbLine
 10
17.7770582316
 20
148.5889283994
 30
0.0
 11
11.4270582316
 21
148.5889283994
 31
0.0
  0
LINE
  5
E6
330
1F
100
AcDbEntity
  8
0
  6
Continuous
 62
     7
370
    18
100
AcDbLine
 10
17.7770582316
 20
279.3989283994
 30
0.0
 11
11.4270582316
 21
279.3989283994
 31
0.0
  0
LINE
  5
E7
330
1F
100
AcDbEntity
  8
0
  6
Continuous
 62
     7
370
    18
100
AcDbLine
 10
17.7770582316
 20
410.2089283994
 30
0.0
 11
11.4270582316
 21
410.2089283994
 31
0.0
  0
LINE
  5
E8
330
1F
100
AcDbEntity
  8
0
  6
Continuous
 62
     7
370
    18
100
AcDbLine
 10
17.7770582316
 20
279.3989283994
 30
0.0
 11
14.6020582316
 21
281.232015504
 31
0.0
  0
LINE
  5
E9
330
1F
100
AcDbEntity
  8
0
  6
Continuous
 62
     7
370
    18
100
AcDbLine
 10
14.6020582316
 20
281.232015504
 30
0.0
 11
14.6020582316
 21
277.5658412947
 31
0.0
  0
LINE
  5
EA
330
1F
100
AcDbEntity
  8
0
  6
Continuous
 62
     7
370
    18
100
AcDbLine
 10
14.6020582316
 20
277.5658412947
 30
0.0
 11
17.7770582316
 21
279.3989283994
 31
0.0
  0
LINE
  5
EB
330
1F
100
AcDbEntity
  8
0
  6
Continuous
 62
     7
370
    18
100
AcDbLine
 10
431.7970582316
 20
541.0189283994
 30
0.0
 11
431.7970582316
 21
547.3689283994
 31
0.0
  0
LINE
  5
EC
330
1F
100
AcDbEntity
  8
0
  6
Continuous
 62
     7
370
    18
100
AcDbLine
 10
328.2920582316
 20
541.0189283994
 30
0.0
 11
328.2920582316
 21
547.3689283994
 31
0.0
  0
LINE
  5
ED
330
1F
100
AcDbEntity
  8
0
  6
Continuous
 62
     7
370
    18
100
AcDbLine
 10
224.7870582316
 20
541.0189283994
 30
0.0
 11
224.7870582316
 21
547.3689283994
 31
0.0
  0
LINE
  5
EE
330
1F
100
AcDbEntity
  8
0
  6
Continuous
 62
     7
370
    18
100
AcDbLine
 10
121.2820582316
 20
541.0189283994
 30
0.0
 11
121.2820582316
 21
547.3689283994
 31
0.0
  0
LINE
  5
EF
330
1F
100
AcDbEntity
  8
0
  6
Continuous
 62
     7
370
    18
100
AcDbLine
 10
648.9300065611
 20
21.2536503539
 30
0.0
 11
656.5500065611
 21
19.9836503539
 31
0.0
  0
LINE
  5
F0
330
1F
100
AcDbEntity
  8
0
  6
Continuous
 62
     7
370
    18
100
AcDbLine
 10
648.9300065611
 20
23.7936503539
 30
0.0
 11
656.5500065611
 21
25.0636503539
 31
0.0
  0
LINE
  5
F1
330
1F
100
AcDbEntity
  8
0
  6
CENTER
 62
     7
370
    18
100
AcDbLine
 10
640.5581665611
 20
22.5236503539
 30
0.0
 11
647.1418465611
 21
22.5236503539
 31
0.0
  0
LINE
  5
F2
330
1F
100
AcDbEntity
  8
0
  6
CENTER
 62
     7
370
    18
100
AcDbLine
 10
643.8500065611
 20
19.2318103539
 30
0.0
 11
643.8500065611
 21
25.8154903539
 31
0.0
  0
LINE
  5
F3
330
1F
100
AcDbEntity
  8
0
  6
Continuous
 62
     7
370
    18
100
AcDbLine
 10
591.8170582316
 20
26.9229283994
 30
0.0
 11
658.7200825955
 21
26.9229283994
 31
0.0
  0
LINE
  5
F4
330
1F
100
AcDbEntity
  8
0
  6
Continuous
 62
     7
370
    18
100
AcDbLine
 10
591.8170582316
 20
36.0669283994
 30
0.0
 11
658.7200825955
 21
36.0669283994
 31
0.0
  0
LINE
  5
F5
330
1F
100
AcDbEntity
  8
0
  6
Continuous
 62
     7
370
    18
100
AcDbLine
 10
431.7970582316
 20
17.7789283994
 30
0.0
 11
431.7970582316
 21
11.4289283994
 31
0.0
  0
LINE
  5
F6
330
1F
100
AcDbEntity
  8
0
  6
Continuous
 62
     7
370
    18
100
AcDbLine
 10
431.7970582316
 20
17.7789283994
 30
0.0
 11
433.6301453363
 21
14.6039283994
 31
0.0
  0
LINE
  5
F7
330
1F
100
AcDbEntity
  8
0
  6
Continuous
 62
     7
370
    18
100
AcDbLine
 10
431.7970582316
 20
17.7789283994
 30
0.0
 11
429.963971127
 21
14.6039283994
 31
0.0
  0
LINE
  5
F8
330
1F
100
AcDbEntity
  8
0
  6
Continuous
 62
     7
370
    18
100
AcDbLine
 10
433.6301453363
 20
14.6039283994
 30
0.0
 11
429.963971127
 21
14.6039283994
 31
0.0
  0
LINE
  5
F9
330
1F
100
AcDbEntity
  8
0
  6
Continuous
 62
     7
370
    18
100
AcDbLine
 10
591.8170582316
 20
45.2109283994
 30
0.0
 11
658.7200825955
 21
45.2109283994
 31
0.0
  0
LINE
  5
FA
330
1F
100
AcDbEntity
  8
0
  6
Continuous
 62
     7
370
    18
100
AcDbLine
 10
648.9300065611
 20
23.7936503539
 30
0.0
 11
648.9300065611
 21
21.2536503539
 31
0.0
  0
LINE
  5
FB
330
1F
100
AcDbEntity
  8
0
  6
Continuous
 62
     7
370
    18
100
AcDbLine
 10
17.7770582316
 20
517.5004279921
 30
0.0
 11
149.8753518325
 21
517.5004279921
 31
0.0
  0
LINE
  5
FC
330
1F
100
AcDbEntity
  8
0
  6
Continuous
 62
     7
370
    18
100
AcDbLine
 10
149.8753518325
 20
541.0189283994
 30
0.0
 11
149.8753518325
 21
517.5004279921
 31
0.0
  0
LINE
  5
FD
330
1F
100
AcDbEntity
  8
0
  6
Continuous
 62
     7
370
    18
100
AcDbLine
 10
656.5500065611
 20
25.0636503539
 30
0.0
 11
656.5500065611
 21
19.9836503539
 31
0.0
  0
LINE
  5
FE
330
1F
100
AcDbEntity
  8
0
  6
Continuous
 62
     7
370
    18
100
AcDbLine
 10
824.7215725591
 20
36.8289283994
 30
0.0
 11
824.7215725591
 21
24.1289283994
 31
0.0
  0
CIRCLE
  5
FF
330
1F
100
AcDbEntity
  8
0
  6
Continuous
 62
     7
370
    18
100
AcDbCircle
 10
643.8500065611
 20
22.5236503539
 30
0.0
 40
2.539999999999736
  0
CIRCLE
  5
100
330
1F
100
AcDbEntity
  8
0
  6
Continuous
 62
     7
370
    18
100
AcDbCircle
 10
643.8500065611
 20
22.5236503539
 30
0.0
 40
1.269999999999868
  0
INSERT
  5
101
330
1F
100
AcDbEntity
  8
0
  6
Continuous
 62
     7
100
AcDbBlockReference
  2
QSC Logo
 10
731.1249168009
 20
79.6579217153
 30
0.0
 41
0.8
 42
0.8
 43
0.8
  0
INSERT
  5
110
330
1F
100
AcDbEntity
  8
SLD-0
 62
     7
100
AcDbBlockReference
  2
SW_NOTE_0
 10
46.1282017488
 20
498.8096482008
 30
0.0
  0
MTEXT
  5
111
330
1F
100
AcDbEntity
  8
SLD-0
 62
     7
100
AcDbMText
 10
332.4388129657
 20
86.1310900916
 30
0.0
 40
4.7625
 41
0.0
 71
     1
 72
     1
  1
BOTTOM VIEW
  7
SLDTEXTSTYLE0
 73
     1
 44
1.0
  0
INSERT
  5
11D
330
1F
100
AcDbEntity
  8
0
  6
Continuous
 62
     7
370
     0
100
AcDbBlockReference
  2
SW_NOTE_0_1
 10
19.7731701097
 20
536.0083426113
 30
0.0
  0
MTEXT
  5
11E
330
1F
100
AcDbEntity
  8
0
  6
Continuous
 62
     7
370
     0
100
AcDbMText
 10
832.1383823192
 20
36.1262826977
 30
0.0
 40
2.6458333333
 41
0.0
 71
     1
 72
     1
  1
REV
  7
SLDTEXTSTYLE0
 73
     1
 44
1.0
  0
MTEXT
  5
11F
330
1F
100
AcDbEntity
  8
0
  6
Continuous
 62
     7
370
     0
100
AcDbMText
 10
845.4050977242
 20
13.9900278999
 30
0.0
 40
2.0
 41
0.0
 71
     3
 72
     1
  1
Form: QMS100206 Rev D
  7
SLDTEXTSTYLE0
 73
     1
 44
1.0
  0
MTEXT
  5
120
330
1F
100
AcDbEntity
  8
0
  6
Continuous
 62
     7
370
     0
100
AcDbMText
 10
28.2143331634
 20
514.3100768614
 30
0.0
 40
4.7625
 41
0.0
 71
     1
 72
     1
  1
NOTES: UNLESS OTHERWISE SPECIFIED
  7
SLDTEXTSTYLE0
 73
     1
 44
1.0
  0
MTEXT
  5
122
330
1F
100
AcDbEntity
  8
0
  6
Continuous
 62
     7
370
     0
100
AcDbMText
 10
783.6845070818
 20
92.1745689395
 30
0.0
 40
5.08
 41
0.0
 71
     1
 72
     1
  1
QSC, LLC
  7
SLDTEXTSTYLE3
 73
     1
 44
1.0
  0
INSERT
  5
128
330
1F
100
AcDbEntity
  8
0
  6
Continuous
 62
     7
370
     0
100
AcDbBlockReference
  2
SW_NOTE_0_2
 10
783.6845070818
 20
81.095747344
 30
0.0
  0
MTEXT
  5
129
330
1F
100
AcDbEntity
  8
0
  6
Continuous
 62
     7
370
     0
100
AcDbMText
 10
741.3571915747
 20
30.4677761734
 30
0.0
 40
3.7041666667
 41
0.0
 71
     1
 72
     1
  1
00PW4
  7
SLDTEXTSTYLE0
 73
     1
 44
1.0
  0
MTEXT
  5
12A
330
1F
100
AcDbEntity
  8
0
  6
Continuous
 62
     7
370
     0
100
AcDbMText
 10
738.5219100019
 20
35.7710989182
 30
0.0
 40
2.6458333333
 41
0.0
 71
     1
 72
     1
  1
CAGE CODE
  7
SLDTEXTSTYLE0
 73
     1
 44
1.0
  0
MTEXT
  5
12B
330
1F
100
AcDbEntity
  8
0
  6
Continuous
 62
     7
370
     0
100
AcDbMText
 10
274.9044892463
 20
546.7165399178
 30
0.0
 40
4.7625
 41
0.0
 71
     1
 72
     1
  1
6
  7
SLDTEXTSTYLE0
 73
     1
 44
1.0
  0
MTEXT
  5
12C
330
1F
100
AcDbEntity
  8
0
  6
Continuous
 62
     7
370
     0
100
AcDbMText
 10
660.9163968145
 20
50.378017964
 30
0.0
 40
3.175
 41
0.0
 71
     1
 72
     1
  1
T. GOSSARD
  7
SLDTEXTSTYLE0
 73
     1
 44
1.0
  0
MTEXT
  5
12D
330
1F
100
AcDbEntity
  8
0
  6
Continuous
 62
     7
370
     0
100
AcDbMText
 10
611.4579743728
 20
43.0576026341
 30
0.0
 40
4.572
 41
0.0
 71
     1
 72
     1
  1
SEE NOTES
  7
SLDTEXTSTYLE0
 73
     1
 44
1.0
  0
MTEXT
  5
12E
330
1F
100
AcDbEntity
  8
0
  6
Continuous
 62
     7
370
     0
100
AcDbMText
 10
769.6293302907
 20
21.8437228263
 30
0.0
 40
2.54
 41
0.0
 71
     1
 72
     1
  1
 FG-901489-2D-A
  7
SLDTEXTSTYLE0
 73
     1
 44
1.0
  0
MTEXT
  5
12F
330
1F
100
AcDbEntity
  8
0
  6
Continuous
 62
     7
370
     0
100
AcDbMText
 10
611.4579743728
 20
52.4912053254
 30
0.0
 40
4.572
 41
0.0
 71
     1
 72
     1
  1
SEE NOTES
  7
SLDTEXTSTYLE0
 73
     1
 44
1.0
  0
MTEXT
  5
130
330
1F
100
AcDbEntity
  8
0
  6
Continuous
 62
     7
370
     0
100
AcDbMText
 10
663.8567271759
 20
92.0594469861
 30
0.0
 40
3.175
 41
0.0
 71
     1
 72
     1
  1
CAD GENERATED DRAWING
  7
SLDTEXTSTYLE0
 73
     1
 44
1.0
  0
MTEXT
  5
131
330
1F
100
AcDbEntity
  8
0
  6
Continuous
 62
     7
370
     0
100
AcDbMText
 10
664.1936149874
 20
86.0966599894
 30
0.0
 40
3.175
 41
0.0
 71
     1
 72
     1
  1
DO  NOT  MANUALLY  UPDATE
  7
SLDTEXTSTYLE0
 73
     1
 44
1.0
  0
MTEXT
  5
132
330
1F
100
AcDbEntity
  8
0
  6
Continuous
 62
     7
370
     0
100
AcDbMText
 10
595.2190951974
 20
92.0594469861
 30
0.0
 40
3.175
 41
0.0
 71
     1
 72
     1
  1
UNLESS  OTHERWISE  SPECIFIED
  7
SLDTEXTSTYLE0
 73
     1
 44
1.0
  0
MTEXT
  5
133
330
1F
100
AcDbEntity
  8
0
  6
Continuous
 62
     7
370
     0
100
AcDbMText
 10
595.5635604058
 20
86.0966599894
 30
0.0
 40
3.175
 41
0.0
 71
     1
 72
     1
  1
DIMENSIONS  ARE  IN  MM [IN]
  7
SLDTEXTSTYLE0
 73
     1
 44
1.0
  0
MTEXT
  5
134
330
1F
100
AcDbEntity
  8
0
  6
Continuous
 62
     7
370
     0
100
AcDbMText
 10
847.5215828392
 20
85.9414361542
 30
0.0
 40
4.7625
 41
0.0
 71
     1
 72
     1
  1
A
  7
SLDTEXTSTYLE0
 73
     1
 44
1.0
  0
MTEXT
  5
135
330
1F
100
AcDbEntity
  8
0
  6
Continuous
 62
     7
370
     0
100
AcDbMText
 10
848.5673279065
 20
216.6712265686
 30
0.0
 40
4.7625
 41
0.0
 71
     1
 72
     1
  1
B
  7
SLDTEXTSTYLE0
 73
     1
 44
1.0
  0
MTEXT
  5
136
330
1F
100
AcDbEntity
  8
0
  6
Continuous
 62
     7
370
     0
100
AcDbMText
 10
847.1136724834
 20
347.601157245
 30
0.0
 40
4.7625
 41
0.0
 71
     1
 72
     1
  1
C
  7
SLDTEXTSTYLE0
 73
     1
 44
1.0
  0
MTEXT
  5
137
330
1F
100
AcDbEntity
  8
0
  6
Continuous
 62
     7
370
     0
100
AcDbMText
 10
847.6406414995
 20
478.3100785054
 30
0.0
 40
4.7625
 41
0.0
 71
     1
 72
     1
  1
D
  7
SLDTEXTSTYLE0
 73
     1
 44
1.0
  0
MTEXT
  5
138
330
1F
100
AcDbEntity
  8
0
  6
Continuous
 62
     7
370
     0
100
AcDbMText
 10
792.5830446789
 20
546.7940520172
 30
0.0
 40
4.7625
 41
0.0
 71
     1
 72
     1
  1
1
  7
SLDTEXTSTYLE0
 73
     1
 44
1.0
  0
MTEXT
  5
139
330
1F
100
AcDbEntity
  8
0
  6
Continuous
 62
     7
370
     0
100
AcDbMText
 10
688.894906649
 20
546.7526281102
 30
0.0
 40
4.7625
 41
0.0
 71
     1
 72
     1
  1
2
  7
SLDTEXTSTYLE0
 73
     1
 44
1.0
  0
MTEXT
  5
13A
330
1F
100
AcDbEntity
  8
0
  6
Continuous
 62
     7
370
     0
100
AcDbMText
 10
585.3611054217
 20
546.6471015398
 30
0.0
 40
4.7625
 41
0.0
 71
     1
 72
     1
  1
3
  7
SLDTEXTSTYLE0
 73
     1
 44
1.0
  0
MTEXT
  5
13B
330
1F
100
AcDbEntity
  8
0
  6
Continuous
 62
     7
370
     0
100
AcDbMText
 10
481.9144239716
 20
546.6593937128
 30
0.0
 40
4.7625
 41
0.0
 71
     1
 72
     1
  1
4
  7
SLDTEXTSTYLE0
 73
     1
 44
1.0
  0
MTEXT
  5
13C
330
1F
100
AcDbEntity
  8
0
  6
Continuous
 62
     7
370
     0
100
AcDbMText
 10
378.4264775994
 20
546.6423769039
 30
0.0
 40
4.7625
 41
0.0
 71
     1
 72
     1
  1
5
  7
SLDTEXTSTYLE0
 73
     1
 44
1.0
  0
MTEXT
  5
13D
330
1F
100
AcDbEntity
  8
0
  6
Continuous
 62
     7
370
     0
100
AcDbMText
 10
171.5249301416
 20
546.8422076892
 30
0.0
 40
4.7625
 41
0.0
 71
     1
 72
     1
  1
7
  7
SLDTEXTSTYLE0
 73
     1
 44
1.0
  0
MTEXT
  5
13E
330
1F
100
AcDbEntity
  8
0
  6
Continuous
 62
     7
370
     0
100
AcDbMText
 10
660.9163968145
 20
36.291216444
 30
0.0
 40
3.175
 41
0.0
 71
     1
 72
     1
  1
A. FOSTER
  7
SLDTEXTSTYLE0
 73
     1
 44
1.0
  0
MTEXT
  5
13F
330
1F
100
AcDbEntity
  8
0
  6
Continuous
 62
     7
370
     0
100
AcDbMText
 10
660.9163968145
 20
22.9772361569
 30
0.0
 40
3.175
 41
0.0
 71
     1
 72
     1
  1
C. WHITNEY
  7
SLDTEXTSTYLE0
 73
     1
 44
1.0
  0
MTEXT
  5
140
330
1F
100
AcDbEntity
  8
0
  6
Continuous
 62
     7
370
     0
100
AcDbMText
 10
660.9163968145
 20
63.6534242981
 30
0.0
 40
3.175
 41
0.0
 71
     1
 72
     1
  1
S. STASIAK
  7
SLDTEXTSTYLE0
 73
     1
 44
1.0
  0
MTEXT
  5
141
330
1F
100
AcDbEntity
  8
0
  6
Continuous
 62
     7
370
     0
100
AcDbMText
 10
792.897612669
 20
32.047807006
 30
0.0
 40
6.35
 41
0.0
 71
     2
 72
     1
  1
FG-901489-2D-A
  7
SLDTEXTSTYLE0
 73
     1
 44
1.0
  0
MTEXT
  5
142
330
1F
100
AcDbEntity
  8
0
  6
Continuous
 62
     7
370
     0
100
AcDbMText
 10
823.5592003829
 20
23.0161842784
 30
0.0
 40
3.7041666667
 41
0.0
 71
     1
 72
     1
  1
1  OF  1
  7
SLDTEXTSTYLE0
 73
     1
 44
1.0
  0
MTEXT
  5
143
330
1F
100
AcDbEntity
  8
0
  6
Continuous
 62
     7
370
     0
100
AcDbMText
 10
746.7323009597
 20
22.8437594925
 30
0.0
 40
3.556
 41
0.0
 71
     2
 72
     1
  1
1:2
  7
SLDTEXTSTYLE0
 73
     1
 44
1.0
  0
MTEXT
  5
144
330
1F
100
AcDbEntity
  8
0
  6
Continuous
 62
     7
370
     0
100
AcDbMText
 10
682.1772990516
 20
75.3103156625
 30
0.0
 40
2.6458333333
 41
0.0
 71
     1
 72
     1
  1
APPROVALS
  7
SLDTEXTSTYLE0
 73
     1
 44
1.0
  0
MTEXT
  5
145
330
1F
100
AcDbEntity
  8
0
  6
Continuous
 62
     7
370
     0
100
AcDbMText
 10
592.7354064203
 20
24.8393822778
 30
0.0
 40
3.175
 41
0.0
 71
     1
 72
     1
  1
PROJECTION SYMBOL
  7
SLDTEXTSTYLE0
 73
     1
 44
1.0
  0
INSERT
  5
14C
330
1F
100
AcDbEntity
  8
0
  6
Continuous
 62
     7
370
     0
100
AcDbBlockReference
  2
SW_NOTE_0_3
 10
638.2468476512
 20
61.8160885603
 30
0.0
  0
INSERT
  5
155
330
1F
100
AcDbEntity
  8
0
  6
Continuous
 62
     7
370
     0
100
AcDbBlockReference
  2
SW_NOTE_0_4
 10
597.9698078925
 20
61.8160885603
 30
0.0
  0
MTEXT
  5
156
330
1F
100
AcDbEntity
  8
0
  6
Continuous
 62
     7
370
     0
100
AcDbMText
 10
67.944147644
 20
546.6480712239
 30
0.0
 40
4.7625
 41
0.0
 71
     1
 72
     1
  1
8
  7
SLDTEXTSTYLE0
 73
     1
 44
1.0
  0
INSERT
  5
15D
330
1F
100
AcDbEntity
  8
0
  6
Continuous
 62
     7
370
     0
100
AcDbBlockReference
  2
SW_NOTE_0_5
 10
740.2244646797
 20
62.087351624
 30
0.0
  0
MTEXT
  5
15E
330
1F
100
AcDbEntity
  8
0
  6
Continuous
 62
     7
370
     0
100
AcDbMText
 10
835.0890379196
 20
32.1777370848
 30
0.0
 40
6.35
 41
0.0
 71
     2
 72
     1
  1
A
  7
SLDTEXTSTYLE0
 73
     1
 44
1.0
  0
MTEXT
  5
15F
330
1F
100
AcDbEntity
  8
0
  6
Continuous
 62
     7
370
     0
100
AcDbMText
 10
67.7761843366
 20
16.7592836782
 30
0.0
 40
4.7625
 41
0.0
 71
     1
 72
     1
  1
8
  7
SLDTEXTSTYLE0
 73
     1
 44
1.0
  0
MTEXT
  5
160
330
1F
100
AcDbEntity
  8
0
  6
Continuous
 62
     7
370
     0
100
AcDbMText
 10
171.3588469983
 20
16.8315671061
 30
0.0
 40
4.7625
 41
0.0
 71
     1
 72
     1
  1
7
  7
SLDTEXTSTYLE0
 73
     1
 44
1.0
  0
MTEXT
  5
161
330
1F
100
AcDbEntity
  8
0
  6
Continuous
 62
     7
370
     0
100
AcDbMText
 10
274.8985307608
 20
16.9129951712
 30
0.0
 40
4.7625
 41
0.0
 71
     1
 72
     1
  1
6
  7
SLDTEXTSTYLE0
 73
     1
 44
1.0
  0
MTEXT
  5
162
330
1F
100
AcDbEntity
  8
0
  6
Continuous
 62
     7
370
     0
100
AcDbMText
 10
378.4160175024
 20
16.7716636708
 30
0.0
 40
4.7625
 41
0.0
 71
     1
 72
     1
  1
5
  7
SLDTEXTSTYLE0
 73
     1
 44
1.0
  0
MTEXT
  5
163
330
1F
100
AcDbEntity
  8
0
  6
Continuous
 62
     7
370
     0
100
AcDbMText
 10
481.8362164345
 20
16.8241970873
 30
0.0
 40
4.7625
 41
0.0
 71
     1
 72
     1
  1
4
  7
SLDTEXTSTYLE0
 73
     1
 44
1.0
  0
MTEXT
  5
164
330
1F
100
AcDbEntity
  8
0
  6
Continuous
 62
     7
370
     0
100
AcDbMText
 10
585.2668238139
 20
16.7624653566
 30
0.0
 40
4.7625
 41
0.0
 71
     1
 72
     1
  1
3
  7
SLDTEXTSTYLE0
 73
     1
 44
1.0
  0
MTEXT
  5
165
330
1F
100
AcDbEntity
  8
0
  6
Continuous
 62
     7
370
     0
100
AcDbMText
 10
688.8634389669
 20
16.8679362557
 30
0.0
 40
4.7625
 41
0.0
 71
     1
 72
     1
  1
2
  7
SLDTEXTSTYLE0
 73
     1
 44
1.0
  0
MTEXT
  5
166
330
1F
100
AcDbEntity
  8
0
  6
Continuous
 62
     7
370
     0
100
AcDbMText
 10
792.3915769235
 20
16.7025094057
 30
0.0
 40
4.7625
 41
0.0
 71
     1
 72
     1
  1
1
  7
SLDTEXTSTYLE0
 73
     1
 44
1.0
  0
MTEXT
  5
167
330
1F
100
AcDbEntity
  8
0
  6
Continuous
 62
     7
370
     0
100
AcDbMText
 10
596.3851348475
 20
33.1835015171
 30
0.0
 40
3.175
 41
0.0
 71
     1
 72
     1
  1
DO  NOT  SCALE  DRAWING
  7
SLDTEXTSTYLE0
 73
     1
 44
1.0
  0
MTEXT
  5
168
330
1F
100
AcDbEntity
  8
0
  6
Continuous
 62
     7
370
     0
100
AcDbMText
 10
592.8448218548
 20
44.0912828052
 30
0.0
 40
2.6458333333
 41
0.0
 71
     1
 72
     1
  1
FINISH
  7
SLDTEXTSTYLE0
 73
     1
 44
1.0
  0
MTEXT
  5
169
330
1F
100
AcDbEntity
  8
0
  6
Continuous
 62
     7
370
     0
100
AcDbMText
 10
592.6633205219
 20
53.1953724323
 30
0.0
 40
2.6458333333
 41
0.0
 71
     1
 72
     1
  1
MATERIAL
  7
SLDTEXTSTYLE0
 73
     1
 44
1.0
  0
MTEXT
  5
16A
330
1F
100
AcDbEntity
  8
0
  6
Continuous
 62
     7
370
     0
100
AcDbMText
 10
601.6886717457
 20
71.6714992177
 30
0.0
 40
2.6458333333
 41
0.0
 71
     1
 72
     1
  1
DECIMALS                 ANGLES
  7
SLDTEXTSTYLE0
 73
     1
 44
1.0
  0
MTEXT
  5
16B
330
1F
100
AcDbEntity
  8
0
  6
Continuous
 62
     7
370
     0
100
AcDbMText
 10
595.7579078884
 20
79.9530029733
 30
0.0
 40
3.175
 41
0.0
 71
     1
 72
     1
  1
TOLERANCES  ARE:
  7
SLDTEXTSTYLE0
 73
     1
 44
1.0
  0
MTEXT
  5
16C
330
1F
100
AcDbEntity
  8
0
  6
Continuous
 62
     7
370
     0
100
AcDbMText
 10
660.9163968145
 20
29.5712043791
 30
0.0
 40
2.6458333333
 41
0.0
 71
     1
 72
     1
  1
MFG ENGINEER
  7
SLDTEXTSTYLE0
 73
     1
 44
1.0
  0
MTEXT
  5
16D
330
1F
100
AcDbEntity
  8
0
  6
Continuous
 62
     7
370
     0
100
AcDbMText
 10
660.9163968145
 20
43.2161066649
 30
0.0
 40
2.6458333333
 41
0.0
 71
     1
 72
     1
  1
TECH DIRECTOR
  7
SLDTEXTSTYLE0
 73
     1
 44
1.0
  0
MTEXT
  5
16E
330
1F
100
AcDbEntity
  8
0
  6
Continuous
 62
     7
370
     0
100
AcDbMText
 10
660.9163968145
 20
56.6450739991
 30
0.0
 40
2.6458333333
 41
0.0
 71
     1
 72
     1
  1
MECH ENGINEER
  7
SLDTEXTSTYLE0
 73
     1
 44
1.0
  0
MTEXT
  5
16F
330
1F
100
AcDbEntity
  8
0
  6
Continuous
 62
     7
370
     0
100
AcDbMText
 10
660.9163968145
 20
70.3327149453
 30
0.0
 40
2.6458333333
 41
0.0
 71
     1
 72
     1
  1
DRAWN BY
  7
SLDTEXTSTYLE0
 73
     1
 44
1.0
  0
MTEXT
  5
170
330
1F
100
AcDbEntity
  8
0
  6
Continuous
 62
     7
370
     0
100
AcDbMText
 10
811.8237811206
 20
23.008513856
 30
0.0
 40
2.6458333333
 41
0.0
 71
     1
 72
     1
  1
SHEET:
  7
SLDTEXTSTYLE0
 73
     1
 44
1.0
  0
MTEXT
  5
171
330
1F
100
AcDbEntity
  8
0
  6
Continuous
 62
     7
370
     0
100
AcDbMText
 10
731.1971915747
 20
30.4677761734
 30
0.0
 40
3.7041666667
 41
0.0
 71
     1
 72
     1
  1
B
  7
SLDTEXTSTYLE0
 73
     1
 44
1.0
  0
MTEXT
  5
172
330
1F
100
AcDbEntity
  8
0
  6
Continuous
 62
     7
370
     0
100
AcDbMText
 10
762.8747160102
 20
35.7710989182
 30
0.0
 40
2.6458333333
 41
0.0
 71
     1
 72
     1
  1
DWG.  NO.
  7
SLDTEXTSTYLE0
 73
     1
 44
1.0
  0
MTEXT
  5
173
330
1F
100
AcDbEntity
  8
0
  6
Continuous
 62
     7
370
     0
100
AcDbMText
 10
752.8418251795
 20
23.008513856
 30
0.0
 40
2.6458333333
 41
0.0
 71
     1
 72
     1
  1
CAD FILE:
  7
SLDTEXTSTYLE0
 73
     1
 44
1.0
  0
MTEXT
  5
174
330
1F
100
AcDbEntity
  8
0
  6
Continuous
 62
     7
370
     0
100
AcDbMText
 10
729.3779100019
 20
35.7710989182
 30
0.0
 40
2.6458333333
 41
0.0
 71
     1
 72
     1
  1
SIZE
  7
SLDTEXTSTYLE0
 73
     1
 44
1.0
  0
MTEXT
  5
175
330
1F
100
AcDbEntity
  8
0
  6
Continuous
 62
     7
370
     0
100
AcDbMText
 10
729.6544009966
 20
23.008513856
 30
0.0
 40
2.6458333333
 41
0.0
 71
     1
 72
     1
  1
SCALE:  
  7
SLDTEXTSTYLE0
 73
     1
 44
1.0
  0
MTEXT
  5
176
330
1F
100
AcDbEntity
  8
0
  6
Continuous
 62
     7
370
     0
100
AcDbMText
 10
11.4696716321
 20
478.4508072522
 30
0.0
 40
4.7625
 41
0.0
 71
     1
 72
     1
  1
D
  7
SLDTEXTSTYLE0
 73
     1
 44
1.0
  0
MTEXT
  5
177
330
1F
100
AcDbEntity
  8
0
  6
Continuous
 62
     7
370
     0
100
AcDbMText
 10
11.4794853763
 20
347.6322123788
 30
0.0
 40
4.7625
 41
0.0
 71
     1
 72
     1
  1
C
  7
SLDTEXTSTYLE0
 73
     1
 44
1.0
  0
MTEXT
  5
178
330
1F
100
AcDbEntity
  8
0
  6
Continuous
 62
     7
370
     0
100
AcDbMText
 10
11.4785739269
 20
216.8638453104
 30
0.0
 40
4.7625
 41
0.0
 71
     1
 72
     1
  1
B
  7
SLDTEXTSTYLE0
 73
     1
 44
1.0
  0
MTEXT
  5
179
330
1F
100
AcDbEntity
  8
0
  6
Continuous
 62
     7
370
     0
100
AcDbMText
 10
11.4973888207
 20
86.1195570852
 30
0.0
 40
4.7625
 41
0.0
 71
     1
 72
     1
  1
A
  7
SLDTEXTSTYLE0
 73
     1
 44
1.0
  0
INSERT
  5
1A2
330
1F
100
AcDbEntity
  8
SLD-0
100
AcDbBlockReference
  2
SW_TABLEANNOTATION_0
 10
560.0055092103
 20
541.0189283994
 30
0.0
  0
SPLINE
  5
1A3
330
1F
100
AcDbEntity
  8
0
  6
Continuous
 62
     7
370
    25
100
AcDbSpline
210
0.0
220
0.0
230
1.0
 70
     8
 71
     3
 72
    17
 73
    13
 74
     0
 42
0.00000001
 43
0.00000001
 40
0.0
 40
0.0
 40
0.0
 40
0.0
 40
0.0573477078497569
 40
0.1679312256701581
 40
0.279643501521838
 40
0.392426850050487
 40
0.5059228598969436
 40
0.6196769703127072
 40
0.7331249282659638
 40
0.8457201428703177
 40
0.957029195468084
 40
0.9999999999999999
 40
0.9999999999999999
 40
0.9999999999999999
 40
0.9999999999999999
 10
666.3727015548707
 20
132.2471622800599
 30
0.0
 10
666.4583410181718
 20
132.1950207396664
 30
0.0
 10
666.709118958165
 20
132.0423347280556
 30
0.0
 10
667.1403985169054
 20
131.7009905290028
 30
0.0
 10
667.6434142853795
 20
131.1973860867238
 30
0.0
 10
668.1168379639836
 20
130.6040883247891
 30
0.0
 10
668.5389599749817
 20
129.9448037730199
 30
0.0
 10
668.8915244140782
 20
129.2453049028673
 30
0.0
 10
669.160512541265
 20
128.5347922170093
 30
0.0
 10
669.335632070157
 20
127.8457052496072
 30
0.0
 10
669.4020670807475
 20
127.3323615456713
 30
0.0
 10
669.4068599054059
 20
127.06418162781
 30
0.0
 10
669.4081948271214
 20
126.989486803455
 30
0.0
  0
LINE
  5
1A4
330
1F
100
AcDbEntity
  8
0
  6
Continuous
 62
     7
370
    25
100
AcDbLine
 10
669.4081948271
 20
126.9894868035
 30
0.0
 11
669.4081948271
 21
119.6406194965
 31
0.0
  0
LINE
  5
1A5
330
1F
100
AcDbEntity
  8
0
  6
Continuous
 62
     7
370
    25
100
AcDbLine
 10
604.8544115916
 20
167.7609151443
 30
0.0
 11
666.3727015549
 21
132.2471622801
 31
0.0
  0
SPLINE
  5
1A6
330
1F
100
AcDbEntity
  8
0
  6
Continuous
 62
     7
370
    25
100
AcDbSpline
210
0.0
220
0.0
230
1.0
 70
     8
 71
     3
 72
    11
 73
     7
 74
     0
 42
0.00000001
 43
0.00000001
 40
0.0
 40
0.0
 40
0.0
 40
0.0
 40
0.2230907954089657
 40
0.4917187126214249
 40
0.7656606866150385
 40
1.0
 40
1.0
 40
1.0
 40
1.0
 10
661.3239118053694
 20
129.6309596179335
 30
0.0
 10
661.2192234311677
 20
129.505129704978
 30
0.0
 10
660.988477772233
 20
129.227785573884
 30
0.0
 10
660.7610901377886
 20
128.7125508170298
 30
0.0
 10
660.620446155203
 20
128.1630326923023
 30
0.0
 10
660.6055056154174
 20
127.7907818325044
 30
0.0
 10
660.5986173904879
 20
127.6191583376834
 30
0.0
  0
SPLINE
  5
1A7
330
1F
100
AcDbEntity
  8
0
  6
Continuous
 62
     7
370
    25
100
AcDbSpline
210
0.0
220
0.0
230
1.0
 70
     8
 71
     3
 72
    18
 73
    14
 74
     0
 42
0.00000001
 43
0.00000001
 40
0.0
 40
0.0
 40
0.0
 40
0.0
 40
0.0691622223957925
 40
0.1725825294907896
 40
0.2778436445063144
 40
0.3842031551479804
 40
0.4925404468820228
 40
0.6044305600306074
 40
0.7061104869975056
 40
0.8024446307406111
 40
0.8941018620001191
 40
0.9830437884857147
 40
1.0
 40
1.0
 40
1.0
 40
1.0
 10
660.5986173904879
 20
127.6191583376834
 30
0.0
 10
660.604544669442
 20
127.461930748206
 30
0.0
 10
660.6193351830993
 20
127.0695961158328
 30
0.0
 10
660.7582888689482
 20
126.436321661576
 30
0.0
 10
661.023628044184
 20
125.737531059053
 30
0.0
 10
661.4015536196141
 20
125.0697105950588
 30
0.0
 10
661.8814146643006
 20
124.4584714560228
 30
0.0
 10
662.4355619592303
 20
123.9516520528552
 30
0.0
 10
663.0338712191453
 20
123.575710331004
 30
0.0
 10
663.6443012329747
 20
123.3348031250939
 30
0.0
 10
664.2591326732689
 20
123.2394553307753
 30
0.0
 10
664.713291653476
 20
123.2350192151948
 30
0.0
 10
664.943150150256
 20
123.3031281593909
 30
0.0
 10
664.9799546622462
 20
123.3140336359707
 30
0.0
  0
SPLINE
  5
1A8
330
1F
100
AcDbEntity
  8
0
  6
Continuous
 62
     7
370
    25
100
AcDbSpline
210
0.0
220
0.0
230
1.0
 70
     8
 71
     3
 72
    12
 73
     8
 74
     0
 42
0.00000001
 43
0.00000001
 40
0.0
 40
0.0
 40
0.0
 40
0.0
 40
0.1179536889808805
 40
0.3422354356193991
 40
0.566455696180393
 40
0.7961378686582459
 40
0.9999999999999999
 40
0.9999999999999999
 40
0.9999999999999999
 40
0.9999999999999999
 10
669.4081948271214
 20
119.6406194964833
 30
0.0
 10
669.4058779619066
 20
119.5454224815322
 30
0.0
 10
669.399155718771
 20
119.2692141478808
 30
0.0
 10
669.3280429118237
 20
118.8829634038838
 30
0.0
 10
669.1896521832947
 20
118.5407388872293
 30
0.0
 10
669.0352783613523
 20
118.327152892751
 30
0.0
 10
668.9248839143343
 20
118.2577119608089
 30
0.0
 10
668.8729740009549
 20
118.225059297025
 30
0.0
  0
SPLINE
  5
1A9
330
1F
100
AcDbEntity
  8
0
  6
Continuous
 62
     7
370
    25
100
AcDbSpline
210
0.0
220
0.0
230
1.0
 70
     8
 71
     3
 72
    13
 73
     9
 74
     0
 42
0.00000001
 43
0.00000001
 40
0.0
 40
0.0
 40
0.0
 40
0.0
 40
0.0479440610195985
 40
0.3060671947807662
 40
0.5285059456104076
 40
0.7422265849081335
 40
0.9547993057886435
 40
1.0
 40
1.0
 40
1.0
 40
1.0
 10
603.3540578781931
 20
168.0008404263148
 30
0.0
 10
603.3660154948609
 20
168.0101215967241
 30
0.0
 10
603.4423510015312
 20
168.0693710998125
 30
0.0
 10
603.6119586909261
 20
168.1067626531963
 30
0.0
 10
603.9284854526048
 20
168.1138596408667
 30
0.0
 10
604.3136839810143
 20
168.0232051867197
 30
0.0
 10
604.6371156703107
 20
167.8835831543251
 30
0.0
 10
604.8219932225733
 20
167.7792159794299
 30
0.0
 10
604.8544115916412
 20
167.7609151443478
 30
0.0
  0
LWPOLYLINE
  5
1AA
330
1F
100
AcDbEntity
  8
0
  6
Continuous
 62
     7
370
    25
100
AcDbPolyline
 90
       20
 70
   128
 43
0.0
 10
669.9839307584
 20
104.3713992043
 10
669.9207143153
 20
104.8453583876
 10
669.7379154685
 20
105.3409448908
 10
669.4553433095
 20
105.8044542264
 10
669.1036189163
 20
106.1856579658
 10
668.7208570844
 20
106.4432467689
 10
668.3485359975
 20
106.549306892
 10
668.0270024225
 20
106.4923450749
 10
667.7910995114
 20
106.2785340145
 10
667.666391005
 20
105.9310434568
 10
667.666391005
 20
105.4875293956
 10
667.7910995114
 20
104.9960534611
 10
668.0270024225
 20
104.5098746971
 10
668.3485359975
 20
104.0816781163
 10
668.7208570844
 20
103.7578654625
 10
669.1036189163
 20
103.5735268612
 10
669.4553433095
 20
103.5486382601
 10
669.7379154685
 20
103.6858967254
 10
669.9207143153
 20
103.9704281725
 10
669.9839307584
 20
104.3713992043
  0
LWPOLYLINE
  5
1AB
330
1F
100
AcDbEntity
  8
0
  6
Continuous
 62
     7
370
    25
100
AcDbPolyline
 90
       20
 70
   128
 43
0.0
 10
666.8019502431
 20
106.2083174559
 10
666.7387338
 20
106.6822766392
 10
666.5559349532
 20
107.1778631424
 10
666.2733627942
 20
107.641372478
 10
665.921638401
 20
108.0225762174
 10
665.5388765691
 20
108.2801650205
 10
665.1665554822
 20
108.3862251436
 10
664.8450219072
 20
108.3292633265
 10
664.6091189961
 20
108.1154522661
 10
664.4844104897
 20
107.7679617084
 10
664.4844104897
 20
107.3244476472
 10
664.6091189961
 20
106.8329717127
 10
664.8450219072
 20
106.3467929487
 10
665.1665554822
 20
105.9185963679
 10
665.5388765691
 20
105.5947837141
 10
665.921638401
 20
105.4104451128
 10
666.2733627942
 20
105.3855565117
 10
666.5559349532
 20
105.522814977
 10
666.7387338
 20
105.8073464241
 10
666.8019502431
 20
106.2083174559
  0
LWPOLYLINE
  5
1AC
330
1F
100
AcDbEntity
  8
0
  6
Continuous
 62
     7
370
    25
100
AcDbPolyline
 90
       20
 70
   128
 43
0.0
 10
663.6199697277
 20
108.0452357075
 10
663.5567532846
 20
108.5191948908
 10
663.3739544379
 20
109.014781394
 10
663.0913822789
 20
109.4782907296
 10
662.7396578856
 20
109.859494469
 10
662.3568960537
 20
110.1170832721
 10
661.9845749668
 20
110.2231433952
 10
661.6630413919
 20
110.1661815781
 10
661.4271384807
 20
109.9523705177
 10
661.3024299743
 20
109.60487996
 10
661.3024299743
 20
109.1613658988
 10
661.4271384807
 20
108.6698899643
 10
661.6630413919
 20
108.1837112003
 10
661.9845749668
 20
107.7555146195
 10
662.3568960537
 20
107.4317019657
 10
662.7396578856
 20
107.2473633644
 10
663.0913822789
 20
107.2224747633
 10
663.3739544379
 20
107.3597332286
 10
663.5567532846
 20
107.6442646757
 10
663.6199697277
 20
108.0452357075
  0
LWPOLYLINE
  5
1AD
330
1F
100
AcDbEntity
  8
0
  6
Continuous
 62
     7
370
    25
100
AcDbPolyline
 90
       20
 70
   128
 43
0.0
 10
660.4379892124
 20
109.8821539591
 10
660.3747727693
 20
110.3561131424
 10
660.1919739225
 20
110.8516996456
 10
659.9094017635
 20
111.3152089812
 10
659.5576773703
 20
111.6964127206
 10
659.1749155384
 20
111.9540015237
 10
658.8025944515
 20
112.0600616468
 10
658.4810608765
 20
112.0030998297
 10
658.2451579654
 20
111.7892887693
 10
658.120449459
 20
111.4417982116
 10
658.120449459
 20
110.9982841504
 10
658.2451579654
 20
110.5068082159
 10
658.4810608765
 20
110.0206294519
 10
658.8025944515
 20
109.5924328711
 10
659.1749155384
 20
109.2686202173
 10
659.5576773703
 20
109.084281616
 10
659.9094017635
 20
109.0593930149
 10
660.1919739225
 20
109.1966514802
 10
660.3747727693
 20
109.4811829273
 10
660.4379892124
 20
109.8821539591
  0
LWPOLYLINE
  5
1AE
330
1F
100
AcDbEntity
  8
0
  6
Continuous
 62
     7
370
    25
100
AcDbPolyline
 90
       20
 70
   128
 43
0.0
 10
657.2560086971
 20
111.7190722107
 10
657.192792254
 20
112.193031394
 10
657.0099934072
 20
112.6886178972
 10
656.7274212482
 20
113.1521272328
 10
656.375696855
 20
113.5333309722
 10
655.9929350231
 20
113.7909197753
 10
655.6206139362
 20
113.8969798984
 10
655.2990803612
 20
113.8400180813
 10
655.0631774501
 20
113.6262070209
 10
654.9384689436
 20
113.2787164632
 10
654.9384689436
 20
112.835202402
 10
655.0631774501
 20
112.3437264675
 10
655.2990803612
 20
111.8575477035
 10
655.6206139362
 20
111.4293511227
 10
655.9929350231
 20
111.1055384689
 10
656.375696855
 20
110.9211998676
 10
656.7274212482
 20
110.8963112665
 10
657.0099934072
 20
111.0335697318
 10
657.192792254
 20
111.3181011789
 10
657.2560086971
 20
111.7190722107
  0
LWPOLYLINE
  5
1AF
330
1F
100
AcDbEntity
  8
0
  6
Continuous
 62
     7
370
    25
100
AcDbPolyline
 90
       20
 70
   128
 43
0.0
 10
654.0740281817
 20
113.5559904623
 10
654.0108117386
 20
114.0299496456
 10
653.8280128918
 20
114.5255361488
 10
653.5454407328
 20
114.9890454844
 10
653.1937163396
 20
115.3702492238
 10
652.8109545077
 20
115.6278380269
 10
652.4386334208
 20
115.73389815
 10
652.1170998458
 20
115.6769363329
 10
651.8811969347
 20
115.4631252725
 10
651.7564884283
 20
115.1156347148
 10
651.7564884283
 20
114.6721206536
 10
651.8811969347
 20
114.1806447191
 10
652.1170998458
 20
113.6944659551
 10
652.4386334208
 20
113.2662693743
 10
652.8109545077
 20
112.9424567205
 10
653.1937163396
 20
112.7581181192
 10
653.5454407328
 20
112.7332295181
 10
653.8280128918
 20
112.8704879834
 10
654.0108117386
 20
113.1550194305
 10
654.0740281817
 20
113.5559904623
  0
LWPOLYLINE
  5
1B0
330
1F
100
AcDbEntity
  8
0
  6
Continuous
 62
     7
370
    25
100
AcDbPolyline
 90
       20
 70
   128
 43
0.0
 10
650.8920476664
 20
115.3929087139
 10
650.8288312233
 20
115.8668678972
 10
650.6460323765
 20
116.3624544004
 10
650.3634602175
 20
116.825963736
 10
650.0117358243
 20
117.2071674754
 10
649.6289739924
 20
117.4647562785
 10
649.2566529055
 20
117.5708164016
 10
648.9351193305
 20
117.5138545845
 10
648.6992164194
 20
117.3000435241
 10
648.574507913
 20
116.9525529664
 10
648.574507913
 20
116.5090389052
 10
648.6992164194
 20
116.0175629707
 10
648.9351193305
 20
115.5313842067
 10
649.2566529055
 20
115.1031876259
 10
649.6289739924
 20
114.7793749721
 10
650.0117358243
 20
114.5950363708
 10
650.3634602175
 20
114.5701477697
 10
650.6460323765
 20
114.707406235
 10
650.8288312233
 20
114.9919376821
 10
650.8920476664
 20
115.3929087139
  0
LWPOLYLINE
  5
1B1
330
1F
100
AcDbEntity
  8
0
  6
Continuous
 62
     7
370
    25
100
AcDbPolyline
 90
       20
 70
   128
 43
0.0
 10
647.710067151
 20
117.2298269655
 10
647.6468507079
 20
117.7037861488
 10
647.4640518612
 20
118.199372652
 10
647.1814797022
 20
118.6628819876
 10
646.8297553089
 20
119.044085727
 10
646.446993477
 20
119.3016745301
 10
646.0746723901
 20
119.4077346532
 10
645.7531388152
 20
119.3507728361
 10
645.517235904
 20
119.1369617757
 10
645.3925273976
 20
118.789471218
 10
645.3925273976
 20
118.3459571568
 10
645.517235904
 20
117.8544812223
 10
645.7531388152
 20
117.3683024583
 10
646.0746723901
 20
116.9401058775
 10
646.446993477
 20
116.6162932237
 10
646.8297553089
 20
116.4319546224
 10
647.1814797022
 20
116.4070660213
 10
647.4640518612
 20
116.5443244866
 10
647.6468507079
 20
116.8288559337
 10
647.710067151
 20
117.2298269655
  0
LWPOLYLINE
  5
1B2
330
1F
100
AcDbEntity
  8
0
  6
Continuous
 62
     7
370
    25
100
AcDbPolyline
 90
       20
 70
   128
 43
0.0
 10
644.5280866357
 20
119.0667452171
 10
644.4648701926
 20
119.5407044004
 10
644.2820713458
 20
120.0362909036
 10
643.9994991868
 20
120.4998002392
 10
643.6477747936
 20
120.8810039786
 10
643.2650129617
 20
121.1385927817
 10
642.8926918748
 20
121.2446529048
 10
642.5711582998
 20
121.1876910877
 10
642.3352553887
 20
120.9738800273
 10
642.2105468823
 20
120.6263894696
 10
642.2105468823
 20
120.1828754084
 10
642.3352553887
 20
119.6913994739
 10
642.5711582998
 20
119.2052207099
 10
642.8926918748
 20
118.7770241291
 10
643.2650129617
 20
118.4532114753
 10
643.6477747936
 20
118.268872874
 10
643.9994991868
 20
118.2439842729
 10
644.2820713458
 20
118.3812427382
 10
644.4648701926
 20
118.6657741853
 10
644.5280866357
 20
119.0667452171
  0
LWPOLYLINE
  5
1B3
330
1F
100
AcDbEntity
  8
0
  6
Continuous
 62
     7
370
    25
100
AcDbPolyline
 90
       20
 70
   128
 43
0.0
 10
641.3461061204
 20
120.9036634687
 10
641.2828896773
 20
121.377622652
 10
641.1000908305
 20
121.8732091552
 10
640.8175186715
 20
122.3367184908
 10
640.4657942783
 20
122.7179222302
 10
640.0830324464
 20
122.9755110333
 10
639.7107113595
 20
123.0815711564
 10
639.3891777845
 20
123.0246093393
 10
639.1532748734
 20
122.8107982789
 10
639.0285663669
 20
122.4633077212
 10
639.0285663669
 20
122.01979366
 10
639.1532748734
 20
121.5283177255
 10
639.3891777845
 20
121.0421389615
 10
639.7107113595
 20
120.6139423807
 10
640.0830324464
 20
120.2901297269
 10
640.4657942783
 20
120.1057911256
 10
640.8175186715
 20
120.0809025245
 10
641.1000908305
 20
120.2181609898
 10
641.2828896773
 20
120.5026924369
 10
641.3461061204
 20
120.9036634687
  0
LWPOLYLINE
  5
1B4
330
1F
100
AcDbEntity
  8
0
  6
Continuous
 62
     7
370
    25
100
AcDbPolyline
 90
       20
 70
   128
 43
0.0
 10
638.164125605
 20
122.7405817203
 10
638.1009091619
 20
123.2145409036
 10
637.9181103151
 20
123.7101274068
 10
637.6355381561
 20
124.1736367424
 10
637.2838137629
 20
124.5548404818
 10
636.901051931
 20
124.8124292849
 10
636.5287308441
 20
124.918489408
 10
636.2071972691
 20
124.8615275909
 10
635.971294358
 20
124.6477165305
 10
635.8465858516
 20
124.3002259728
 10
635.8465858516
 20
123.8567119116
 10
635.971294358
 20
123.3652359771
 10
636.2071972691
 20
122.8790572131
 10
636.5287308441
 20
122.4508606323
 10
636.901051931
 20
122.1270479785
 10
637.2838137629
 20
121.9427093772
 10
637.6355381561
 20
121.9178207761
 10
637.9181103151
 20
122.0550792414
 10
638.1009091619
 20
122.3396106885
 10
638.164125605
 20
122.7405817203
  0
LWPOLYLINE
  5
1B5
330
1F
100
AcDbEntity
  8
0
  6
Continuous
 62
     7
370
    25
100
AcDbPolyline
 90
       20
 70
   128
 43
0.0
 10
634.9821450897
 20
124.5774999719
 10
634.9189286466
 20
125.0514591552
 10
634.7361297998
 20
125.5470456584
 10
634.4535576408
 20
126.010554994
 10
634.1018332476
 20
126.3917587334
 10
633.7190714157
 20
126.6493475365
 10
633.3467503288
 20
126.7554076596
 10
633.0252167538
 20
126.6984458425
 10
632.7893138427
 20
126.4846347821
 10
632.6646053363
 20
126.1371442244
 10
632.6646053363
 20
125.6936301632
 10
632.7893138427
 20
125.2021542287
 10
633.0252167538
 20
124.7159754647
 10
633.3467503288
 20
124.2877788839
 10
633.7190714157
 20
123.9639662301
 10
634.1018332476
 20
123.7796276288
 10
634.4535576408
 20
123.7547390277
 10
634.7361297998
 20
123.891997493
 10
634.9189286466
 20
124.1765289401
 10
634.9821450897
 20
124.5774999719
  0
LWPOLYLINE
  5
1B6
330
1F
100
AcDbEntity
  8
0
  6
Continuous
 62
     7
370
    25
100
AcDbPolyline
 90
       20
 70
   128
 43
0.0
 10
631.8001645743
 20
126.4144182235
 10
631.7369481312
 20
126.8883774068
 10
631.5541492845
 20
127.38396391
 10
631.2715771255
 20
127.8474732456
 10
630.9198527322
 20
128.228676985
 10
630.5370909003
 20
128.4862657881
 10
630.1647698135
 20
128.5923259112
 10
629.8432362385
 20
128.5353640941
 10
629.6073333273
 20
128.3215530337
 10
629.4826248209
 20
127.974062476
 10
629.4826248209
 20
127.5305484148
 10
629.6073333273
 20
127.0390724803
 10
629.8432362385
 20
126.5528937163
 10
630.1647698135
 20
126.1246971355
 10
630.5370909003
 20
125.8008844817
 10
630.9198527322
 20
125.6165458804
 10
631.2715771255
 20
125.5916572793
 10
631.5541492845
 20
125.7289157446
 10
631.7369481312
 20
126.0134471917
 10
631.8001645743
 20
126.4144182235
  0
LWPOLYLINE
  5
1B7
330
1F
100
AcDbEntity
  8
0
  6
Continuous
 62
     7
370
    25
100
AcDbPolyline
 90
       20
 70
   128
 43
0.0
 10
628.618184059
 20
128.2513364751
 10
628.5549676159
 20
128.7252956584
 10
628.3721687691
 20
129.2208821616
 10
628.0895966101
 20
129.6843914972
 10
627.7378722169
 20
130.0655952366
 10
627.355110385
 20
130.3231840397
 10
626.9827892981
 20
130.4292441628
 10
626.6612557231
 20
130.3722823457
 10
626.425352812
 20
130.1584712853
 10
626.3006443056
 20
129.8109807276
 10
626.3006443056
 20
129.3674666664
 10
626.425352812
 20
128.8759907319
 10
626.6612557231
 20
128.3898119679
 10
626.9827892981
 20
127.9616153871
 10
627.355110385
 20
127.6378027333
 10
627.7378722169
 20
127.453464132
 10
628.0895966101
 20
127.4285755309
 10
628.3721687691
 20
127.5658339962
 10
628.5549676159
 20
127.8503654433
 10
628.618184059
 20
128.2513364751
  0
LWPOLYLINE
  5
1B8
330
1F
100
AcDbEntity
  8
0
  6
Continuous
 62
     7
370
    25
100
AcDbPolyline
 90
       20
 70
   128
 43
0.0
 10
625.4362035437
 20
130.0882547267
 10
625.3729871006
 20
130.56221391
 10
625.1901882538
 20
131.0578004132
 10
624.9076160948
 20
131.5213097488
 10
624.5558917016
 20
131.9025134882
 10
624.1731298697
 20
132.1601022913
 10
623.8008087828
 20
132.2661624144
 10
623.4792752078
 20
132.2092005973
 10
623.2433722967
 20
131.9953895369
 10
623.1186637902
 20
131.6478989792
 10
623.1186637902
 20
131.204384918
 10
623.2433722967
 20
130.7129089836
 10
623.4792752078
 20
130.2267302195
 10
623.8008087828
 20
129.7985336387
 10
624.1731298697
 20
129.4747209849
 10
624.5558917016
 20
129.2903823836
 10
624.9076160948
 20
129.2654937825
 10
625.1901882538
 20
129.4027522478
 10
625.3729871006
 20
129.6872836949
 10
625.4362035437
 20
130.0882547267
  0
LWPOLYLINE
  5
1B9
330
1F
100
AcDbEntity
  8
0
  6
Continuous
 62
     7
370
    25
100
AcDbPolyline
 90
       20
 70
   128
 43
0.0
 10
622.2542230283
 20
131.9251729783
 10
622.1910065852
 20
132.3991321616
 10
622.0082077384
 20
132.8947186648
 10
621.7256355794
 20
133.3582280004
 10
621.3739111862
 20
133.7394317398
 10
620.9911493543
 20
133.9970205429
 10
620.6188282674
 20
134.103080666
 10
620.2972946924
 20
134.0461188489
 10
620.0613917813
 20
133.8323077885
 10
619.9366832749
 20
133.4848172308
 10
619.9366832749
 20
133.0413031696
 10
620.0613917813
 20
132.5498272352
 10
620.2972946924
 20
132.0636484711
 10
620.6188282674
 20
131.6354518903
 10
620.9911493543
 20
131.3116392365
 10
621.3739111862
 20
131.1273006352
 10
621.7256355794
 20
131.1024120341
 10
622.0082077384
 20
131.2396704994
 10
622.1910065852
 20
131.5242019466
 10
622.2542230283
 20
131.9251729783
  0
LWPOLYLINE
  5
1BA
330
1F
100
AcDbEntity
  8
0
  6
Continuous
 62
     7
370
    25
100
AcDbPolyline
 90
       20
 70
   128
 43
0.0
 10
619.072242513
 20
133.7620912299
 10
619.0090260699
 20
134.2360504132
 10
618.8262272231
 20
134.7316369164
 10
618.5436550641
 20
135.195146252
 10
618.1919306709
 20
135.5763499915
 10
617.809168839
 20
135.8339387945
 10
617.4368477521
 20
135.9399989176
 10
617.1153141771
 20
135.8830371005
 10
616.879411266
 20
135.6692260401
 10
616.7547027596
 20
135.3217354824
 10
616.7547027596
 20
134.8782214212
 10
616.879411266
 20
134.3867454868
 10
617.1153141771
 20
133.9005667227
 10
617.4368477521
 20
133.4723701419
 10
617.809168839
 20
133.1485574881
 10
618.1919306709
 20
132.9642188868
 10
618.5436550641
 20
132.9393302857
 10
618.8262272231
 20
133.076588751
 10
619.0090260699
 20
133.3611201982
 10
619.072242513
 20
133.7620912299
  0
LWPOLYLINE
  5
1BB
330
1F
100
AcDbEntity
  8
0
  6
Continuous
 62
     7
370
    25
100
AcDbPolyline
 90
       20
 70
   128
 43
0.0
 10
615.8902619976
 20
135.5990094815
 10
615.8270455545
 20
136.0729686648
 10
615.6442467078
 20
136.568555168
 10
615.3616745488
 20
137.0320645036
 10
615.0099501555
 20
137.4132682431
 10
614.6271883237
 20
137.6708570461
 10
614.2548672368
 20
137.7769171692
 10
613.9333336618
 20
137.7199553521
 10
613.6974307506
 20
137.5061442917
 10
613.5727222442
 20
137.158653734
 10
613.5727222442
 20
136.7151396728
 10
613.6974307506
 20
136.2236637384
 10
613.9333336618
 20
135.7374849743
 10
614.2548672368
 20
135.3092883935
 10
614.6271883237
 20
134.9854757397
 10
615.0099501555
 20
134.8011371384
 10
615.3616745488
 20
134.7762485373
 10
615.6442467078
 20
134.9135070026
 10
615.8270455545
 20
135.1980384498
 10
615.8902619976
 20
135.5990094815
  0
LWPOLYLINE
  5
1BC
330
1F
100
AcDbEntity
  8
0
  6
Continuous
 62
     7
370
    25
100
AcDbPolyline
 90
       20
 70
   128
 43
0.0
 10
612.7082814823
 20
137.4359277331
 10
612.6450650392
 20
137.9098869164
 10
612.4622661924
 20
138.4054734196
 10
612.1796940334
 20
138.8689827552
 10
611.8279696402
 20
139.2501864947
 10
611.4452078083
 20
139.5077752977
 10
611.0728867214
 20
139.6138354208
 10
610.7513531464
 20
139.5568736037
 10
610.5154502353
 20
139.3430625433
 10
610.3907417289
 20
138.9955719856
 10
610.3907417289
 20
138.5520579244
 10
610.5154502353
 20
138.06058199
 10
610.7513531464
 20
137.5744032259
 10
611.0728867214
 20
137.1462066451
 10
611.4452078083
 20
136.8223939913
 10
611.8279696402
 20
136.63805539
 10
612.1796940334
 20
136.6131667889
 10
612.4622661924
 20
136.7504252542
 10
612.6450650392
 20
137.0349567014
 10
612.7082814823
 20
137.4359277331
  0
LWPOLYLINE
  5
1BD
330
1F
100
AcDbEntity
  8
0
  6
Continuous
 62
     7
370
    25
100
AcDbPolyline
 90
       20
 70
   128
 43
0.0
 10
609.526300967
 20
139.2728459847
 10
609.4630845239
 20
139.746805168
 10
609.2802856771
 20
140.2423916712
 10
608.9977135181
 20
140.7059010068
 10
608.6459891249
 20
141.0871047463
 10
608.263227293
 20
141.3446935493
 10
607.8909062061
 20
141.4507536724
 10
607.5693726311
 20
141.3937918553
 10
607.33346972
 20
141.179980795
 10
607.2087612135
 20
140.8324902372
 10
607.2087612135
 20
140.388976176
 10
607.33346972
 20
139.8975002416
 10
607.5693726311
 20
139.4113214775
 10
607.8909062061
 20
138.9831248967
 10
608.263227293
 20
138.6593122429
 10
608.6459891249
 20
138.4749736416
 10
608.9977135181
 20
138.4500850405
 10
609.2802856771
 20
138.5873435058
 10
609.4630845239
 20
138.871874953
 10
609.526300967
 20
139.2728459847
  0
LWPOLYLINE
  5
1BE
330
1F
100
AcDbEntity
  8
0
  6
Continuous
 62
     7
370
    25
100
AcDbPolyline
 90
       20
 70
   128
 43
0.0
 10
606.3443204516
 20
141.1097642363
 10
606.2811040085
 20
141.5837234196
 10
606.0983051617
 20
142.0793099228
 10
605.8157330027
 20
142.5428192584
 10
605.4640086095
 20
142.9240229979
 10
605.0812467776
 20
143.1816118009
 10
604.7089256907
 20
143.287671924
 10
604.3873921157
 20
143.2307101069
 10
604.1514892046
 20
143.0168990466
 10
604.0267806982
 20
142.6694084888
 10
604.0267806982
 20
142.2258944276
 10
604.1514892046
 20
141.7344184932
 10
604.3873921157
 20
141.2482397291
 10
604.7089256907
 20
140.8200431483
 10
605.0812467776
 20
140.4962304945
 10
605.4640086095
 20
140.3118918932
 10
605.8157330027
 20
140.2870032921
 10
606.0983051617
 20
140.4242617574
 10
606.2811040085
 20
140.7087932046
 10
606.3443204516
 20
141.1097642363
  0
LWPOLYLINE
  5
1BF
330
1F
100
AcDbEntity
  8
0
  6
Continuous
 62
     7
370
    25
100
AcDbPolyline
 90
       20
 70
   128
 43
0.0
 10
603.1623399363
 20
142.9466824879
 10
603.0991234932
 20
143.4206416712
 10
602.9163246464
 20
143.9162281744
 10
602.6337524874
 20
144.37973751
 10
602.2820280942
 20
144.7609412495
 10
601.8992662623
 20
145.0185300525
 10
601.5269451754
 20
145.1245901756
 10
601.2054116004
 20
145.0676283585
 10
600.9695086893
 20
144.8538172982
 10
600.8448001829
 20
144.5063267404
 10
600.8448001829
 20
144.0628126792
 10
600.9695086893
 20
143.5713367448
 10
601.2054116004
 20
143.0851579807
 10
601.5269451754
 20
142.6569613999
 10
601.8992662623
 20
142.3331487461
 10
602.2820280942
 20
142.1488101448
 10
602.6337524874
 20
142.1239215437
 10
602.9163246464
 20
142.261180009
 10
603.0991234932
 20
142.5457114562
 10
603.1623399363
 20
142.9466824879
  0
LWPOLYLINE
  5
1C0
330
1F
100
AcDbEntity
  8
0
  6
Continuous
 62
     7
370
    25
100
AcDbPolyline
 90
       20
 70
   128
 43
0.0
 10
669.9839307584
 20
108.0458328578
 10
669.9207143153
 20
108.5197920411
 10
669.7379154685
 20
109.0153785443
 10
669.4553433095
 20
109.4788878799
 10
669.1036189163
 20
109.8600916193
 10
668.7208570844
 20
110.1176804224
 10
668.3485359975
 20
110.2237405454
 10
668.0270024225
 20
110.1667787284
 10
667.7910995114
 20
109.952967668
 10
667.666391005
 20
109.6054771103
 10
667.666391005
 20
109.161963049
 10
667.7910995114
 20
108.6704871146
 10
668.0270024225
 20
108.1843083506
 10
668.3485359975
 20
107.7561117698
 10
668.7208570844
 20
107.432299116
 10
669.1036189163
 20
107.2479605147
 10
669.4553433095
 20
107.2230719136
 10
669.7379154685
 20
107.3603303789
 10
669.9207143153
 20
107.644861826
 10
669.9839307584
 20
108.0458328578
  0
LWPOLYLINE
  5
1C1
330
1F
100
AcDbEntity
  8
0
  6
Continuous
 62
     7
370
    25
100
AcDbPolyline
 90
       20
 70
   128
 43
0.0
 10
666.8019502431
 20
109.8827511094
 10
666.7387338
 20
110.3567102927
 10
666.5559349532
 20
110.8522967959
 10
666.2733627942
 20
111.3158061315
 10
665.921638401
 20
111.6970098709
 10
665.5388765691
 20
111.954598674
 10
665.1665554822
 20
112.060658797
 10
664.8450219072
 20
112.00369698
 10
664.6091189961
 20
111.7898859196
 10
664.4844104897
 20
111.4423953619
 10
664.4844104897
 20
110.9988813006
 10
664.6091189961
 20
110.5074053662
 10
664.8450219072
 20
110.0212266022
 10
665.1665554822
 20
109.5930300214
 10
665.5388765691
 20
109.2692173676
 10
665.921638401
 20
109.0848787663
 10
666.2733627942
 20
109.0599901652
 10
666.5559349532
 20
109.1972486305
 10
666.7387338
 20
109.4817800776
 10
666.8019502431
 20
109.8827511094
  0
LWPOLYLINE
  5
1C2
330
1F
100
AcDbEntity
  8
0
  6
Continuous
 62
     7
370
    25
100
AcDbPolyline
 90
       20
 70
   128
 43
0.0
 10
663.6199697277
 20
111.719669361
 10
663.5567532846
 20
112.1936285443
 10
663.3739544379
 20
112.6892150475
 10
663.0913822789
 20
113.1527243831
 10
662.7396578856
 20
113.5339281225
 10
662.3568960537
 20
113.7915169256
 10
661.9845749668
 20
113.8975770486
 10
661.6630413919
 20
113.8406152316
 10
661.4271384807
 20
113.6268041712
 10
661.3024299743
 20
113.2793136135
 10
661.3024299743
 20
112.8357995522
 10
661.4271384807
 20
112.3443236178
 10
661.6630413919
 20
111.8581448538
 10
661.9845749668
 20
111.429948273
 10
662.3568960537
 20
111.1061356192
 10
662.7396578856
 20
110.9217970179
 10
663.0913822789
 20
110.8969084168
 10
663.3739544379
 20
111.0341668821
 10
663.5567532846
 20
111.3186983292
 10
663.6199697277
 20
111.719669361
  0
LWPOLYLINE
  5
1C3
330
1F
100
AcDbEntity
  8
0
  6
Continuous
 62
     7
370
    25
100
AcDbPolyline
 90
       20
 70
   128
 43
0.0
 10
660.4379892124
 20
113.5565876126
 10
660.3747727693
 20
114.0305467959
 10
660.1919739225
 20
114.5261332991
 10
659.9094017635
 20
114.9896426347
 10
659.5576773703
 20
115.3708463741
 10
659.1749155384
 20
115.6284351772
 10
658.8025944515
 20
115.7344953002
 10
658.4810608765
 20
115.6775334832
 10
658.2451579654
 20
115.4637224228
 10
658.120449459
 20
115.1162318651
 10
658.120449459
 20
114.6727178038
 10
658.2451579654
 20
114.1812418694
 10
658.4810608765
 20
113.6950631054
 10
658.8025944515
 20
113.2668665246
 10
659.1749155384
 20
112.9430538708
 10
659.5576773703
 20
112.7587152695
 10
659.9094017635
 20
112.7338266684
 10
660.1919739225
 20
112.8710851337
 10
660.3747727693
 20
113.1556165808
 10
660.4379892124
 20
113.5565876126
  0
LWPOLYLINE
  5
1C4
330
1F
100
AcDbEntity
  8
0
  6
Continuous
 62
     7
370
    25
100
AcDbPolyline
 90
       20
 70
   128
 43
0.0
 10
657.2560086971
 20
115.3935058642
 10
657.192792254
 20
115.8674650475
 10
657.0099934072
 20
116.3630515507
 10
656.7274212482
 20
116.8265608863
 10
656.375696855
 20
117.2077646257
 10
655.9929350231
 20
117.4653534288
 10
655.6206139362
 20
117.5714135518
 10
655.2990803612
 20
117.5144517348
 10
655.0631774501
 20
117.3006406744
 10
654.9384689436
 20
116.9531501167
 10
654.9384689436
 20
116.5096360554
 10
655.0631774501
 20
116.018160121
 10
655.2990803612
 20
115.531981357
 10
655.6206139362
 20
115.1037847762
 10
655.9929350231
 20
114.7799721224
 10
656.375696855
 20
114.5956335211
 10
656.7274212482
 20
114.57074492
 10
657.0099934072
 20
114.7080033853
 10
657.192792254
 20
114.9925348324
 10
657.2560086971
 20
115.3935058642
  0
LWPOLYLINE
  5
1C5
330
1F
100
AcDbEntity
  8
0
  6
Continuous
 62
     7
370
    25
100
AcDbPolyline
 90
       20
 70
   128
 43
0.0
 10
654.0740281817
 20
117.2304241158
 10
654.0108117386
 20
117.7043832991
 10
653.8280128918
 20
118.1999698023
 10
653.5454407328
 20
118.6634791379
 10
653.1937163396
 20
119.0446828773
 10
652.8109545077
 20
119.3022716804
 10
652.4386334208
 20
119.4083318034
 10
652.1170998458
 20
119.3513699864
 10
651.8811969347
 20
119.137558926
 10
651.7564884283
 20
118.7900683683
 10
651.7564884283
 20
118.346554307
 10
651.8811969347
 20
117.8550783726
 10
652.1170998458
 20
117.3688996086
 10
652.4386334208
 20
116.9407030278
 10
652.8109545077
 20
116.616890374
 10
653.1937163396
 20
116.4325517727
 10
653.5454407328
 20
116.4076631716
 10
653.8280128918
 20
116.5449216369
 10
654.0108117386
 20
116.829453084
 10
654.0740281817
 20
117.2304241158
  0
LWPOLYLINE
  5
1C6
330
1F
100
AcDbEntity
  8
0
  6
Continuous
 62
     7
370
    25
100
AcDbPolyline
 90
       20
 70
   128
 43
0.0
 10
650.8920476664
 20
119.0673423674
 10
650.8288312233
 20
119.5413015507
 10
650.6460323765
 20
120.0368880539
 10
650.3634602175
 20
120.5003973895
 10
650.0117358243
 20
120.8816011289
 10
649.6289739924
 20
121.139189932
 10
649.2566529055
 20
121.2452500551
 10
648.9351193305
 20
121.188288238
 10
648.6992164194
 20
120.9744771776
 10
648.574507913
 20
120.6269866199
 10
648.574507913
 20
120.1834725586
 10
648.6992164194
 20
119.6919966242
 10
648.9351193305
 20
119.2058178602
 10
649.2566529055
 20
118.7776212794
 10
649.6289739924
 20
118.4538086256
 10
650.0117358243
 20
118.2694700243
 10
650.3634602175
 20
118.2445814232
 10
650.6460323765
 20
118.3818398885
 10
650.8288312233
 20
118.6663713356
 10
650.8920476664
 20
119.0673423674
  0
LWPOLYLINE
  5
1C7
330
1F
100
AcDbEntity
  8
0
  6
Continuous
 62
     7
370
    25
100
AcDbPolyline
 90
       20
 70
   128
 43
0.0
 10
647.710067151
 20
120.904260619
 10
647.6468507079
 20
121.3782198023
 10
647.4640518612
 20
121.8738063055
 10
647.1814797022
 20
122.3373156411
 10
646.8297553089
 20
122.7185193805
 10
646.446993477
 20
122.9761081836
 10
646.0746723901
 20
123.0821683067
 10
645.7531388152
 20
123.0252064896
 10
645.517235904
 20
122.8113954292
 10
645.3925273976
 20
122.4639048715
 10
645.3925273976
 20
122.0203908102
 10
645.517235904
 20
121.5289148758
 10
645.7531388152
 20
121.0427361118
 10
646.0746723901
 20
120.614539531
 10
646.446993477
 20
120.2907268772
 10
646.8297553089
 20
120.1063882759
 10
647.1814797022
 20
120.0814996748
 10
647.4640518612
 20
120.2187581401
 10
647.6468507079
 20
120.5032895872
 10
647.710067151
 20
120.904260619
  0
LWPOLYLINE
  5
1C8
330
1F
100
AcDbEntity
  8
0
  6
Continuous
 62
     7
370
    25
100
AcDbPolyline
 90
       20
 70
   128
 43
0.0
 10
644.5280866357
 20
122.7411788706
 10
644.4648701926
 20
123.2151380539
 10
644.2820713458
 20
123.7107245571
 10
643.9994991868
 20
124.1742338927
 10
643.6477747936
 20
124.5554376321
 10
643.2650129617
 20
124.8130264352
 10
642.8926918748
 20
124.9190865583
 10
642.5711582998
 20
124.8621247412
 10
642.3352553887
 20
124.6483136808
 10
642.2105468823
 20
124.3008231231
 10
642.2105468823
 20
123.8573090618
 10
642.3352553887
 20
123.3658331274
 10
642.5711582998
 20
122.8796543634
 10
642.8926918748
 20
122.4514577826
 10
643.2650129617
 20
122.1276451288
 10
643.6477747936
 20
121.9433065275
 10
643.9994991868
 20
121.9184179264
 10
644.2820713458
 20
122.0556763917
 10
644.4648701926
 20
122.3402078388
 10
644.5280866357
 20
122.7411788706
  0
LWPOLYLINE
  5
1C9
330
1F
100
AcDbEntity
  8
0
  6
Continuous
 62
     7
370
    25
100
AcDbPolyline
 90
       20
 70
   128
 43
0.0
 10
641.3461061204
 20
124.5780971222
 10
641.2828896773
 20
125.0520563055
 10
641.1000908305
 20
125.5476428087
 10
640.8175186715
 20
126.0111521443
 10
640.4657942783
 20
126.3923558837
 10
640.0830324464
 20
126.6499446868
 10
639.7107113595
 20
126.7560048099
 10
639.3891777845
 20
126.6990429928
 10
639.1532748734
 20
126.4852319324
 10
639.0285663669
 20
126.1377413747
 10
639.0285663669
 20
125.6942273135
 10
639.1532748734
 20
125.202751379
 10
639.3891777845
 20
124.716572615
 10
639.7107113595
 20
124.2883760342
 10
640.0830324464
 20
123.9645633804
 10
640.4657942783
 20
123.7802247791
 10
640.8175186715
 20
123.755336178
 10
641.1000908305
 20
123.8925946433
 10
641.2828896773
 20
124.1771260904
 10
641.3461061204
 20
124.5780971222
  0
LWPOLYLINE
  5
1CA
330
1F
100
AcDbEntity
  8
0
  6
Continuous
 62
     7
370
    25
100
AcDbPolyline
 90
       20
 70
   128
 43
0.0
 10
638.164125605
 20
126.4150153738
 10
638.1009091619
 20
126.8889745571
 10
637.9181103151
 20
127.3845610603
 10
637.6355381561
 20
127.8480703959
 10
637.2838137629
 20
128.2292741353
 10
636.901051931
 20
128.4868629384
 10
636.5287308441
 20
128.5929230615
 10
636.2071972691
 20
128.5359612444
 10
635.971294358
 20
128.322150184
 10
635.8465858516
 20
127.9746596263
 10
635.8465858516
 20
127.5311455651
 10
635.971294358
 20
127.0396696306
 10
636.2071972691
 20
126.5534908666
 10
636.5287308441
 20
126.1252942858
 10
636.901051931
 20
125.801481632
 10
637.2838137629
 20
125.6171430307
 10
637.6355381561
 20
125.5922544296
 10
637.9181103151
 20
125.7295128949
 10
638.1009091619
 20
126.014044342
 10
638.164125605
 20
126.4150153738
  0
LWPOLYLINE
  5
1CB
330
1F
100
AcDbEntity
  8
0
  6
Continuous
 62
     7
370
    25
100
AcDbPolyline
 90
       20
 70
   128
 43
0.0
 10
634.9821450897
 20
128.2519336254
 10
634.9189286466
 20
128.7258928087
 10
634.7361297998
 20
129.2214793119
 10
634.4535576408
 20
129.6849886475
 10
634.1018332476
 20
130.0661923869
 10
633.7190714157
 20
130.32378119
 10
633.3467503288
 20
130.4298413131
 10
633.0252167538
 20
130.372879496
 10
632.7893138427
 20
130.1590684356
 10
632.6646053363
 20
129.8115778779
 10
632.6646053363
 20
129.3680638167
 10
632.7893138427
 20
128.8765878822
 10
633.0252167538
 20
128.3904091182
 10
633.3467503288
 20
127.9622125374
 10
633.7190714157
 20
127.6383998836
 10
634.1018332476
 20
127.4540612823
 10
634.4535576408
 20
127.4291726812
 10
634.7361297998
 20
127.5664311465
 10
634.9189286466
 20
127.8509625936
 10
634.9821450897
 20
128.2519336254
  0
LWPOLYLINE
  5
1CC
330
1F
100
AcDbEntity
  8
0
  6
Continuous
 62
     7
370
    25
100
AcDbPolyline
 90
       20
 70
   128
 43
0.0
 10
631.8001645743
 20
130.088851877
 10
631.7369481312
 20
130.5628110603
 10
631.5541492845
 20
131.0583975635
 10
631.2715771255
 20
131.5219068991
 10
630.9198527322
 20
131.9031106385
 10
630.5370909003
 20
132.1606994416
 10
630.1647698135
 20
132.2667595647
 10
629.8432362385
 20
132.2097977476
 10
629.6073333273
 20
131.9959866872
 10
629.4826248209
 20
131.6484961295
 10
629.4826248209
 20
131.2049820683
 10
629.6073333273
 20
130.7135061338
 10
629.8432362385
 20
130.2273273698
 10
630.1647698135
 20
129.799130789
 10
630.5370909003
 20
129.4753181352
 10
630.9198527322
 20
129.2909795339
 10
631.2715771255
 20
129.2660909328
 10
631.5541492845
 20
129.4033493981
 10
631.7369481312
 20
129.6878808452
 10
631.8001645743
 20
130.088851877
  0
LWPOLYLINE
  5
1CD
330
1F
100
AcDbEntity
  8
0
  6
Continuous
 62
     7
370
    25
100
AcDbPolyline
 90
       20
 70
   128
 43
0.0
 10
628.618184059
 20
131.9257701286
 10
628.5549676159
 20
132.3997293119
 10
628.3721687691
 20
132.8953158151
 10
628.0895966101
 20
133.3588251507
 10
627.7378722169
 20
133.7400288901
 10
627.355110385
 20
133.9976176932
 10
626.9827892981
 20
134.1036778163
 10
626.6612557231
 20
134.0467159992
 10
626.425352812
 20
133.8329049388
 10
626.3006443056
 20
133.4854143811
 10
626.3006443056
 20
133.0419003199
 10
626.425352812
 20
132.5504243854
 10
626.6612557231
 20
132.0642456214
 10
626.9827892981
 20
131.6360490406
 10
627.355110385
 20
131.3122363868
 10
627.7378722169
 20
131.1278977855
 10
628.0895966101
 20
131.1030091844
 10
628.3721687691
 20
131.2402676497
 10
628.5549676159
 20
131.5247990968
 10
628.618184059
 20
131.9257701286
  0
LWPOLYLINE
  5
1CE
330
1F
100
AcDbEntity
  8
0
  6
Continuous
 62
     7
370
    25
100
AcDbPolyline
 90
       20
 70
   128
 43
0.0
 10
625.4362035437
 20
133.7626883802
 10
625.3729871006
 20
134.2366475635
 10
625.1901882538
 20
134.7322340667
 10
624.9076160948
 20
135.1957434023
 10
624.5558917016
 20
135.5769471417
 10
624.1731298697
 20
135.8345359448
 10
623.8008087828
 20
135.9405960679
 10
623.4792752078
 20
135.8836342508
 10
623.2433722967
 20
135.6698231904
 10
623.1186637902
 20
135.3223326327
 10
623.1186637902
 20
134.8788185715
 10
623.2433722967
 20
134.387342637
 10
623.4792752078
 20
133.901163873
 10
623.8008087828
 20
133.4729672922
 10
624.1731298697
 20
133.1491546384
 10
624.5558917016
 20
132.9648160371
 10
624.9076160948
 20
132.939927436
 10
625.1901882538
 20
133.0771859013
 10
625.3729871006
 20
133.3617173484
 10
625.4362035437
 20
133.7626883802
  0
LWPOLYLINE
  5
1CF
330
1F
100
AcDbEntity
  8
0
  6
Continuous
 62
     7
370
    25
100
AcDbPolyline
 90
       20
 70
   128
 43
0.0
 10
622.2542230283
 20
135.5996066318
 10
622.1910065852
 20
136.0735658151
 10
622.0082077384
 20
136.5691523183
 10
621.7256355794
 20
137.0326616539
 10
621.3739111862
 20
137.4138653933
 10
620.9911493543
 20
137.6714541964
 10
620.6188282674
 20
137.7775143195
 10
620.2972946924
 20
137.7205525024
 10
620.0613917813
 20
137.506741442
 10
619.9366832749
 20
137.1592508843
 10
619.9366832749
 20
136.7157368231
 10
620.0613917813
 20
136.2242608886
 10
620.2972946924
 20
135.7380821246
 10
620.6188282674
 20
135.3098855438
 10
620.9911493543
 20
134.98607289
 10
621.3739111862
 20
134.8017342887
 10
621.7256355794
 20
134.7768456876
 10
622.0082077384
 20
134.9141041529
 10
622.1910065852
 20
135.1986356
 10
622.2542230283
 20
135.5996066318
  0
LWPOLYLINE
  5
1D0
330
1F
100
AcDbEntity
  8
0
  6
Continuous
 62
     7
370
    25
100
AcDbPolyline
 90
       20
 70
   128
 43
0.0
 10
619.072242513
 20
137.4365248834
 10
619.0090260699
 20
137.9104840667
 10
618.8262272231
 20
138.4060705699
 10
618.5436550641
 20
138.8695799055
 10
618.1919306709
 20
139.2507836449
 10
617.809168839
 20
139.508372448
 10
617.4368477521
 20
139.6144325711
 10
617.1153141771
 20
139.557470754
 10
616.879411266
 20
139.3436596936
 10
616.7547027596
 20
138.9961691359
 10
616.7547027596
 20
138.5526550747
 10
616.879411266
 20
138.0611791402
 10
617.1153141771
 20
137.5750003762
 10
617.4368477521
 20
137.1468037954
 10
617.809168839
 20
136.8229911416
 10
618.1919306709
 20
136.6386525403
 10
618.5436550641
 20
136.6137639392
 10
618.8262272231
 20
136.7510224045
 10
619.0090260699
 20
137.0355538516
 10
619.072242513
 20
137.4365248834
  0
LWPOLYLINE
  5
1D1
330
1F
100
AcDbEntity
  8
0
  6
Continuous
 62
     7
370
    25
100
AcDbPolyline
 90
       20
 70
   128
 43
0.0
 10
615.8902619976
 20
139.273443135
 10
615.8270455545
 20
139.7474023183
 10
615.6442467078
 20
140.2429888215
 10
615.3616745488
 20
140.7064981571
 10
615.0099501555
 20
141.0877018965
 10
614.6271883237
 20
141.3452906996
 10
614.2548672368
 20
141.4513508227
 10
613.9333336618
 20
141.3943890056
 10
613.6974307506
 20
141.1805779452
 10
613.5727222442
 20
140.8330873875
 10
613.5727222442
 20
140.3895733263
 10
613.6974307506
 20
139.8980973918
 10
613.9333336618
 20
139.4119186278
 10
614.2548672368
 20
138.983722047
 10
614.6271883237
 20
138.6599093932
 10
615.0099501555
 20
138.4755707919
 10
615.3616745488
 20
138.4506821908
 10
615.6442467078
 20
138.5879406561
 10
615.8270455545
 20
138.8724721032
 10
615.8902619976
 20
139.273443135
  0
LWPOLYLINE
  5
1D2
330
1F
100
AcDbEntity
  8
0
  6
Continuous
 62
     7
370
    25
100
AcDbPolyline
 90
       20
 70
   128
 43
0.0
 10
612.7082814823
 20
141.1103613866
 10
612.6450650392
 20
141.5843205699
 10
612.4622661924
 20
142.0799070731
 10
612.1796940334
 20
142.5434164087
 10
611.8279696402
 20
142.9246201481
 10
611.4452078083
 20
143.1822089512
 10
611.0728867214
 20
143.2882690743
 10
610.7513531464
 20
143.2313072572
 10
610.5154502353
 20
143.0174961968
 10
610.3907417289
 20
142.6700056391
 10
610.3907417289
 20
142.2264915779
 10
610.5154502353
 20
141.7350156434
 10
610.7513531464
 20
141.2488368794
 10
611.0728867214
 20
140.8206402986
 10
611.4452078083
 20
140.4968276448
 10
611.8279696402
 20
140.3124890435
 10
612.1796940334
 20
140.2876004424
 10
612.4622661924
 20
140.4248589077
 10
612.6450650392
 20
140.7093903548
 10
612.7082814823
 20
141.1103613866
  0
LWPOLYLINE
  5
1D3
330
1F
100
AcDbEntity
  8
0
  6
Continuous
 62
     7
370
    25
100
AcDbPolyline
 90
       20
 70
   128
 43
0.0
 10
609.526300967
 20
142.9472796382
 10
609.4630845239
 20
143.4212388215
 10
609.2802856771
 20
143.9168253247
 10
608.9977135181
 20
144.3803346603
 10
608.6459891249
 20
144.7615383997
 10
608.263227293
 20
145.0191272028
 10
607.8909062061
 20
145.1251873259
 10
607.5693726311
 20
145.0682255088
 10
607.33346972
 20
144.8544144484
 10
607.2087612135
 20
144.5069238907
 10
607.2087612135
 20
144.0634098295
 10
607.33346972
 20
143.571933895
 10
607.5693726311
 20
143.085755131
 10
607.8909062061
 20
142.6575585502
 10
608.263227293
 20
142.3337458964
 10
608.6459891249
 20
142.1494072951
 10
608.9977135181
 20
142.124518694
 10
609.2802856771
 20
142.2617771593
 10
609.4630845239
 20
142.5463086064
 10
609.526300967
 20
142.9472796382
  0
LWPOLYLINE
  5
1D4
330
1F
100
AcDbEntity
  8
0
  6
Continuous
 62
     7
370
    25
100
AcDbPolyline
 90
       20
 70
   128
 43
0.0
 10
606.3443204516
 20
144.7841978898
 10
606.2811040085
 20
145.2581570731
 10
606.0983051617
 20
145.7537435763
 10
605.8157330027
 20
146.2172529119
 10
605.4640086095
 20
146.5984566513
 10
605.0812467776
 20
146.8560454544
 10
604.7089256907
 20
146.9621055775
 10
604.3873921157
 20
146.9051437604
 10
604.1514892046
 20
146.6913327
 10
604.0267806982
 20
146.3438421423
 10
604.0267806982
 20
145.9003280811
 10
604.1514892046
 20
145.4088521466
 10
604.3873921157
 20
144.9226733826
 10
604.7089256907
 20
144.4944768018
 10
605.0812467776
 20
144.170664148
 10
605.4640086095
 20
143.9863255467
 10
605.8157330027
 20
143.9614369456
 10
606.0983051617
 20
144.0986954109
 10
606.2811040085
 20
144.383226858
 10
606.3443204516
 20
144.7841978898
  0
LWPOLYLINE
  5
1D5
330
1F
100
AcDbEntity
  8
0
  6
Continuous
 62
     7
370
    25
100
AcDbPolyline
 90
       20
 70
   128
 43
0.0
 10
603.1623399363
 20
146.6211161414
 10
603.0991234932
 20
147.0950753247
 10
602.9163246464
 20
147.5906618279
 10
602.6337524874
 20
148.0541711635
 10
602.2820280942
 20
148.4353749029
 10
601.8992662623
 20
148.692963706
 10
601.5269451754
 20
148.7990238291
 10
601.2054116004
 20
148.742062012
 10
600.9695086893
 20
148.5282509516
 10
600.8448001829
 20
148.1807603939
 10
600.8448001829
 20
147.7372463327
 10
600.9695086893
 20
147.2457703982
 10
601.2054116004
 20
146.7595916342
 10
601.5269451754
 20
146.3313950534
 10
601.8992662623
 20
146.0075823996
 10
602.2820280942
 20
145.8232437983
 10
602.6337524874
 20
145.7983551972
 10
602.9163246464
 20
145.9356136625
 10
603.0991234932
 20
146.2201451096
 10
603.1623399363
 20
146.6211161414
  0
LWPOLYLINE
  5
1D6
330
1F
100
AcDbEntity
  8
0
  6
Continuous
 62
     7
370
    25
100
AcDbPolyline
 90
       20
 70
   128
 43
0.0
 10
669.9839307584
 20
111.7202665112
 10
669.9207143153
 20
112.1942256946
 10
669.7379154685
 20
112.6898121978
 10
669.4553433095
 20
113.1533215334
 10
669.1036189163
 20
113.5345252728
 10
668.7208570844
 20
113.7921140759
 10
668.3485359975
 20
113.8981741989
 10
668.0270024225
 20
113.8412123819
 10
667.7910995114
 20
113.6274013215
 10
667.666391005
 20
113.2799107638
 10
667.666391005
 20
112.8363967025
 10
667.7910995114
 20
112.3449207681
 10
668.0270024225
 20
111.8587420041
 10
668.3485359975
 20
111.4305454233
 10
668.7208570844
 20
111.1067327695
 10
669.1036189163
 20
110.9223941682
 10
669.4553433095
 20
110.8975055671
 10
669.7379154685
 20
111.0347640324
 10
669.9207143153
 20
111.3192954795
 10
669.9839307584
 20
111.7202665112
  0
LWPOLYLINE
  5
1D7
330
1F
100
AcDbEntity
  8
0
  6
Continuous
 62
     7
370
    25
100
AcDbPolyline
 90
       20
 70
   128
 43
0.0
 10
666.8019502431
 20
113.5571847628
 10
666.7387338
 20
114.0311439462
 10
666.5559349532
 20
114.5267304494
 10
666.2733627942
 20
114.990239785
 10
665.921638401
 20
115.3714435244
 10
665.5388765691
 20
115.6290323275
 10
665.1665554822
 20
115.7350924505
 10
664.8450219072
 20
115.6781306335
 10
664.6091189961
 20
115.4643195731
 10
664.4844104897
 20
115.1168290154
 10
664.4844104897
 20
114.6733149541
 10
664.6091189961
 20
114.1818390197
 10
664.8450219072
 20
113.6956602557
 10
665.1665554822
 20
113.2674636749
 10
665.5388765691
 20
112.9436510211
 10
665.921638401
 20
112.7593124198
 10
666.2733627942
 20
112.7344238187
 10
666.5559349532
 20
112.871682284
 10
666.7387338
 20
113.1562137311
 10
666.8019502431
 20
113.5571847628
  0
LWPOLYLINE
  5
1D8
330
1F
100
AcDbEntity
  8
0
  6
Continuous
 62
     7
370
    25
100
AcDbPolyline
 90
       20
 70
   128
 43
0.0
 10
663.6199697277
 20
115.3941030144
 10
663.5567532846
 20
115.8680621978
 10
663.3739544379
 20
116.363648701
 10
663.0913822789
 20
116.8271580366
 10
662.7396578856
 20
117.208361776
 10
662.3568960537
 20
117.4659505791
 10
661.9845749668
 20
117.5720107021
 10
661.6630413919
 20
117.5150488851
 10
661.4271384807
 20
117.3012378247
 10
661.3024299743
 20
116.953747267
 10
661.3024299743
 20
116.5102332057
 10
661.4271384807
 20
116.0187572713
 10
661.6630413919
 20
115.5325785073
 10
661.9845749668
 20
115.1043819265
 10
662.3568960537
 20
114.7805692727
 10
662.7396578856
 20
114.5962306714
 10
663.0913822789
 20
114.5713420703
 10
663.3739544379
 20
114.7086005356
 10
663.5567532846
 20
114.9931319827
 10
663.6199697277
 20
115.3941030144
  0
LWPOLYLINE
  5
1D9
330
1F
100
AcDbEntity
  8
0
  6
Continuous
 62
     7
370
    25
100
AcDbPolyline
 90
       20
 70
   128
 43
0.0
 10
660.4379892124
 20
117.231021266
 10
660.3747727693
 20
117.7049804494
 10
660.1919739225
 20
118.2005669526
 10
659.9094017635
 20
118.6640762882
 10
659.5576773703
 20
119.0452800276
 10
659.1749155384
 20
119.3028688307
 10
658.8025944515
 20
119.4089289537
 10
658.4810608765
 20
119.3519671367
 10
658.2451579654
 20
119.1381560763
 10
658.120449459
 20
118.7906655186
 10
658.120449459
 20
118.3471514573
 10
658.2451579654
 20
117.8556755229
 10
658.4810608765
 20
117.3694967589
 10
658.8025944515
 20
116.9413001781
 10
659.1749155384
 20
116.6174875243
 10
659.5576773703
 20
116.433148923
 10
659.9094017635
 20
116.4082603219
 10
660.1919739225
 20
116.5455187872
 10
660.3747727693
 20
116.8300502343
 10
660.4379892124
 20
117.231021266
  0
LWPOLYLINE
  5
1DA
330
1F
100
AcDbEntity
  8
0
  6
Continuous
 62
     7
370
    25
100
AcDbPolyline
 90
       20
 70
   128
 43
0.0
 10
657.2560086971
 20
119.0679395176
 10
657.192792254
 20
119.541898701
 10
657.0099934072
 20
120.0374852042
 10
656.7274212482
 20
120.5009945398
 10
656.375696855
 20
120.8821982792
 10
655.9929350231
 20
121.1397870823
 10
655.6206139362
 20
121.2458472053
 10
655.2990803612
 20
121.1888853883
 10
655.0631774501
 20
120.9750743279
 10
654.9384689436
 20
120.6275837702
 10
654.9384689436
 20
120.1840697089
 10
655.0631774501
 20
119.6925937745
 10
655.2990803612
 20
119.2064150105
 10
655.6206139362
 20
118.7782184297
 10
655.9929350231
 20
118.4544057759
 10
656.375696855
 20
118.2700671746
 10
656.7274212482
 20
118.2451785735
 10
657.0099934072
 20
118.3824370388
 10
657.192792254
 20
118.6669684859
 10
657.2560086971
 20
119.0679395176
  0
LWPOLYLINE
  5
1DB
330
1F
100
AcDbEntity
  8
0
  6
Continuous
 62
     7
370
    25
100
AcDbPolyline
 90
       20
 70
   128
 43
0.0
 10
654.0740281817
 20
120.9048577692
 10
654.0108117386
 20
121.3788169526
 10
653.8280128918
 20
121.8744034558
 10
653.5454407328
 20
122.3379127914
 10
653.1937163396
 20
122.7191165308
 10
652.8109545077
 20
122.9767053339
 10
652.4386334208
 20
123.0827654569
 10
652.1170998458
 20
123.0258036399
 10
651.8811969347
 20
122.8119925795
 10
651.7564884283
 20
122.4645020218
 10
651.7564884283
 20
122.0209879605
 10
651.8811969347
 20
121.5295120261
 10
652.1170998458
 20
121.0433332621
 10
652.4386334208
 20
120.6151366813
 10
652.8109545077
 20
120.2913240275
 10
653.1937163396
 20
120.1069854262
 10
653.5454407328
 20
120.0820968251
 10
653.8280128918
 20
120.2193552904
 10
654.0108117386
 20
120.5038867375
 10
654.0740281817
 20
120.9048577692
  0
LWPOLYLINE
  5
1DC
330
1F
100
AcDbEntity
  8
0
  6
Continuous
 62
     7
370
    25
100
AcDbPolyline
 90
       20
 70
   128
 43
0.0
 10
650.8920476664
 20
122.7417760208
 10
650.8288312233
 20
123.2157352042
 10
650.6460323765
 20
123.7113217074
 10
650.3634602175
 20
124.174831043
 10
650.0117358243
 20
124.5560347824
 10
649.6289739924
 20
124.8136235855
 10
649.2566529055
 20
124.9196837085
 10
648.9351193305
 20
124.8627218915
 10
648.6992164194
 20
124.6489108311
 10
648.574507913
 20
124.3014202734
 10
648.574507913
 20
123.8579062121
 10
648.6992164194
 20
123.3664302777
 10
648.9351193305
 20
122.8802515137
 10
649.2566529055
 20
122.4520549329
 10
649.6289739924
 20
122.1282422791
 10
650.0117358243
 20
121.9439036778
 10
650.3634602175
 20
121.9190150767
 10
650.6460323765
 20
122.056273542
 10
650.8288312233
 20
122.3408049891
 10
650.8920476664
 20
122.7417760208
  0
LWPOLYLINE
  5
1DD
330
1F
100
AcDbEntity
  8
0
  6
Continuous
 62
     7
370
    25
100
AcDbPolyline
 90
       20
 70
   128
 43
0.0
 10
647.710067151
 20
124.5786942724
 10
647.6468507079
 20
125.0526534558
 10
647.4640518612
 20
125.548239959
 10
647.1814797022
 20
126.0117492946
 10
646.8297553089
 20
126.392953034
 10
646.446993477
 20
126.6505418371
 10
646.0746723901
 20
126.7566019601
 10
645.7531388152
 20
126.6996401431
 10
645.517235904
 20
126.4858290827
 10
645.3925273976
 20
126.138338525
 10
645.3925273976
 20
125.6948244637
 10
645.517235904
 20
125.2033485293
 10
645.7531388152
 20
124.7171697653
 10
646.0746723901
 20
124.2889731845
 10
646.446993477
 20
123.9651605307
 10
646.8297553089
 20
123.7808219294
 10
647.1814797022
 20
123.7559333283
 10
647.4640518612
 20
123.8931917936
 10
647.6468507079
 20
124.1777232407
 10
647.710067151
 20
124.5786942724
  0
LWPOLYLINE
  5
1DE
330
1F
100
AcDbEntity
  8
0
  6
Continuous
 62
     7
370
    25
100
AcDbPolyline
 90
       20
 70
   128
 43
0.0
 10
644.5280866357
 20
126.415612524
 10
644.4648701926
 20
126.8895717074
 10
644.2820713458
 20
127.3851582106
 10
643.9994991868
 20
127.8486675462
 10
643.6477747936
 20
128.2298712856
 10
643.2650129617
 20
128.4874600887
 10
642.8926918748
 20
128.5935202117
 10
642.5711582998
 20
128.5365583947
 10
642.3352553887
 20
128.3227473343
 10
642.2105468823
 20
127.9752567766
 10
642.2105468823
 20
127.5317427153
 10
642.3352553887
 20
127.0402667809
 10
642.5711582998
 20
126.5540880169
 10
642.8926918748
 20
126.1258914361
 10
643.2650129617
 20
125.8020787823
 10
643.6477747936
 20
125.617740181
 10
643.9994991868
 20
125.5928515799
 10
644.2820713458
 20
125.7301100452
 10
644.4648701926
 20
126.0146414923
 10
644.5280866357
 20
126.415612524
  0
LWPOLYLINE
  5
1DF
330
1F
100
AcDbEntity
  8
0
  6
Continuous
 62
     7
370
    25
100
AcDbPolyline
 90
       20
 70
   128
 43
0.0
 10
641.3461061204
 20
128.2525307756
 10
641.2828896773
 20
128.726489959
 10
641.1000908305
 20
129.2220764622
 10
640.8175186715
 20
129.6855857978
 10
640.4657942783
 20
130.0667895372
 10
640.0830324464
 20
130.3243783403
 10
639.7107113595
 20
130.4304384633
 10
639.3891777845
 20
130.3734766463
 10
639.1532748734
 20
130.1596655859
 10
639.0285663669
 20
129.8121750282
 10
639.0285663669
 20
129.3686609669
 10
639.1532748734
 20
128.8771850325
 10
639.3891777845
 20
128.3910062685
 10
639.7107113595
 20
127.9628096877
 10
640.0830324464
 20
127.6389970339
 10
640.4657942783
 20
127.4546584326
 10
640.8175186715
 20
127.4297698315
 10
641.1000908305
 20
127.5670282968
 10
641.2828896773
 20
127.8515597439
 10
641.3461061204
 20
128.2525307756
  0
LWPOLYLINE
  5
1E0
330
1F
100
AcDbEntity
  8
0
  6
Continuous
 62
     7
370
    25
100
AcDbPolyline
 90
       20
 70
   128
 43
0.0
 10
638.164125605
 20
130.0894490272
 10
638.1009091619
 20
130.5634082106
 10
637.9181103151
 20
131.0589947138
 10
637.6355381561
 20
131.5225040494
 10
637.2838137629
 20
131.9037077888
 10
636.901051931
 20
132.1612965919
 10
636.5287308441
 20
132.2673567149
 10
636.2071972691
 20
132.2103948979
 10
635.971294358
 20
131.9965838375
 10
635.8465858516
 20
131.6490932798
 10
635.8465858516
 20
131.2055792185
 10
635.971294358
 20
130.7141032841
 10
636.2071972691
 20
130.2279245201
 10
636.5287308441
 20
129.7997279393
 10
636.901051931
 20
129.4759152855
 10
637.2838137629
 20
129.2915766842
 10
637.6355381561
 20
129.2666880831
 10
637.9181103151
 20
129.4039465484
 10
638.1009091619
 20
129.6884779955
 10
638.164125605
 20
130.0894490272
  0
LWPOLYLINE
  5
1E1
330
1F
100
AcDbEntity
  8
0
  6
Continuous
 62
     7
370
    25
100
AcDbPolyline
 90
       20
 70
   128
 43
0.0
 10
634.9821450897
 20
131.9263672789
 10
634.9189286466
 20
132.4003264622
 10
634.7361297998
 20
132.8959129654
 10
634.4535576408
 20
133.359422301
 10
634.1018332476
 20
133.7406260404
 10
633.7190714157
 20
133.9982148435
 10
633.3467503288
 20
134.1042749665
 10
633.0252167538
 20
134.0473131495
 10
632.7893138427
 20
133.8335020891
 10
632.6646053363
 20
133.4860115314
 10
632.6646053363
 20
133.0424974701
 10
632.7893138427
 20
132.5510215357
 10
633.0252167538
 20
132.0648427717
 10
633.3467503288
 20
131.6366461909
 10
633.7190714157
 20
131.3128335371
 10
634.1018332476
 20
131.1284949358
 10
634.4535576408
 20
131.1036063347
 10
634.7361297998
 20
131.2408648
 10
634.9189286466
 20
131.5253962471
 10
634.9821450897
 20
131.9263672789
  0
LWPOLYLINE
  5
1E2
330
1F
100
AcDbEntity
  8
0
  6
Continuous
 62
     7
370
    25
100
AcDbPolyline
 90
       20
 70
   128
 43
0.0
 10
631.8001645743
 20
133.7632855305
 10
631.7369481312
 20
134.2372447138
 10
631.5541492845
 20
134.732831217
 10
631.2715771255
 20
135.1963405526
 10
630.9198527322
 20
135.577544292
 10
630.5370909003
 20
135.8351330951
 10
630.1647698135
 20
135.9411932181
 10
629.8432362385
 20
135.8842314011
 10
629.6073333273
 20
135.6704203407
 10
629.4826248209
 20
135.322929783
 10
629.4826248209
 20
134.8794157217
 10
629.6073333273
 20
134.3879397873
 10
629.8432362385
 20
133.9017610233
 10
630.1647698135
 20
133.4735644425
 10
630.5370909003
 20
133.1497517887
 10
630.9198527322
 20
132.9654131874
 10
631.2715771255
 20
132.9405245863
 10
631.5541492845
 20
133.0777830516
 10
631.7369481312
 20
133.3623144987
 10
631.8001645743
 20
133.7632855305
  0
LWPOLYLINE
  5
1E3
330
1F
100
AcDbEntity
  8
0
  6
Continuous
 62
     7
370
    25
100
AcDbPolyline
 90
       20
 70
   128
 43
0.0
 10
628.618184059
 20
135.6002037821
 10
628.5549676159
 20
136.0741629654
 10
628.3721687691
 20
136.5697494686
 10
628.0895966101
 20
137.0332588042
 10
627.7378722169
 20
137.4144625436
 10
627.355110385
 20
137.6720513467
 10
626.9827892981
 20
137.7781114697
 10
626.6612557231
 20
137.7211496527
 10
626.425352812
 20
137.5073385923
 10
626.3006443056
 20
137.1598480346
 10
626.3006443056
 20
136.7163339733
 10
626.425352812
 20
136.2248580389
 10
626.6612557231
 20
135.7386792749
 10
626.9827892981
 20
135.3104826941
 10
627.355110385
 20
134.9866700403
 10
627.7378722169
 20
134.802331439
 10
628.0895966101
 20
134.7774428379
 10
628.3721687691
 20
134.9147013032
 10
628.5549676159
 20
135.1992327503
 10
628.618184059
 20
135.6002037821
  0
LWPOLYLINE
  5
1E4
330
1F
100
AcDbEntity
  8
0
  6
Continuous
 62
     7
370
    25
100
AcDbPolyline
 90
       20
 70
   128
 43
0.0
 10
625.4362035437
 20
137.4371220337
 10
625.3729871006
 20
137.911081217
 10
625.1901882538
 20
138.4066677202
 10
624.9076160948
 20
138.8701770558
 10
624.5558917016
 20
139.2513807952
 10
624.1731298697
 20
139.5089695983
 10
623.8008087828
 20
139.6150297213
 10
623.4792752078
 20
139.5580679043
 10
623.2433722967
 20
139.3442568439
 10
623.1186637902
 20
138.9967662862
 10
623.1186637902
 20
138.5532522249
 10
623.2433722967
 20
138.0617762905
 10
623.4792752078
 20
137.5755975265
 10
623.8008087828
 20
137.1474009457
 10
624.1731298697
 20
136.8235882919
 10
624.5558917016
 20
136.6392496906
 10
624.9076160948
 20
136.6143610895
 10
625.1901882538
 20
136.7516195548
 10
625.3729871006
 20
137.0361510019
 10
625.4362035437
 20
137.4371220337
  0
LWPOLYLINE
  5
1E5
330
1F
100
AcDbEntity
  8
0
  6
Continuous
 62
     7
370
    25
100
AcDbPolyline
 90
       20
 70
   128
 43
0.0
 10
622.2542230283
 20
139.2740402853
 10
622.1910065852
 20
139.7479994686
 10
622.0082077384
 20
140.2435859718
 10
621.7256355794
 20
140.7070953074
 10
621.3739111862
 20
141.0882990468
 10
620.9911493543
 20
141.3458878499
 10
620.6188282674
 20
141.4519479729
 10
620.2972946924
 20
141.3949861559
 10
620.0613917813
 20
141.1811750955
 10
619.9366832749
 20
140.8336845378
 10
619.9366832749
 20
140.3901704765
 10
620.0613917813
 20
139.8986945421
 10
620.2972946924
 20
139.4125157781
 10
620.6188282674
 20
138.9843191973
 10
620.9911493543
 20
138.6605065435
 10
621.3739111862
 20
138.4761679422
 10
621.7256355794
 20
138.4512793411
 10
622.0082077384
 20
138.5885378064
 10
622.1910065852
 20
138.8730692535
 10
622.2542230283
 20
139.2740402853
  0
LWPOLYLINE
  5
1E6
330
1F
100
AcDbEntity
  8
0
  6
Continuous
 62
     7
370
    25
100
AcDbPolyline
 90
       20
 70
   128
 43
0.0
 10
619.072242513
 20
141.1109585369
 10
619.0090260699
 20
141.5849177202
 10
618.8262272231
 20
142.0805042234
 10
618.5436550641
 20
142.544013559
 10
618.1919306709
 20
142.9252172984
 10
617.809168839
 20
143.1828061015
 10
617.4368477521
 20
143.2888662245
 10
617.1153141771
 20
143.2319044075
 10
616.879411266
 20
143.0180933471
 10
616.7547027596
 20
142.6706027894
 10
616.7547027596
 20
142.2270887281
 10
616.879411266
 20
141.7356127937
 10
617.1153141771
 20
141.2494340297
 10
617.4368477521
 20
140.8212374489
 10
617.809168839
 20
140.4974247951
 10
618.1919306709
 20
140.3130861938
 10
618.5436550641
 20
140.2881975927
 10
618.8262272231
 20
140.425456058
 10
619.0090260699
 20
140.7099875051
 10
619.072242513
 20
141.1109585369
  0
LWPOLYLINE
  5
1E7
330
1F
100
AcDbEntity
  8
0
  6
Continuous
 62
     7
370
    25
100
AcDbPolyline
 90
       20
 70
   128
 43
0.0
 10
615.8902619976
 20
142.9478767885
 10
615.8270455545
 20
143.4218359718
 10
615.6442467078
 20
143.917422475
 10
615.3616745488
 20
144.3809318106
 10
615.0099501555
 20
144.76213555
 10
614.6271883237
 20
145.0197243531
 10
614.2548672368
 20
145.1257844761
 10
613.9333336618
 20
145.0688226591
 10
613.6974307506
 20
144.8550115987
 10
613.5727222442
 20
144.507521041
 10
613.5727222442
 20
144.0640069797
 10
613.6974307506
 20
143.5725310453
 10
613.9333336618
 20
143.0863522813
 10
614.2548672368
 20
142.6581557005
 10
614.6271883237
 20
142.3343430467
 10
615.0099501555
 20
142.1500044454
 10
615.3616745488
 20
142.1251158443
 10
615.6442467078
 20
142.2623743096
 10
615.8270455545
 20
142.5469057567
 10
615.8902619976
 20
142.9478767885
  0
LWPOLYLINE
  5
1E8
330
1F
100
AcDbEntity
  8
0
  6
Continuous
 62
     7
370
    25
100
AcDbPolyline
 90
       20
 70
   128
 43
0.0
 10
612.7082814823
 20
144.7847950401
 10
612.6450650392
 20
145.2587542234
 10
612.4622661924
 20
145.7543407266
 10
612.1796940334
 20
146.2178500622
 10
611.8279696402
 20
146.5990538016
 10
611.4452078083
 20
146.8566426047
 10
611.0728867214
 20
146.9627027277
 10
610.7513531464
 20
146.9057409107
 10
610.5154502353
 20
146.6919298503
 10
610.3907417289
 20
146.3444392926
 10
610.3907417289
 20
145.9009252313
 10
610.5154502353
 20
145.4094492969
 10
610.7513531464
 20
144.9232705329
 10
611.0728867214
 20
144.4950739521
 10
611.4452078083
 20
144.1712612983
 10
611.8279696402
 20
143.986922697
 10
612.1796940334
 20
143.9620340959
 10
612.4622661924
 20
144.0992925612
 10
612.6450650392
 20
144.3838240083
 10
612.7082814823
 20
144.7847950401
  0
LWPOLYLINE
  5
1E9
330
1F
100
AcDbEntity
  8
0
  6
Continuous
 62
     7
370
    25
100
AcDbPolyline
 90
       20
 70
   128
 43
0.0
 10
609.526300967
 20
146.6217132917
 10
609.4630845239
 20
147.095672475
 10
609.2802856771
 20
147.5912589782
 10
608.9977135181
 20
148.0547683138
 10
608.6459891249
 20
148.4359720532
 10
608.263227293
 20
148.6935608563
 10
607.8909062061
 20
148.7996209794
 10
607.5693726311
 20
148.7426591623
 10
607.33346972
 20
148.5288481019
 10
607.2087612135
 20
148.1813575442
 10
607.2087612135
 20
147.7378434829
 10
607.33346972
 20
147.2463675485
 10
607.5693726311
 20
146.7601887845
 10
607.8909062061
 20
146.3319922037
 10
608.263227293
 20
146.0081795499
 10
608.6459891249
 20
145.8238409486
 10
608.9977135181
 20
145.7989523475
 10
609.2802856771
 20
145.9362108128
 10
609.4630845239
 20
146.2207422599
 10
609.526300967
 20
146.6217132917
  0
LINE
  5
1EA
330
1F
100
AcDbEntity
  8
0
  6
Continuous
 62
     7
370
    25
100
AcDbLine
 10
673.9437287331
 20
132.6240828557
 30
0.0
 11
596.8690895837
 21
177.11832495
 31
0.0
  0
LINE
  5
1EB
330
1F
100
AcDbEntity
  8
0
  6
Continuous
 62
     7
370
    25
100
AcDbLine
 10
673.9437287331
 20
98.0027524317
 30
0.0
 11
673.9437287331
 21
132.6240828557
 31
0.0
  0
LINE
  5
1EC
330
1F
100
AcDbEntity
  8
0
  6
Continuous
 62
     7
370
    25
100
AcDbLine
 10
596.8690895837
 20
142.4969945261
 30
0.0
 11
673.9437287331
 21
98.0027524317
 31
0.0
  0
LINE
  5
1ED
330
1F
100
AcDbEntity
  8
0
  6
Continuous
 62
     7
370
    25
100
AcDbLine
 10
596.8690895837
 20
177.11832495
 30
0.0
 11
596.8690895837
 21
142.4969945261
 31
0.0
  0
LWPOLYLINE
  5
1EE
330
1F
100
AcDbEntity
  8
0
  6
Continuous
 62
     7
370
    25
100
AcDbPolyline
 90
       20
 70
   128
 43
0.0
 10
603.1623399363
 20
150.2955497949
 10
603.0991234932
 20
150.7695089782
 10
602.9163246464
 20
151.2650954814
 10
602.6337524874
 20
151.728604817
 10
602.2820280942
 20
152.1098085564
 10
601.8992662623
 20
152.3673973595
 10
601.5269451754
 20
152.4734574826
 10
601.2054116004
 20
152.4164956655
 10
600.9695086893
 20
152.2026846051
 10
600.8448001829
 20
151.8551940474
 10
600.8448001829
 20
151.4116799861
 10
600.9695086893
 20
150.9202040517
 10
601.2054116004
 20
150.4340252877
 10
601.5269451754
 20
150.0058287069
 10
601.8992662623
 20
149.6820160531
 10
602.2820280942
 20
149.4976774518
 10
602.6337524874
 20
149.4727888507
 10
602.9163246464
 20
149.610047316
 10
603.0991234932
 20
149.8945787631
 10
603.1623399363
 20
150.2955497949
  0
LWPOLYLINE
  5
1EF
330
1F
100
AcDbEntity
  8
0
  6
Continuous
 62
     7
370
    25
100
AcDbPolyline
 90
       20
 70
   128
 43
0.0
 10
606.3443204516
 20
148.4586315433
 10
606.2811040085
 20
148.9325907266
 10
606.0983051617
 20
149.4281772298
 10
605.8157330027
 20
149.8916865654
 10
605.4640086095
 20
150.2728903048
 10
605.0812467776
 20
150.5304791079
 10
604.7089256907
 20
150.636539231
 10
604.3873921157
 20
150.5795774139
 10
604.1514892046
 20
150.3657663535
 10
604.0267806982
 20
150.0182757958
 10
604.0267806982
 20
149.5747617345
 10
604.1514892046
 20
149.0832858001
 10
604.3873921157
 20
148.5971070361
 10
604.7089256907
 20
148.1689104553
 10
605.0812467776
 20
147.8450978015
 10
605.4640086095
 20
147.6607592002
 10
605.8157330027
 20
147.6358705991
 10
606.0983051617
 20
147.7731290644
 10
606.2811040085
 20
148.0576605115
 10
606.3443204516
 20
148.4586315433
  0
LINE
  5
1F0
330
1F
100
AcDbEntity
  8
0
  6
Continuous
 62
     7
370
    25
100
AcDbLine
 10
673.9437287331
 20
132.6240828557
 30
0.0
 11
826.6080827912
 21
220.755338527
 31
0.0
  0
LINE
  5
1F1
330
1F
100
AcDbEntity
  8
0
  6
Continuous
 62
     7
370
    25
100
AcDbLine
 10
596.8690895837
 20
177.11832495
 30
0.0
 11
749.5334436419
 21
265.2495806213
 31
0.0
  0
LINE
  5
1F2
330
1F
100
AcDbEntity
  8
0
  6
Continuous
 62
     7
370
    25
100
AcDbLine
 10
826.6080827912
 20
220.755338527
 30
0.0
 11
749.5334436419
 21
265.2495806213
 31
0.0
  0
LWPOLYLINE
  5
1F3
330
1F
100
AcDbEntity
  8
0
  6
Continuous
 62
     7
370
    25
100
AcDbPolyline
 90
       22
 70
   128
 43
0.0
 10
795.5660950971
 20
187.6475213714
 10
795.1492483319
 20
187.4794340904
 10
794.7694402311
 20
187.471388571
 10
794.4604184111
 20
187.6240996928
 10
794.249640817
 20
187.9239984024
 10
794.1558359627
 20
188.3444373834
 10
794.1873388214
 20
188.8480587873
 10
794.3413502257
 20
189.3901136423
 10
794.6041855866
 20
189.9224379957
 10
794.9524908288
 20
190.3977324927
 10
795.3553175029
 20
190.7737651314
 10
795.7768726913
 20
191.0171237616
 10
796.1796993655
 20
191.1061849011
 10
796.5280046077
 20
191.0330350769
 10
796.7908399685
 20
190.8041739717
 10
796.9448513729
 20
190.4399368992
 10
796.9763542316
 20
189.9726879217
 10
796.8825493773
 20
189.4439441613
 10
796.6717717831
 20
188.9006868215
 10
796.3627499632
 20
188.3911867009
 10
795.9829418624
 20
187.9607151212
 10
795.5660950971
 20
187.6475213714
  0
LWPOLYLINE
  5
1F4
330
1F
100
AcDbEntity
  8
0
  6
Continuous
 62
     7
370
    25
100
AcDbPolyline
 90
       22
 70
   128
 43
0.0
 10
799.1016290031
 20
189.6885416509
 10
798.6847822378
 20
189.52045437
 10
798.304974137
 20
189.5124088506
 10
797.9959523171
 20
189.6651199723
 10
797.7851747229
 20
189.9650186819
 10
797.6913698686
 20
190.385457663
 10
797.7228727273
 20
190.8890790669
 10
797.8768841317
 20
191.4311339219
 10
798.1397194926
 20
191.9634582753
 10
798.4880247347
 20
192.4387527723
 10
798.8908514089
 20
192.8147854109
 10
799.3124065973
 20
193.0581440411
 10
799.7152332714
 20
193.1472051807
 10
800.0635385136
 20
193.0740553564
 10
800.3263738745
 20
192.8451942513
 10
800.4803852788
 20
192.4809571788
 10
800.5118881375
 20
192.0137082013
 10
800.4180832833
 20
191.4849644409
 10
800.2073056891
 20
190.941707101
 10
799.8982838691
 20
190.4322069805
 10
799.5184757683
 20
190.0017354008
 10
799.1016290031
 20
189.6885416509
  0
LWPOLYLINE
  5
1F5
330
1F
100
AcDbEntity
  8
0
  6
Continuous
 62
     7
370
    25
100
AcDbPolyline
 90
       22
 70
   128
 43
0.0
 10
802.637162909
 20
191.7295619305
 10
802.2203161438
 20
191.5614746496
 10
801.8405080429
 20
191.5534291301
 10
801.531486223
 20
191.7061402519
 10
801.3207086288
 20
192.0060389615
 10
801.2269037746
 20
192.4264779425
 10
801.2584066333
 20
192.9300993465
 10
801.4124180376
 20
193.4721542014
 10
801.6752533985
 20
194.0044785549
 10
802.0235586407
 20
194.4797730518
 10
802.4263853148
 20
194.8558056905
 10
802.8479405032
 20
195.0991643207
 10
803.2507671774
 20
195.1882254602
 10
803.5990724195
 20
195.115075636
 10
803.8619077804
 20
194.8862145308
 10
804.0159191847
 20
194.5219774583
 10
804.0474220434
 20
194.0547284808
 10
803.9536171892
 20
193.5259847204
 10
803.742839595
 20
192.9827273806
 10
803.4338177751
 20
192.47322726
 10
803.0540096742
 20
192.0427556803
 10
802.637162909
 20
191.7295619305
  0
LWPOLYLINE
  5
1F6
330
1F
100
AcDbEntity
  8
0
  6
Continuous
 62
     7
370
    25
100
AcDbPolyline
 90
       22
 70
   128
 43
0.0
 10
806.1726968149
 20
193.77058221
 10
805.7558500497
 20
193.6024949291
 10
805.3760419489
 20
193.5944494097
 10
805.0670201289
 20
193.7471605314
 10
804.8562425347
 20
194.047059241
 10
804.7624376805
 20
194.4674982221
 10
804.7939405392
 20
194.971119626
 10
804.9479519435
 20
195.513174481
 10
805.2107873044
 20
196.0454988344
 10
805.5590925466
 20
196.5207933314
 10
805.9619192207
 20
196.89682597
 10
806.3834744091
 20
197.1401846002
 10
806.7863010833
 20
197.2292457398
 10
807.1346063255
 20
197.1560959155
 10
807.3974416863
 20
196.9272348104
 10
807.5514530907
 20
196.5629977379
 10
807.5829559494
 20
196.0957487604
 10
807.4891510951
 20
195.567005
 10
807.2783735009
 20
195.0237476602
 10
806.969351681
 20
194.5142475396
 10
806.5895435802
 20
194.0837759599
 10
806.1726968149
 20
193.77058221
  0
LWPOLYLINE
  5
1F7
330
1F
100
AcDbEntity
  8
0
  6
Continuous
 62
     7
370
    25
100
AcDbPolyline
 90
       22
 70
   128
 43
0.0
 10
809.7082307209
 20
195.8116024896
 10
809.2913839556
 20
195.6435152087
 10
808.9115758548
 20
195.6354696892
 10
808.6025540349
 20
195.788180811
 10
808.3917764407
 20
196.0880795206
 10
808.2979715864
 20
196.5085185016
 10
808.3294744451
 20
197.0121399056
 10
808.4834858495
 20
197.5541947606
 10
808.7463212104
 20
198.086519114
 10
809.0946264525
 20
198.5618136109
 10
809.4974531267
 20
198.9378462496
 10
809.9190083151
 20
199.1812048798
 10
810.3218349892
 20
199.2702660193
 10
810.6701402314
 20
199.1971161951
 10
810.9329755923
 20
198.9682550899
 10
811.0869869966
 20
198.6040180175
 10
811.1184898553
 20
198.1367690399
 10
811.0246850011
 20
197.6080252795
 10
810.8139074069
 20
197.0647679397
 10
810.5048855869
 20
196.5552678191
 10
810.1250774861
 20
196.1247962395
 10
809.7082307209
 20
195.8116024896
  0
LWPOLYLINE
  5
1F8
330
1F
100
AcDbEntity
  8
0
  6
Continuous
 62
     7
370
    25
100
AcDbPolyline
 90
       22
 70
   128
 43
0.0
 10
813.2437646268
 20
197.8526227692
 10
812.8269178616
 20
197.6845354882
 10
812.4471097607
 20
197.6764899688
 10
812.1380879408
 20
197.8292010905
 10
811.9273103466
 20
198.1290998001
 10
811.8335054924
 20
198.5495387812
 10
811.8650083511
 20
199.0531601851
 10
812.0190197554
 20
199.5952150401
 10
812.2818551163
 20
200.1275393935
 10
812.6301603585
 20
200.6028338905
 10
813.0329870326
 20
200.9788665291
 10
813.454542221
 20
201.2222251594
 10
813.8573688952
 20
201.3112862989
 10
814.2056741373
 20
201.2381364746
 10
814.4685094982
 20
201.0092753695
 10
814.6225209025
 20
200.645038297
 10
814.6540237612
 20
200.1777893195
 10
814.560218907
 20
199.6490455591
 10
814.3494413128
 20
199.1057882193
 10
814.0404194929
 20
198.5962880987
 10
813.660611392
 20
198.165816519
 10
813.2437646268
 20
197.8526227692
  0
LWPOLYLINE
  5
1F9
330
1F
100
AcDbEntity
  8
0
  6
Continuous
 62
     7
370
    25
100
AcDbPolyline
 90
       22
 70
   128
 43
0.0
 10
816.7792985327
 20
199.8936430487
 10
816.3624517675
 20
199.7255557678
 10
815.9826436667
 20
199.7175102483
 10
815.6736218467
 20
199.8702213701
 10
815.4628442525
 20
200.1701200797
 10
815.3690393983
 20
200.5905590607
 10
815.400542257
 20
201.0941804647
 10
815.5545536613
 20
201.6362353197
 10
815.8173890222
 20
202.1685596731
 10
816.1656942644
 20
202.64385417
 10
816.5685209385
 20
203.0198868087
 10
816.9900761269
 20
203.2632454389
 10
817.3929028011
 20
203.3523065784
 10
817.7412080432
 20
203.2791567542
 10
818.0040434041
 20
203.0502956491
 10
818.1580548085
 20
202.6860585766
 10
818.1895576672
 20
202.2188095991
 10
818.0957528129
 20
201.6900658387
 10
817.8849752187
 20
201.1468084988
 10
817.5759533988
 20
200.6373083783
 10
817.196145298
 20
200.2068367986
 10
816.7792985327
 20
199.8936430487
  0
LWPOLYLINE
  5
1FA
330
1F
100
AcDbEntity
  8
0
  6
Continuous
 62
     7
370
    25
100
AcDbPolyline
 90
       22
 70
   128
 43
0.0
 10
820.3148324387
 20
201.9346633283
 10
819.8979856734
 20
201.7665760473
 10
819.5181775726
 20
201.7585305279
 10
819.2091557527
 20
201.9112416496
 10
818.9983781585
 20
202.2111403593
 10
818.9045733042
 20
202.6315793403
 10
818.9360761629
 20
203.1352007442
 10
819.0900875673
 20
203.6772555992
 10
819.3529229282
 20
204.2095799526
 10
819.7012281703
 20
204.6848744496
 10
820.1040548445
 20
205.0609070883
 10
820.5256100329
 20
205.3042657185
 10
820.928436707
 20
205.393326858
 10
821.2767419492
 20
205.3201770338
 10
821.5395773101
 20
205.0913159286
 10
821.6935887144
 20
204.7270788561
 10
821.7250915731
 20
204.2598298786
 10
821.6312867189
 20
203.7310861182
 10
821.4205091247
 20
203.1878287784
 10
821.1114873047
 20
202.6783286578
 10
820.7316792039
 20
202.2478570781
 10
820.3148324387
 20
201.9346633283
  0
LWPOLYLINE
  5
1FB
330
1F
100
AcDbEntity
  8
0
  6
Continuous
 62
     7
370
    25
100
AcDbPolyline
 90
       22
 70
   128
 43
0.0
 10
792.0305611912
 20
189.6892051512
 10
791.613714426
 20
189.5211178703
 10
791.2339063251
 20
189.5130723509
 10
790.9248845052
 20
189.6657834726
 10
790.714106911
 20
189.9656821822
 10
790.6203020568
 20
190.3861211633
 10
790.6518049155
 20
190.8897425672
 10
790.8058163198
 20
191.4317974222
 10
791.0686516807
 20
191.9641217756
 10
791.4169569229
 20
192.4394162726
 10
791.819783597
 20
192.8154489112
 10
792.2413387854
 20
193.0588075414
 10
792.6441654596
 20
193.147868681
 10
792.9924707017
 20
193.0747188567
 10
793.2553060626
 20
192.8458577516
 10
793.409317467
 20
192.4816206791
 10
793.4408203256
 20
192.0143717016
 10
793.3470154714
 20
191.4856279412
 10
793.1362378772
 20
190.9423706014
 10
792.8272160573
 20
190.4328704808
 10
792.4474079564
 20
190.0023989011
 10
792.0305611912
 20
189.6892051512
  0
LWPOLYLINE
  5
1FC
330
1F
100
AcDbEntity
  8
0
  6
Continuous
 62
     7
370
    25
100
AcDbPolyline
 90
       22
 70
   128
 43
0.0
 10
795.5660950971
 20
191.7302254308
 10
795.1492483319
 20
191.5621381499
 10
794.7694402311
 20
191.5540926304
 10
794.4604184111
 20
191.7068037522
 10
794.249640817
 20
192.0067024618
 10
794.1558359627
 20
192.4271414428
 10
794.1873388214
 20
192.9307628468
 10
794.3413502257
 20
193.4728177018
 10
794.6041855866
 20
194.0051420552
 10
794.9524908288
 20
194.4804365521
 10
795.3553175029
 20
194.8564691908
 10
795.7768726913
 20
195.099827821
 10
796.1796993655
 20
195.1888889605
 10
796.5280046077
 20
195.1157391363
 10
796.7908399685
 20
194.8868780311
 10
796.9448513729
 20
194.5226409587
 10
796.9763542316
 20
194.0553919811
 10
796.8825493773
 20
193.5266482207
 10
796.6717717831
 20
192.9833908809
 10
796.3627499632
 20
192.4738907603
 10
795.9829418624
 20
192.0434191807
 10
795.5660950971
 20
191.7302254308
  0
LWPOLYLINE
  5
1FD
330
1F
100
AcDbEntity
  8
0
  6
Continuous
 62
     7
370
    25
100
AcDbPolyline
 90
       22
 70
   128
 43
0.0
 10
799.1016290031
 20
193.7712457104
 10
798.6847822378
 20
193.6031584294
 10
798.304974137
 20
193.59511291
 10
797.9959523171
 20
193.7478240317
 10
797.7851747229
 20
194.0477227413
 10
797.6913698686
 20
194.4681617224
 10
797.7228727273
 20
194.9717831263
 10
797.8768841317
 20
195.5138379813
 10
798.1397194926
 20
196.0461623347
 10
798.4880247347
 20
196.5214568317
 10
798.8908514089
 20
196.8974894703
 10
799.3124065973
 20
197.1408481006
 10
799.7152332714
 20
197.2299092401
 10
800.0635385136
 20
197.1567594158
 10
800.3263738745
 20
196.9278983107
 10
800.4803852788
 20
196.5636612382
 10
800.5118881375
 20
196.0964122607
 10
800.4180832833
 20
195.5676685003
 10
800.2073056891
 20
195.0244111605
 10
799.8982838691
 20
194.5149110399
 10
799.5184757683
 20
194.0844394602
 10
799.1016290031
 20
193.7712457104
  0
LWPOLYLINE
  5
1FE
330
1F
100
AcDbEntity
  8
0
  6
Continuous
 62
     7
370
    25
100
AcDbPolyline
 90
       22
 70
   128
 43
0.0
 10
802.637162909
 20
195.8122659899
 10
802.2203161438
 20
195.644178709
 10
801.8405080429
 20
195.6361331895
 10
801.531486223
 20
195.7888443113
 10
801.3207086288
 20
196.0887430209
 10
801.2269037746
 20
196.5091820019
 10
801.2584066333
 20
197.0128034059
 10
801.4124180376
 20
197.5548582609
 10
801.6752533985
 20
198.0871826143
 10
802.0235586407
 20
198.5624771112
 10
802.4263853148
 20
198.9385097499
 10
802.8479405032
 20
199.1818683801
 10
803.2507671774
 20
199.2709295196
 10
803.5990724195
 20
199.1977796954
 10
803.8619077804
 20
198.9689185903
 10
804.0159191847
 20
198.6046815178
 10
804.0474220434
 20
198.1374325403
 10
803.9536171892
 20
197.6086887799
 10
803.742839595
 20
197.06543144
 10
803.4338177751
 20
196.5559313195
 10
803.0540096742
 20
196.1254597398
 10
802.637162909
 20
195.8122659899
  0
LWPOLYLINE
  5
1FF
330
1F
100
AcDbEntity
  8
0
  6
Continuous
 62
     7
370
    25
100
AcDbPolyline
 90
       22
 70
   128
 43
0.0
 10
806.1726968149
 20
197.8532862695
 10
805.7558500497
 20
197.6851989885
 10
805.3760419489
 20
197.6771534691
 10
805.0670201289
 20
197.8298645908
 10
804.8562425347
 20
198.1297633005
 10
804.7624376805
 20
198.5502022815
 10
804.7939405392
 20
199.0538236854
 10
804.9479519435
 20
199.5958785404
 10
805.2107873044
 20
200.1282028938
 10
805.5590925466
 20
200.6034973908
 10
805.9619192207
 20
200.9795300295
 10
806.3834744091
 20
201.2228886597
 10
806.7863010833
 20
201.3119497992
 10
807.1346063255
 20
201.238799975
 10
807.3974416863
 20
201.0099388698
 10
807.5514530907
 20
200.6457017973
 10
807.5829559494
 20
200.1784528198
 10
807.4891510951
 20
199.6497090594
 10
807.2783735009
 20
199.1064517196
 10
806.969351681
 20
198.596951599
 10
806.5895435802
 20
198.1664800193
 10
806.1726968149
 20
197.8532862695
  0
LWPOLYLINE
  5
200
330
1F
100
AcDbEntity
  8
0
  6
Continuous
 62
     7
370
    25
100
AcDbPolyline
 90
       22
 70
   128
 43
0.0
 10
809.7082307209
 20
199.894306549
 10
809.2913839556
 20
199.7262192681
 10
808.9115758548
 20
199.7181737487
 10
808.6025540349
 20
199.8708848704
 10
808.3917764407
 20
200.17078358
 10
808.2979715864
 20
200.5912225611
 10
808.3294744451
 20
201.094843965
 10
808.4834858495
 20
201.63689882
 10
808.7463212104
 20
202.1692231734
 10
809.0946264525
 20
202.6445176704
 10
809.4974531267
 20
203.020550309
 10
809.9190083151
 20
203.2639089392
 10
810.3218349892
 20
203.3529700788
 10
810.6701402314
 20
203.2798202545
 10
810.9329755923
 20
203.0509591494
 10
811.0869869966
 20
202.6867220769
 10
811.1184898553
 20
202.2194730994
 10
811.0246850011
 20
201.690729339
 10
810.8139074069
 20
201.1474719991
 10
810.5048855869
 20
200.6379718786
 10
810.1250774861
 20
200.2075002989
 10
809.7082307209
 20
199.894306549
  0
LWPOLYLINE
  5
201
330
1F
100
AcDbEntity
  8
0
  6
Continuous
 62
     7
370
    25
100
AcDbPolyline
 90
       22
 70
   128
 43
0.0
 10
813.2437646268
 20
201.9353268286
 10
812.8269178616
 20
201.7672395477
 10
812.4471097607
 20
201.7591940282
 10
812.1380879408
 20
201.91190515
 10
811.9273103466
 20
202.2118038596
 10
811.8335054924
 20
202.6322428406
 10
811.8650083511
 20
203.1358642446
 10
812.0190197554
 20
203.6779190995
 10
812.2818551163
 20
204.210243453
 10
812.6301603585
 20
204.6855379499
 10
813.0329870326
 20
205.0615705886
 10
813.454542221
 20
205.3049292188
 10
813.8573688952
 20
205.3939903583
 10
814.2056741373
 20
205.3208405341
 10
814.4685094982
 20
205.0919794289
 10
814.6225209025
 20
204.7277423564
 10
814.6540237612
 20
204.2604933789
 10
814.560218907
 20
203.7317496185
 10
814.3494413128
 20
203.1884922787
 10
814.0404194929
 20
202.6789921581
 10
813.660611392
 20
202.2485205784
 10
813.2437646268
 20
201.9353268286
  0
LWPOLYLINE
  5
202
330
1F
100
AcDbEntity
  8
0
  6
Continuous
 62
     7
370
    25
100
AcDbPolyline
 90
       22
 70
   128
 43
0.0
 10
816.7792985327
 20
203.9763471081
 10
816.3624517675
 20
203.8082598272
 10
815.9826436667
 20
203.8002143078
 10
815.6736218467
 20
203.9529254295
 10
815.4628442525
 20
204.2528241391
 10
815.3690393983
 20
204.6732631202
 10
815.400542257
 20
205.1768845241
 10
815.5545536613
 20
205.7189393791
 10
815.8173890222
 20
206.2512637325
 10
816.1656942644
 20
206.7265582295
 10
816.5685209385
 20
207.1025908681
 10
816.9900761269
 20
207.3459494983
 10
817.3929028011
 20
207.4350106379
 10
817.7412080432
 20
207.3618608136
 10
818.0040434041
 20
207.1329997085
 10
818.1580548085
 20
206.768762636
 10
818.1895576672
 20
206.3015136585
 10
818.0957528129
 20
205.7727698981
 10
817.8849752187
 20
205.2295125582
 10
817.5759533988
 20
204.7200124377
 10
817.196145298
 20
204.289540858
 10
816.7792985327
 20
203.9763471081
  0
LWPOLYLINE
  5
203
330
1F
100
AcDbEntity
  8
0
  6
Continuous
 62
     7
370
    25
100
AcDbPolyline
 90
       22
 70
   128
 43
0.0
 10
820.3148324387
 20
206.0173673877
 10
819.8979856734
 20
205.8492801068
 10
819.5181775726
 20
205.8412345873
 10
819.2091557527
 20
205.9939457091
 10
818.9983781585
 20
206.2938444187
 10
818.9045733042
 20
206.7142833997
 10
818.9360761629
 20
207.2179048037
 10
819.0900875673
 20
207.7599596587
 10
819.3529229282
 20
208.2922840121
 10
819.7012281703
 20
208.767578509
 10
820.1040548445
 20
209.1436111477
 10
820.5256100329
 20
209.3869697779
 10
820.928436707
 20
209.4760309174
 10
821.2767419492
 20
209.4028810932
 10
821.5395773101
 20
209.174019988
 10
821.6935887144
 20
208.8097829156
 10
821.7250915731
 20
208.342533938
 10
821.6312867189
 20
207.8137901776
 10
821.4205091247
 20
207.2705328378
 10
821.1114873047
 20
206.7610327172
 10
820.7316792039
 20
206.3305611376
 10
820.3148324387
 20
206.0173673877
  0
LWPOLYLINE
  5
204
330
1F
100
AcDbEntity
  8
0
  6
Continuous
 62
     7
370
    25
100
AcDbPolyline
 90
       22
 70
   128
 43
0.0
 10
788.4950272853
 20
191.7308889311
 10
788.07818052
 20
191.5628016502
 10
787.6983724192
 20
191.5547561307
 10
787.3893505993
 20
191.7074672525
 10
787.1785730051
 20
192.0073659621
 10
787.0847681509
 20
192.4278049431
 10
787.1162710095
 20
192.9314263471
 10
787.2702824139
 20
193.4734812021
 10
787.5331177748
 20
194.0058055555
 10
787.8814230169
 20
194.4811000524
 10
788.2842496911
 20
194.8571326911
 10
788.7058048795
 20
195.1004913213
 10
789.1086315536
 20
195.1895524608
 10
789.4569367958
 20
195.1164026366
 10
789.7197721567
 20
194.8875415315
 10
789.873783561
 20
194.523304459
 10
789.9052864197
 20
194.0560554815
 10
789.8114815655
 20
193.5273117211
 10
789.6007039713
 20
192.9840543812
 10
789.2916821513
 20
192.4745542607
 10
788.9118740505
 20
192.044082681
 10
788.4950272853
 20
191.7308889311
  0
LWPOLYLINE
  5
205
330
1F
100
AcDbEntity
  8
0
  6
Continuous
 62
     7
370
    25
100
AcDbPolyline
 90
       22
 70
   128
 43
0.0
 10
792.0305611912
 20
193.7719092107
 10
791.613714426
 20
193.6038219297
 10
791.2339063251
 20
193.5957764103
 10
790.9248845052
 20
193.7484875321
 10
790.714106911
 20
194.0483862417
 10
790.6203020568
 20
194.4688252227
 10
790.6518049155
 20
194.9724466266
 10
790.8058163198
 20
195.5145014816
 10
791.0686516807
 20
196.046825835
 10
791.4169569229
 20
196.522120332
 10
791.819783597
 20
196.8981529707
 10
792.2413387854
 20
197.1415116009
 10
792.6441654596
 20
197.2305727404
 10
792.9924707017
 20
197.1574229162
 10
793.2553060626
 20
196.928561811
 10
793.409317467
 20
196.5643247385
 10
793.4408203256
 20
196.097075761
 10
793.3470154714
 20
195.5683320006
 10
793.1362378772
 20
195.0250746608
 10
792.8272160573
 20
194.5155745402
 10
792.4474079564
 20
194.0851029605
 10
792.0305611912
 20
193.7719092107
  0
LWPOLYLINE
  5
206
330
1F
100
AcDbEntity
  8
0
  6
Continuous
 62
     7
370
    25
100
AcDbPolyline
 90
       22
 70
   128
 43
0.0
 10
795.5660950971
 20
195.8129294902
 10
795.1492483319
 20
195.6448422093
 10
794.7694402311
 20
195.6367966899
 10
794.4604184111
 20
195.7895078116
 10
794.249640817
 20
196.0894065212
 10
794.1558359627
 20
196.5098455023
 10
794.1873388214
 20
197.0134669062
 10
794.3413502257
 20
197.5555217612
 10
794.6041855866
 20
198.0878461146
 10
794.9524908288
 20
198.5631406116
 10
795.3553175029
 20
198.9391732502
 10
795.7768726913
 20
199.1825318804
 10
796.1796993655
 20
199.27159302
 10
796.5280046077
 20
199.1984431957
 10
796.7908399685
 20
198.9695820906
 10
796.9448513729
 20
198.6053450181
 10
796.9763542316
 20
198.1380960406
 10
796.8825493773
 20
197.6093522802
 10
796.6717717831
 20
197.0660949403
 10
796.3627499632
 20
196.5565948198
 10
795.9829418624
 20
196.1261232401
 10
795.5660950971
 20
195.8129294902
  0
LWPOLYLINE
  5
207
330
1F
100
AcDbEntity
  8
0
  6
Continuous
 62
     7
370
    25
100
AcDbPolyline
 90
       22
 70
   128
 43
0.0
 10
799.1016290031
 20
197.8539497698
 10
798.6847822378
 20
197.6858624889
 10
798.304974137
 20
197.6778169694
 10
797.9959523171
 20
197.8305280912
 10
797.7851747229
 20
198.1304268008
 10
797.6913698686
 20
198.5508657818
 10
797.7228727273
 20
199.0544871858
 10
797.8768841317
 20
199.5965420407
 10
798.1397194926
 20
200.1288663942
 10
798.4880247347
 20
200.6041608911
 10
798.8908514089
 20
200.9801935298
 10
799.3124065973
 20
201.22355216
 10
799.7152332714
 20
201.3126132995
 10
800.0635385136
 20
201.2394634753
 10
800.3263738745
 20
201.0106023701
 10
800.4803852788
 20
200.6463652977
 10
800.5118881375
 20
200.1791163201
 10
800.4180832833
 20
199.6503725597
 10
800.2073056891
 20
199.1071152199
 10
799.8982838691
 20
198.5976150993
 10
799.5184757683
 20
198.1671435196
 10
799.1016290031
 20
197.8539497698
  0
LWPOLYLINE
  5
208
330
1F
100
AcDbEntity
  8
0
  6
Continuous
 62
     7
370
    25
100
AcDbPolyline
 90
       22
 70
   128
 43
0.0
 10
802.637162909
 20
199.8949700493
 10
802.2203161438
 20
199.7268827684
 10
801.8405080429
 20
199.718837249
 10
801.531486223
 20
199.8715483707
 10
801.3207086288
 20
200.1714470803
 10
801.2269037746
 20
200.5918860614
 10
801.2584066333
 20
201.0955074653
 10
801.4124180376
 20
201.6375623203
 10
801.6752533985
 20
202.1698866737
 10
802.0235586407
 20
202.6451811707
 10
802.4263853148
 20
203.0212138093
 10
802.8479405032
 20
203.2645724395
 10
803.2507671774
 20
203.3536335791
 10
803.5990724195
 20
203.2804837548
 10
803.8619077804
 20
203.0516226497
 10
804.0159191847
 20
202.6873855772
 10
804.0474220434
 20
202.2201365997
 10
803.9536171892
 20
201.6913928393
 10
803.742839595
 20
201.1481354995
 10
803.4338177751
 20
200.6386353789
 10
803.0540096742
 20
200.2081637992
 10
802.637162909
 20
199.8949700493
  0
LWPOLYLINE
  5
209
330
1F
100
AcDbEntity
  8
0
  6
Continuous
 62
     7
370
    25
100
AcDbPolyline
 90
       22
 70
   128
 43
0.0
 10
806.1726968149
 20
201.9359903289
 10
805.7558500497
 20
201.767903048
 10
805.3760419489
 20
201.7598575285
 10
805.0670201289
 20
201.9125686503
 10
804.8562425347
 20
202.2124673599
 10
804.7624376805
 20
202.6329063409
 10
804.7939405392
 20
203.1365277449
 10
804.9479519435
 20
203.6785825999
 10
805.2107873044
 20
204.2109069533
 10
805.5590925466
 20
204.6862014502
 10
805.9619192207
 20
205.0622340889
 10
806.3834744091
 20
205.3055927191
 10
806.7863010833
 20
205.3946538586
 10
807.1346063255
 20
205.3215040344
 10
807.3974416863
 20
205.0926429292
 10
807.5514530907
 20
204.7284058568
 10
807.5829559494
 20
204.2611568792
 10
807.4891510951
 20
203.7324131188
 10
807.2783735009
 20
203.189155779
 10
806.969351681
 20
202.6796556584
 10
806.5895435802
 20
202.2491840788
 10
806.1726968149
 20
201.9359903289
  0
LWPOLYLINE
  5
20A
330
1F
100
AcDbEntity
  8
0
  6
Continuous
 62
     7
370
    25
100
AcDbPolyline
 90
       22
 70
   128
 43
0.0
 10
809.7082307209
 20
203.9770106085
 10
809.2913839556
 20
203.8089233275
 10
808.9115758548
 20
203.8008778081
 10
808.6025540349
 20
203.9535889298
 10
808.3917764407
 20
204.2534876394
 10
808.2979715864
 20
204.6739266205
 10
808.3294744451
 20
205.1775480244
 10
808.4834858495
 20
205.7196028794
 10
808.7463212104
 20
206.2519272328
 10
809.0946264525
 20
206.7272217298
 10
809.4974531267
 20
207.1032543684
 10
809.9190083151
 20
207.3466129987
 10
810.3218349892
 20
207.4356741382
 10
810.6701402314
 20
207.3625243139
 10
810.9329755923
 20
207.1336632088
 10
811.0869869966
 20
206.7694261363
 10
811.1184898553
 20
206.3021771588
 10
811.0246850011
 20
205.7734333984
 10
810.8139074069
 20
205.2301760586
 10
810.5048855869
 20
204.720675938
 10
810.1250774861
 20
204.2902043583
 10
809.7082307209
 20
203.9770106085
  0
LWPOLYLINE
  5
20B
330
1F
100
AcDbEntity
  8
0
  6
Continuous
 62
     7
370
    25
100
AcDbPolyline
 90
       22
 70
   128
 43
0.0
 10
813.2437646268
 20
206.018030888
 10
812.8269178616
 20
205.8499436071
 10
812.4471097607
 20
205.8418980876
 10
812.1380879408
 20
205.9946092094
 10
811.9273103466
 20
206.294507919
 10
811.8335054924
 20
206.7149469
 10
811.8650083511
 20
207.218568304
 10
812.0190197554
 20
207.760623159
 10
812.2818551163
 20
208.2929475124
 10
812.6301603585
 20
208.7682420093
 10
813.0329870326
 20
209.144274648
 10
813.454542221
 20
209.3876332782
 10
813.8573688952
 20
209.4766944177
 10
814.2056741373
 20
209.4035445935
 10
814.4685094982
 20
209.1746834884
 10
814.6225209025
 20
208.8104464159
 10
814.6540237612
 20
208.3431974384
 10
814.560218907
 20
207.814453678
 10
814.3494413128
 20
207.2711963381
 10
814.0404194929
 20
206.7616962176
 10
813.660611392
 20
206.3312246379
 10
813.2437646268
 20
206.018030888
  0
LINE
  5
20C
330
1F
100
AcDbEntity
  8
0
  6
Continuous
 62
     7
370
    25
100
AcDbLine
 10
673.9437287331
 20
98.0027524317
 30
0.0
 11
826.6080827912
 21
186.134008103
 31
0.0
  0
LINE
  5
20D
330
1F
100
AcDbEntity
  8
0
  6
Continuous
 62
     7
370
    25
100
AcDbLine
 10
826.6080827912
 20
186.134008103
 30
0.0
 11
826.6080827912
 21
220.755338527
 31
0.0
  0
LWPOLYLINE
  5
20E
330
1F
100
AcDbEntity
  8
0
  6
Continuous
 62
     7
370
    25
100
AcDbPolyline
 90
       21
 70
   128
 43
0.0
 10
739.6693040443
 20
151.8270382199
 10
740.0516930657
 20
152.117724319
 10
740.3966511855
 20
152.5198312692
 10
740.6704114993
 20
152.9939980404
 10
740.8461764403
 20
153.4938098855
 10
740.9067409114
 20
153.9703417385
 10
740.8461764403
 20
154.3769473416
 10
740.6704114993
 20
154.6738253053
 10
740.3966511855
 20
154.8319151461
 10
740.0516930657
 20
154.8357419289
 10
739.6693040443
 20
154.6849310615
 10
739.286915023
 20
154.3942449623
 10
738.9419569032
 20
153.9921380122
 10
738.6681965894
 20
153.5179712409
 10
738.4924316484
 20
153.0181593959
 10
738.4318671773
 20
152.5416275428
 10
738.4924316484
 20
152.1350219397
 10
738.6681965894
 20
151.838143976
 10
738.9419569032
 20
151.6800541352
 10
739.286915023
 20
151.6762273524
 10
739.6693040443
 20
151.8270382199
  0
LWPOLYLINE
  5
20F
330
1F
100
AcDbEntity
  8
0
  6
Continuous
 62
     7
370
    25
100
AcDbPolyline
 90
       21
 70
   128
 43
0.0
 10
760.8825074799
 20
164.0731598972
 10
761.2648965013
 20
164.3638459964
 10
761.6098546211
 20
164.7659529465
 10
761.8836149349
 20
165.2401197178
 10
762.0593798759
 20
165.7399315628
 10
762.119944347
 20
166.2164634159
 10
762.0593798759
 20
166.623069019
 10
761.8836149349
 20
166.9199469827
 10
761.6098546211
 20
167.0780368235
 10
761.2648965013
 20
167.0818636062
 10
760.8825074799
 20
166.9310527388
 10
760.5001184585
 20
166.6403666397
 10
760.1551603388
 20
166.2382596895
 10
759.881400025
 20
165.7640929183
 10
759.705635084
 20
165.2642810732
 10
759.6450706129
 20
164.7877492202
 10
759.705635084
 20
164.3811436171
 10
759.881400025
 20
164.0842656533
 10
760.1551603388
 20
163.9261758126
 10
760.5001184585
 20
163.9223490298
 10
760.8825074799
 20
164.0731598972
  0
LWPOLYLINE
  5
210
330
1F
100
AcDbEntity
  8
0
  6
Continuous
 62
     7
370
    25
100
AcDbPolyline
 90
       22
 70
   128
 43
0.0
 10
820.3148324387
 20
210.1000714471
 10
819.8979856734
 20
209.9319841662
 10
819.5181775726
 20
209.9239386468
 10
819.2091557527
 20
210.0766497685
 10
818.9983781585
 20
210.3765484781
 10
818.9045733042
 20
210.7969874592
 10
818.9360761629
 20
211.3006088631
 10
819.0900875673
 20
211.8426637181
 10
819.3529229282
 20
212.3749880715
 10
819.7012281703
 20
212.8502825685
 10
820.1040548445
 20
213.2263152071
 10
820.5256100329
 20
213.4696738373
 10
820.928436707
 20
213.5587349769
 10
821.2767419492
 20
213.4855851526
 10
821.5395773101
 20
213.2567240475
 10
821.6935887144
 20
212.892486975
 10
821.7250915731
 20
212.4252379975
 10
821.6312867189
 20
211.8964942371
 10
821.4205091247
 20
211.3532368972
 10
821.1114873047
 20
210.8437367767
 10
820.7316792039
 20
210.413265197
 10
820.3148324387
 20
210.1000714471
  0
LWPOLYLINE
  5
211
330
1F
100
AcDbEntity
  8
0
  6
Continuous
 62
     7
370
    25
100
AcDbPolyline
 90
       22
 70
   128
 43
0.0
 10
816.7792985327
 20
208.0590511676
 10
816.3624517675
 20
207.8909638866
 10
815.9826436667
 20
207.8829183672
 10
815.6736218467
 20
208.0356294889
 10
815.4628442525
 20
208.3355281986
 10
815.3690393983
 20
208.7559671796
 10
815.400542257
 20
209.2595885835
 10
815.5545536613
 20
209.8016434385
 10
815.8173890222
 20
210.3339677919
 10
816.1656942644
 20
210.8092622889
 10
816.5685209385
 20
211.1852949276
 10
816.9900761269
 20
211.4286535578
 10
817.3929028011
 20
211.5177146973
 10
817.7412080432
 20
211.4445648731
 10
818.0040434041
 20
211.2157037679
 10
818.1580548085
 20
210.8514666954
 10
818.1895576672
 20
210.3842177179
 10
818.0957528129
 20
209.8554739575
 10
817.8849752187
 20
209.3122166177
 10
817.5759533988
 20
208.8027164971
 10
817.196145298
 20
208.3722449174
 10
816.7792985327
 20
208.0590511676
  0
ARC
  5
212
330
1F
100
AcDbEntity
  8
0
  6
Continuous
 62
     7
370
    25
100
AcDbCircle
 10
668.3978945312
 20
120.2551038729
 30
0.0
 40
2.011908943607111
100
AcDbArc
 50
234.3824225248
 51
294.3071190461
  0
LINE
  5
213
330
1F
100
AcDbEntity
  8
0
  6
Continuous
 62
     7
370
    25
100
AcDbLine
 10
605.7079243486
 20
154.1333314207
 30
0.0
 11
667.2262143118
 21
118.6195785565
 31
0.0
  0
ARC
  5
214
330
1F
100
AcDbEntity
  8
0
  6
Continuous
 62
     7
370
    25
100
AcDbCircle
 10
609.0203616293
 20
159.311754301
 30
0.0
 40
6.147219230288111
100
AcDbArc
 50
182.6054784857
 51
237.39452166
  0
LINE
  5
215
330
1F
100
AcDbEntity
  8
0
  6
Continuous
 62
     7
370
    25
100
AcDbLine
 10
602.8794972238
 20
166.3811781989
 30
0.0
 11
602.8794972238
 21
159.0323108919
 31
0.0
  0
ARC
  5
216
330
1F
100
AcDbEntity
  8
0
  6
Continuous
 62
     7
370
    25
100
AcDbCircle
 10
604.9546735011
 20
166.5650955662
 30
0.0
 40
2.083310389703303
100
AcDbArc
 50
131.8396357555
 51
185.0647397262
  0
LWPOLYLINE
  5
217
330
1F
100
AcDbEntity
  8
0
  6
Continuous
 62
     7
370
    25
100
AcDbPolyline
 90
       13
 70
   128
 43
0.0
 10
666.152049815
 20
125.1596014074
 10
666.0903714251
 20
125.8501007879
 10
665.9082202684
 20
126.5795255381
 10
665.6141135306
 20
127.3137685671
 10
665.2218033158
 20
128.0184974871
 10
664.7496336137
 20
128.660759957
 10
664.2196825547
 20
129.2105244975
 10
663.6567300613
 20
129.6420847298
 10
663.0870991666
 20
129.935261377
 10
662.5374251779
 20
130.0763458249
 10
662.0334102402
 20
130.0587411216
 10
661.5986215317
 20
129.8832704434
 10
661.3275711456
 20
129.6496089468
  0
ARC
  5
218
330
1F
100
AcDbEntity
  8
0
  6
Continuous
 62
     7
370
    25
100
AcDbCircle
 10
664.4764257838
 20
124.9182052069
 30
0.0
 40
1.692922921920279
100
AcDbArc
 50
287.7950168341
 51
8.1978255933
  0
ARC
  5
219
330
1F
100
AcDbEntity
  8
0
  6
Continuous
 62
     7
370
    25
100
AcDbCircle
 10
670.5861689423
 20
113.4150045991
 30
0.0
 40
2.212152995663015
100
AcDbArc
 50
167.6263336948
 51
252.3682897725
  0
ARC
  5
21A
330
1F
100
AcDbEntity
  8
0
  6
Continuous
 62
     7
370
    25
100
AcDbCircle
 10
670.5861689423
 20
109.7405709456
 30
0.0
 40
2.212152995662958
100
AcDbArc
 50
167.6263336948
 51
252.3682897725
  0
ARC
  5
21B
330
1F
100
AcDbEntity
  8
0
  6
Continuous
 62
     7
370
    25
100
AcDbCircle
 10
667.404188427
 20
115.2519228507
 30
0.0
 40
2.212152995663483
100
AcDbArc
 50
167.6263336948
 51
252.3682897725
  0
ARC
  5
21C
330
1F
100
AcDbEntity
  8
0
  6
Continuous
 62
     7
370
    25
100
AcDbCircle
 10
670.5861689423
 20
106.0661372921
 30
0.0
 40
2.212152995662463
100
AcDbArc
 50
167.6263336948
 51
252.3682897725
  0
ARC
  5
21D
330
1F
100
AcDbEntity
  8
0
  6
Continuous
 62
     7
370
    25
100
AcDbCircle
 10
667.404188427
 20
111.5774891972
 30
0.0
 40
2.212152995662169
100
AcDbArc
 50
167.6263336947
 51
252.3682897726
  0
ARC
  5
21E
330
1F
100
AcDbEntity
  8
0
  6
Continuous
 62
     7
370
    25
100
AcDbCircle
 10
664.2222079117
 20
117.0888411023
 30
0.0
 40
2.212152995663004
100
AcDbArc
 50
167.6263336948
 51
252.3682897725
  0
ARC
  5
21F
330
1F
100
AcDbEntity
  8
0
  6
Continuous
 62
     7
370
    25
100
AcDbCircle
 10
667.404188427
 20
107.9030555437
 30
0.0
 40
2.212152995662017
100
AcDbArc
 50
167.6263336947
 51
252.3682897726
  0
ARC
  5
220
330
1F
100
AcDbEntity
  8
0
  6
Continuous
 62
     7
370
    25
100
AcDbCircle
 10
664.2222079117
 20
113.4144074488
 30
0.0
 40
2.212152995662124
100
AcDbArc
 50
167.6263336947
 51
252.3682897726
  0
ARC
  5
221
330
1F
100
AcDbEntity
  8
0
  6
Continuous
 62
     7
370
    25
100
AcDbCircle
 10
661.0402273963
 20
118.9257593539
 30
0.0
 40
2.212152995663542
100
AcDbArc
 50
167.6263336948
 51
252.3682897725
  0
ARC
  5
222
330
1F
100
AcDbEntity
  8
0
  6
Continuous
 62
     7
370
    25
100
AcDbCircle
 10
664.2222079117
 20
109.7399737953
 30
0.0
 40
2.212152995662063
100
AcDbArc
 50
167.6263336947
 51
252.3682897726
  0
ARC
  5
223
330
1F
100
AcDbEntity
  8
0
  6
Continuous
 62
     7
370
    25
100
AcDbCircle
 10
661.0402273963
 20
115.2513257004
 30
0.0
 40
2.212152995662167
100
AcDbArc
 50
167.6263336947
 51
252.3682897726
  0
ARC
  5
224
330
1F
100
AcDbEntity
  8
0
  6
Continuous
 62
     7
370
    25
100
AcDbCircle
 10
657.858246881
 20
120.7626776055
 30
0.0
 40
2.212152995662354
100
AcDbArc
 50
167.6263336948
 51
252.3682897725
  0
ARC
  5
225
330
1F
100
AcDbEntity
  8
0
  6
Continuous
 62
     7
370
    25
100
AcDbCircle
 10
661.0402273963
 20
111.5768920469
 30
0.0
 40
2.212152995662221
100
AcDbArc
 50
167.6263336947
 51
252.3682897726
  0
ARC
  5
226
330
1F
100
AcDbEntity
  8
0
  6
Continuous
 62
     7
370
    25
100
AcDbCircle
 10
657.858246881
 20
117.088243952
 30
0.0
 40
2.212152995662119
100
AcDbArc
 50
167.6263336947
 51
252.3682897726
  0
ARC
  5
227
330
1F
100
AcDbEntity
  8
0
  6
Continuous
 62
     7
370
    25
100
AcDbCircle
 10
654.6762663656
 20
122.5995958571
 30
0.0
 40
2.212152995662215
100
AcDbArc
 50
167.6263336947
 51
252.3682897726
  0
ARC
  5
228
330
1F
100
AcDbEntity
  8
0
  6
Continuous
 62
     7
370
    25
100
AcDbCircle
 10
657.858246881
 20
113.4138102985
 30
0.0
 40
2.212152995663328
100
AcDbArc
 50
167.6263336948
 51
252.3682897725
  0
ARC
  5
229
330
1F
100
AcDbEntity
  8
0
  6
Continuous
 62
     7
370
    25
100
AcDbCircle
 10
654.6762663656
 20
118.9251622036
 30
0.0
 40
2.212152995662592
100
AcDbArc
 50
167.6263336948
 51
252.3682897725
  0
ARC
  5
22A
330
1F
100
AcDbEntity
  8
0
  6
Continuous
 62
     7
370
    25
100
AcDbCircle
 10
651.4942858503
 20
124.4365141087
 30
0.0
 40
2.212152995662019
100
AcDbArc
 50
167.6263336947
 51
252.3682897726
  0
ARC
  5
22B
330
1F
100
AcDbEntity
  8
0
  6
Continuous
 62
     7
370
    25
100
AcDbCircle
 10
654.6762663656
 20
115.2507285501
 30
0.0
 40
2.212152995662647
100
AcDbArc
 50
167.6263336948
 51
252.3682897725
  0
ARC
  5
22C
330
1F
100
AcDbEntity
  8
0
  6
Continuous
 62
     7
370
    25
100
AcDbCircle
 10
651.4942858503
 20
120.7620804552
 30
0.0
 40
2.212152995662013
100
AcDbArc
 50
167.6263336947
 51
252.3682897726
  0
ARC
  5
22D
330
1F
100
AcDbEntity
  8
0
  6
Continuous
 62
     7
370
    25
100
AcDbCircle
 10
648.312305335
 20
126.2734323603
 30
0.0
 40
2.21215299566303
100
AcDbArc
 50
167.6263336948
 51
252.3682897725
  0
ARC
  5
22E
330
1F
100
AcDbEntity
  8
0
  6
Continuous
 62
     7
370
    25
100
AcDbCircle
 10
651.4942858503
 20
117.0876468017
 30
0.0
 40
2.212152995663412
100
AcDbArc
 50
167.6263336948
 51
252.3682897725
  0
ARC
  5
22F
330
1F
100
AcDbEntity
  8
0
  6
Continuous
 62
     7
370
    25
100
AcDbCircle
 10
648.312305335
 20
122.5989987068
 30
0.0
 40
2.212152995662303
100
AcDbArc
 50
167.6263336947
 51
252.3682897726
  0
ARC
  5
230
330
1F
100
AcDbEntity
  8
0
  6
Continuous
 62
     7
370
    25
100
AcDbCircle
 10
645.1303248196
 20
128.1103506119
 30
0.0
 40
2.212152995663098
100
AcDbArc
 50
167.6263336948
 51
252.3682897725
  0
ARC
  5
231
330
1F
100
AcDbEntity
  8
0
  6
Continuous
 62
     7
370
    25
100
AcDbCircle
 10
648.312305335
 20
118.9245650533
 30
0.0
 40
2.212152995661836
100
AcDbArc
 50
167.6263336947
 51
252.3682897726
  0
ARC
  5
232
330
1F
100
AcDbEntity
  8
0
  6
Continuous
 62
     7
370
    25
100
AcDbCircle
 10
645.1303248196
 20
124.4359169584
 30
0.0
 40
2.212152995663982
100
AcDbArc
 50
167.6263336948
 51
252.3682897725
  0
ARC
  5
233
330
1F
100
AcDbEntity
  8
0
  6
Continuous
 62
     7
370
    25
100
AcDbCircle
 10
641.9483443043
 20
129.9472688635
 30
0.0
 40
2.212152995663565
100
AcDbArc
 50
167.6263336948
 51
252.3682897725
  0
ARC
  5
234
330
1F
100
AcDbEntity
  8
0
  6
Continuous
 62
     7
370
    25
100
AcDbCircle
 10
645.1303248196
 20
120.7614833049
 30
0.0
 40
2.212152995662683
100
AcDbArc
 50
167.6263336948
 51
252.3682897725
  0
ARC
  5
235
330
1F
100
AcDbEntity
  8
0
  6
Continuous
 62
     7
370
    25
100
AcDbCircle
 10
641.9483443043
 20
126.27283521
 30
0.0
 40
2.21215299566272
100
AcDbArc
 50
167.6263336948
 51
252.3682897725
  0
ARC
  5
236
330
1F
100
AcDbEntity
  8
0
  6
Continuous
 62
     7
370
    25
100
AcDbCircle
 10
638.7663637889
 20
131.7841871151
 30
0.0
 40
2.212152995663022
100
AcDbArc
 50
167.6263336948
 51
252.3682897725
  0
ARC
  5
237
330
1F
100
AcDbEntity
  8
0
  6
Continuous
 62
     7
370
    25
100
AcDbCircle
 10
641.9483443043
 20
122.5984015565
 30
0.0
 40
2.212152995662949
100
AcDbArc
 50
167.6263336948
 51
252.3682897725
  0
ARC
  5
238
330
1F
100
AcDbEntity
  8
0
  6
Continuous
 62
     7
370
    25
100
AcDbCircle
 10
638.7663637889
 20
128.1097534616
 30
0.0
 40
2.212152995662809
100
AcDbArc
 50
167.6263336948
 51
252.3682897725
  0
ARC
  5
239
330
1F
100
AcDbEntity
  8
0
  6
Continuous
 62
     7
370
    25
100
AcDbCircle
 10
635.5843832736
 20
133.6211053667
 30
0.0
 40
2.212152995663644
100
AcDbArc
 50
167.6263336948
 51
252.3682897725
  0
ARC
  5
23A
330
1F
100
AcDbEntity
  8
0
  6
Continuous
 62
     7
370
    25
100
AcDbCircle
 10
638.7663637889
 20
124.4353198081
 30
0.0
 40
2.2121529956614
100
AcDbArc
 50
167.6263336947
 51
252.3682897726
  0
ARC
  5
23B
330
1F
100
AcDbEntity
  8
0
  6
Continuous
 62
     7
370
    25
100
AcDbCircle
 10
635.5843832736
 20
129.9466717132
 30
0.0
 40
2.212152995662707
100
AcDbArc
 50
167.6263336948
 51
252.3682897725
  0
ARC
  5
23C
330
1F
100
AcDbEntity
  8
0
  6
Continuous
 62
     7
370
    25
100
AcDbCircle
 10
632.4024027583
 20
135.4580236183
 30
0.0
 40
2.21215299566364
100
AcDbArc
 50
167.6263336948
 51
252.3682897725
  0
ARC
  5
23D
330
1F
100
AcDbEntity
  8
0
  6
Continuous
 62
     7
370
    25
100
AcDbCircle
 10
635.5843832736
 20
126.2722380597
 30
0.0
 40
2.212152995661961
100
AcDbArc
 50
167.6263336947
 51
252.3682897726
  0
ARC
  5
23E
330
1F
100
AcDbEntity
  8
0
  6
Continuous
 62
     7
370
    25
100
AcDbCircle
 10
632.4024027583
 20
131.7835899648
 30
0.0
 40
2.212152995663428
100
AcDbArc
 50
167.6263336948
 51
252.3682897725
  0
ARC
  5
23F
330
1F
100
AcDbEntity
  8
0
  6
Continuous
 62
     7
370
    25
100
AcDbCircle
 10
629.2204222429
 20
137.2949418699
 30
0.0
 40
2.21215299566328
100
AcDbArc
 50
167.6263336948
 51
252.3682897725
  0
ARC
  5
240
330
1F
100
AcDbEntity
  8
0
  6
Continuous
 62
     7
370
    25
100
AcDbCircle
 10
632.4024027583
 20
128.1091563113
 30
0.0
 40
2.212152995661604
100
AcDbArc
 50
167.6263336947
 51
252.3682897726
  0
ARC
  5
241
330
1F
100
AcDbEntity
  8
0
  6
Continuous
 62
     7
370
    25
100
AcDbCircle
 10
629.2204222429
 20
133.6205082164
 30
0.0
 40
2.212152995661126
100
AcDbArc
 50
167.6263336947
 51
252.3682897726
  0
ARC
  5
242
330
1F
100
AcDbEntity
  8
0
  6
Continuous
 62
     7
370
    25
100
AcDbCircle
 10
626.0384417276
 20
139.1318601215
 30
0.0
 40
2.212152995663884
100
AcDbArc
 50
167.6263336948
 51
252.3682897725
  0
ARC
  5
243
330
1F
100
AcDbEntity
  8
0
  6
Continuous
 62
     7
370
    25
100
AcDbCircle
 10
629.2204222429
 20
129.9460745629
 30
0.0
 40
2.212152995662465
100
AcDbArc
 50
167.6263336948
 51
252.3682897725
  0
ARC
  5
244
330
1F
100
AcDbEntity
  8
0
  6
Continuous
 62
     7
370
    25
100
AcDbCircle
 10
626.0384417276
 20
135.457426468
 30
0.0
 40
2.212152995662385
100
AcDbArc
 50
167.6263336948
 51
252.3682897725
  0
ARC
  5
245
330
1F
100
AcDbEntity
  8
0
  6
Continuous
 62
     7
370
    25
100
AcDbCircle
 10
622.8564612122
 20
140.9687783731
 30
0.0
 40
2.21215299566268
100
AcDbArc
 50
167.6263336948
 51
252.3682897725
  0
ARC
  5
246
330
1F
100
AcDbEntity
  8
0
  6
Continuous
 62
     7
370
    25
100
AcDbCircle
 10
626.0384417276
 20
131.7829928145
 30
0.0
 40
2.212152995661639
100
AcDbArc
 50
167.6263336947
 51
252.3682897726
  0
ARC
  5
247
330
1F
100
AcDbEntity
  8
0
  6
Continuous
 62
     7
370
    25
100
AcDbCircle
 10
622.8564612122
 20
137.2943447196
 30
0.0
 40
2.212152995661927
100
AcDbArc
 50
167.6263336947
 51
252.3682897726
  0
ARC
  5
248
330
1F
100
AcDbEntity
  8
0
  6
Continuous
 62
     7
370
    25
100
AcDbCircle
 10
619.6744806969
 20
142.8056966247
 30
0.0
 40
2.212152995664115
100
AcDbArc
 50
167.6263336948
 51
252.3682897725
  0
ARC
  5
249
330
1F
100
AcDbEntity
  8
0
  6
Continuous
 62
     7
370
    25
100
AcDbCircle
 10
622.8564612122
 20
133.6199110661
 30
0.0
 40
2.212152995661743
100
AcDbArc
 50
167.6263336947
 51
252.3682897726
  0
ARC
  5
24A
330
1F
100
AcDbEntity
  8
0
  6
Continuous
 62
     7
370
    25
100
AcDbCircle
 10
619.6744806969
 20
139.1312629712
 30
0.0
 40
2.212152995663148
100
AcDbArc
 50
167.6263336948
 51
252.3682897725
  0
ARC
  5
24B
330
1F
100
AcDbEntity
  8
0
  6
Continuous
 62
     7
370
    25
100
AcDbCircle
 10
616.4925001816
 20
144.6426148763
 30
0.0
 40
2.212152995661853
100
AcDbArc
 50
167.6263336947
 51
252.3682897726
  0
ARC
  5
24C
330
1F
100
AcDbEntity
  8
0
  6
Continuous
 62
     7
370
    25
100
AcDbCircle
 10
736.7405649406
 20
154.9467097372
 30
0.0
 40
2.764816437833122
100
AcDbArc
 50
308.1049568734
 51
351.9004196593
  0
ARC
  5
24D
330
1F
100
AcDbEntity
  8
0
  6
Continuous
 62
     7
370
    25
100
AcDbCircle
 10
619.6744806969
 20
135.4568293177
 30
0.0
 40
2.212152995663659
100
AcDbArc
 50
167.6263336948
 51
252.3682897725
  0
ARC
  5
24E
330
1F
100
AcDbEntity
  8
0
  6
Continuous
 62
     7
370
    25
100
AcDbCircle
 10
616.4925001816
 20
140.9681812228
 30
0.0
 40
2.212152995664132
100
AcDbArc
 50
167.6263336949
 51
252.3682897725
  0
ARC
  5
24F
330
1F
100
AcDbEntity
  8
0
  6
Continuous
 62
     7
370
    25
100
AcDbCircle
 10
613.3105196662
 20
146.4795331279
 30
0.0
 40
2.212152995660674
100
AcDbArc
 50
167.6263336947
 51
252.3682897726
  0
ARC
  5
250
330
1F
100
AcDbEntity
  8
0
  6
Continuous
 62
     7
370
    25
100
AcDbCircle
 10
616.4925001816
 20
137.2937475693
 30
0.0
 40
2.212152995662733
100
AcDbArc
 50
167.6263336948
 51
252.3682897725
  0
ARC
  5
251
330
1F
100
AcDbEntity
  8
0
  6
Continuous
 62
     7
370
    25
100
AcDbCircle
 10
613.3105196662
 20
142.8050994744
 30
0.0
 40
2.212152995660955
100
AcDbArc
 50
167.6263336947
 51
252.3682897726
  0
ARC
  5
252
330
1F
100
AcDbEntity
  8
0
  6
Continuous
 62
     7
370
    25
100
AcDbCircle
 10
610.1285391509
 20
148.3164513795
 30
0.0
 40
2.212152995661883
100
AcDbArc
 50
167.6263336947
 51
252.3682897726
  0
ARC
  5
253
330
1F
100
AcDbEntity
  8
0
  6
Continuous
 62
     7
370
    25
100
AcDbCircle
 10
613.3105196662
 20
139.1306658209
 30
0.0
 40
2.212152995661044
100
AcDbArc
 50
167.6263336947
 51
252.3682897726
  0
ARC
  5
254
330
1F
100
AcDbEntity
  8
0
  6
Continuous
 62
     7
370
    25
100
AcDbCircle
 10
610.1285391509
 20
144.642017726
 30
0.0
 40
2.212152995663103
100
AcDbArc
 50
167.6263336948
 51
252.3682897725
  0
ARC
  5
255
330
1F
100
AcDbEntity
  8
0
  6
Continuous
 62
     7
370
    25
100
AcDbCircle
 10
606.9465586355
 20
150.1533696311
 30
0.0
 40
2.212152995662134
100
AcDbArc
 50
167.6263336948
 51
252.3682897726
  0
ARC
  5
256
330
1F
100
AcDbEntity
  8
0
  6
Continuous
 62
     7
370
    25
100
AcDbCircle
 10
610.1285391509
 20
140.9675840725
 30
0.0
 40
2.212152995663451
100
AcDbArc
 50
167.6263336948
 51
252.3682897725
  0
ARC
  5
257
330
1F
100
AcDbEntity
  8
0
  6
Continuous
 62
     7
370
    25
100
AcDbCircle
 10
606.9465586355
 20
146.4789359776
 30
0.0
 40
2.2121529956614
100
AcDbArc
 50
167.6263336947
 51
252.3682897726
  0
ARC
  5
258
330
1F
100
AcDbEntity
  8
0
  6
Continuous
 62
     7
370
    25
100
AcDbCircle
 10
603.7645781202
 20
151.9902878827
 30
0.0
 40
2.212152995661386
100
AcDbArc
 50
167.6263336947
 51
252.3682897726
  0
ARC
  5
259
330
1F
100
AcDbEntity
  8
0
  6
Continuous
 62
     7
370
    25
100
AcDbCircle
 10
606.9465586355
 20
142.8045023241
 30
0.0
 40
2.212152995663049
100
AcDbArc
 50
167.6263336948
 51
252.3682897725
  0
ARC
  5
25A
330
1F
100
AcDbEntity
  8
0
  6
Continuous
 62
     7
370
    25
100
AcDbCircle
 10
603.7645781202
 20
148.3158542292
 30
0.0
 40
2.212152995663408
100
AcDbArc
 50
167.6263336948
 51
252.3682897725
  0
ARC
  5
25B
330
1F
100
AcDbEntity
  8
0
  6
Continuous
 62
     7
370
    25
100
AcDbCircle
 10
603.7645781202
 20
144.6414205757
 30
0.0
 40
2.212152995663386
100
AcDbArc
 50
167.6263336948
 51
252.3682897725
  0
ARC
  5
25C
330
1F
100
AcDbEntity
  8
0
  6
Continuous
 62
     7
370
    25
100
AcDbCircle
 10
757.9537683762
 20
167.1928314145
 30
0.0
 40
2.764816437832408
100
AcDbArc
 50
308.1049568734
 51
351.9004196593
  0
ARC
  5
25D
330
1F
100
AcDbEntity
  8
0
  6
Continuous
 62
     7
370
    25
100
AcDbCircle
 10
786.6268750614
 20
194.442431878
 30
0.0
 40
2.560975410605926
100
AcDbArc
 50
283.0724651351
 51
16.9329113976
  0
ARC
  5
25E
330
1F
100
AcDbEntity
  8
0
  6
Continuous
 62
     7
370
    25
100
AcDbCircle
 10
790.1624089673
 20
196.4834521576
 30
0.0
 40
2.560975410605872
100
AcDbArc
 50
283.0724651351
 51
16.9329113976
  0
ARC
  5
25F
330
1F
100
AcDbEntity
  8
0
  6
Continuous
 62
     7
370
    25
100
AcDbCircle
 10
790.1624089673
 20
192.4007480982
 30
0.0
 40
2.560975410606795
100
AcDbArc
 50
283.0724651351
 51
16.9329113976
  0
ARC
  5
260
330
1F
100
AcDbEntity
  8
0
  6
Continuous
 62
     7
370
    25
100
AcDbCircle
 10
793.6979428733
 20
198.5244724371
 30
0.0
 40
2.560975410606007
100
AcDbArc
 50
283.0724651351
 51
16.9329113976
  0
ARC
  5
261
330
1F
100
AcDbEntity
  8
0
  6
Continuous
 62
     7
370
    25
100
AcDbCircle
 10
793.6979428733
 20
194.4417683777
 30
0.0
 40
2.560975410606511
100
AcDbArc
 50
283.0724651351
 51
16.9329113976
  0
ARC
  5
262
330
1F
100
AcDbEntity
  8
0
  6
Continuous
 62
     7
370
    25
100
AcDbCircle
 10
797.2334767792
 20
200.5654927167
 30
0.0
 40
2.5609754106059
100
AcDbArc
 50
283.0724651351
 51
16.9329113976
  0
ARC
  5
263
330
1F
100
AcDbEntity
  8
0
  6
Continuous
 62
     7
370
    25
100
AcDbCircle
 10
793.6979428733
 20
190.3590643183
 30
0.0
 40
2.560975410605123
100
AcDbArc
 50
283.0724651351
 51
16.9329113976
  0
ARC
  5
264
330
1F
100
AcDbEntity
  8
0
  6
Continuous
 62
     7
370
    25
100
AcDbCircle
 10
797.2334767792
 20
196.4827886573
 30
0.0
 40
2.560975410605852
100
AcDbArc
 50
283.0724651351
 51
16.9329113976
  0
ARC
  5
265
330
1F
100
AcDbEntity
  8
0
  6
Continuous
 62
     7
370
    25
100
AcDbCircle
 10
800.7690106851
 20
202.6065129963
 30
0.0
 40
2.560975410606939
100
AcDbArc
 50
283.0724651351
 51
16.9329113976
  0
ARC
  5
266
330
1F
100
AcDbEntity
  8
0
  6
Continuous
 62
     7
370
    25
100
AcDbCircle
 10
797.2334767792
 20
192.4000845978
 30
0.0
 40
2.56097541060562
100
AcDbArc
 50
283.072465135
 51
16.9329113976
  0
ARC
  5
267
330
1F
100
AcDbEntity
  8
0
  6
Continuous
 62
     7
370
    25
100
AcDbCircle
 10
800.7690106851
 20
198.5238089368
 30
0.0
 40
2.560975410606931
100
AcDbArc
 50
283.0724651351
 51
16.9329113976
  0
ARC
  5
268
330
1F
100
AcDbEntity
  8
0
  6
Continuous
 62
     7
370
    25
100
AcDbCircle
 10
804.3045445911
 20
204.6475332758
 30
0.0
 40
2.560975410606934
100
AcDbArc
 50
283.0724651351
 51
16.9329113976
  0
ARC
  5
269
330
1F
100
AcDbEntity
  8
0
  6
Continuous
 62
     7
370
    25
100
AcDbCircle
 10
800.7690106851
 20
194.4411048774
 30
0.0
 40
2.560975410605534
100
AcDbArc
 50
283.0724651351
 51
16.9329113976
  0
ARC
  5
26A
330
1F
100
AcDbEntity
  8
0
  6
Continuous
 62
     7
370
    25
100
AcDbCircle
 10
804.3045445911
 20
200.5648292164
 30
0.0
 40
2.560975410605334
100
AcDbArc
 50
283.0724651351
 51
16.9329113976
  0
ARC
  5
26B
330
1F
100
AcDbEntity
  8
0
  6
Continuous
 62
     7
370
    25
100
AcDbCircle
 10
807.840078497
 20
206.6885535554
 30
0.0
 40
2.560975410607468
100
AcDbArc
 50
283.0724651352
 51
16.9329113975
  0
ARC
  5
26C
330
1F
100
AcDbEntity
  8
0
  6
Continuous
 62
     7
370
    25
100
AcDbCircle
 10
804.3045445911
 20
196.482125157
 30
0.0
 40
2.560975410605423
100
AcDbArc
 50
283.0724651351
 51
16.9329113976
  0
ARC
  5
26D
330
1F
100
AcDbEntity
  8
0
  6
Continuous
 62
     7
370
    25
100
AcDbCircle
 10
807.840078497
 20
202.6058494959
 30
0.0
 40
2.560975410607043
100
AcDbArc
 50
283.0724651351
 51
16.9329113976
  0
ARC
  5
26E
330
1F
100
AcDbEntity
  8
0
  6
Continuous
 62
     7
370
    25
100
AcDbCircle
 10
811.3756124029
 20
208.7295738349
 30
0.0
 40
2.560975410606349
100
AcDbArc
 50
283.0724651351
 51
16.9329113976
  0
ARC
  5
26F
330
1F
100
AcDbEntity
  8
0
  6
Continuous
 62
     7
370
    25
100
AcDbCircle
 10
807.840078497
 20
198.5231454365
 30
0.0
 40
2.560975410605154
100
AcDbArc
 50
283.072465135
 51
16.9329113977
  0
ARC
  5
270
330
1F
100
AcDbEntity
  8
0
  6
Continuous
 62
     7
370
    25
100
AcDbCircle
 10
811.3756124029
 20
204.6468697755
 30
0.0
 40
2.560975410605576
100
AcDbArc
 50
283.0724651351
 51
16.9329113976
  0
ARC
  5
271
330
1F
100
AcDbEntity
  8
0
  6
Continuous
 62
     7
370
    25
100
AcDbCircle
 10
814.9111463089
 20
210.7705941145
 30
0.0
 40
2.560975410606327
100
AcDbArc
 50
283.0724651351
 51
16.9329113976
  0
ARC
  5
272
330
1F
100
AcDbEntity
  8
0
  6
Continuous
 62
     7
370
    25
100
AcDbCircle
 10
811.3756124029
 20
200.5641657161
 30
0.0
 40
2.560975410605843
100
AcDbArc
 50
283.0724651351
 51
16.9329113976
  0
ARC
  5
273
330
1F
100
AcDbEntity
  8
0
  6
Continuous
 62
     7
370
    25
100
AcDbCircle
 10
814.9111463089
 20
206.6878900551
 30
0.0
 40
2.560975410607654
100
AcDbArc
 50
283.0724651352
 51
16.9329113975
  0
ARC
  5
274
330
1F
100
AcDbEntity
  8
0
  6
Continuous
 62
     7
370
    25
100
AcDbCircle
 10
818.4466802148
 20
212.811614394
 30
0.0
 40
2.560975410606249
100
AcDbArc
 50
283.0724651351
 51
16.9329113976
  0
ARC
  5
275
330
1F
100
AcDbEntity
  8
0
  6
Continuous
 62
     7
370
    25
100
AcDbCircle
 10
814.9111463089
 20
202.6051859956
 30
0.0
 40
2.560975410605905
100
AcDbArc
 50
283.0724651351
 51
16.9329113976
  0
ARC
  5
276
330
1F
100
AcDbEntity
  8
0
  6
Continuous
 62
     7
370
    25
100
AcDbCircle
 10
818.4466802148
 20
208.7289103346
 30
0.0
 40
2.560975410605651
100
AcDbArc
 50
283.0724651351
 51
16.9329113976
  0
ARC
  5
277
330
1F
100
AcDbEntity
  8
0
  6
Continuous
 62
     7
370
    25
100
AcDbCircle
 10
818.4466802148
 20
204.6462062752
 30
0.0
 40
2.560975410604061
100
AcDbArc
 50
283.072465135
 51
16.9329113977
  0
MTEXT
  5
278
330
1F
100
AcDbEntity
  8
SLD-0
 62
     7
100
AcDbMText
 10
735.0895429481
 20
120.426510173
 30
0.0
 40
4.7625
 41
0.0
 71
     1
 72
     1
  1
QIO-ML4i CONFIGURATION SHOWN
  7
SLDTEXTSTYLE0
 73
     1
 44
1.0
  0
CIRCLE
  5
279
330
1F
100
AcDbEntity
  8
0
  6
Continuous
 62
     7
370
    25
100
AcDbCircle
 10
390.0624677661
 20
426.8159071769
 30
0.0
 40
3.730902000393655
  0
ARC
  5
27A
330
1F
100
AcDbEntity
  8
0
  6
Continuous
 62
     7
370
    25
100
AcDbCircle
 10
395.3124677661
 20
432.5659071769
 30
0.0
 40
4.0
100
AcDbArc
 50
0.0
 51
90.0
  0
LINE
  5
27B
330
1F
100
AcDbEntity
  8
0
  6
Continuous
 62
     7
370
    25
100
AcDbLine
 10
399.3124677661
 20
423.5659071769
 30
0.0
 11
399.3124677661
 21
432.5659071769
 31
0.0
  0
LINE
  5
27C
330
1F
100
AcDbEntity
  8
0
  6
Continuous
 62
     7
370
    25
100
AcDbLine
 10
395.3124677661
 20
436.5659071769
 30
0.0
 11
308.3124677661
 21
436.5659071769
 31
0.0
  0
ARC
  5
27D
330
1F
100
AcDbEntity
  8
0
  6
Continuous
 62
     7
370
    25
100
AcDbCircle
 10
395.3124677661
 20
423.5659071769
 30
0.0
 40
4.0
100
AcDbArc
 50
270.0
 51
0.0
  0
ARC
  5
27E
330
1F
100
AcDbEntity
  8
0
  6
Continuous
 62
     7
370
    25
100
AcDbCircle
 10
308.3124677661
 20
432.5659071769
 30
0.0
 40
4.0
100
AcDbArc
 50
90.0
 51
180.0
  0
LINE
  5
27F
330
1F
100
AcDbEntity
  8
0
  6
Continuous
 62
     7
370
    25
100
AcDbLine
 10
308.3124677661
 20
419.5659071769
 30
0.0
 11
395.3124677661
 21
419.5659071769
 31
0.0
  0
LINE
  5
280
330
1F
100
AcDbEntity
  8
0
  6
Continuous
 62
     7
370
    25
100
AcDbLine
 10
304.3124677661
 20
432.5659071769
 30
0.0
 11
304.3124677661
 21
423.5659071769
 31
0.0
  0
ARC
  5
281
330
1F
100
AcDbEntity
  8
0
  6
Continuous
 62
     7
370
    25
100
AcDbCircle
 10
308.3124677661
 20
423.5659071769
 30
0.0
 40
4.0
100
AcDbArc
 50
180.0
 51
270.0
  0
CIRCLE
  5
282
330
1F
100
AcDbEntity
  8
0
  6
Continuous
 62
     7
370
    25
100
AcDbCircle
 10
399.0624677661
 20
405.5659071769
 30
0.0
 40
1.649999999999977
  0
CIRCLE
  5
283
330
1F
100
AcDbEntity
  8
0
  6
Continuous
 62
     7
370
    25
100
AcDbCircle
 10
394.5624677661
 20
405.5659071769
 30
0.0
 40
1.650000000000034
  0
CIRCLE
  5
284
330
1F
100
AcDbEntity
  8
0
  6
Continuous
 62
     7
370
    25
100
AcDbCircle
 10
390.0624677661
 20
405.5659071769
 30
0.0
 40
1.649999999999977
  0
CIRCLE
  5
285
330
1F
100
AcDbEntity
  8
0
  6
Continuous
 62
     7
370
    25
100
AcDbCircle
 10
385.5624677661
 20
405.5659071769
 30
0.0
 40
1.650000000000034
  0
CIRCLE
  5
286
330
1F
100
AcDbEntity
  8
0
  6
Continuous
 62
     7
370
    25
100
AcDbCircle
 10
381.0624677661
 20
405.5659071769
 30
0.0
 40
1.649999999999977
  0
CIRCLE
  5
287
330
1F
100
AcDbEntity
  8
0
  6
Continuous
 62
     7
370
    25
100
AcDbCircle
 10
376.5624677661
 20
405.5659071769
 30
0.0
 40
1.649999999999977
  0
CIRCLE
  5
288
330
1F
100
AcDbEntity
  8
0
  6
Continuous
 62
     7
370
    25
100
AcDbCircle
 10
372.0624677661
 20
405.5659071769
 30
0.0
 40
1.649999999999977
  0
CIRCLE
  5
289
330
1F
100
AcDbEntity
  8
0
  6
Continuous
 62
     7
370
    25
100
AcDbCircle
 10
367.5624677661
 20
405.5659071769
 30
0.0
 40
1.650000000000034
  0
CIRCLE
  5
28A
330
1F
100
AcDbEntity
  8
0
  6
Continuous
 62
     7
370
    25
100
AcDbCircle
 10
363.0624677661
 20
405.5659071769
 30
0.0
 40
1.650000000000034
  0
CIRCLE
  5
28B
330
1F
100
AcDbEntity
  8
0
  6
Continuous
 62
     7
370
    25
100
AcDbCircle
 10
358.5624677661
 20
405.5659071769
 30
0.0
 40
1.649999999999977
  0
CIRCLE
  5
28C
330
1F
100
AcDbEntity
  8
0
  6
Continuous
 62
     7
370
    25
100
AcDbCircle
 10
349.5624677661
 20
405.5659071769
 30
0.0
 40
1.650000000000034
  0
CIRCLE
  5
28D
330
1F
100
AcDbEntity
  8
0
  6
Continuous
 62
     7
370
    25
100
AcDbCircle
 10
318.0624677661
 20
405.5659071769
 30
0.0
 40
1.649999999999977
  0
CIRCLE
  5
28E
330
1F
100
AcDbEntity
  8
0
  6
Continuous
 62
     7
370
    25
100
AcDbCircle
 10
313.5624677661
 20
405.5659071769
 30
0.0
 40
1.649999999999977
  0
CIRCLE
  5
28F
330
1F
100
AcDbEntity
  8
0
  6
Continuous
 62
     7
370
    25
100
AcDbCircle
 10
309.0624677661
 20
405.5659071769
 30
0.0
 40
1.649999999999977
  0
CIRCLE
  5
290
330
1F
100
AcDbEntity
  8
0
  6
Continuous
 62
     7
370
    25
100
AcDbCircle
 10
304.5624677661
 20
405.5659071769
 30
0.0
 40
1.650000000000034
  0
CIRCLE
  5
291
330
1F
100
AcDbEntity
  8
0
  6
Continuous
 62
     7
370
    25
100
AcDbCircle
 10
394.5624677661
 20
410.0659071769
 30
0.0
 40
1.650000000000034
  0
CIRCLE
  5
292
330
1F
100
AcDbEntity
  8
0
  6
Continuous
 62
     7
370
    25
100
AcDbCircle
 10
345.0624677661
 20
410.0659071769
 30
0.0
 40
1.650000000000034
  0
CIRCLE
  5
293
330
1F
100
AcDbEntity
  8
0
  6
Continuous
 62
     7
370
    25
100
AcDbCircle
 10
340.5624677661
 20
410.0659071769
 30
0.0
 40
1.649999999999977
  0
CIRCLE
  5
294
330
1F
100
AcDbEntity
  8
0
  6
Continuous
 62
     7
370
    25
100
AcDbCircle
 10
336.0624677661
 20
410.0659071769
 30
0.0
 40
1.649999999999977
  0
CIRCLE
  5
295
330
1F
100
AcDbEntity
  8
0
  6
Continuous
 62
     7
370
    25
100
AcDbCircle
 10
331.5624677661
 20
410.0659071769
 30
0.0
 40
1.649999999999977
  0
CIRCLE
  5
296
330
1F
100
AcDbEntity
  8
0
  6
Continuous
 62
     7
370
    25
100
AcDbCircle
 10
322.5624677661
 20
414.5659071769
 30
0.0
 40
1.649999999999977
  0
CIRCLE
  5
297
330
1F
100
AcDbEntity
  8
0
  6
Continuous
 62
     7
370
    25
100
AcDbCircle
 10
318.0624677661
 20
414.5659071769
 30
0.0
 40
1.649999999999977
  0
CIRCLE
  5
298
330
1F
100
AcDbEntity
  8
0
  6
Continuous
 62
     7
370
    25
100
AcDbCircle
 10
313.5624677661
 20
414.5659071769
 30
0.0
 40
1.649999999999977
  0
LINE
  5
299
330
1F
100
AcDbEntity
  8
0
  6
Continuous
 62
     7
370
    25
100
AcDbLine
 10
406.3124677661
 20
442.9659071769
 30
0.0
 11
297.3124677661
 21
442.9659071769
 31
0.0
  0
LINE
  5
29A
330
1F
100
AcDbEntity
  8
0
  6
Continuous
 62
     7
370
    25
100
AcDbLine
 10
297.3124677661
 20
400.5659071769
 30
0.0
 11
406.3124677661
 21
400.5659071769
 31
0.0
  0
CIRCLE
  5
29B
330
1F
100
AcDbEntity
  8
0
  6
Continuous
 62
     7
370
    25
100
AcDbCircle
 10
304.5624677661
 20
414.5659071769
 30
0.0
 40
1.650000000000034
  0
CIRCLE
  5
29C
330
1F
100
AcDbEntity
  8
0
  6
Continuous
 62
     7
370
    25
100
AcDbCircle
 10
381.0624677661
 20
414.5659071769
 30
0.0
 40
1.649999999999977
  0
LINE
  5
29D
330
1F
100
AcDbEntity
  8
0
  6
Continuous
 62
     7
370
    25
100
AcDbLine
 10
406.3124677661
 20
400.5659071769
 30
0.0
 11
406.3124677661
 21
442.9659071769
 31
0.0
  0
CIRCLE
  5
29E
330
1F
100
AcDbEntity
  8
0
  6
Continuous
 62
     7
370
    25
100
AcDbCircle
 10
385.5624677661
 20
414.5659071769
 30
0.0
 40
1.650000000000034
  0
LINE
  5
29F
330
1F
100
AcDbEntity
  8
0
  6
Continuous
 62
     7
370
    25
100
AcDbLine
 10
297.3124677661
 20
442.9659071769
 30
0.0
 11
297.3124677661
 21
400.5659071769
 31
0.0
  0
CIRCLE
  5
2A0
330
1F
100
AcDbEntity
  8
0
  6
Continuous
 62
     7
370
    25
100
AcDbCircle
 10
390.0624677661
 20
414.5659071769
 30
0.0
 40
1.649999999999977
  0
CIRCLE
  5
2A1
330
1F
100
AcDbEntity
  8
0
  6
Continuous
 62
     7
370
    25
100
AcDbCircle
 10
322.5624677661
 20
405.5659071769
 30
0.0
 40
1.649999999999977
  0
CIRCLE
  5
2A2
330
1F
100
AcDbEntity
  8
0
  6
Continuous
 62
     7
370
    25
100
AcDbCircle
 10
394.5624677661
 20
414.5659071769
 30
0.0
 40
1.650000000000034
  0
CIRCLE
  5
2A3
330
1F
100
AcDbEntity
  8
0
  6
Continuous
 62
     7
370
    25
100
AcDbCircle
 10
327.0624677661
 20
405.5659071769
 30
0.0
 40
1.649999999999977
  0
CIRCLE
  5
2A4
330
1F
100
AcDbEntity
  8
0
  6
Continuous
 62
     7
370
    25
100
AcDbCircle
 10
399.0624677661
 20
414.5659071769
 30
0.0
 40
1.649999999999977
  0
CIRCLE
  5
2A5
330
1F
100
AcDbEntity
  8
0
  6
Continuous
 62
     7
370
    25
100
AcDbCircle
 10
331.5624677661
 20
405.5659071769
 30
0.0
 40
1.649999999999977
  0
CIRCLE
  5
2A6
330
1F
100
AcDbEntity
  8
0
  6
Continuous
 62
     7
370
    25
100
AcDbCircle
 10
304.5624677661
 20
410.0659071769
 30
0.0
 40
1.650000000000034
  0
CIRCLE
  5
2A7
330
1F
100
AcDbEntity
  8
0
  6
Continuous
 62
     7
370
    25
100
AcDbCircle
 10
336.0624677661
 20
405.5659071769
 30
0.0
 40
1.649999999999977
  0
CIRCLE
  5
2A8
330
1F
100
AcDbEntity
  8
0
  6
Continuous
 62
     7
370
    25
100
AcDbCircle
 10
309.0624677661
 20
410.0659071769
 30
0.0
 40
1.649999999999977
  0
CIRCLE
  5
2A9
330
1F
100
AcDbEntity
  8
0
  6
Continuous
 62
     7
370
    25
100
AcDbCircle
 10
340.5624677661
 20
405.5659071769
 30
0.0
 40
1.649999999999977
  0
CIRCLE
  5
2AA
330
1F
100
AcDbEntity
  8
0
  6
Continuous
 62
     7
370
    25
100
AcDbCircle
 10
313.5624677661
 20
410.0659071769
 30
0.0
 40
1.649999999999977
  0
CIRCLE
  5
2AB
330
1F
100
AcDbEntity
  8
0
  6
Continuous
 62
     7
370
    25
100
AcDbCircle
 10
345.0624677661
 20
405.5659071769
 30
0.0
 40
1.650000000000034
  0
CIRCLE
  5
2AC
330
1F
100
AcDbEntity
  8
0
  6
Continuous
 62
     7
370
    25
100
AcDbCircle
 10
318.0624677661
 20
410.0659071769
 30
0.0
 40
1.649999999999977
  0
CIRCLE
  5
2AD
330
1F
100
AcDbEntity
  8
0
  6
Continuous
 62
     7
370
    25
100
AcDbCircle
 10
309.0624677661
 20
414.5659071769
 30
0.0
 40
1.649999999999977
  0
CIRCLE
  5
2AE
330
1F
100
AcDbEntity
  8
0
  6
Continuous
 62
     7
370
    25
100
AcDbCircle
 10
322.5624677661
 20
410.0659071769
 30
0.0
 40
1.649999999999977
  0
CIRCLE
  5
2AF
330
1F
100
AcDbEntity
  8
0
  6
Continuous
 62
     7
370
    25
100
AcDbCircle
 10
354.0624677661
 20
405.5659071769
 30
0.0
 40
1.649999999999977
  0
CIRCLE
  5
2B0
330
1F
100
AcDbEntity
  8
0
  6
Continuous
 62
     7
370
    25
100
AcDbCircle
 10
327.0624677661
 20
410.0659071769
 30
0.0
 40
1.649999999999977
  0
CIRCLE
  5
2B1
330
1F
100
AcDbEntity
  8
0
  6
Continuous
 62
     7
370
    25
100
AcDbCircle
 10
349.5624677661
 20
410.0659071769
 30
0.0
 40
1.650000000000034
  0
CIRCLE
  5
2B2
330
1F
100
AcDbEntity
  8
0
  6
Continuous
 62
     7
370
    25
100
AcDbCircle
 10
327.0624677661
 20
414.5659071769
 30
0.0
 40
1.649999999999977
  0
CIRCLE
  5
2B3
330
1F
100
AcDbEntity
  8
0
  6
Continuous
 62
     7
370
    25
100
AcDbCircle
 10
354.0624677661
 20
410.0659071769
 30
0.0
 40
1.649999999999977
  0
CIRCLE
  5
2B4
330
1F
100
AcDbEntity
  8
0
  6
Continuous
 62
     7
370
    25
100
AcDbCircle
 10
331.5624677661
 20
414.5659071769
 30
0.0
 40
1.649999999999977
  0
CIRCLE
  5
2B5
330
1F
100
AcDbEntity
  8
0
  6
Continuous
 62
     7
370
    25
100
AcDbCircle
 10
358.5624677661
 20
410.0659071769
 30
0.0
 40
1.649999999999977
  0
CIRCLE
  5
2B6
330
1F
100
AcDbEntity
  8
0
  6
Continuous
 62
     7
370
    25
100
AcDbCircle
 10
336.0624677661
 20
414.5659071769
 30
0.0
 40
1.649999999999977
  0
CIRCLE
  5
2B7
330
1F
100
AcDbEntity
  8
0
  6
Continuous
 62
     7
370
    25
100
AcDbCircle
 10
363.0624677661
 20
410.0659071769
 30
0.0
 40
1.650000000000034
  0
CIRCLE
  5
2B8
330
1F
100
AcDbEntity
  8
0
  6
Continuous
 62
     7
370
    25
100
AcDbCircle
 10
340.5624677661
 20
414.5659071769
 30
0.0
 40
1.649999999999977
  0
CIRCLE
  5
2B9
330
1F
100
AcDbEntity
  8
0
  6
Continuous
 62
     7
370
    25
100
AcDbCircle
 10
367.5624677661
 20
410.0659071769
 30
0.0
 40
1.650000000000034
  0
CIRCLE
  5
2BA
330
1F
100
AcDbEntity
  8
0
  6
Continuous
 62
     7
370
    25
100
AcDbCircle
 10
345.0624677661
 20
414.5659071769
 30
0.0
 40
1.650000000000034
  0
CIRCLE
  5
2BB
330
1F
100
AcDbEntity
  8
0
  6
Continuous
 62
     7
370
    25
100
AcDbCircle
 10
372.0624677661
 20
410.0659071769
 30
0.0
 40
1.649999999999977
  0
CIRCLE
  5
2BC
330
1F
100
AcDbEntity
  8
0
  6
Continuous
 62
     7
370
    25
100
AcDbCircle
 10
349.5624677661
 20
414.5659071769
 30
0.0
 40
1.650000000000034
  0
CIRCLE
  5
2BD
330
1F
100
AcDbEntity
  8
0
  6
Continuous
 62
     7
370
    25
100
AcDbCircle
 10
376.5624677661
 20
410.0659071769
 30
0.0
 40
1.649999999999977
  0
CIRCLE
  5
2BE
330
1F
100
AcDbEntity
  8
0
  6
Continuous
 62
     7
370
    25
100
AcDbCircle
 10
354.0624677661
 20
414.5659071769
 30
0.0
 40
1.649999999999977
  0
CIRCLE
  5
2BF
330
1F
100
AcDbEntity
  8
0
  6
Continuous
 62
     7
370
    25
100
AcDbCircle
 10
381.0624677661
 20
410.0659071769
 30
0.0
 40
1.649999999999977
  0
CIRCLE
  5
2C0
330
1F
100
AcDbEntity
  8
0
  6
Continuous
 62
     7
370
    25
100
AcDbCircle
 10
358.5624677661
 20
414.5659071769
 30
0.0
 40
1.649999999999977
  0
CIRCLE
  5
2C1
330
1F
100
AcDbEntity
  8
0
  6
Continuous
 62
     7
370
    25
100
AcDbCircle
 10
385.5624677661
 20
410.0659071769
 30
0.0
 40
1.650000000000034
  0
CIRCLE
  5
2C2
330
1F
100
AcDbEntity
  8
0
  6
Continuous
 62
     7
370
    25
100
AcDbCircle
 10
363.0624677661
 20
414.5659071769
 30
0.0
 40
1.650000000000034
  0
CIRCLE
  5
2C3
330
1F
100
AcDbEntity
  8
0
  6
Continuous
 62
     7
370
    25
100
AcDbCircle
 10
390.0624677661
 20
410.0659071769
 30
0.0
 40
1.649999999999977
  0
CIRCLE
  5
2C4
330
1F
100
AcDbEntity
  8
0
  6
Continuous
 62
     7
370
    25
100
AcDbCircle
 10
367.5624677661
 20
414.5659071769
 30
0.0
 40
1.650000000000034
  0
CIRCLE
  5
2C5
330
1F
100
AcDbEntity
  8
0
  6
Continuous
 62
     7
370
    25
100
AcDbCircle
 10
372.0624677661
 20
414.5659071769
 30
0.0
 40
1.649999999999977
  0
CIRCLE
  5
2C6
330
1F
100
AcDbEntity
  8
0
  6
Continuous
 62
     7
370
    25
100
AcDbCircle
 10
399.0624677661
 20
410.0659071769
 30
0.0
 40
1.649999999999977
  0
CIRCLE
  5
2C7
330
1F
100
AcDbEntity
  8
0
  6
Continuous
 62
     7
370
    25
100
AcDbCircle
 10
376.5624677661
 20
414.5659071769
 30
0.0
 40
1.649999999999977
  0
DIMENSION
  5
2C8
330
1F
100
AcDbEntity
  8
SLD-0
 62
     7
100
AcDbDimension
  2
_D
 10
406.3124677661
 20
480.9101228244
 30
0.0
 11
352.9065795475
 21
480.9101228244
 31
0.0
 70
   160
  1
<>
 71
     2
 42
-1.0
  3
SLDDIMSTYLE0
100
AcDbAlignedDimension
 13
297.3124677661
 23
442.9659071769
 33
0.0
 14
406.3124677661
 24
442.9659071769
 34
0.0
100
AcDbRotatedDimension
  0
MTEXT
  5
2D4
330
1F
100
AcDbEntity
  8
SLD-0
 62
     7
100
AcDbMText
 10
334.3989759915
 20
387.5942999805
 30
0.0
 40
4.7625
 41
0.0
 71
     1
 72
     1
  1
FRONT VIEW
  7
SLDTEXTSTYLE0
 73
     1
 44
1.0
  0
MTEXT
  5
2D5
330
1F
100
AcDbEntity
  8
SLD-0
 62
     7
100
AcDbMText
 10
366.0579788409
 20
465.0408722692
 30
0.0
 40
4.7625
 41
0.0
 71
     1
 72
     1
  1
INTAKE
  7
SLDTEXTSTYLE0
 73
     1
 44
1.0
  0
LEADER
  5
2D7
330
1F
100
AcDbEntity
  8
SLD-0
 62
     7
100
AcDbLeader
  3
SLDDIMSTYLE1
 76
     3
 10
337.4085739093
 20
415.5201074972
 30
0.0
 10
361.0069848661
 20
462.7182295914
 30
0.0
 10
365.0069848661
 20
462.7182295914
 30
0.0
  0
LINE
  5
2D8
330
1F
100
AcDbEntity
  8
0
  6
Continuous
 62
     7
370
    25
100
AcDbLine
 10
264.9749851619
 20
442.9659071769
 30
0.0
 11
264.9749851619
 21
400.5659071769
 31
0.0
  0
LINE
  5
2D9
330
1F
100
AcDbEntity
  8
0
  6
Continuous
 62
     7
370
    25
100
AcDbLine
 10
264.9749851619
 20
400.5659071769
 30
0.0
 11
49.0749851619
 21
400.5659071769
 31
0.0
  0
CIRCLE
  5
2DA
330
1F
100
AcDbEntity
  8
0
  6
Continuous
 62
     7
370
    25
100
AcDbCircle
 10
172.0249851619
 20
421.7659071769
 30
0.0
 40
1.75
  0
CIRCLE
  5
2DB
330
1F
100
AcDbEntity
  8
0
  6
Continuous
 62
     7
370
    25
100
AcDbCircle
 10
142.0249851619
 20
421.7659071769
 30
0.0
 40
1.75
  0
CIRCLE
  5
2DC
330
1F
100
AcDbEntity
  8
0
  6
Continuous
 62
     7
370
    25
100
AcDbCircle
 10
57.9749851619
 20
436.3659071769
 30
0.0
 40
2.0
  0
CIRCLE
  5
2DD
330
1F
100
AcDbEntity
  8
0
  6
Continuous
 62
     7
370
    25
100
AcDbCircle
 10
87.9749851619
 20
426.3659071769
 30
0.0
 40
2.0
  0
CIRCLE
  5
2DE
330
1F
100
AcDbEntity
  8
0
  6
Continuous
 62
     7
370
    25
100
AcDbCircle
 10
87.9749851619
 20
431.3659071769
 30
0.0
 40
2.0
  0
CIRCLE
  5
2DF
330
1F
100
AcDbEntity
  8
0
  6
Continuous
 62
     7
370
    25
100
AcDbCircle
 10
87.9749851619
 20
436.3659071769
 30
0.0
 40
2.0
  0
CIRCLE
  5
2E0
330
1F
100
AcDbEntity
  8
0
  6
Continuous
 62
     7
370
    25
100
AcDbCircle
 10
82.9749851619
 20
426.3659071769
 30
0.0
 40
2.0
  0
CIRCLE
  5
2E1
330
1F
100
AcDbEntity
  8
0
  6
Continuous
 62
     7
370
    25
100
AcDbCircle
 10
97.9749851619
 20
436.3659071769
 30
0.0
 40
2.0
  0
CIRCLE
  5
2E2
330
1F
100
AcDbEntity
  8
0
  6
Continuous
 62
     7
370
    25
100
AcDbCircle
 10
92.9749851619
 20
426.3659071769
 30
0.0
 40
2.0
  0
CIRCLE
  5
2E3
330
1F
100
AcDbEntity
  8
0
  6
Continuous
 62
     7
370
    25
100
AcDbCircle
 10
92.9749851619
 20
431.3659071769
 30
0.0
 40
2.0
  0
CIRCLE
  5
2E4
330
1F
100
AcDbEntity
  8
0
  6
Continuous
 62
     7
370
    25
100
AcDbCircle
 10
92.9749851619
 20
436.3659071769
 30
0.0
 40
2.0
  0
CIRCLE
  5
2E5
330
1F
100
AcDbEntity
  8
0
  6
Continuous
 62
     7
370
    25
100
AcDbCircle
 10
97.9749851619
 20
431.3659071769
 30
0.0
 40
2.0
  0
CIRCLE
  5
2E6
330
1F
100
AcDbEntity
  8
0
  6
Continuous
 62
     7
370
    25
100
AcDbCircle
 10
102.9749851619
 20
436.3659071769
 30
0.0
 40
2.0
  0
CIRCLE
  5
2E7
330
1F
100
AcDbEntity
  8
0
  6
Continuous
 62
     7
370
    25
100
AcDbCircle
 10
77.9749851619
 20
436.3659071769
 30
0.0
 40
2.0
  0
CIRCLE
  5
2E8
330
1F
100
AcDbEntity
  8
0
  6
Continuous
 62
     7
370
    25
100
AcDbCircle
 10
72.9749851619
 20
426.3659071769
 30
0.0
 40
2.0
  0
CIRCLE
  5
2E9
330
1F
100
AcDbEntity
  8
0
  6
Continuous
 62
     7
370
    25
100
AcDbCircle
 10
72.9749851619
 20
431.3659071769
 30
0.0
 40
2.0
  0
CIRCLE
  5
2EA
330
1F
100
AcDbEntity
  8
0
  6
Continuous
 62
     7
370
    25
100
AcDbCircle
 10
72.9749851619
 20
436.3659071769
 30
0.0
 40
2.0
  0
CIRCLE
  5
2EB
330
1F
100
AcDbEntity
  8
0
  6
Continuous
 62
     7
370
    25
100
AcDbCircle
 10
77.9749851619
 20
431.3659071769
 30
0.0
 40
2.0
  0
CIRCLE
  5
2EC
330
1F
100
AcDbEntity
  8
0
  6
Continuous
 62
     7
370
    25
100
AcDbCircle
 10
77.9749851619
 20
426.3659071769
 30
0.0
 40
2.0
  0
CIRCLE
  5
2ED
330
1F
100
AcDbEntity
  8
0
  6
Continuous
 62
     7
370
    25
100
AcDbCircle
 10
82.9749851619
 20
436.3659071769
 30
0.0
 40
2.0
  0
CIRCLE
  5
2EE
330
1F
100
AcDbEntity
  8
0
  6
Continuous
 62
     7
370
    25
100
AcDbCircle
 10
82.9749851619
 20
431.3659071769
 30
0.0
 40
2.0
  0
CIRCLE
  5
2EF
330
1F
100
AcDbEntity
  8
0
  6
Continuous
 62
     7
370
    25
100
AcDbCircle
 10
57.9749851619
 20
431.3659071769
 30
0.0
 40
2.0
  0
CIRCLE
  5
2F0
330
1F
100
AcDbEntity
  8
0
  6
Continuous
 62
     7
370
    25
100
AcDbCircle
 10
57.9749851619
 20
426.3659071769
 30
0.0
 40
2.0
  0
CIRCLE
  5
2F1
330
1F
100
AcDbEntity
  8
0
  6
Continuous
 62
     7
370
    25
100
AcDbCircle
 10
62.9749851619
 20
436.3659071769
 30
0.0
 40
2.0
  0
CIRCLE
  5
2F2
330
1F
100
AcDbEntity
  8
0
  6
Continuous
 62
     7
370
    25
100
AcDbCircle
 10
62.9749851619
 20
431.3659071769
 30
0.0
 40
2.0
  0
CIRCLE
  5
2F3
330
1F
100
AcDbEntity
  8
0
  6
Continuous
 62
     7
370
    25
100
AcDbCircle
 10
67.9749851619
 20
426.3659071769
 30
0.0
 40
2.0
  0
CIRCLE
  5
2F4
330
1F
100
AcDbEntity
  8
0
  6
Continuous
 62
     7
370
    25
100
AcDbCircle
 10
67.9749851619
 20
431.3659071769
 30
0.0
 40
2.0
  0
CIRCLE
  5
2F5
330
1F
100
AcDbEntity
  8
0
  6
Continuous
 62
     7
370
    25
100
AcDbCircle
 10
67.9749851619
 20
436.3659071769
 30
0.0
 40
2.0
  0
CIRCLE
  5
2F6
330
1F
100
AcDbEntity
  8
0
  6
Continuous
 62
     7
370
    25
100
AcDbCircle
 10
62.9749851619
 20
426.3659071769
 30
0.0
 40
2.0
  0
LINE
  5
2F7
330
1F
100
AcDbEntity
  8
0
  6
Continuous
 62
     7
370
    25
100
AcDbLine
 10
264.9749851619
 20
442.9659071769
 30
0.0
 11
49.0749851619
 21
442.9659071769
 31
0.0
  0
LINE
  5
2F8
330
1F
100
AcDbEntity
  8
0
  6
Continuous
 62
     7
370
    25
100
AcDbLine
 10
49.0749851619
 20
442.9659071769
 30
0.0
 11
49.0749851619
 21
400.5659071769
 31
0.0
  0
DIMENSION
  5
2F9
330
1F
100
AcDbEntity
  8
SLD-0
 62
     7
100
AcDbDimension
  2
_D_1
 10
35.5624247068
 20
400.5659071769
 30
0.0
 11
35.5624247068
 21
423.4958267906
 31
0.0
 70
   160
  1
<>
 71
     2
 42
-1.0
  3
SLDDIMSTYLE2
100
AcDbAlignedDimension
 13
49.0749851619
 23
442.9659071769
 33
0.0
 14
49.0749851619
 24
400.5659071769
 34
0.0
 50
90.0
100
AcDbRotatedDimension
  0
MTEXT
  5
305
330
1F
100
AcDbEntity
  8
SLD-0
 62
     7
100
AcDbMText
 10
102.2106054029
 20
463.2546127163
 30
0.0
 40
4.7625
 41
0.0
 71
     1
 72
     1
  1
EXHAUST
  7
SLDTEXTSTYLE0
 73
     1
 44
1.0
  0
LEADER
  5
306
330
1F
100
AcDbEntity
  8
SLD-0
 62
     7
100
AcDbLeader
  3
SLDDIMSTYLE1
 76
     3
 10
78.6840211289
 20
438.2360055694
 30
0.0
 10
96.9790454016
 20
460.8555986252
 30
0.0
 10
100.9790454016
 20
460.8555986252
 30
0.0
  0
CIRCLE
  5
307
330
1F
100
AcDbEntity
  8
0
  6
Continuous
 62
     7
370
    25
100
AcDbCircle
 10
619.2388189972
 20
426.3659071769
 30
0.0
 40
2.0
  0
CIRCLE
  5
308
330
1F
100
AcDbEntity
  8
0
  6
Continuous
 62
     7
370
    25
100
AcDbCircle
 10
624.2388189972
 20
426.3659071769
 30
0.0
 40
2.0
  0
CIRCLE
  5
309
330
1F
100
AcDbEntity
  8
0
  6
Continuous
 62
     7
370
    25
100
AcDbCircle
 10
629.2388189972
 20
426.3659071769
 30
0.0
 40
2.0
  0
CIRCLE
  5
30A
330
1F
100
AcDbEntity
  8
0
  6
Continuous
 62
     7
370
    25
100
AcDbCircle
 10
634.2388189972
 20
426.3659071769
 30
0.0
 40
2.0
  0
CIRCLE
  5
30B
330
1F
100
AcDbEntity
  8
0
  6
Continuous
 62
     7
370
    25
100
AcDbCircle
 10
639.2388189972
 20
426.3659071769
 30
0.0
 40
2.0
  0
CIRCLE
  5
30C
330
1F
100
AcDbEntity
  8
0
  6
Continuous
 62
     7
370
    25
100
AcDbCircle
 10
644.2388189972
 20
426.3659071769
 30
0.0
 40
2.0
  0
CIRCLE
  5
30D
330
1F
100
AcDbEntity
  8
0
  6
Continuous
 62
     7
370
    25
100
AcDbCircle
 10
649.2388189972
 20
426.3659071769
 30
0.0
 40
2.0
  0
CIRCLE
  5
30E
330
1F
100
AcDbEntity
  8
0
  6
Continuous
 62
     7
370
    25
100
AcDbCircle
 10
654.2388189972
 20
426.3659071769
 30
0.0
 40
2.0
  0
CIRCLE
  5
30F
330
1F
100
AcDbEntity
  8
0
  6
Continuous
 62
     7
370
    25
100
AcDbCircle
 10
614.2388189972
 20
431.3659071769
 30
0.0
 40
2.0
  0
CIRCLE
  5
310
330
1F
100
AcDbEntity
  8
0
  6
Continuous
 62
     7
370
    25
100
AcDbCircle
 10
619.2388189972
 20
431.3659071769
 30
0.0
 40
2.0
  0
CIRCLE
  5
311
330
1F
100
AcDbEntity
  8
0
  6
Continuous
 62
     7
370
    25
100
AcDbCircle
 10
624.2388189972
 20
431.3659071769
 30
0.0
 40
2.0
  0
CIRCLE
  5
312
330
1F
100
AcDbEntity
  8
0
  6
Continuous
 62
     7
370
    25
100
AcDbCircle
 10
629.2388189972
 20
431.3659071769
 30
0.0
 40
2.0
  0
CIRCLE
  5
313
330
1F
100
AcDbEntity
  8
0
  6
Continuous
 62
     7
370
    25
100
AcDbCircle
 10
634.2388189972
 20
431.3659071769
 30
0.0
 40
2.0
  0
CIRCLE
  5
314
330
1F
100
AcDbEntity
  8
0
  6
Continuous
 62
     7
370
    25
100
AcDbCircle
 10
639.2388189972
 20
431.3659071769
 30
0.0
 40
2.0
  0
CIRCLE
  5
315
330
1F
100
AcDbEntity
  8
0
  6
Continuous
 62
     7
370
    25
100
AcDbCircle
 10
644.2388189972
 20
431.3659071769
 30
0.0
 40
2.0
  0
CIRCLE
  5
316
330
1F
100
AcDbEntity
  8
0
  6
Continuous
 62
     7
370
    25
100
AcDbCircle
 10
649.2388189972
 20
431.3659071769
 30
0.0
 40
2.0
  0
CIRCLE
  5
317
330
1F
100
AcDbEntity
  8
0
  6
Continuous
 62
     7
370
    25
100
AcDbCircle
 10
654.2388189972
 20
431.3659071769
 30
0.0
 40
2.0
  0
CIRCLE
  5
318
330
1F
100
AcDbEntity
  8
0
  6
Continuous
 62
     7
370
    25
100
AcDbCircle
 10
609.2388189972
 20
436.3659071769
 30
0.0
 40
2.0
  0
CIRCLE
  5
319
330
1F
100
AcDbEntity
  8
0
  6
Continuous
 62
     7
370
    25
100
AcDbCircle
 10
614.2388189972
 20
436.3659071769
 30
0.0
 40
2.0
  0
CIRCLE
  5
31A
330
1F
100
AcDbEntity
  8
0
  6
Continuous
 62
     7
370
    25
100
AcDbCircle
 10
619.2388189972
 20
436.3659071769
 30
0.0
 40
2.0
  0
CIRCLE
  5
31B
330
1F
100
AcDbEntity
  8
0
  6
Continuous
 62
     7
370
    25
100
AcDbCircle
 10
624.2388189972
 20
436.3659071769
 30
0.0
 40
2.0
  0
CIRCLE
  5
31C
330
1F
100
AcDbEntity
  8
0
  6
Continuous
 62
     7
370
    25
100
AcDbCircle
 10
629.2388189972
 20
436.3659071769
 30
0.0
 40
2.0
  0
CIRCLE
  5
31D
330
1F
100
AcDbEntity
  8
0
  6
Continuous
 62
     7
370
    25
100
AcDbCircle
 10
634.2388189972
 20
436.3659071769
 30
0.0
 40
2.0
  0
CIRCLE
  5
31E
330
1F
100
AcDbEntity
  8
0
  6
Continuous
 62
     7
370
    25
100
AcDbCircle
 10
639.2388189972
 20
436.3659071769
 30
0.0
 40
2.0
  0
CIRCLE
  5
31F
330
1F
100
AcDbEntity
  8
0
  6
Continuous
 62
     7
370
    25
100
AcDbCircle
 10
644.2388189972
 20
436.3659071769
 30
0.0
 40
2.0
  0
LINE
  5
320
330
1F
100
AcDbEntity
  8
0
  6
Continuous
 62
     7
370
    25
100
AcDbLine
 10
447.2388189972
 20
400.5659071769
 30
0.0
 11
663.1388189972
 21
400.5659071769
 31
0.0
  0
LINE
  5
321
330
1F
100
AcDbEntity
  8
0
  6
Continuous
 62
     7
370
    25
100
AcDbLine
 10
447.2388189972
 20
400.5659071769
 30
0.0
 11
447.2388189972
 21
442.9659071769
 31
0.0
  0
CIRCLE
  5
322
330
1F
100
AcDbEntity
  8
0
  6
Continuous
 62
     7
370
    25
100
AcDbCircle
 10
540.1888189972
 20
421.7659071769
 30
0.0
 40
1.75
  0
CIRCLE
  5
323
330
1F
100
AcDbEntity
  8
0
  6
Continuous
 62
     7
370
    25
100
AcDbCircle
 10
570.1888189972
 20
421.7659071769
 30
0.0
 40
1.75
  0
CIRCLE
  5
324
330
1F
100
AcDbEntity
  8
0
  6
Continuous
 62
     7
370
    25
100
AcDbCircle
 10
654.2388189972
 20
436.3659071769
 30
0.0
 40
2.0
  0
CIRCLE
  5
325
330
1F
100
AcDbEntity
  8
0
  6
Continuous
 62
     7
370
    25
100
AcDbCircle
 10
649.2388189972
 20
436.3659071769
 30
0.0
 40
2.0
  0
LINE
  5
326
330
1F
100
AcDbEntity
  8
0
  6
Continuous
 62
     7
370
    25
100
AcDbLine
 10
447.2388189972
 20
442.9659071769
 30
0.0
 11
663.1388189972
 21
442.9659071769
 31
0.0
  0
LINE
  5
327
330
1F
100
AcDbEntity
  8
0
  6
Continuous
 62
     7
370
    25
100
AcDbLine
 10
663.1388189972
 20
400.5659071769
 30
0.0
 11
663.1388189972
 21
442.9659071769
 31
0.0
  0
MTEXT
  5
328
330
1F
100
AcDbEntity
  8
SLD-0
 62
     7
100
AcDbMText
 10
653.0623940555
 20
464.4612696919
 30
0.0
 40
4.7625
 41
0.0
 71
     1
 72
     1
  1
EXHAUST
  7
SLDTEXTSTYLE0
 73
     1
 44
1.0
  0
LEADER
  5
329
330
1F
100
AcDbEntity
  8
SLD-0
 62
     7
100
AcDbLeader
  3
SLDDIMSTYLE1
 76
     3
 10
629.5435096078
 20
438.3425618336
 30
0.0
 10
647.8521536671
 20
462.2525718498
 30
0.0
 10
651.8521536671
 20
462.2525718498
 30
0.0
  0
LINE
  5
32A
330
1F
100
AcDbEntity
  8
0
  6
Continuous
 62
     7
370
    25
100
AcDbLine
 10
297.3124677661
 20
325.5409077114
 30
0.0
 11
406.3124677661
 21
325.5409077114
 31
0.0
  0
LINE
  5
32B
330
1F
100
AcDbEntity
  8
0
  6
Continuous
 62
     7
370
    25
100
AcDbLine
 10
406.3124677661
 20
325.5409077114
 30
0.0
 11
406.3124677661
 21
109.6409077114
 31
0.0
  0
LINE
  5
32C
330
1F
100
AcDbEntity
  8
0
  6
Continuous
 62
     7
370
    25
100
AcDbLine
 10
345.1125745713
 20
111.6409077114
 30
0.0
 11
339.1125745713
 21
111.6409077114
 31
0.0
  0
CIRCLE
  5
32D
330
1F
100
AcDbEntity
  8
0
  6
Continuous
 62
     7
370
    25
100
AcDbCircle
 10
306.8124677661
 20
317.5409077114
 30
0.0
 40
1.5
  0
CIRCLE
  5
32E
330
1F
100
AcDbEntity
  8
0
  6
Continuous
 62
     7
370
    25
100
AcDbCircle
 10
396.8124677661
 20
317.5409077114
 30
0.0
 40
1.499999999999943
  0
LINE
  5
32F
330
1F
100
AcDbEntity
  8
0
  6
Continuous
 62
     7
370
    25
100
AcDbLine
 10
345.1125745713
 20
111.6409077114
 30
0.0
 11
345.1125745713
 21
109.6409077114
 31
0.0
  0
LINE
  5
330
330
1F
100
AcDbEntity
  8
0
  6
Continuous
 62
     7
370
    25
100
AcDbLine
 10
339.1125745713
 20
111.6409077114
 30
0.0
 11
339.1125745713
 21
109.6409077114
 31
0.0
  0
LINE
  5
331
330
1F
100
AcDbEntity
  8
0
  6
Continuous
 62
     7
370
    25
100
AcDbLine
 10
297.3124677661
 20
325.5409077114
 30
0.0
 11
297.3124677661
 21
109.6409077114
 31
0.0
  0
LINE
  5
332
330
1F
100
AcDbEntity
  8
0
  6
Continuous
 62
     7
370
    25
100
AcDbLine
 10
297.3124677661
 20
109.6409077114
 30
0.0
 11
339.1125745713
 21
109.6409077114
 31
0.0
  0
LINE
  5
333
330
1F
100
AcDbEntity
  8
0
  6
Continuous
 62
     7
370
    25
100
AcDbLine
 10
345.1125745713
 20
109.6409077114
 30
0.0
 11
406.3124677661
 21
109.6409077114
 31
0.0
  0
LINE
  5
334
330
1F
100
AcDbEntity
  8
0
  6
Continuous
 62
     7
370
    25
100
AcDbLine
 10
339.1125745713
 20
109.6409077114
 30
0.0
 11
345.1125745713
 21
109.6409077114
 31
0.0
  0
LINE
  5
335
330
1F
100
AcDbEntity
  8
SLD-0
 62
     7
100
AcDbLine
 10
351.8124677661
 20
329.7276781772
 30
0.0
 11
351.8124677661
 21
108.4242023354
 31
0.0
  0
DIMENSION
  5
336
330
1F
100
AcDbEntity
  8
SLD-0
 62
     7
100
AcDbDimension
  2
_D_2
 10
438.3124677661
 20
109.6409077114
 30
0.0
 11
438.3124677661
 21
227.7585211717
 31
0.0
 70
   160
  1
<>
 71
     2
 42
-1.0
  3
SLDDIMSTYLE2
100
AcDbAlignedDimension
 13
406.3124677661
 23
325.5409077114
 33
0.0
 14
406.3124677661
 24
109.6409077114
 34
0.0
 50
90.0
100
AcDbRotatedDimension
  0
DIMENSION
  5
341
330
1F
100
AcDbEntity
  8
SLD-0
 62
     7
100
AcDbDimension
  2
_D_3
 10
396.8124677661
 20
345.5409077114
 30
0.0
 11
354.9517266029
 21
345.5409077114
 31
0.0
 70
   160
  1
<>
 71
     2
 42
-1.0
  3
SLDDIMSTYLE0
100
AcDbAlignedDimension
 13
306.8124677661
 23
317.5409077114
 33
0.0
 14
396.8124677661
 24
317.5409077114
 34
0.0
100
AcDbRotatedDimension
  0
DIMENSION
  5
34C
330
1F
100
AcDbEntity
  8
SLD-0
 62
     7
100
AcDbDimension
  2
_D_4
 10
287.5401734441
 20
317.5409077114
 30
0.0
 11
287.5401734441
 21
334.5274774548
 31
0.0
 70
   160
  1
2X <>
 71
     2
 42
-1.0
  3
SLDDIMSTYLE3
100
AcDbAlignedDimension
 13
297.3124677661
 23
325.5409077114
 33
0.0
 14
306.8124677661
 24
317.5409077114
 34
0.0
 50
90.0
100
AcDbRotatedDimension
  0
INSERT
  5
362
102
{ACAD_REACTORS
330
363
102
}
330
1F
100
AcDbEntity
  8
SLD-0
 62
     7
100
AcDbBlockReference
  2
SW_NOTE_0_6
 10
284.7497089639
 20
353.434225844
 30
0.0
  0
LEADER
  5
363
330
1F
100
AcDbEntity
  8
SLD-0
 62
     7
100
AcDbLeader
  3
SLDDIMSTYLE1
 73
     2
 76
     3
 10
305.9801281812
 20
318.7887902441
 30
0.0
 10
288.7497089639
 20
353.434225844
 30
0.0
 10
284.7497089639
 20
353.434225844
 30
0.0
340
362
  0
INSERT
  5
369
330
1F
100
AcDbEntity
  8
SLD-0
 62
     7
100
AcDbBlockReference
  2
SW_SYMBOL_MOD_CL
 10
347.8694450266
 20
330.343934115
 30
0.0
 41
0.0030416748
 42
0.0030416748
 43
0.0030416748
  0
LINE
  5
36A
330
1F
100
AcDbEntity
  8
0
  6
Continuous
 62
     7
370
    25
100
AcDbLine
 10
805.8827351343
 20
407.3159658186
 30
0.0
 11
809.3827351343
 21
407.3159658186
 31
0.0
  0
LINE
  5
36B
330
1F
100
AcDbEntity
  8
0
  6
Continuous
 62
     7
370
    25
100
AcDbLine
 10
809.3827351343
 20
407.3159658186
 30
0.0
 11
809.3827351343
 21
410.8159658186
 31
0.0
  0
LINE
  5
36C
330
1F
100
AcDbEntity
  8
0
  6
Continuous
 62
     7
370
    25
100
AcDbLine
 10
809.3827351343
 20
410.8159658186
 30
0.0
 11
805.8827351343
 21
410.8159658186
 31
0.0
  0
LINE
  5
36D
330
1F
100
AcDbEntity
  8
0
  6
Continuous
 62
     7
370
    25
100
AcDbLine
 10
805.8827351343
 20
410.8159658186
 30
0.0
 11
805.8827351343
 21
407.3159658186
 31
0.0
  0
LINE
  5
36E
330
1F
100
AcDbEntity
  8
0
  6
Continuous
 62
     7
370
    25
100
AcDbLine
 10
805.8827351343
 20
412.0159658186
 30
0.0
 11
809.3827351343
 21
412.0159658186
 31
0.0
  0
LINE
  5
36F
330
1F
100
AcDbEntity
  8
0
  6
Continuous
 62
     7
370
    25
100
AcDbLine
 10
809.3827351343
 20
412.0159658186
 30
0.0
 11
809.3827351343
 21
415.5159658186
 31
0.0
  0
LINE
  5
370
330
1F
100
AcDbEntity
  8
0
  6
Continuous
 62
     7
370
    25
100
AcDbLine
 10
809.3827351343
 20
415.5159658186
 30
0.0
 11
805.8827351343
 21
415.5159658186
 31
0.0
  0
LINE
  5
371
330
1F
100
AcDbEntity
  8
0
  6
Continuous
 62
     7
370
    25
100
AcDbLine
 10
805.8827351343
 20
415.5159658186
 30
0.0
 11
805.8827351343
 21
412.0159658186
 31
0.0
  0
LINE
  5
372
330
1F
100
AcDbEntity
  8
0
  6
Continuous
 62
     7
370
    25
100
AcDbLine
 10
805.8827351343
 20
416.7159658186
 30
0.0
 11
809.3827351343
 21
416.7159658186
 31
0.0
  0
LINE
  5
373
330
1F
100
AcDbEntity
  8
0
  6
Continuous
 62
     7
370
    25
100
AcDbLine
 10
809.3827351343
 20
416.7159658186
 30
0.0
 11
809.3827351343
 21
420.2159658186
 31
0.0
  0
LINE
  5
374
330
1F
100
AcDbEntity
  8
0
  6
Continuous
 62
     7
370
    25
100
AcDbLine
 10
809.3827351343
 20
420.2159658186
 30
0.0
 11
805.8827351343
 21
420.2159658186
 31
0.0
  0
LINE
  5
375
330
1F
100
AcDbEntity
  8
0
  6
Continuous
 62
     7
370
    25
100
AcDbLine
 10
805.8827351343
 20
420.2159658186
 30
0.0
 11
805.8827351343
 21
416.7159658186
 31
0.0
  0
LINE
  5
376
330
1F
100
AcDbEntity
  8
0
  6
Continuous
 62
     7
370
    25
100
AcDbLine
 10
805.8827351343
 20
421.4159658186
 30
0.0
 11
809.3827351343
 21
421.4159658186
 31
0.0
  0
LINE
  5
377
330
1F
100
AcDbEntity
  8
0
  6
Continuous
 62
     7
370
    25
100
AcDbLine
 10
809.3827351343
 20
421.4159658186
 30
0.0
 11
809.3827351343
 21
424.9159658186
 31
0.0
  0
LINE
  5
378
330
1F
100
AcDbEntity
  8
0
  6
Continuous
 62
     7
370
    25
100
AcDbLine
 10
809.3827351343
 20
424.9159658186
 30
0.0
 11
805.8827351343
 21
424.9159658186
 31
0.0
  0
LINE
  5
379
330
1F
100
AcDbEntity
  8
0
  6
Continuous
 62
     7
370
    25
100
AcDbLine
 10
805.8827351343
 20
424.9159658186
 30
0.0
 11
805.8827351343
 21
421.4159658186
 31
0.0
  0
LINE
  5
37A
330
1F
100
AcDbEntity
  8
0
  6
Continuous
 62
     7
370
    25
100
AcDbLine
 10
805.8827351343
 20
426.1159658186
 30
0.0
 11
809.3827351343
 21
426.1159658186
 31
0.0
  0
LINE
  5
37B
330
1F
100
AcDbEntity
  8
0
  6
Continuous
 62
     7
370
    25
100
AcDbLine
 10
809.3827351343
 20
426.1159658186
 30
0.0
 11
809.3827351343
 21
429.6159658186
 31
0.0
  0
LINE
  5
37C
330
1F
100
AcDbEntity
  8
0
  6
Continuous
 62
     7
370
    25
100
AcDbLine
 10
809.3827351343
 20
429.6159658186
 30
0.0
 11
805.8827351343
 21
429.6159658186
 31
0.0
  0
LINE
  5
37D
330
1F
100
AcDbEntity
  8
0
  6
Continuous
 62
     7
370
    25
100
AcDbLine
 10
805.8827351343
 20
429.6159658186
 30
0.0
 11
805.8827351343
 21
426.1159658186
 31
0.0
  0
LINE
  5
37E
330
1F
100
AcDbEntity
  8
0
  6
Continuous
 62
     7
370
    25
100
AcDbLine
 10
710.8827351343
 20
407.3159658186
 30
0.0
 11
714.3827351343
 21
407.3159658186
 31
0.0
  0
LINE
  5
37F
330
1F
100
AcDbEntity
  8
0
  6
Continuous
 62
     7
370
    25
100
AcDbLine
 10
714.3827351343
 20
407.3159658186
 30
0.0
 11
714.3827351343
 21
410.8159658186
 31
0.0
  0
LINE
  5
380
330
1F
100
AcDbEntity
  8
0
  6
Continuous
 62
     7
370
    25
100
AcDbLine
 10
714.3827351343
 20
410.8159658186
 30
0.0
 11
710.8827351343
 21
410.8159658186
 31
0.0
  0
LINE
  5
381
330
1F
100
AcDbEntity
  8
0
  6
Continuous
 62
     7
370
    25
100
AcDbLine
 10
710.8827351343
 20
410.8159658186
 30
0.0
 11
710.8827351343
 21
407.3159658186
 31
0.0
  0
LINE
  5
382
330
1F
100
AcDbEntity
  8
0
  6
Continuous
 62
     7
370
    25
100
AcDbLine
 10
705.9827351343
 20
407.3159658186
 30
0.0
 11
709.4827351343
 21
407.3159658186
 31
0.0
  0
LINE
  5
383
330
1F
100
AcDbEntity
  8
0
  6
Continuous
 62
     7
370
    25
100
AcDbLine
 10
709.4827351343
 20
407.3159658186
 30
0.0
 11
709.4827351343
 21
410.8159658186
 31
0.0
  0
LINE
  5
384
330
1F
100
AcDbEntity
  8
0
  6
Continuous
 62
     7
370
    25
100
AcDbLine
 10
709.4827351343
 20
410.8159658186
 30
0.0
 11
705.9827351343
 21
410.8159658186
 31
0.0
  0
LINE
  5
385
330
1F
100
AcDbEntity
  8
0
  6
Continuous
 62
     7
370
    25
100
AcDbLine
 10
705.9827351343
 20
410.8159658186
 30
0.0
 11
705.9827351343
 21
407.3159658186
 31
0.0
  0
LINE
  5
386
330
1F
100
AcDbEntity
  8
0
  6
Continuous
 62
     7
370
    25
100
AcDbLine
 10
710.8827351343
 20
412.0159658186
 30
0.0
 11
714.3827351343
 21
412.0159658186
 31
0.0
  0
LINE
  5
387
330
1F
100
AcDbEntity
  8
0
  6
Continuous
 62
     7
370
    25
100
AcDbLine
 10
714.3827351343
 20
412.0159658186
 30
0.0
 11
714.3827351343
 21
415.5159658186
 31
0.0
  0
LINE
  5
388
330
1F
100
AcDbEntity
  8
0
  6
Continuous
 62
     7
370
    25
100
AcDbLine
 10
714.3827351343
 20
415.5159658186
 30
0.0
 11
710.8827351343
 21
415.5159658186
 31
0.0
  0
LINE
  5
389
330
1F
100
AcDbEntity
  8
0
  6
Continuous
 62
     7
370
    25
100
AcDbLine
 10
710.8827351343
 20
415.5159658186
 30
0.0
 11
710.8827351343
 21
412.0159658186
 31
0.0
  0
LINE
  5
38A
330
1F
100
AcDbEntity
  8
0
  6
Continuous
 62
     7
370
    25
100
AcDbLine
 10
705.9827351343
 20
412.0159658186
 30
0.0
 11
709.4827351343
 21
412.0159658186
 31
0.0
  0
LINE
  5
38B
330
1F
100
AcDbEntity
  8
0
  6
Continuous
 62
     7
370
    25
100
AcDbLine
 10
709.4827351343
 20
412.0159658186
 30
0.0
 11
709.4827351343
 21
415.5159658186
 31
0.0
  0
LINE
  5
38C
330
1F
100
AcDbEntity
  8
0
  6
Continuous
 62
     7
370
    25
100
AcDbLine
 10
709.4827351343
 20
415.5159658186
 30
0.0
 11
705.9827351343
 21
415.5159658186
 31
0.0
  0
LINE
  5
38D
330
1F
100
AcDbEntity
  8
0
  6
Continuous
 62
     7
370
    25
100
AcDbLine
 10
705.9827351343
 20
415.5159658186
 30
0.0
 11
705.9827351343
 21
412.0159658186
 31
0.0
  0
LINE
  5
38E
330
1F
100
AcDbEntity
  8
0
  6
Continuous
 62
     7
370
    25
100
AcDbLine
 10
764.7827351343
 20
416.7159658186
 30
0.0
 11
768.2827351343
 21
416.7159658186
 31
0.0
  0
LINE
  5
38F
330
1F
100
AcDbEntity
  8
0
  6
Continuous
 62
     7
370
    25
100
AcDbLine
 10
768.2827351343
 20
416.7159658186
 30
0.0
 11
768.2827351343
 21
420.2159658186
 31
0.0
  0
LINE
  5
390
330
1F
100
AcDbEntity
  8
0
  6
Continuous
 62
     7
370
    25
100
AcDbLine
 10
768.2827351343
 20
420.2159658186
 30
0.0
 11
764.7827351343
 21
420.2159658186
 31
0.0
  0
LINE
  5
391
330
1F
100
AcDbEntity
  8
0
  6
Continuous
 62
     7
370
    25
100
AcDbLine
 10
764.7827351343
 20
420.2159658186
 30
0.0
 11
764.7827351343
 21
416.7159658186
 31
0.0
  0
LINE
  5
392
330
1F
100
AcDbEntity
  8
0
  6
Continuous
 62
     7
370
    25
100
AcDbLine
 10
710.8827351343
 20
416.7159658186
 30
0.0
 11
714.3827351343
 21
416.7159658186
 31
0.0
  0
LINE
  5
393
330
1F
100
AcDbEntity
  8
0
  6
Continuous
 62
     7
370
    25
100
AcDbLine
 10
714.3827351343
 20
416.7159658186
 30
0.0
 11
714.3827351343
 21
420.2159658186
 31
0.0
  0
LINE
  5
394
330
1F
100
AcDbEntity
  8
0
  6
Continuous
 62
     7
370
    25
100
AcDbLine
 10
714.3827351343
 20
420.2159658186
 30
0.0
 11
710.8827351343
 21
420.2159658186
 31
0.0
  0
LINE
  5
395
330
1F
100
AcDbEntity
  8
0
  6
Continuous
 62
     7
370
    25
100
AcDbLine
 10
710.8827351343
 20
420.2159658186
 30
0.0
 11
710.8827351343
 21
416.7159658186
 31
0.0
  0
LINE
  5
396
330
1F
100
AcDbEntity
  8
0
  6
Continuous
 62
     7
370
    25
100
AcDbLine
 10
705.9827351343
 20
416.7159658186
 30
0.0
 11
709.4827351343
 21
416.7159658186
 31
0.0
  0
LINE
  5
397
330
1F
100
AcDbEntity
  8
0
  6
Continuous
 62
     7
370
    25
100
AcDbLine
 10
709.4827351343
 20
416.7159658186
 30
0.0
 11
709.4827351343
 21
420.2159658186
 31
0.0
  0
LINE
  5
398
330
1F
100
AcDbEntity
  8
0
  6
Continuous
 62
     7
370
    25
100
AcDbLine
 10
709.4827351343
 20
420.2159658186
 30
0.0
 11
705.9827351343
 21
420.2159658186
 31
0.0
  0
LINE
  5
399
330
1F
100
AcDbEntity
  8
0
  6
Continuous
 62
     7
370
    25
100
AcDbLine
 10
705.9827351343
 20
420.2159658186
 30
0.0
 11
705.9827351343
 21
416.7159658186
 31
0.0
  0
LINE
  5
39A
330
1F
100
AcDbEntity
  8
0
  6
Continuous
 62
     7
370
    25
100
AcDbLine
 10
764.7827351343
 20
421.4159658186
 30
0.0
 11
768.2827351343
 21
421.4159658186
 31
0.0
  0
LINE
  5
39B
330
1F
100
AcDbEntity
  8
0
  6
Continuous
 62
     7
370
    25
100
AcDbLine
 10
768.2827351343
 20
421.4159658186
 30
0.0
 11
768.2827351343
 21
424.9159658186
 31
0.0
  0
LINE
  5
39C
330
1F
100
AcDbEntity
  8
0
  6
Continuous
 62
     7
370
    25
100
AcDbLine
 10
768.2827351343
 20
424.9159658186
 30
0.0
 11
764.7827351343
 21
424.9159658186
 31
0.0
  0
LINE
  5
39D
330
1F
100
AcDbEntity
  8
0
  6
Continuous
 62
     7
370
    25
100
AcDbLine
 10
764.7827351343
 20
424.9159658186
 30
0.0
 11
764.7827351343
 21
421.4159658186
 31
0.0
  0
LINE
  5
39E
330
1F
100
AcDbEntity
  8
0
  6
Continuous
 62
     7
370
    25
100
AcDbLine
 10
710.8827351343
 20
421.4159658186
 30
0.0
 11
714.3827351343
 21
421.4159658186
 31
0.0
  0
LINE
  5
39F
330
1F
100
AcDbEntity
  8
0
  6
Continuous
 62
     7
370
    25
100
AcDbLine
 10
714.3827351343
 20
421.4159658186
 30
0.0
 11
714.3827351343
 21
424.9159658186
 31
0.0
  0
LINE
  5
3A0
330
1F
100
AcDbEntity
  8
0
  6
Continuous
 62
     7
370
    25
100
AcDbLine
 10
714.3827351343
 20
424.9159658186
 30
0.0
 11
710.8827351343
 21
424.9159658186
 31
0.0
  0
LINE
  5
3A1
330
1F
100
AcDbEntity
  8
0
  6
Continuous
 62
     7
370
    25
100
AcDbLine
 10
710.8827351343
 20
424.9159658186
 30
0.0
 11
710.8827351343
 21
421.4159658186
 31
0.0
  0
LINE
  5
3A2
330
1F
100
AcDbEntity
  8
0
  6
Continuous
 62
     7
370
    25
100
AcDbLine
 10
705.9827351343
 20
421.4159658186
 30
0.0
 11
709.4827351343
 21
421.4159658186
 31
0.0
  0
LINE
  5
3A3
330
1F
100
AcDbEntity
  8
0
  6
Continuous
 62
     7
370
    25
100
AcDbLine
 10
709.4827351343
 20
421.4159658186
 30
0.0
 11
709.4827351343
 21
424.9159658186
 31
0.0
  0
LINE
  5
3A4
330
1F
100
AcDbEntity
  8
0
  6
Continuous
 62
     7
370
    25
100
AcDbLine
 10
709.4827351343
 20
424.9159658186
 30
0.0
 11
705.9827351343
 21
424.9159658186
 31
0.0
  0
LINE
  5
3A5
330
1F
100
AcDbEntity
  8
0
  6
Continuous
 62
     7
370
    25
100
AcDbLine
 10
705.9827351343
 20
424.9159658186
 30
0.0
 11
705.9827351343
 21
421.4159658186
 31
0.0
  0
LINE
  5
3A6
330
1F
100
AcDbEntity
  8
0
  6
Continuous
 62
     7
370
    25
100
AcDbLine
 10
764.7827351343
 20
426.1159658186
 30
0.0
 11
768.2827351343
 21
426.1159658186
 31
0.0
  0
LINE
  5
3A7
330
1F
100
AcDbEntity
  8
0
  6
Continuous
 62
     7
370
    25
100
AcDbLine
 10
768.2827351343
 20
426.1159658186
 30
0.0
 11
768.2827351343
 21
429.6159658186
 31
0.0
  0
LINE
  5
3A8
330
1F
100
AcDbEntity
  8
0
  6
Continuous
 62
     7
370
    25
100
AcDbLine
 10
768.2827351343
 20
429.6159658186
 30
0.0
 11
764.7827351343
 21
429.6159658186
 31
0.0
  0
LINE
  5
3A9
330
1F
100
AcDbEntity
  8
0
  6
Continuous
 62
     7
370
    25
100
AcDbLine
 10
764.7827351343
 20
429.6159658186
 30
0.0
 11
764.7827351343
 21
426.1159658186
 31
0.0
  0
LINE
  5
3AA
330
1F
100
AcDbEntity
  8
0
  6
Continuous
 62
     7
370
    25
100
AcDbLine
 10
759.8827351343
 20
426.1159658186
 30
0.0
 11
763.3827351343
 21
426.1159658186
 31
0.0
  0
LINE
  5
3AB
330
1F
100
AcDbEntity
  8
0
  6
Continuous
 62
     7
370
    25
100
AcDbLine
 10
763.3827351343
 20
426.1159658186
 30
0.0
 11
763.3827351343
 21
429.6159658186
 31
0.0
  0
LINE
  5
3AC
330
1F
100
AcDbEntity
  8
0
  6
Continuous
 62
     7
370
    25
100
AcDbLine
 10
763.3827351343
 20
429.6159658186
 30
0.0
 11
759.8827351343
 21
429.6159658186
 31
0.0
  0
LINE
  5
3AD
330
1F
100
AcDbEntity
  8
0
  6
Continuous
 62
     7
370
    25
100
AcDbLine
 10
759.8827351343
 20
429.6159658186
 30
0.0
 11
759.8827351343
 21
426.1159658186
 31
0.0
  0
LINE
  5
3AE
330
1F
100
AcDbEntity
  8
0
  6
Continuous
 62
     7
370
    25
100
AcDbLine
 10
754.9827351343
 20
426.1159658186
 30
0.0
 11
758.4827351343
 21
426.1159658186
 31
0.0
  0
LINE
  5
3AF
330
1F
100
AcDbEntity
  8
0
  6
Continuous
 62
     7
370
    25
100
AcDbLine
 10
758.4827351343
 20
426.1159658186
 30
0.0
 11
758.4827351343
 21
429.6159658186
 31
0.0
  0
LINE
  5
3B0
330
1F
100
AcDbEntity
  8
0
  6
Continuous
 62
     7
370
    25
100
AcDbLine
 10
758.4827351343
 20
429.6159658186
 30
0.0
 11
754.9827351343
 21
429.6159658186
 31
0.0
  0
LINE
  5
3B1
330
1F
100
AcDbEntity
  8
0
  6
Continuous
 62
     7
370
    25
100
AcDbLine
 10
754.9827351343
 20
429.6159658186
 30
0.0
 11
754.9827351343
 21
426.1159658186
 31
0.0
  0
LINE
  5
3B2
330
1F
100
AcDbEntity
  8
0
  6
Continuous
 62
     7
370
    25
100
AcDbLine
 10
750.0827351343
 20
426.1159658186
 30
0.0
 11
753.5827351343
 21
426.1159658186
 31
0.0
  0
LINE
  5
3B3
330
1F
100
AcDbEntity
  8
0
  6
Continuous
 62
     7
370
    25
100
AcDbLine
 10
753.5827351343
 20
426.1159658186
 30
0.0
 11
753.5827351343
 21
429.6159658186
 31
0.0
  0
LINE
  5
3B4
330
1F
100
AcDbEntity
  8
0
  6
Continuous
 62
     7
370
    25
100
AcDbLine
 10
753.5827351343
 20
429.6159658186
 30
0.0
 11
750.0827351343
 21
429.6159658186
 31
0.0
  0
LINE
  5
3B5
330
1F
100
AcDbEntity
  8
0
  6
Continuous
 62
     7
370
    25
100
AcDbLine
 10
750.0827351343
 20
429.6159658186
 30
0.0
 11
750.0827351343
 21
426.1159658186
 31
0.0
  0
LINE
  5
3B6
330
1F
100
AcDbEntity
  8
0
  6
Continuous
 62
     7
370
    25
100
AcDbLine
 10
745.1827351343
 20
426.1159658186
 30
0.0
 11
748.6827351343
 21
426.1159658186
 31
0.0
  0
LINE
  5
3B7
330
1F
100
AcDbEntity
  8
0
  6
Continuous
 62
     7
370
    25
100
AcDbLine
 10
748.6827351343
 20
426.1159658186
 30
0.0
 11
748.6827351343
 21
429.6159658186
 31
0.0
  0
LINE
  5
3B8
330
1F
100
AcDbEntity
  8
0
  6
Continuous
 62
     7
370
    25
100
AcDbLine
 10
748.6827351343
 20
429.6159658186
 30
0.0
 11
745.1827351343
 21
429.6159658186
 31
0.0
  0
LINE
  5
3B9
330
1F
100
AcDbEntity
  8
0
  6
Continuous
 62
     7
370
    25
100
AcDbLine
 10
745.1827351343
 20
429.6159658186
 30
0.0
 11
745.1827351343
 21
426.1159658186
 31
0.0
  0
LINE
  5
3BA
330
1F
100
AcDbEntity
  8
0
  6
Continuous
 62
     7
370
    25
100
AcDbLine
 10
740.2827351343
 20
426.1159658186
 30
0.0
 11
743.7827351343
 21
426.1159658186
 31
0.0
  0
LINE
  5
3BB
330
1F
100
AcDbEntity
  8
0
  6
Continuous
 62
     7
370
    25
100
AcDbLine
 10
743.7827351343
 20
426.1159658186
 30
0.0
 11
743.7827351343
 21
429.6159658186
 31
0.0
  0
LINE
  5
3BC
330
1F
100
AcDbEntity
  8
0
  6
Continuous
 62
     7
370
    25
100
AcDbLine
 10
743.7827351343
 20
429.6159658186
 30
0.0
 11
740.2827351343
 21
429.6159658186
 31
0.0
  0
LINE
  5
3BD
330
1F
100
AcDbEntity
  8
0
  6
Continuous
 62
     7
370
    25
100
AcDbLine
 10
740.2827351343
 20
429.6159658186
 30
0.0
 11
740.2827351343
 21
426.1159658186
 31
0.0
  0
LINE
  5
3BE
330
1F
100
AcDbEntity
  8
0
  6
Continuous
 62
     7
370
    25
100
AcDbLine
 10
735.3827351343
 20
426.1159658186
 30
0.0
 11
738.8827351343
 21
426.1159658186
 31
0.0
  0
LINE
  5
3BF
330
1F
100
AcDbEntity
  8
0
  6
Continuous
 62
     7
370
    25
100
AcDbLine
 10
738.8827351343
 20
426.1159658186
 30
0.0
 11
738.8827351343
 21
429.6159658186
 31
0.0
  0
LINE
  5
3C0
330
1F
100
AcDbEntity
  8
0
  6
Continuous
 62
     7
370
    25
100
AcDbLine
 10
738.8827351343
 20
429.6159658186
 30
0.0
 11
735.3827351343
 21
429.6159658186
 31
0.0
  0
LINE
  5
3C1
330
1F
100
AcDbEntity
  8
0
  6
Continuous
 62
     7
370
    25
100
AcDbLine
 10
735.3827351343
 20
429.6159658186
 30
0.0
 11
735.3827351343
 21
426.1159658186
 31
0.0
  0
LINE
  5
3C2
330
1F
100
AcDbEntity
  8
0
  6
Continuous
 62
     7
370
    25
100
AcDbLine
 10
730.4827351343
 20
426.1159658186
 30
0.0
 11
733.9827351343
 21
426.1159658186
 31
0.0
  0
LINE
  5
3C3
330
1F
100
AcDbEntity
  8
0
  6
Continuous
 62
     7
370
    25
100
AcDbLine
 10
733.9827351343
 20
426.1159658186
 30
0.0
 11
733.9827351343
 21
429.6159658186
 31
0.0
  0
LINE
  5
3C4
330
1F
100
AcDbEntity
  8
0
  6
Continuous
 62
     7
370
    25
100
AcDbLine
 10
733.9827351343
 20
429.6159658186
 30
0.0
 11
730.4827351343
 21
429.6159658186
 31
0.0
  0
LINE
  5
3C5
330
1F
100
AcDbEntity
  8
0
  6
Continuous
 62
     7
370
    25
100
AcDbLine
 10
730.4827351343
 20
429.6159658186
 30
0.0
 11
730.4827351343
 21
426.1159658186
 31
0.0
  0
LINE
  5
3C6
330
1F
100
AcDbEntity
  8
0
  6
Continuous
 62
     7
370
    25
100
AcDbLine
 10
725.5827351343
 20
426.1159658186
 30
0.0
 11
729.0827351343
 21
426.1159658186
 31
0.0
  0
LINE
  5
3C7
330
1F
100
AcDbEntity
  8
0
  6
Continuous
 62
     7
370
    25
100
AcDbLine
 10
729.0827351343
 20
426.1159658186
 30
0.0
 11
729.0827351343
 21
429.6159658186
 31
0.0
  0
LINE
  5
3C8
330
1F
100
AcDbEntity
  8
0
  6
Continuous
 62
     7
370
    25
100
AcDbLine
 10
729.0827351343
 20
429.6159658186
 30
0.0
 11
725.5827351343
 21
429.6159658186
 31
0.0
  0
LINE
  5
3C9
330
1F
100
AcDbEntity
  8
0
  6
Continuous
 62
     7
370
    25
100
AcDbLine
 10
725.5827351343
 20
429.6159658186
 30
0.0
 11
725.5827351343
 21
426.1159658186
 31
0.0
  0
LINE
  5
3CA
330
1F
100
AcDbEntity
  8
0
  6
Continuous
 62
     7
370
    25
100
AcDbLine
 10
720.6827351343
 20
426.1159658186
 30
0.0
 11
724.1827351343
 21
426.1159658186
 31
0.0
  0
LINE
  5
3CB
330
1F
100
AcDbEntity
  8
0
  6
Continuous
 62
     7
370
    25
100
AcDbLine
 10
724.1827351343
 20
426.1159658186
 30
0.0
 11
724.1827351343
 21
429.6159658186
 31
0.0
  0
LINE
  5
3CC
330
1F
100
AcDbEntity
  8
0
  6
Continuous
 62
     7
370
    25
100
AcDbLine
 10
724.1827351343
 20
429.6159658186
 30
0.0
 11
720.6827351343
 21
429.6159658186
 31
0.0
  0
LINE
  5
3CD
330
1F
100
AcDbEntity
  8
0
  6
Continuous
 62
     7
370
    25
100
AcDbLine
 10
720.6827351343
 20
429.6159658186
 30
0.0
 11
720.6827351343
 21
426.1159658186
 31
0.0
  0
LINE
  5
3CE
330
1F
100
AcDbEntity
  8
0
  6
Continuous
 62
     7
370
    25
100
AcDbLine
 10
715.7827351343
 20
426.1159658186
 30
0.0
 11
719.2827351343
 21
426.1159658186
 31
0.0
  0
LINE
  5
3CF
330
1F
100
AcDbEntity
  8
0
  6
Continuous
 62
     7
370
    25
100
AcDbLine
 10
719.2827351343
 20
426.1159658186
 30
0.0
 11
719.2827351343
 21
429.6159658186
 31
0.0
  0
LINE
  5
3D0
330
1F
100
AcDbEntity
  8
0
  6
Continuous
 62
     7
370
    25
100
AcDbLine
 10
719.2827351343
 20
429.6159658186
 30
0.0
 11
715.7827351343
 21
429.6159658186
 31
0.0
  0
LINE
  5
3D1
330
1F
100
AcDbEntity
  8
0
  6
Continuous
 62
     7
370
    25
100
AcDbLine
 10
715.7827351343
 20
429.6159658186
 30
0.0
 11
715.7827351343
 21
426.1159658186
 31
0.0
  0
LINE
  5
3D2
330
1F
100
AcDbEntity
  8
0
  6
Continuous
 62
     7
370
    25
100
AcDbLine
 10
710.8827351343
 20
426.1159658186
 30
0.0
 11
714.3827351343
 21
426.1159658186
 31
0.0
  0
LINE
  5
3D3
330
1F
100
AcDbEntity
  8
0
  6
Continuous
 62
     7
370
    25
100
AcDbLine
 10
714.3827351343
 20
426.1159658186
 30
0.0
 11
714.3827351343
 21
429.6159658186
 31
0.0
  0
LINE
  5
3D4
330
1F
100
AcDbEntity
  8
0
  6
Continuous
 62
     7
370
    25
100
AcDbLine
 10
714.3827351343
 20
429.6159658186
 30
0.0
 11
710.8827351343
 21
429.6159658186
 31
0.0
  0
LINE
  5
3D5
330
1F
100
AcDbEntity
  8
0
  6
Continuous
 62
     7
370
    25
100
AcDbLine
 10
710.8827351343
 20
429.6159658186
 30
0.0
 11
710.8827351343
 21
426.1159658186
 31
0.0
  0
LINE
  5
3D6
330
1F
100
AcDbEntity
  8
0
  6
Continuous
 62
     7
370
    25
100
AcDbLine
 10
705.9827351343
 20
426.1159658186
 30
0.0
 11
709.4827351343
 21
426.1159658186
 31
0.0
  0
LINE
  5
3D7
330
1F
100
AcDbEntity
  8
0
  6
Continuous
 62
     7
370
    25
100
AcDbLine
 10
709.4827351343
 20
426.1159658186
 30
0.0
 11
709.4827351343
 21
429.6159658186
 31
0.0
  0
LINE
  5
3D8
330
1F
100
AcDbEntity
  8
0
  6
Continuous
 62
     7
370
    25
100
AcDbLine
 10
709.4827351343
 20
429.6159658186
 30
0.0
 11
705.9827351343
 21
429.6159658186
 31
0.0
  0
LINE
  5
3D9
330
1F
100
AcDbEntity
  8
0
  6
Continuous
 62
     7
370
    25
100
AcDbLine
 10
705.9827351343
 20
429.6159658186
 30
0.0
 11
705.9827351343
 21
426.1159658186
 31
0.0
  0
LINE
  5
3DA
330
1F
100
AcDbEntity
  8
0
  6
Continuous
 62
     7
370
    25
100
AcDbLine
 10
754.9827351343
 20
430.8159658186
 30
0.0
 11
758.4827351343
 21
430.8159658186
 31
0.0
  0
LINE
  5
3DB
330
1F
100
AcDbEntity
  8
0
  6
Continuous
 62
     7
370
    25
100
AcDbLine
 10
758.4827351343
 20
430.8159658186
 30
0.0
 11
758.4827351343
 21
434.3159658186
 31
0.0
  0
LINE
  5
3DC
330
1F
100
AcDbEntity
  8
0
  6
Continuous
 62
     7
370
    25
100
AcDbLine
 10
758.4827351343
 20
434.3159658186
 30
0.0
 11
754.9827351343
 21
434.3159658186
 31
0.0
  0
LINE
  5
3DD
330
1F
100
AcDbEntity
  8
0
  6
Continuous
 62
     7
370
    25
100
AcDbLine
 10
754.9827351343
 20
434.3159658186
 30
0.0
 11
754.9827351343
 21
430.8159658186
 31
0.0
  0
LINE
  5
3DE
330
1F
100
AcDbEntity
  8
0
  6
Continuous
 62
     7
370
    25
100
AcDbLine
 10
750.0827351343
 20
430.8159658186
 30
0.0
 11
753.5827351343
 21
430.8159658186
 31
0.0
  0
LINE
  5
3DF
330
1F
100
AcDbEntity
  8
0
  6
Continuous
 62
     7
370
    25
100
AcDbLine
 10
753.5827351343
 20
430.8159658186
 30
0.0
 11
753.5827351343
 21
434.3159658186
 31
0.0
  0
LINE
  5
3E0
330
1F
100
AcDbEntity
  8
0
  6
Continuous
 62
     7
370
    25
100
AcDbLine
 10
753.5827351343
 20
434.3159658186
 30
0.0
 11
750.0827351343
 21
434.3159658186
 31
0.0
  0
LINE
  5
3E1
330
1F
100
AcDbEntity
  8
0
  6
Continuous
 62
     7
370
    25
100
AcDbLine
 10
750.0827351343
 20
434.3159658186
 30
0.0
 11
750.0827351343
 21
430.8159658186
 31
0.0
  0
LINE
  5
3E2
330
1F
100
AcDbEntity
  8
0
  6
Continuous
 62
     7
370
    25
100
AcDbLine
 10
745.1827351343
 20
430.8159658186
 30
0.0
 11
748.6827351343
 21
430.8159658186
 31
0.0
  0
LINE
  5
3E3
330
1F
100
AcDbEntity
  8
0
  6
Continuous
 62
     7
370
    25
100
AcDbLine
 10
748.6827351343
 20
430.8159658186
 30
0.0
 11
748.6827351343
 21
434.3159658186
 31
0.0
  0
LINE
  5
3E4
330
1F
100
AcDbEntity
  8
0
  6
Continuous
 62
     7
370
    25
100
AcDbLine
 10
748.6827351343
 20
434.3159658186
 30
0.0
 11
745.1827351343
 21
434.3159658186
 31
0.0
  0
LINE
  5
3E5
330
1F
100
AcDbEntity
  8
0
  6
Continuous
 62
     7
370
    25
100
AcDbLine
 10
745.1827351343
 20
434.3159658186
 30
0.0
 11
745.1827351343
 21
430.8159658186
 31
0.0
  0
LINE
  5
3E6
330
1F
100
AcDbEntity
  8
0
  6
Continuous
 62
     7
370
    25
100
AcDbLine
 10
740.2827351343
 20
430.8159658186
 30
0.0
 11
743.7827351343
 21
430.8159658186
 31
0.0
  0
LINE
  5
3E7
330
1F
100
AcDbEntity
  8
0
  6
Continuous
 62
     7
370
    25
100
AcDbLine
 10
743.7827351343
 20
430.8159658186
 30
0.0
 11
743.7827351343
 21
434.3159658186
 31
0.0
  0
LINE
  5
3E8
330
1F
100
AcDbEntity
  8
0
  6
Continuous
 62
     7
370
    25
100
AcDbLine
 10
743.7827351343
 20
434.3159658186
 30
0.0
 11
740.2827351343
 21
434.3159658186
 31
0.0
  0
LINE
  5
3E9
330
1F
100
AcDbEntity
  8
0
  6
Continuous
 62
     7
370
    25
100
AcDbLine
 10
740.2827351343
 20
434.3159658186
 30
0.0
 11
740.2827351343
 21
430.8159658186
 31
0.0
  0
LINE
  5
3EA
330
1F
100
AcDbEntity
  8
0
  6
Continuous
 62
     7
370
    25
100
AcDbLine
 10
735.3827351343
 20
430.8159658186
 30
0.0
 11
738.8827351343
 21
430.8159658186
 31
0.0
  0
LINE
  5
3EB
330
1F
100
AcDbEntity
  8
0
  6
Continuous
 62
     7
370
    25
100
AcDbLine
 10
738.8827351343
 20
430.8159658186
 30
0.0
 11
738.8827351343
 21
434.3159658186
 31
0.0
  0
LINE
  5
3EC
330
1F
100
AcDbEntity
  8
0
  6
Continuous
 62
     7
370
    25
100
AcDbLine
 10
738.8827351343
 20
434.3159658186
 30
0.0
 11
735.3827351343
 21
434.3159658186
 31
0.0
  0
LINE
  5
3ED
330
1F
100
AcDbEntity
  8
0
  6
Continuous
 62
     7
370
    25
100
AcDbLine
 10
735.3827351343
 20
434.3159658186
 30
0.0
 11
735.3827351343
 21
430.8159658186
 31
0.0
  0
LINE
  5
3EE
330
1F
100
AcDbEntity
  8
0
  6
Continuous
 62
     7
370
    25
100
AcDbLine
 10
730.4827351343
 20
430.8159658186
 30
0.0
 11
733.9827351343
 21
430.8159658186
 31
0.0
  0
LINE
  5
3EF
330
1F
100
AcDbEntity
  8
0
  6
Continuous
 62
     7
370
    25
100
AcDbLine
 10
733.9827351343
 20
430.8159658186
 30
0.0
 11
733.9827351343
 21
434.3159658186
 31
0.0
  0
LINE
  5
3F0
330
1F
100
AcDbEntity
  8
0
  6
Continuous
 62
     7
370
    25
100
AcDbLine
 10
733.9827351343
 20
434.3159658186
 30
0.0
 11
730.4827351343
 21
434.3159658186
 31
0.0
  0
LINE
  5
3F1
330
1F
100
AcDbEntity
  8
0
  6
Continuous
 62
     7
370
    25
100
AcDbLine
 10
730.4827351343
 20
434.3159658186
 30
0.0
 11
730.4827351343
 21
430.8159658186
 31
0.0
  0
LINE
  5
3F2
330
1F
100
AcDbEntity
  8
0
  6
Continuous
 62
     7
370
    25
100
AcDbLine
 10
725.5827351343
 20
430.8159658186
 30
0.0
 11
729.0827351343
 21
430.8159658186
 31
0.0
  0
LINE
  5
3F3
330
1F
100
AcDbEntity
  8
0
  6
Continuous
 62
     7
370
    25
100
AcDbLine
 10
729.0827351343
 20
430.8159658186
 30
0.0
 11
729.0827351343
 21
434.3159658186
 31
0.0
  0
LINE
  5
3F4
330
1F
100
AcDbEntity
  8
0
  6
Continuous
 62
     7
370
    25
100
AcDbLine
 10
729.0827351343
 20
434.3159658186
 30
0.0
 11
725.5827351343
 21
434.3159658186
 31
0.0
  0
LINE
  5
3F5
330
1F
100
AcDbEntity
  8
0
  6
Continuous
 62
     7
370
    25
100
AcDbLine
 10
725.5827351343
 20
434.3159658186
 30
0.0
 11
725.5827351343
 21
430.8159658186
 31
0.0
  0
LINE
  5
3F6
330
1F
100
AcDbEntity
  8
0
  6
Continuous
 62
     7
370
    25
100
AcDbLine
 10
720.6827351343
 20
430.8159658186
 30
0.0
 11
724.1827351343
 21
430.8159658186
 31
0.0
  0
LINE
  5
3F7
330
1F
100
AcDbEntity
  8
0
  6
Continuous
 62
     7
370
    25
100
AcDbLine
 10
724.1827351343
 20
430.8159658186
 30
0.0
 11
724.1827351343
 21
434.3159658186
 31
0.0
  0
LINE
  5
3F8
330
1F
100
AcDbEntity
  8
0
  6
Continuous
 62
     7
370
    25
100
AcDbLine
 10
724.1827351343
 20
434.3159658186
 30
0.0
 11
720.6827351343
 21
434.3159658186
 31
0.0
  0
LINE
  5
3F9
330
1F
100
AcDbEntity
  8
0
  6
Continuous
 62
     7
370
    25
100
AcDbLine
 10
720.6827351343
 20
434.3159658186
 30
0.0
 11
720.6827351343
 21
430.8159658186
 31
0.0
  0
LINE
  5
3FA
330
1F
100
AcDbEntity
  8
0
  6
Continuous
 62
     7
370
    25
100
AcDbLine
 10
715.7827351343
 20
430.8159658186
 30
0.0
 11
719.2827351343
 21
430.8159658186
 31
0.0
  0
LINE
  5
3FB
330
1F
100
AcDbEntity
  8
0
  6
Continuous
 62
     7
370
    25
100
AcDbLine
 10
719.2827351343
 20
430.8159658186
 30
0.0
 11
719.2827351343
 21
434.3159658186
 31
0.0
  0
LINE
  5
3FC
330
1F
100
AcDbEntity
  8
0
  6
Continuous
 62
     7
370
    25
100
AcDbLine
 10
719.2827351343
 20
434.3159658186
 30
0.0
 11
715.7827351343
 21
434.3159658186
 31
0.0
  0
LINE
  5
3FD
330
1F
100
AcDbEntity
  8
0
  6
Continuous
 62
     7
370
    25
100
AcDbLine
 10
715.7827351343
 20
434.3159658186
 30
0.0
 11
715.7827351343
 21
430.8159658186
 31
0.0
  0
LINE
  5
3FE
330
1F
100
AcDbEntity
  8
0
  6
Continuous
 62
     7
370
    25
100
AcDbLine
 10
710.8827351343
 20
430.8159658186
 30
0.0
 11
714.3827351343
 21
430.8159658186
 31
0.0
  0
LINE
  5
3FF
330
1F
100
AcDbEntity
  8
0
  6
Continuous
 62
     7
370
    25
100
AcDbLine
 10
714.3827351343
 20
430.8159658186
 30
0.0
 11
714.3827351343
 21
434.3159658186
 31
0.0
  0
LINE
  5
400
330
1F
100
AcDbEntity
  8
0
  6
Continuous
 62
     7
370
    25
100
AcDbLine
 10
714.3827351343
 20
434.3159658186
 30
0.0
 11
710.8827351343
 21
434.3159658186
 31
0.0
  0
LINE
  5
401
330
1F
100
AcDbEntity
  8
0
  6
Continuous
 62
     7
370
    25
100
AcDbLine
 10
710.8827351343
 20
434.3159658186
 30
0.0
 11
710.8827351343
 21
430.8159658186
 31
0.0
  0
LINE
  5
402
330
1F
100
AcDbEntity
  8
0
  6
Continuous
 62
     7
370
    25
100
AcDbLine
 10
705.9827351343
 20
430.8159658186
 30
0.0
 11
709.4827351343
 21
430.8159658186
 31
0.0
  0
LINE
  5
403
330
1F
100
AcDbEntity
  8
0
  6
Continuous
 62
     7
370
    25
100
AcDbLine
 10
709.4827351343
 20
430.8159658186
 30
0.0
 11
709.4827351343
 21
434.3159658186
 31
0.0
  0
LINE
  5
404
330
1F
100
AcDbEntity
  8
0
  6
Continuous
 62
     7
370
    25
100
AcDbLine
 10
709.4827351343
 20
434.3159658186
 30
0.0
 11
705.9827351343
 21
434.3159658186
 31
0.0
  0
LINE
  5
405
330
1F
100
AcDbEntity
  8
0
  6
Continuous
 62
     7
370
    25
100
AcDbLine
 10
705.9827351343
 20
434.3159658186
 30
0.0
 11
705.9827351343
 21
430.8159658186
 31
0.0
  0
LINE
  5
406
330
1F
100
AcDbEntity
  8
0
  6
Continuous
 62
     7
370
    25
100
AcDbLine
 10
754.9827351343
 20
435.5159658186
 30
0.0
 11
758.4827351343
 21
435.5159658186
 31
0.0
  0
LINE
  5
407
330
1F
100
AcDbEntity
  8
0
  6
Continuous
 62
     7
370
    25
100
AcDbLine
 10
758.4827351343
 20
435.5159658186
 30
0.0
 11
758.4827351343
 21
439.0159658186
 31
0.0
  0
LINE
  5
408
330
1F
100
AcDbEntity
  8
0
  6
Continuous
 62
     7
370
    25
100
AcDbLine
 10
758.4827351343
 20
439.0159658186
 30
0.0
 11
754.9827351343
 21
439.0159658186
 31
0.0
  0
LINE
  5
409
330
1F
100
AcDbEntity
  8
0
  6
Continuous
 62
     7
370
    25
100
AcDbLine
 10
754.9827351343
 20
439.0159658186
 30
0.0
 11
754.9827351343
 21
435.5159658186
 31
0.0
  0
LINE
  5
40A
330
1F
100
AcDbEntity
  8
0
  6
Continuous
 62
     7
370
    25
100
AcDbLine
 10
750.0827351343
 20
435.5159658186
 30
0.0
 11
753.5827351343
 21
435.5159658186
 31
0.0
  0
LINE
  5
40B
330
1F
100
AcDbEntity
  8
0
  6
Continuous
 62
     7
370
    25
100
AcDbLine
 10
753.5827351343
 20
435.5159658186
 30
0.0
 11
753.5827351343
 21
439.0159658186
 31
0.0
  0
LINE
  5
40C
330
1F
100
AcDbEntity
  8
0
  6
Continuous
 62
     7
370
    25
100
AcDbLine
 10
753.5827351343
 20
439.0159658186
 30
0.0
 11
750.0827351343
 21
439.0159658186
 31
0.0
  0
LINE
  5
40D
330
1F
100
AcDbEntity
  8
0
  6
Continuous
 62
     7
370
    25
100
AcDbLine
 10
750.0827351343
 20
439.0159658186
 30
0.0
 11
750.0827351343
 21
435.5159658186
 31
0.0
  0
LINE
  5
40E
330
1F
100
AcDbEntity
  8
0
  6
Continuous
 62
     7
370
    25
100
AcDbLine
 10
745.1827351343
 20
435.5159658186
 30
0.0
 11
748.6827351343
 21
435.5159658186
 31
0.0
  0
LINE
  5
40F
330
1F
100
AcDbEntity
  8
0
  6
Continuous
 62
     7
370
    25
100
AcDbLine
 10
748.6827351343
 20
435.5159658186
 30
0.0
 11
748.6827351343
 21
439.0159658186
 31
0.0
  0
LINE
  5
410
330
1F
100
AcDbEntity
  8
0
  6
Continuous
 62
     7
370
    25
100
AcDbLine
 10
748.6827351343
 20
439.0159658186
 30
0.0
 11
745.1827351343
 21
439.0159658186
 31
0.0
  0
LINE
  5
411
330
1F
100
AcDbEntity
  8
0
  6
Continuous
 62
     7
370
    25
100
AcDbLine
 10
745.1827351343
 20
439.0159658186
 30
0.0
 11
745.1827351343
 21
435.5159658186
 31
0.0
  0
LINE
  5
412
330
1F
100
AcDbEntity
  8
0
  6
Continuous
 62
     7
370
    25
100
AcDbLine
 10
740.2827351343
 20
435.5159658186
 30
0.0
 11
743.7827351343
 21
435.5159658186
 31
0.0
  0
LINE
  5
413
330
1F
100
AcDbEntity
  8
0
  6
Continuous
 62
     7
370
    25
100
AcDbLine
 10
743.7827351343
 20
435.5159658186
 30
0.0
 11
743.7827351343
 21
439.0159658186
 31
0.0
  0
LINE
  5
414
330
1F
100
AcDbEntity
  8
0
  6
Continuous
 62
     7
370
    25
100
AcDbLine
 10
743.7827351343
 20
439.0159658186
 30
0.0
 11
740.2827351343
 21
439.0159658186
 31
0.0
  0
LINE
  5
415
330
1F
100
AcDbEntity
  8
0
  6
Continuous
 62
     7
370
    25
100
AcDbLine
 10
740.2827351343
 20
439.0159658186
 30
0.0
 11
740.2827351343
 21
435.5159658186
 31
0.0
  0
LINE
  5
416
330
1F
100
AcDbEntity
  8
0
  6
Continuous
 62
     7
370
    25
100
AcDbLine
 10
735.3827351343
 20
435.5159658186
 30
0.0
 11
738.8827351343
 21
435.5159658186
 31
0.0
  0
LINE
  5
417
330
1F
100
AcDbEntity
  8
0
  6
Continuous
 62
     7
370
    25
100
AcDbLine
 10
738.8827351343
 20
435.5159658186
 30
0.0
 11
738.8827351343
 21
439.0159658186
 31
0.0
  0
LINE
  5
418
330
1F
100
AcDbEntity
  8
0
  6
Continuous
 62
     7
370
    25
100
AcDbLine
 10
738.8827351343
 20
439.0159658186
 30
0.0
 11
735.3827351343
 21
439.0159658186
 31
0.0
  0
LINE
  5
419
330
1F
100
AcDbEntity
  8
0
  6
Continuous
 62
     7
370
    25
100
AcDbLine
 10
735.3827351343
 20
439.0159658186
 30
0.0
 11
735.3827351343
 21
435.5159658186
 31
0.0
  0
LINE
  5
41A
330
1F
100
AcDbEntity
  8
0
  6
Continuous
 62
     7
370
    25
100
AcDbLine
 10
730.4827351343
 20
435.5159658186
 30
0.0
 11
733.9827351343
 21
435.5159658186
 31
0.0
  0
LINE
  5
41B
330
1F
100
AcDbEntity
  8
0
  6
Continuous
 62
     7
370
    25
100
AcDbLine
 10
733.9827351343
 20
435.5159658186
 30
0.0
 11
733.9827351343
 21
439.0159658186
 31
0.0
  0
LINE
  5
41C
330
1F
100
AcDbEntity
  8
0
  6
Continuous
 62
     7
370
    25
100
AcDbLine
 10
733.9827351343
 20
439.0159658186
 30
0.0
 11
730.4827351343
 21
439.0159658186
 31
0.0
  0
LINE
  5
41D
330
1F
100
AcDbEntity
  8
0
  6
Continuous
 62
     7
370
    25
100
AcDbLine
 10
730.4827351343
 20
439.0159658186
 30
0.0
 11
730.4827351343
 21
435.5159658186
 31
0.0
  0
LINE
  5
41E
330
1F
100
AcDbEntity
  8
0
  6
Continuous
 62
     7
370
    25
100
AcDbLine
 10
725.5827351343
 20
435.5159658186
 30
0.0
 11
729.0827351343
 21
435.5159658186
 31
0.0
  0
LINE
  5
41F
330
1F
100
AcDbEntity
  8
0
  6
Continuous
 62
     7
370
    25
100
AcDbLine
 10
729.0827351343
 20
435.5159658186
 30
0.0
 11
729.0827351343
 21
439.0159658186
 31
0.0
  0
LINE
  5
420
330
1F
100
AcDbEntity
  8
0
  6
Continuous
 62
     7
370
    25
100
AcDbLine
 10
729.0827351343
 20
439.0159658186
 30
0.0
 11
725.5827351343
 21
439.0159658186
 31
0.0
  0
LINE
  5
421
330
1F
100
AcDbEntity
  8
0
  6
Continuous
 62
     7
370
    25
100
AcDbLine
 10
725.5827351343
 20
439.0159658186
 30
0.0
 11
725.5827351343
 21
435.5159658186
 31
0.0
  0
LINE
  5
422
330
1F
100
AcDbEntity
  8
0
  6
Continuous
 62
     7
370
    25
100
AcDbLine
 10
720.6827351343
 20
435.5159658186
 30
0.0
 11
724.1827351343
 21
435.5159658186
 31
0.0
  0
LINE
  5
423
330
1F
100
AcDbEntity
  8
0
  6
Continuous
 62
     7
370
    25
100
AcDbLine
 10
724.1827351343
 20
435.5159658186
 30
0.0
 11
724.1827351343
 21
439.0159658186
 31
0.0
  0
LINE
  5
424
330
1F
100
AcDbEntity
  8
0
  6
Continuous
 62
     7
370
    25
100
AcDbLine
 10
724.1827351343
 20
439.0159658186
 30
0.0
 11
720.6827351343
 21
439.0159658186
 31
0.0
  0
LINE
  5
425
330
1F
100
AcDbEntity
  8
0
  6
Continuous
 62
     7
370
    25
100
AcDbLine
 10
720.6827351343
 20
439.0159658186
 30
0.0
 11
720.6827351343
 21
435.5159658186
 31
0.0
  0
LINE
  5
426
330
1F
100
AcDbEntity
  8
0
  6
Continuous
 62
     7
370
    25
100
AcDbLine
 10
715.7827351343
 20
435.5159658186
 30
0.0
 11
719.2827351343
 21
435.5159658186
 31
0.0
  0
LINE
  5
427
330
1F
100
AcDbEntity
  8
0
  6
Continuous
 62
     7
370
    25
100
AcDbLine
 10
719.2827351343
 20
435.5159658186
 30
0.0
 11
719.2827351343
 21
439.0159658186
 31
0.0
  0
LINE
  5
428
330
1F
100
AcDbEntity
  8
0
  6
Continuous
 62
     7
370
    25
100
AcDbLine
 10
719.2827351343
 20
439.0159658186
 30
0.0
 11
715.7827351343
 21
439.0159658186
 31
0.0
  0
LINE
  5
429
330
1F
100
AcDbEntity
  8
0
  6
Continuous
 62
     7
370
    25
100
AcDbLine
 10
715.7827351343
 20
439.0159658186
 30
0.0
 11
715.7827351343
 21
435.5159658186
 31
0.0
  0
LINE
  5
42A
330
1F
100
AcDbEntity
  8
0
  6
Continuous
 62
     7
370
    25
100
AcDbLine
 10
703.1828419395
 20
400.5659071769
 30
0.0
 11
703.1828419395
 21
442.9659071769
 31
0.0
  0
LINE
  5
42B
330
1F
100
AcDbEntity
  8
0
  6
Continuous
 62
     7
370
    25
100
AcDbLine
 10
703.1828419395
 20
442.9659071769
 30
0.0
 11
812.1828419395
 21
442.9659071769
 31
0.0
  0
LINE
  5
42C
330
1F
100
AcDbEntity
  8
0
  6
Continuous
 62
     7
370
    25
100
AcDbLine
 10
812.1828419395
 20
442.9659071769
 30
0.0
 11
812.1828419395
 21
400.5659071769
 31
0.0
  0
LINE
  5
42D
330
1F
100
AcDbEntity
  8
0
  6
Continuous
 62
     7
370
    25
100
AcDbLine
 10
812.1828419395
 20
400.5659071769
 30
0.0
 11
770.3827351343
 21
400.5659071769
 31
0.0
  0
LINE
  5
42E
330
1F
100
AcDbEntity
  8
0
  6
Continuous
 62
     7
370
    25
100
AcDbLine
 10
770.3827351343
 20
400.5659071769
 30
0.0
 11
770.3827351343
 21
405.0693765835
 31
0.0
  0
LINE
  5
42F
330
1F
100
AcDbEntity
  8
0
  6
Continuous
 62
     7
370
    25
100
AcDbLine
 10
770.3827351343
 20
405.0693765835
 30
0.0
 11
764.3827351343
 21
405.0693765835
 31
0.0
  0
LINE
  5
430
330
1F
100
AcDbEntity
  8
0
  6
Continuous
 62
     7
370
    25
100
AcDbLine
 10
764.3827351343
 20
405.0693765835
 30
0.0
 11
764.3827351343
 21
400.5659071769
 31
0.0
  0
LINE
  5
431
330
1F
100
AcDbEntity
  8
0
  6
Continuous
 62
     7
370
    25
100
AcDbLine
 10
764.3827351343
 20
400.5659071769
 30
0.0
 11
703.1828419395
 21
400.5659071769
 31
0.0
  0
LINE
  5
432
330
1F
100
AcDbEntity
  8
0
  6
Continuous
 62
     7
370
    25
100
AcDbLine
 10
791.7127351343
 20
406.8459658186
 30
0.0
 11
791.7127351343
 21
434.0359658186
 31
0.0
  0
LINE
  5
433
330
1F
100
AcDbEntity
  8
0
  6
Continuous
 62
     7
370
    25
100
AcDbLine
 10
791.7127351343
 20
434.0359658186
 30
0.0
 11
774.0527351343
 21
434.0359658186
 31
0.0
  0
LINE
  5
434
330
1F
100
AcDbEntity
  8
0
  6
Continuous
 62
     7
370
    25
100
AcDbLine
 10
774.0527351343
 20
434.0359658186
 30
0.0
 11
774.0527351343
 21
406.8459658186
 31
0.0
  0
LINE
  5
435
330
1F
100
AcDbEntity
  8
0
  6
Continuous
 62
     7
370
    25
100
AcDbLine
 10
774.0527351343
 20
406.8459658186
 30
0.0
 11
791.7127351343
 21
406.8459658186
 31
0.0
  0
LINE
  5
436
330
1F
100
AcDbEntity
  8
0
  6
Continuous
 62
     7
370
    25
100
AcDbLine
 10
804.1977351343
 20
427.0659658186
 30
0.0
 11
804.1977351343
 21
435.8659658186
 31
0.0
  0
LINE
  5
437
330
1F
100
AcDbEntity
  8
0
  6
Continuous
 62
     7
370
    25
100
AcDbLine
 10
804.1977351343
 20
435.8659658186
 30
0.0
 11
794.9977351343
 21
435.8659658186
 31
0.0
  0
LINE
  5
438
330
1F
100
AcDbEntity
  8
0
  6
Continuous
 62
     7
370
    25
100
AcDbLine
 10
794.9977351343
 20
435.8659658186
 30
0.0
 11
794.9977351343
 21
427.0659658186
 31
0.0
  0
LINE
  5
439
330
1F
100
AcDbEntity
  8
0
  6
Continuous
 62
     7
370
    25
100
AcDbLine
 10
794.9977351343
 20
427.0659658186
 30
0.0
 11
804.1977351343
 21
427.0659658186
 31
0.0
  0
LINE
  5
43A
330
1F
100
AcDbEntity
  8
0
  6
Continuous
 62
     7
370
    25
100
AcDbLine
 10
804.1472703774
 20
406.6659658186
 30
0.0
 11
804.1472703774
 21
414.8659658186
 31
0.0
  0
LINE
  5
43B
330
1F
100
AcDbEntity
  8
0
  6
Continuous
 62
     7
370
    25
100
AcDbLine
 10
804.1472703774
 20
414.8659658186
 30
0.0
 11
794.9977351343
 21
414.8659658186
 31
0.0
  0
LINE
  5
43C
330
1F
100
AcDbEntity
  8
0
  6
Continuous
 62
     7
370
    25
100
AcDbLine
 10
794.9977351343
 20
414.8659658186
 30
0.0
 11
794.9977351343
 21
406.6659658186
 31
0.0
  0
LINE
  5
43D
330
1F
100
AcDbEntity
  8
0
  6
Continuous
 62
     7
370
    25
100
AcDbLine
 10
794.9977351343
 20
406.6659658186
 30
0.0
 11
804.1472703774
 21
406.6659658186
 31
0.0
  0
LINE
  5
43E
330
1F
100
AcDbEntity
  8
0
  6
Continuous
 62
     7
370
    25
100
AcDbLine
 10
762.0077351343
 20
406.6659658186
 30
0.0
 11
762.0077351343
 21
414.8659658186
 31
0.0
  0
LINE
  5
43F
330
1F
100
AcDbEntity
  8
0
  6
Continuous
 62
     7
370
    25
100
AcDbLine
 10
762.0077351343
 20
414.8659658186
 30
0.0
 11
716.0077351343
 21
414.8659658186
 31
0.0
  0
LINE
  5
440
330
1F
100
AcDbEntity
  8
0
  6
Continuous
 62
     7
370
    25
100
AcDbLine
 10
716.0077351343
 20
414.8659658186
 30
0.0
 11
716.0077351343
 21
406.6659658186
 31
0.0
  0
LINE
  5
441
330
1F
100
AcDbEntity
  8
0
  6
Continuous
 62
     7
370
    25
100
AcDbLine
 10
716.0077351343
 20
406.6659658186
 30
0.0
 11
762.0077351343
 21
406.6659658186
 31
0.0
  0
CIRCLE
  5
442
330
1F
100
AcDbEntity
  8
0
  6
Continuous
 62
     7
370
    25
100
AcDbCircle
 10
767.8827696844
 20
411.2053776077
 30
0.0
 40
1.619466015146372
  0
LINE
  5
443
330
1F
100
AcDbEntity
  8
0
  6
Continuous
 62
     7
370
    25
100
AcDbLine
 10
709.4827351343
 20
435.5159658186
 30
0.0
 11
709.4827351343
 21
439.0159658186
 31
0.0
  0
LINE
  5
444
330
1F
100
AcDbEntity
  8
0
  6
Continuous
 62
     7
370
    25
100
AcDbLine
 10
709.4827351343
 20
439.0159658186
 30
0.0
 11
705.9827351343
 21
439.0159658186
 31
0.0
  0
LINE
  5
445
330
1F
100
AcDbEntity
  8
0
  6
Continuous
 62
     7
370
    25
100
AcDbLine
 10
705.9827351343
 20
439.0159658186
 30
0.0
 11
705.9827351343
 21
435.5159658186
 31
0.0
  0
LINE
  5
446
330
1F
100
AcDbEntity
  8
0
  6
Continuous
 62
     7
370
    25
100
AcDbLine
 10
705.9827351343
 20
435.5159658186
 30
0.0
 11
709.4827351343
 21
435.5159658186
 31
0.0
  0
LINE
  5
447
330
1F
100
AcDbEntity
  8
0
  6
Continuous
 62
     7
370
    25
100
AcDbLine
 10
714.3827351343
 20
435.5159658186
 30
0.0
 11
714.3827351343
 21
439.0159658186
 31
0.0
  0
LINE
  5
448
330
1F
100
AcDbEntity
  8
0
  6
Continuous
 62
     7
370
    25
100
AcDbLine
 10
714.3827351343
 20
439.0159658186
 30
0.0
 11
710.8827351343
 21
439.0159658186
 31
0.0
  0
LINE
  5
449
330
1F
100
AcDbEntity
  8
0
  6
Continuous
 62
     7
370
    25
100
AcDbLine
 10
710.8827351343
 20
439.0159658186
 30
0.0
 11
710.8827351343
 21
435.5159658186
 31
0.0
  0
LINE
  5
44A
330
1F
100
AcDbEntity
  8
0
  6
Continuous
 62
     7
370
    25
100
AcDbLine
 10
710.8827351343
 20
435.5159658186
 30
0.0
 11
714.3827351343
 21
435.5159658186
 31
0.0
  0
LINE
  5
44B
330
1F
100
AcDbEntity
  8
0
  6
Continuous
 62
     7
370
    25
100
AcDbLine
 10
809.3827351343
 20
435.5159658186
 30
0.0
 11
809.3827351343
 21
439.0159658186
 31
0.0
  0
LINE
  5
44C
330
1F
100
AcDbEntity
  8
0
  6
Continuous
 62
     7
370
    25
100
AcDbLine
 10
809.3827351343
 20
439.0159658186
 30
0.0
 11
805.8827351343
 21
439.0159658186
 31
0.0
  0
LINE
  5
44D
330
1F
100
AcDbEntity
  8
0
  6
Continuous
 62
     7
370
    25
100
AcDbLine
 10
805.8827351343
 20
439.0159658186
 30
0.0
 11
805.8827351343
 21
435.5159658186
 31
0.0
  0
LINE
  5
44E
330
1F
100
AcDbEntity
  8
0
  6
Continuous
 62
     7
370
    25
100
AcDbLine
 10
805.8827351343
 20
435.5159658186
 30
0.0
 11
809.3827351343
 21
435.5159658186
 31
0.0
  0
LINE
  5
44F
330
1F
100
AcDbEntity
  8
0
  6
Continuous
 62
     7
370
    25
100
AcDbLine
 10
809.3827351343
 20
430.8159658186
 30
0.0
 11
809.3827351343
 21
434.3159658186
 31
0.0
  0
LINE
  5
450
330
1F
100
AcDbEntity
  8
0
  6
Continuous
 62
     7
370
    25
100
AcDbLine
 10
809.3827351343
 20
434.3159658186
 30
0.0
 11
805.8827351343
 21
434.3159658186
 31
0.0
  0
LINE
  5
451
330
1F
100
AcDbEntity
  8
0
  6
Continuous
 62
     7
370
    25
100
AcDbLine
 10
805.8827351343
 20
434.3159658186
 30
0.0
 11
805.8827351343
 21
430.8159658186
 31
0.0
  0
LINE
  5
452
330
1F
100
AcDbEntity
  8
0
  6
Continuous
 62
     7
370
    25
100
AcDbLine
 10
805.8827351343
 20
430.8159658186
 30
0.0
 11
809.3827351343
 21
430.8159658186
 31
0.0
  0
LINE
  5
453
330
1F
100
AcDbEntity
  8
0
  6
Continuous
 62
     7
370
    25
100
AcDbLine
 10
803.2743666922
 20
427.9491878066
 30
0.0
 11
803.2743666922
 21
434.9695111042
 31
0.0
  0
LINE
  5
454
330
1F
100
AcDbEntity
  8
0
  6
Continuous
 62
     7
370
    25
100
AcDbLine
 10
803.2743666922
 20
434.9695111042
 30
0.0
 11
799.8477351343
 21
434.9695111042
 31
0.0
  0
LINE
  5
455
330
1F
100
AcDbEntity
  8
0
  6
Continuous
 62
     7
370
    25
100
AcDbLine
 10
799.8477351343
 20
434.9695111042
 30
0.0
 11
799.8477351343
 21
427.9491878066
 31
0.0
  0
LINE
  5
456
330
1F
100
AcDbEntity
  8
0
  6
Continuous
 62
     7
370
    25
100
AcDbLine
 10
799.8477351343
 20
427.9491878066
 30
0.0
 11
803.2743666922
 21
427.9491878066
 31
0.0
  0
LINE
  5
457
330
1F
100
AcDbEntity
  8
0
  6
Continuous
 62
     7
370
    25
100
AcDbLine
 10
799.3477351343
 20
427.9491878066
 30
0.0
 11
799.3477351343
 21
434.9695111042
 31
0.0
  0
LINE
  5
458
330
1F
100
AcDbEntity
  8
0
  6
Continuous
 62
     7
370
    25
100
AcDbLine
 10
799.3477351343
 20
434.9695111042
 30
0.0
 11
795.9349377903
 21
434.9695111042
 31
0.0
  0
LINE
  5
459
330
1F
100
AcDbEntity
  8
0
  6
Continuous
 62
     7
370
    25
100
AcDbLine
 10
795.9349377903
 20
434.9695111042
 30
0.0
 11
795.9349377903
 21
427.9491878066
 31
0.0
  0
LINE
  5
45A
330
1F
100
AcDbEntity
  8
0
  6
Continuous
 62
     7
370
    25
100
AcDbLine
 10
795.9349377903
 20
427.9491878066
 30
0.0
 11
799.3477351343
 21
427.9491878066
 31
0.0
  0
LINE
  5
45B
330
1F
100
AcDbEntity
  8
0
  6
Continuous
 62
     7
370
    25
100
AcDbLine
 10
803.6977351343
 20
435.387704949
 30
0.0
 11
795.4977351343
 21
435.387704949
 31
0.0
  0
LINE
  5
45C
330
1F
100
AcDbEntity
  8
0
  6
Continuous
 62
     7
370
    25
100
AcDbLine
 10
803.6977351343
 20
427.5442266881
 30
0.0
 11
803.6977351343
 21
435.387704949
 31
0.0
  0
LINE
  5
45D
330
1F
100
AcDbEntity
  8
0
  6
Continuous
 62
     7
370
    25
100
AcDbLine
 10
795.4977351343
 20
427.5442266881
 30
0.0
 11
803.6977351343
 21
427.5442266881
 31
0.0
  0
LINE
  5
45E
330
1F
100
AcDbEntity
  8
0
  6
Continuous
 62
     7
370
    25
100
AcDbLine
 10
795.4977351343
 20
435.387704949
 30
0.0
 11
795.4977351343
 21
427.5442266881
 31
0.0
  0
LINE
  5
45F
330
1F
100
AcDbEntity
  8
0
  6
Continuous
 62
     7
370
    25
100
AcDbLine
 10
803.2743666922
 20
407.2491878066
 30
0.0
 11
803.2743666922
 21
414.2695111042
 31
0.0
  0
LINE
  5
460
330
1F
100
AcDbEntity
  8
0
  6
Continuous
 62
     7
370
    25
100
AcDbLine
 10
803.2743666922
 20
414.2695111042
 30
0.0
 11
799.8477351343
 21
414.2695111042
 31
0.0
  0
LINE
  5
461
330
1F
100
AcDbEntity
  8
0
  6
Continuous
 62
     7
370
    25
100
AcDbLine
 10
799.8477351343
 20
414.2695111042
 30
0.0
 11
799.8477351343
 21
407.2491878066
 31
0.0
  0
LINE
  5
462
330
1F
100
AcDbEntity
  8
0
  6
Continuous
 62
     7
370
    25
100
AcDbLine
 10
799.8477351343
 20
407.2491878066
 30
0.0
 11
803.2743666922
 21
407.2491878066
 31
0.0
  0
LINE
  5
463
330
1F
100
AcDbEntity
  8
0
  6
Continuous
 62
     7
370
    25
100
AcDbLine
 10
799.3477351343
 20
407.2491878066
 30
0.0
 11
799.3477351343
 21
414.2695111042
 31
0.0
  0
LINE
  5
464
330
1F
100
AcDbEntity
  8
0
  6
Continuous
 62
     7
370
    25
100
AcDbLine
 10
799.3477351343
 20
414.2695111042
 30
0.0
 11
795.9349377903
 21
414.2695111042
 31
0.0
  0
LINE
  5
465
330
1F
100
AcDbEntity
  8
0
  6
Continuous
 62
     7
370
    25
100
AcDbLine
 10
795.9349377903
 20
414.2695111042
 30
0.0
 11
795.9349377903
 21
407.2491878066
 31
0.0
  0
LINE
  5
466
330
1F
100
AcDbEntity
  8
0
  6
Continuous
 62
     7
370
    25
100
AcDbLine
 10
795.9349377903
 20
407.2491878066
 30
0.0
 11
799.3477351343
 21
407.2491878066
 31
0.0
  0
LINE
  5
467
330
1F
100
AcDbEntity
  8
0
  6
Continuous
 62
     7
370
    25
100
AcDbLine
 10
803.6977351343
 20
414.687704949
 30
0.0
 11
795.4977351343
 21
414.687704949
 31
0.0
  0
LINE
  5
468
330
1F
100
AcDbEntity
  8
0
  6
Continuous
 62
     7
370
    25
100
AcDbLine
 10
803.6977351343
 20
406.8442266881
 30
0.0
 11
803.6977351343
 21
414.687704949
 31
0.0
  0
LINE
  5
469
330
1F
100
AcDbEntity
  8
0
  6
Continuous
 62
     7
370
    25
100
AcDbLine
 10
795.4977351343
 20
406.8442266881
 30
0.0
 11
803.6977351343
 21
406.8442266881
 31
0.0
  0
LINE
  5
46A
330
1F
100
AcDbEntity
  8
0
  6
Continuous
 62
     7
370
    25
100
AcDbLine
 10
795.4977351343
 20
414.687704949
 30
0.0
 11
795.4977351343
 21
406.8442266881
 31
0.0
  0
CIRCLE
  5
46B
330
1F
100
AcDbEntity
  8
0
  6
Continuous
 62
     7
370
    25
100
AcDbCircle
 10
801.5610509133
 20
410.7593494554
 30
0.0
 40
0.5
  0
CIRCLE
  5
46C
330
1F
100
AcDbEntity
  8
0
  6
Continuous
 62
     7
370
    25
100
AcDbCircle
 10
801.5610509133
 20
431.4593494554
 30
0.0
 40
0.5
  0
CIRCLE
  5
46D
330
1F
100
AcDbEntity
  8
0
  6
Continuous
 62
     7
370
    25
100
AcDbCircle
 10
797.6413364623
 20
410.7593494554
 30
0.0
 40
0.5
  0
CIRCLE
  5
46E
330
1F
100
AcDbEntity
  8
0
  6
Continuous
 62
     7
370
    25
100
AcDbCircle
 10
797.6413364623
 20
431.4593494554
 30
0.0
 40
0.5
  0
LINE
  5
46F
330
1F
100
AcDbEntity
  8
0
  6
Continuous
 62
     7
370
    25
100
AcDbLine
 10
780.8528150852
 20
408.0891632094
 30
0.0
 11
784.9128150852
 21
408.0891632094
 31
0.0
  0
LINE
  5
470
330
1F
100
AcDbEntity
  8
0
  6
Continuous
 62
     7
370
    25
100
AcDbLine
 10
784.9128150852
 20
408.0891632094
 30
0.0
 11
784.9128155487
 21
408.5765632123
 31
0.0
  0
LINE
  5
471
330
1F
100
AcDbEntity
  8
0
  6
Continuous
 62
     7
370
    25
100
AcDbLine
 10
784.9128155487
 20
408.5765632123
 30
0.0
 11
786.0324155728
 21
408.5765632123
 31
0.0
  0
LINE
  5
472
330
1F
100
AcDbEntity
  8
0
  6
Continuous
 62
     7
370
    25
100
AcDbLine
 10
786.0324155728
 20
408.5765632123
 30
0.0
 11
786.0324155728
 21
410.1765632094
 31
0.0
  0
LINE
  5
473
330
1F
100
AcDbEntity
  8
0
  6
Continuous
 62
     7
370
    25
100
AcDbLine
 10
786.0324155728
 20
410.1765632094
 30
0.0
 11
789.3391156188
 21
410.1765632094
 31
0.0
  0
LINE
  5
474
330
1F
100
AcDbEntity
  8
0
  6
Continuous
 62
     7
370
    25
100
AcDbLine
 10
789.3391156188
 20
410.1765632094
 30
0.0
 11
789.3391156188
 21
417.4765632094
 31
0.0
  0
LINE
  5
475
330
1F
100
AcDbEntity
  8
0
  6
Continuous
 62
     7
370
    25
100
AcDbLine
 10
789.3391156188
 20
417.4765632094
 30
0.0
 11
776.4265156188
 21
417.4765632094
 31
0.0
  0
LINE
  5
476
330
1F
100
AcDbEntity
  8
0
  6
Continuous
 62
     7
370
    25
100
AcDbLine
 10
776.4265156188
 20
417.4765632094
 30
0.0
 11
776.4265156188
 21
410.1765632094
 31
0.0
  0
LINE
  5
477
330
1F
100
AcDbEntity
  8
0
  6
Continuous
 62
     7
370
    25
100
AcDbLine
 10
776.4265156188
 20
410.1765632094
 30
0.0
 11
779.7332155728
 21
410.1765632094
 31
0.0
  0
LINE
  5
478
330
1F
100
AcDbEntity
  8
0
  6
Continuous
 62
     7
370
    25
100
AcDbLine
 10
779.7332155728
 20
410.1765632094
 30
0.0
 11
779.7332155728
 21
408.5765632123
 31
0.0
  0
LINE
  5
479
330
1F
100
AcDbEntity
  8
0
  6
Continuous
 62
     7
370
    25
100
AcDbLine
 10
779.7332155728
 20
408.5765632123
 30
0.0
 11
780.8528155487
 21
408.5765632123
 31
0.0
  0
LINE
  5
47A
330
1F
100
AcDbEntity
  8
0
  6
Continuous
 62
     7
370
    25
100
AcDbLine
 10
780.8528155487
 20
408.5765632123
 30
0.0
 11
780.8528150852
 21
408.0891632094
 31
0.0
  0
LINE
  5
47B
330
1F
100
AcDbEntity
  8
0
  6
Continuous
 62
     7
370
    25
100
AcDbLine
 10
782.3828128266
 20
433.3541632094
 30
0.0
 11
779.73321546
 21
433.3541632094
 31
0.0
  0
LINE
  5
47C
330
1F
100
AcDbEntity
  8
0
  6
Continuous
 62
     7
370
    25
100
AcDbLine
 10
779.73321546
 20
433.3541632094
 30
0.0
 11
779.7332155728
 21
432.0317632094
 31
0.0
  0
LINE
  5
47D
330
1F
100
AcDbEntity
  8
0
  6
Continuous
 62
     7
370
    25
100
AcDbLine
 10
779.7332155728
 20
432.0317632094
 30
0.0
 11
779.2332156188
 21
432.0317632094
 31
0.0
  0
LINE
  5
47E
330
1F
100
AcDbEntity
  8
0
  6
Continuous
 62
     7
370
    25
100
AcDbLine
 10
779.2332156188
 20
432.0317632094
 30
0.0
 11
779.2332156188
 21
430.9317632094
 31
0.0
  0
LINE
  5
47F
330
1F
100
AcDbEntity
  8
0
  6
Continuous
 62
     7
370
    25
100
AcDbLine
 10
779.2332156188
 20
430.9317632094
 30
0.0
 11
776.4265156188
 21
430.9317632094
 31
0.0
  0
LINE
  5
480
330
1F
100
AcDbEntity
  8
0
  6
Continuous
 62
     7
370
    25
100
AcDbLine
 10
776.4265156188
 20
430.9317632094
 30
0.0
 11
776.4265156188
 21
423.1317632094
 31
0.0
  0
LINE
  5
481
330
1F
100
AcDbEntity
  8
0
  6
Continuous
 62
     7
370
    25
100
AcDbLine
 10
776.4265156188
 20
423.1317632094
 30
0.0
 11
789.3391156188
 21
423.1317632094
 31
0.0
  0
LINE
  5
482
330
1F
100
AcDbEntity
  8
0
  6
Continuous
 62
     7
370
    25
100
AcDbLine
 10
789.3391156188
 20
423.1317632094
 30
0.0
 11
789.3391156188
 21
430.9317632094
 31
0.0
  0
LINE
  5
483
330
1F
100
AcDbEntity
  8
0
  6
Continuous
 62
     7
370
    25
100
AcDbLine
 10
789.3391156188
 20
430.9317632094
 30
0.0
 11
786.5324156188
 21
430.9317632094
 31
0.0
  0
LINE
  5
484
330
1F
100
AcDbEntity
  8
0
  6
Continuous
 62
     7
370
    25
100
AcDbLine
 10
786.5324156188
 20
430.9317632094
 30
0.0
 11
786.5324156188
 21
432.0317632094
 31
0.0
  0
LINE
  5
485
330
1F
100
AcDbEntity
  8
0
  6
Continuous
 62
     7
370
    25
100
AcDbLine
 10
786.5324156188
 20
432.0317632094
 30
0.0
 11
786.0324155728
 21
432.0317632094
 31
0.0
  0
LINE
  5
486
330
1F
100
AcDbEntity
  8
0
  6
Continuous
 62
     7
370
    25
100
AcDbLine
 10
786.0324155728
 20
432.0317632094
 30
0.0
 11
786.03241546
 21
433.3541632094
 31
0.0
  0
LINE
  5
487
330
1F
100
AcDbEntity
  8
0
  6
Continuous
 62
     7
370
    25
100
AcDbLine
 10
786.03241546
 20
433.3541632094
 30
0.0
 11
783.3828128266
 21
433.3541632094
 31
0.0
  0
LINE
  5
488
330
1F
100
AcDbEntity
  8
0
  6
Continuous
 62
     7
370
    25
100
AcDbLine
 10
783.3828128266
 20
433.3541632094
 30
0.0
 11
783.3828128404
 21
433.6541632094
 31
0.0
  0
LINE
  5
489
330
1F
100
AcDbEntity
  8
0
  6
Continuous
 62
     7
370
    25
100
AcDbLine
 10
791.334289515
 20
407.4173062285
 30
0.0
 11
791.334289515
 21
433.6541632094
 31
0.0
  0
LINE
  5
48A
330
1F
100
AcDbEntity
  8
0
  6
Continuous
 62
     7
370
    25
100
AcDbLine
 10
774.432690446
 20
433.6541632094
 30
0.0
 11
774.432690446
 21
407.4173062285
 31
0.0
  0
LINE
  5
48B
330
1F
100
AcDbEntity
  8
0
  6
Continuous
 62
     7
370
    25
100
AcDbLine
 10
782.3828128404
 20
433.6541632094
 30
0.0
 11
774.432690446
 21
433.6541632094
 31
0.0
  0
LINE
  5
48C
330
1F
100
AcDbEntity
  8
0
  6
Continuous
 62
     7
370
    25
100
AcDbLine
 10
782.3828128404
 20
433.6541632094
 30
0.0
 11
782.3828128266
 21
433.3541632094
 31
0.0
  0
LINE
  5
48D
330
1F
100
AcDbEntity
  8
0
  6
Continuous
 62
     7
370
    25
100
AcDbLine
 10
791.334289515
 20
433.6541632094
 30
0.0
 11
783.3828128404
 21
433.6541632094
 31
0.0
  0
LINE
  5
48E
330
1F
100
AcDbEntity
  8
0
  6
Continuous
 62
     7
370
    25
100
AcDbLine
 10
774.432690446
 20
407.4173062285
 30
0.0
 11
791.334289515
 21
407.4173062285
 31
0.0
  0
LINE
  5
48F
330
1F
100
AcDbEntity
  8
0
  6
Continuous
 62
     7
370
    25
100
AcDbLine
 10
724.5988973844
 20
412.2881516146
 30
0.0
 11
724.0357488593
 21
412.2881516146
 31
0.0
  0
LINE
  5
490
330
1F
100
AcDbEntity
  8
0
  6
Continuous
 62
     7
370
    25
100
AcDbLine
 10
724.0357488593
 20
412.2881516146
 30
0.0
 11
724.0357488593
 21
412.7202024226
 31
0.0
  0
LINE
  5
491
330
1F
100
AcDbEntity
  8
0
  6
Continuous
 62
     7
370
    25
100
AcDbLine
 10
724.0357488593
 20
412.7202024226
 30
0.0
 11
724.4591422933
 21
412.7202024226
 31
0.0
  0
LINE
  5
492
330
1F
100
AcDbEntity
  8
0
  6
Continuous
 62
     7
370
    25
100
AcDbLine
 10
724.4591422933
 20
412.7202024226
 30
0.0
 11
724.5988973844
 21
413.1067590578
 31
0.0
  0
LINE
  5
493
330
1F
100
AcDbEntity
  8
0
  6
Continuous
 62
     7
370
    25
100
AcDbLine
 10
724.5988973844
 20
413.5041770186
 30
0.0
 11
724.5988973844
 21
413.1067590578
 31
0.0
  0
LINE
  5
494
330
1F
100
AcDbEntity
  8
0
  6
Continuous
 62
     7
370
    25
100
AcDbLine
 10
724.5988973844
 20
413.5041770186
 30
0.0
 11
721.7725792623
 21
413.5041770186
 31
0.0
  0
LINE
  5
495
330
1F
100
AcDbEntity
  8
0
  6
Continuous
 62
     7
370
    25
100
AcDbLine
 10
721.7725792623
 20
413.5041770186
 30
0.0
 11
722.0560162323
 21
412.7202024226
 31
0.0
  0
LINE
  5
496
330
1F
100
AcDbEntity
  8
0
  6
Continuous
 62
     7
370
    25
100
AcDbLine
 10
722.0560162323
 20
412.7202024226
 30
0.0
 11
722.4794096663
 21
412.7202024226
 31
0.0
  0
LINE
  5
497
330
1F
100
AcDbEntity
  8
0
  6
Continuous
 62
     7
370
    25
100
AcDbLine
 10
722.4794096663
 20
412.7202024226
 30
0.0
 11
722.4794096663
 21
412.2881516146
 31
0.0
  0
LINE
  5
498
330
1F
100
AcDbEntity
  8
0
  6
Continuous
 62
     7
370
    25
100
AcDbLine
 10
722.4794096663
 20
412.2881516146
 30
0.0
 11
721.7075792623
 21
412.2881516146
 31
0.0
  0
LINE
  5
499
330
1F
100
AcDbEntity
  8
0
  6
Continuous
 62
     7
370
    25
100
AcDbLine
 10
721.7075792623
 20
412.2881516146
 30
0.0
 11
721.7075792623
 21
407.5972278146
 31
0.0
  0
LINE
  5
49A
330
1F
100
AcDbEntity
  8
0
  6
Continuous
 62
     7
370
    25
100
AcDbLine
 10
721.7075792623
 20
407.5972278146
 30
0.0
 11
722.2693077423
 21
407.5972278146
 31
0.0
  0
ARC
  5
49B
330
1F
100
AcDbEntity
  8
0
  6
Continuous
 62
     7
370
    25
100
AcDbCircle
 10
723.2575792628
 20
406.6534006107
 30
0.0
 40
1.36656152035541
100
AcDbArc
 50
43.6822501722
 51
136.3177498277
  0
LINE
  5
49C
330
1F
100
AcDbEntity
  8
0
  6
Continuous
 62
     7
370
    25
100
AcDbLine
 10
724.2458507833
 20
407.5972278146
 30
0.0
 11
724.5988973844
 21
407.5972278146
 31
0.0
  0
LINE
  5
49D
330
1F
100
AcDbEntity
  8
0
  6
Continuous
 62
     7
370
    25
100
AcDbLine
 10
724.5988973844
 20
412.2881516146
 30
0.0
 11
724.5988973844
 21
407.5972278146
 31
0.0
  0
LINE
  5
49E
330
1F
100
AcDbEntity
  8
0
  6
Continuous
 62
     7
370
    25
100
AcDbLine
 10
731.5988973844
 20
412.2881516146
 30
0.0
 11
731.0357488593
 21
412.2881516146
 31
0.0
  0
LINE
  5
49F
330
1F
100
AcDbEntity
  8
0
  6
Continuous
 62
     7
370
    25
100
AcDbLine
 10
731.0357488593
 20
412.2881516146
 30
0.0
 11
731.0357488593
 21
412.7202024226
 31
0.0
  0
LINE
  5
4A0
330
1F
100
AcDbEntity
  8
0
  6
Continuous
 62
     7
370
    25
100
AcDbLine
 10
731.0357488593
 20
412.7202024226
 30
0.0
 11
731.4591422933
 21
412.7202024226
 31
0.0
  0
LINE
  5
4A1
330
1F
100
AcDbEntity
  8
0
  6
Continuous
 62
     7
370
    25
100
AcDbLine
 10
731.4591422933
 20
412.7202024226
 30
0.0
 11
731.5988973844
 21
413.1067590578
 31
0.0
  0
LINE
  5
4A2
330
1F
100
AcDbEntity
  8
0
  6
Continuous
 62
     7
370
    25
100
AcDbLine
 10
731.5988973844
 20
413.5041770186
 30
0.0
 11
731.5988973844
 21
413.1067590578
 31
0.0
  0
LINE
  5
4A3
330
1F
100
AcDbEntity
  8
0
  6
Continuous
 62
     7
370
    25
100
AcDbLine
 10
731.5988973844
 20
413.5041770186
 30
0.0
 11
728.7725792623
 21
413.5041770186
 31
0.0
  0
LINE
  5
4A4
330
1F
100
AcDbEntity
  8
0
  6
Continuous
 62
     7
370
    25
100
AcDbLine
 10
728.7725792623
 20
413.5041770186
 30
0.0
 11
729.0560162323
 21
412.7202024226
 31
0.0
  0
LINE
  5
4A5
330
1F
100
AcDbEntity
  8
0
  6
Continuous
 62
     7
370
    25
100
AcDbLine
 10
729.0560162323
 20
412.7202024226
 30
0.0
 11
729.4794096663
 21
412.7202024226
 31
0.0
  0
LINE
  5
4A6
330
1F
100
AcDbEntity
  8
0
  6
Continuous
 62
     7
370
    25
100
AcDbLine
 10
729.4794096663
 20
412.7202024226
 30
0.0
 11
729.4794096663
 21
412.2881516146
 31
0.0
  0
LINE
  5
4A7
330
1F
100
AcDbEntity
  8
0
  6
Continuous
 62
     7
370
    25
100
AcDbLine
 10
729.4794096663
 20
412.2881516146
 30
0.0
 11
728.7075792623
 21
412.2881516146
 31
0.0
  0
LINE
  5
4A8
330
1F
100
AcDbEntity
  8
0
  6
Continuous
 62
     7
370
    25
100
AcDbLine
 10
728.7075792623
 20
412.2881516146
 30
0.0
 11
728.7075792623
 21
407.5972278146
 31
0.0
  0
LINE
  5
4A9
330
1F
100
AcDbEntity
  8
0
  6
Continuous
 62
     7
370
    25
100
AcDbLine
 10
728.7075792623
 20
407.5972278146
 30
0.0
 11
729.2693077423
 21
407.5972278146
 31
0.0
  0
ARC
  5
4AA
330
1F
100
AcDbEntity
  8
0
  6
Continuous
 62
     7
370
    25
100
AcDbCircle
 10
730.2575792628
 20
406.6534006107
 30
0.0
 40
1.36656152035541
100
AcDbArc
 50
43.6822501722
 51
136.3177498277
  0
LINE
  5
4AB
330
1F
100
AcDbEntity
  8
0
  6
Continuous
 62
     7
370
    25
100
AcDbLine
 10
731.2458507833
 20
407.5972278146
 30
0.0
 11
731.5988973844
 21
407.5972278146
 31
0.0
  0
LINE
  5
4AC
330
1F
100
AcDbEntity
  8
0
  6
Continuous
 62
     7
370
    25
100
AcDbLine
 10
731.5988973844
 20
412.2881516146
 30
0.0
 11
731.5988973844
 21
407.5972278146
 31
0.0
  0
LINE
  5
4AD
330
1F
100
AcDbEntity
  8
0
  6
Continuous
 62
     7
370
    25
100
AcDbLine
 10
738.5988973844
 20
412.2881516146
 30
0.0
 11
738.0357488593
 21
412.2881516146
 31
0.0
  0
LINE
  5
4AE
330
1F
100
AcDbEntity
  8
0
  6
Continuous
 62
     7
370
    25
100
AcDbLine
 10
738.0357488593
 20
412.2881516146
 30
0.0
 11
738.0357488593
 21
412.7202024226
 31
0.0
  0
LINE
  5
4AF
330
1F
100
AcDbEntity
  8
0
  6
Continuous
 62
     7
370
    25
100
AcDbLine
 10
738.0357488593
 20
412.7202024226
 30
0.0
 11
738.4591422933
 21
412.7202024226
 31
0.0
  0
LINE
  5
4B0
330
1F
100
AcDbEntity
  8
0
  6
Continuous
 62
     7
370
    25
100
AcDbLine
 10
738.4591422933
 20
412.7202024226
 30
0.0
 11
738.5988973844
 21
413.1067590578
 31
0.0
  0
LINE
  5
4B1
330
1F
100
AcDbEntity
  8
0
  6
Continuous
 62
     7
370
    25
100
AcDbLine
 10
738.5988973844
 20
413.5041770186
 30
0.0
 11
738.5988973844
 21
413.1067590578
 31
0.0
  0
LINE
  5
4B2
330
1F
100
AcDbEntity
  8
0
  6
Continuous
 62
     7
370
    25
100
AcDbLine
 10
738.5988973844
 20
413.5041770186
 30
0.0
 11
735.7725792623
 21
413.5041770186
 31
0.0
  0
LINE
  5
4B3
330
1F
100
AcDbEntity
  8
0
  6
Continuous
 62
     7
370
    25
100
AcDbLine
 10
735.7725792623
 20
413.5041770186
 30
0.0
 11
736.0560162323
 21
412.7202024226
 31
0.0
  0
LINE
  5
4B4
330
1F
100
AcDbEntity
  8
0
  6
Continuous
 62
     7
370
    25
100
AcDbLine
 10
736.0560162323
 20
412.7202024226
 30
0.0
 11
736.4794096663
 21
412.7202024226
 31
0.0
  0
LINE
  5
4B5
330
1F
100
AcDbEntity
  8
0
  6
Continuous
 62
     7
370
    25
100
AcDbLine
 10
736.4794096663
 20
412.7202024226
 30
0.0
 11
736.4794096663
 21
412.2881516146
 31
0.0
  0
LINE
  5
4B6
330
1F
100
AcDbEntity
  8
0
  6
Continuous
 62
     7
370
    25
100
AcDbLine
 10
736.4794096663
 20
412.2881516146
 30
0.0
 11
735.7075792623
 21
412.2881516146
 31
0.0
  0
LINE
  5
4B7
330
1F
100
AcDbEntity
  8
0
  6
Continuous
 62
     7
370
    25
100
AcDbLine
 10
735.7075792623
 20
412.2881516146
 30
0.0
 11
735.7075792623
 21
407.5972278146
 31
0.0
  0
LINE
  5
4B8
330
1F
100
AcDbEntity
  8
0
  6
Continuous
 62
     7
370
    25
100
AcDbLine
 10
735.7075792623
 20
407.5972278146
 30
0.0
 11
736.2693077423
 21
407.5972278146
 31
0.0
  0
ARC
  5
4B9
330
1F
100
AcDbEntity
  8
0
  6
Continuous
 62
     7
370
    25
100
AcDbCircle
 10
737.2575792628
 20
406.6534006107
 30
0.0
 40
1.36656152035541
100
AcDbArc
 50
43.6822501723
 51
136.3177498278
  0
LINE
  5
4BA
330
1F
100
AcDbEntity
  8
0
  6
Continuous
 62
     7
370
    25
100
AcDbLine
 10
738.2458507833
 20
407.5972278146
 30
0.0
 11
738.5988973844
 21
407.5972278146
 31
0.0
  0
LINE
  5
4BB
330
1F
100
AcDbEntity
  8
0
  6
Continuous
 62
     7
370
    25
100
AcDbLine
 10
738.5988973844
 20
412.2881516146
 30
0.0
 11
738.5988973844
 21
407.5972278146
 31
0.0
  0
LINE
  5
4BC
330
1F
100
AcDbEntity
  8
0
  6
Continuous
 62
     7
370
    25
100
AcDbLine
 10
745.5988973844
 20
412.2881516146
 30
0.0
 11
745.0357488593
 21
412.2881516146
 31
0.0
  0
LINE
  5
4BD
330
1F
100
AcDbEntity
  8
0
  6
Continuous
 62
     7
370
    25
100
AcDbLine
 10
745.0357488593
 20
412.2881516146
 30
0.0
 11
745.0357488593
 21
412.7202024226
 31
0.0
  0
LINE
  5
4BE
330
1F
100
AcDbEntity
  8
0
  6
Continuous
 62
     7
370
    25
100
AcDbLine
 10
745.0357488593
 20
412.7202024226
 30
0.0
 11
745.4591422933
 21
412.7202024226
 31
0.0
  0
LINE
  5
4BF
330
1F
100
AcDbEntity
  8
0
  6
Continuous
 62
     7
370
    25
100
AcDbLine
 10
745.4591422933
 20
412.7202024226
 30
0.0
 11
745.5988973844
 21
413.1067590578
 31
0.0
  0
LINE
  5
4C0
330
1F
100
AcDbEntity
  8
0
  6
Continuous
 62
     7
370
    25
100
AcDbLine
 10
745.5988973844
 20
413.5041770186
 30
0.0
 11
745.5988973844
 21
413.1067590578
 31
0.0
  0
LINE
  5
4C1
330
1F
100
AcDbEntity
  8
0
  6
Continuous
 62
     7
370
    25
100
AcDbLine
 10
745.5988973844
 20
413.5041770186
 30
0.0
 11
742.7725792623
 21
413.5041770186
 31
0.0
  0
LINE
  5
4C2
330
1F
100
AcDbEntity
  8
0
  6
Continuous
 62
     7
370
    25
100
AcDbLine
 10
742.7725792623
 20
413.5041770186
 30
0.0
 11
743.0560162323
 21
412.7202024226
 31
0.0
  0
LINE
  5
4C3
330
1F
100
AcDbEntity
  8
0
  6
Continuous
 62
     7
370
    25
100
AcDbLine
 10
743.0560162323
 20
412.7202024226
 30
0.0
 11
743.4794096663
 21
412.7202024226
 31
0.0
  0
LINE
  5
4C4
330
1F
100
AcDbEntity
  8
0
  6
Continuous
 62
     7
370
    25
100
AcDbLine
 10
743.4794096663
 20
412.7202024226
 30
0.0
 11
743.4794096663
 21
412.2881516146
 31
0.0
  0
LINE
  5
4C5
330
1F
100
AcDbEntity
  8
0
  6
Continuous
 62
     7
370
    25
100
AcDbLine
 10
743.4794096663
 20
412.2881516146
 30
0.0
 11
742.7075792623
 21
412.2881516146
 31
0.0
  0
LINE
  5
4C6
330
1F
100
AcDbEntity
  8
0
  6
Continuous
 62
     7
370
    25
100
AcDbLine
 10
742.7075792623
 20
412.2881516146
 30
0.0
 11
742.7075792623
 21
407.5972278146
 31
0.0
  0
LINE
  5
4C7
330
1F
100
AcDbEntity
  8
0
  6
Continuous
 62
     7
370
    25
100
AcDbLine
 10
742.7075792623
 20
407.5972278146
 30
0.0
 11
743.2693077423
 21
407.5972278146
 31
0.0
  0
ARC
  5
4C8
330
1F
100
AcDbEntity
  8
0
  6
Continuous
 62
     7
370
    25
100
AcDbCircle
 10
744.2575792628
 20
406.6534006107
 30
0.0
 40
1.36656152035541
100
AcDbArc
 50
43.6822501723
 51
136.3177498278
  0
LINE
  5
4C9
330
1F
100
AcDbEntity
  8
0
  6
Continuous
 62
     7
370
    25
100
AcDbLine
 10
745.2458507833
 20
407.5972278146
 30
0.0
 11
745.5988973844
 21
407.5972278146
 31
0.0
  0
LINE
  5
4CA
330
1F
100
AcDbEntity
  8
0
  6
Continuous
 62
     7
370
    25
100
AcDbLine
 10
745.5988973844
 20
412.2881516146
 30
0.0
 11
745.5988973844
 21
407.5972278146
 31
0.0
  0
LINE
  5
4CB
330
1F
100
AcDbEntity
  8
0
  6
Continuous
 62
     7
370
    25
100
AcDbLine
 10
752.5988973844
 20
412.2881516146
 30
0.0
 11
752.0357488593
 21
412.2881516146
 31
0.0
  0
LINE
  5
4CC
330
1F
100
AcDbEntity
  8
0
  6
Continuous
 62
     7
370
    25
100
AcDbLine
 10
752.0357488593
 20
412.2881516146
 30
0.0
 11
752.0357488593
 21
412.7202024226
 31
0.0
  0
LINE
  5
4CD
330
1F
100
AcDbEntity
  8
0
  6
Continuous
 62
     7
370
    25
100
AcDbLine
 10
752.0357488593
 20
412.7202024226
 30
0.0
 11
752.4591422933
 21
412.7202024226
 31
0.0
  0
LINE
  5
4CE
330
1F
100
AcDbEntity
  8
0
  6
Continuous
 62
     7
370
    25
100
AcDbLine
 10
752.4591422933
 20
412.7202024226
 30
0.0
 11
752.5988973844
 21
413.1067590578
 31
0.0
  0
LINE
  5
4CF
330
1F
100
AcDbEntity
  8
0
  6
Continuous
 62
     7
370
    25
100
AcDbLine
 10
752.5988973844
 20
413.5041770186
 30
0.0
 11
752.5988973844
 21
413.1067590578
 31
0.0
  0
LINE
  5
4D0
330
1F
100
AcDbEntity
  8
0
  6
Continuous
 62
     7
370
    25
100
AcDbLine
 10
752.5988973844
 20
413.5041770186
 30
0.0
 11
749.7725792623
 21
413.5041770186
 31
0.0
  0
LINE
  5
4D1
330
1F
100
AcDbEntity
  8
0
  6
Continuous
 62
     7
370
    25
100
AcDbLine
 10
749.7725792623
 20
413.5041770186
 30
0.0
 11
750.0560162323
 21
412.7202024226
 31
0.0
  0
LINE
  5
4D2
330
1F
100
AcDbEntity
  8
0
  6
Continuous
 62
     7
370
    25
100
AcDbLine
 10
750.0560162323
 20
412.7202024226
 30
0.0
 11
750.4794096663
 21
412.7202024226
 31
0.0
  0
LINE
  5
4D3
330
1F
100
AcDbEntity
  8
0
  6
Continuous
 62
     7
370
    25
100
AcDbLine
 10
750.4794096663
 20
412.7202024226
 30
0.0
 11
750.4794096663
 21
412.2881516146
 31
0.0
  0
LINE
  5
4D4
330
1F
100
AcDbEntity
  8
0
  6
Continuous
 62
     7
370
    25
100
AcDbLine
 10
750.4794096663
 20
412.2881516146
 30
0.0
 11
749.7075792623
 21
412.2881516146
 31
0.0
  0
LINE
  5
4D5
330
1F
100
AcDbEntity
  8
0
  6
Continuous
 62
     7
370
    25
100
AcDbLine
 10
749.7075792623
 20
412.2881516146
 30
0.0
 11
749.7075792623
 21
407.5972278146
 31
0.0
  0
LINE
  5
4D6
330
1F
100
AcDbEntity
  8
0
  6
Continuous
 62
     7
370
    25
100
AcDbLine
 10
749.7075792623
 20
407.5972278146
 30
0.0
 11
750.2693077423
 21
407.5972278146
 31
0.0
  0
ARC
  5
4D7
330
1F
100
AcDbEntity
  8
0
  6
Continuous
 62
     7
370
    25
100
AcDbCircle
 10
751.2575792628
 20
406.6534006107
 30
0.0
 40
1.36656152035541
100
AcDbArc
 50
43.6822501723
 51
136.3177498278
  0
LINE
  5
4D8
330
1F
100
AcDbEntity
  8
0
  6
Continuous
 62
     7
370
    25
100
AcDbLine
 10
752.2458507833
 20
407.5972278146
 30
0.0
 11
752.5988973844
 21
407.5972278146
 31
0.0
  0
LINE
  5
4D9
330
1F
100
AcDbEntity
  8
0
  6
Continuous
 62
     7
370
    25
100
AcDbLine
 10
752.5988973844
 20
412.2881516146
 30
0.0
 11
752.5988973844
 21
407.5972278146
 31
0.0
  0
LINE
  5
4DA
330
1F
100
AcDbEntity
  8
0
  6
Continuous
 62
     7
370
    25
100
AcDbLine
 10
756.7075792623
 20
412.2881516146
 30
0.0
 11
756.7075792623
 21
407.5972278146
 31
0.0
  0
LINE
  5
4DB
330
1F
100
AcDbEntity
  8
0
  6
Continuous
 62
     7
370
    25
100
AcDbLine
 10
756.7075792623
 20
407.5972278146
 30
0.0
 11
757.2693077423
 21
407.5972278146
 31
0.0
  0
LINE
  5
4DC
330
1F
100
AcDbEntity
  8
0
  6
Continuous
 62
     7
370
    25
100
AcDbLine
 10
759.4591422933
 20
412.7202024226
 30
0.0
 11
759.7425792623
 21
413.5041770186
 31
0.0
  0
LINE
  5
4DD
330
1F
100
AcDbEntity
  8
0
  6
Continuous
 62
     7
370
    25
100
AcDbLine
 10
756.7725792623
 20
413.5041770186
 30
0.0
 11
757.0560162323
 21
412.7202024226
 31
0.0
  0
LINE
  5
4DE
330
1F
100
AcDbEntity
  8
0
  6
Continuous
 62
     7
370
    25
100
AcDbLine
 10
757.0560162323
 20
412.7202024226
 30
0.0
 11
757.4794096663
 21
412.7202024226
 31
0.0
  0
LINE
  5
4DF
330
1F
100
AcDbEntity
  8
0
  6
Continuous
 62
     7
370
    25
100
AcDbLine
 10
757.4794096663
 20
412.7202024226
 30
0.0
 11
757.4794096663
 21
412.2881516146
 31
0.0
  0
LINE
  5
4E0
330
1F
100
AcDbEntity
  8
0
  6
Continuous
 62
     7
370
    25
100
AcDbLine
 10
757.4794096663
 20
412.2881516146
 30
0.0
 11
756.7075792623
 21
412.2881516146
 31
0.0
  0
LINE
  5
4E1
330
1F
100
AcDbEntity
  8
0
  6
Continuous
 62
     7
370
    25
100
AcDbLine
 10
756.0988973844
 20
412.2881516146
 30
0.0
 11
755.5357488593
 21
412.2881516146
 31
0.0
  0
LINE
  5
4E2
330
1F
100
AcDbEntity
  8
0
  6
Continuous
 62
     7
370
    25
100
AcDbLine
 10
755.5357488593
 20
412.2881516146
 30
0.0
 11
755.5357488593
 21
412.7202024226
 31
0.0
  0
LINE
  5
4E3
330
1F
100
AcDbEntity
  8
0
  6
Continuous
 62
     7
370
    25
100
AcDbLine
 10
755.5357488593
 20
412.7202024226
 30
0.0
 11
755.9591422933
 21
412.7202024226
 31
0.0
  0
LINE
  5
4E4
330
1F
100
AcDbEntity
  8
0
  6
Continuous
 62
     7
370
    25
100
AcDbLine
 10
755.9591422933
 20
412.7202024226
 30
0.0
 11
756.0988973844
 21
413.1067590578
 31
0.0
  0
LINE
  5
4E5
330
1F
100
AcDbEntity
  8
0
  6
Continuous
 62
     7
370
    25
100
AcDbLine
 10
756.0988973844
 20
413.5041770186
 30
0.0
 11
756.0988973844
 21
413.1067590578
 31
0.0
  0
LINE
  5
4E6
330
1F
100
AcDbEntity
  8
0
  6
Continuous
 62
     7
370
    25
100
AcDbLine
 10
756.0988973844
 20
413.5041770186
 30
0.0
 11
753.2725792623
 21
413.5041770186
 31
0.0
  0
LINE
  5
4E7
330
1F
100
AcDbEntity
  8
0
  6
Continuous
 62
     7
370
    25
100
AcDbLine
 10
753.2725792623
 20
413.5041770186
 30
0.0
 11
753.5560162323
 21
412.7202024226
 31
0.0
  0
LINE
  5
4E8
330
1F
100
AcDbEntity
  8
0
  6
Continuous
 62
     7
370
    25
100
AcDbLine
 10
753.5560162323
 20
412.7202024226
 30
0.0
 11
753.9794096663
 21
412.7202024226
 31
0.0
  0
LINE
  5
4E9
330
1F
100
AcDbEntity
  8
0
  6
Continuous
 62
     7
370
    25
100
AcDbLine
 10
753.9794096663
 20
412.7202024226
 30
0.0
 11
753.9794096663
 21
412.2881516146
 31
0.0
  0
LINE
  5
4EA
330
1F
100
AcDbEntity
  8
0
  6
Continuous
 62
     7
370
    25
100
AcDbLine
 10
753.9794096663
 20
412.2881516146
 30
0.0
 11
753.2075792623
 21
412.2881516146
 31
0.0
  0
LINE
  5
4EB
330
1F
100
AcDbEntity
  8
0
  6
Continuous
 62
     7
370
    25
100
AcDbLine
 10
753.2075792623
 20
412.2881516146
 30
0.0
 11
753.2075792623
 21
407.5972278146
 31
0.0
  0
LINE
  5
4EC
330
1F
100
AcDbEntity
  8
0
  6
Continuous
 62
     7
370
    25
100
AcDbLine
 10
753.2075792623
 20
407.5972278146
 30
0.0
 11
753.7693077423
 21
407.5972278146
 31
0.0
  0
ARC
  5
4ED
330
1F
100
AcDbEntity
  8
0
  6
Continuous
 62
     7
370
    25
100
AcDbCircle
 10
754.7575792628
 20
406.6534006107
 30
0.0
 40
1.366561520355493
100
AcDbArc
 50
43.6822501722
 51
136.3177498277
  0
LINE
  5
4EE
330
1F
100
AcDbEntity
  8
0
  6
Continuous
 62
     7
370
    25
100
AcDbLine
 10
755.7458507833
 20
407.5972278146
 30
0.0
 11
756.0988973844
 21
407.5972278146
 31
0.0
  0
LINE
  5
4EF
330
1F
100
AcDbEntity
  8
0
  6
Continuous
 62
     7
370
    25
100
AcDbLine
 10
756.0988973844
 20
412.2881516146
 30
0.0
 11
756.0988973844
 21
407.5972278146
 31
0.0
  0
LINE
  5
4F0
330
1F
100
AcDbEntity
  8
0
  6
Continuous
 62
     7
370
    25
100
AcDbLine
 10
749.0988973844
 20
412.2881516146
 30
0.0
 11
748.5357488593
 21
412.2881516146
 31
0.0
  0
LINE
  5
4F1
330
1F
100
AcDbEntity
  8
0
  6
Continuous
 62
     7
370
    25
100
AcDbLine
 10
748.5357488593
 20
412.2881516146
 30
0.0
 11
748.5357488593
 21
412.7202024226
 31
0.0
  0
LINE
  5
4F2
330
1F
100
AcDbEntity
  8
0
  6
Continuous
 62
     7
370
    25
100
AcDbLine
 10
748.5357488593
 20
412.7202024226
 30
0.0
 11
748.9591422933
 21
412.7202024226
 31
0.0
  0
LINE
  5
4F3
330
1F
100
AcDbEntity
  8
0
  6
Continuous
 62
     7
370
    25
100
AcDbLine
 10
748.9591422933
 20
412.7202024226
 30
0.0
 11
749.0988973844
 21
413.1067590578
 31
0.0
  0
LINE
  5
4F4
330
1F
100
AcDbEntity
  8
0
  6
Continuous
 62
     7
370
    25
100
AcDbLine
 10
749.0988973844
 20
413.5041770186
 30
0.0
 11
749.0988973844
 21
413.1067590578
 31
0.0
  0
LINE
  5
4F5
330
1F
100
AcDbEntity
  8
0
  6
Continuous
 62
     7
370
    25
100
AcDbLine
 10
749.0988973844
 20
413.5041770186
 30
0.0
 11
746.2725792623
 21
413.5041770186
 31
0.0
  0
LINE
  5
4F6
330
1F
100
AcDbEntity
  8
0
  6
Continuous
 62
     7
370
    25
100
AcDbLine
 10
746.2725792623
 20
413.5041770186
 30
0.0
 11
746.5560162323
 21
412.7202024226
 31
0.0
  0
LINE
  5
4F7
330
1F
100
AcDbEntity
  8
0
  6
Continuous
 62
     7
370
    25
100
AcDbLine
 10
746.5560162323
 20
412.7202024226
 30
0.0
 11
746.9794096663
 21
412.7202024226
 31
0.0
  0
LINE
  5
4F8
330
1F
100
AcDbEntity
  8
0
  6
Continuous
 62
     7
370
    25
100
AcDbLine
 10
746.9794096663
 20
412.7202024226
 30
0.0
 11
746.9794096663
 21
412.2881516146
 31
0.0
  0
LINE
  5
4F9
330
1F
100
AcDbEntity
  8
0
  6
Continuous
 62
     7
370
    25
100
AcDbLine
 10
746.9794096663
 20
412.2881516146
 30
0.0
 11
746.2075792623
 21
412.2881516146
 31
0.0
  0
LINE
  5
4FA
330
1F
100
AcDbEntity
  8
0
  6
Continuous
 62
     7
370
    25
100
AcDbLine
 10
746.2075792623
 20
412.2881516146
 30
0.0
 11
746.2075792623
 21
407.5972278146
 31
0.0
  0
LINE
  5
4FB
330
1F
100
AcDbEntity
  8
0
  6
Continuous
 62
     7
370
    25
100
AcDbLine
 10
746.2075792623
 20
407.5972278146
 30
0.0
 11
746.7693077423
 21
407.5972278146
 31
0.0
  0
ARC
  5
4FC
330
1F
100
AcDbEntity
  8
0
  6
Continuous
 62
     7
370
    25
100
AcDbCircle
 10
747.7575792628
 20
406.6534006107
 30
0.0
 40
1.366561520355493
100
AcDbArc
 50
43.6822501722
 51
136.3177498278
  0
LINE
  5
4FD
330
1F
100
AcDbEntity
  8
0
  6
Continuous
 62
     7
370
    25
100
AcDbLine
 10
748.7458507833
 20
407.5972278146
 30
0.0
 11
749.0988973844
 21
407.5972278146
 31
0.0
  0
LINE
  5
4FE
330
1F
100
AcDbEntity
  8
0
  6
Continuous
 62
     7
370
    25
100
AcDbLine
 10
749.0988973844
 20
412.2881516146
 30
0.0
 11
749.0988973844
 21
407.5972278146
 31
0.0
  0
LINE
  5
4FF
330
1F
100
AcDbEntity
  8
0
  6
Continuous
 62
     7
370
    25
100
AcDbLine
 10
742.0988973844
 20
412.2881516146
 30
0.0
 11
741.5357488593
 21
412.2881516146
 31
0.0
  0
LINE
  5
500
330
1F
100
AcDbEntity
  8
0
  6
Continuous
 62
     7
370
    25
100
AcDbLine
 10
741.5357488593
 20
412.2881516146
 30
0.0
 11
741.5357488593
 21
412.7202024226
 31
0.0
  0
LINE
  5
501
330
1F
100
AcDbEntity
  8
0
  6
Continuous
 62
     7
370
    25
100
AcDbLine
 10
741.5357488593
 20
412.7202024226
 30
0.0
 11
741.9591422933
 21
412.7202024226
 31
0.0
  0
LINE
  5
502
330
1F
100
AcDbEntity
  8
0
  6
Continuous
 62
     7
370
    25
100
AcDbLine
 10
741.9591422933
 20
412.7202024226
 30
0.0
 11
742.0988973844
 21
413.1067590578
 31
0.0
  0
LINE
  5
503
330
1F
100
AcDbEntity
  8
0
  6
Continuous
 62
     7
370
    25
100
AcDbLine
 10
742.0988973844
 20
413.5041770186
 30
0.0
 11
742.0988973844
 21
413.1067590578
 31
0.0
  0
LINE
  5
504
330
1F
100
AcDbEntity
  8
0
  6
Continuous
 62
     7
370
    25
100
AcDbLine
 10
742.0988973844
 20
413.5041770186
 30
0.0
 11
739.2725792623
 21
413.5041770186
 31
0.0
  0
LINE
  5
505
330
1F
100
AcDbEntity
  8
0
  6
Continuous
 62
     7
370
    25
100
AcDbLine
 10
739.2725792623
 20
413.5041770186
 30
0.0
 11
739.5560162323
 21
412.7202024226
 31
0.0
  0
LINE
  5
506
330
1F
100
AcDbEntity
  8
0
  6
Continuous
 62
     7
370
    25
100
AcDbLine
 10
739.5560162323
 20
412.7202024226
 30
0.0
 11
739.9794096663
 21
412.7202024226
 31
0.0
  0
LINE
  5
507
330
1F
100
AcDbEntity
  8
0
  6
Continuous
 62
     7
370
    25
100
AcDbLine
 10
739.9794096663
 20
412.7202024226
 30
0.0
 11
739.9794096663
 21
412.2881516146
 31
0.0
  0
LINE
  5
508
330
1F
100
AcDbEntity
  8
0
  6
Continuous
 62
     7
370
    25
100
AcDbLine
 10
739.9794096663
 20
412.2881516146
 30
0.0
 11
739.2075792623
 21
412.2881516146
 31
0.0
  0
LINE
  5
509
330
1F
100
AcDbEntity
  8
0
  6
Continuous
 62
     7
370
    25
100
AcDbLine
 10
739.2075792623
 20
412.2881516146
 30
0.0
 11
739.2075792623
 21
407.5972278146
 31
0.0
  0
LINE
  5
50A
330
1F
100
AcDbEntity
  8
0
  6
Continuous
 62
     7
370
    25
100
AcDbLine
 10
739.2075792623
 20
407.5972278146
 30
0.0
 11
739.7693077423
 21
407.5972278146
 31
0.0
  0
ARC
  5
50B
330
1F
100
AcDbEntity
  8
0
  6
Continuous
 62
     7
370
    25
100
AcDbCircle
 10
740.7575792628
 20
406.6534006107
 30
0.0
 40
1.366561520355493
100
AcDbArc
 50
43.6822501722
 51
136.3177498278
  0
LINE
  5
50C
330
1F
100
AcDbEntity
  8
0
  6
Continuous
 62
     7
370
    25
100
AcDbLine
 10
741.7458507833
 20
407.5972278146
 30
0.0
 11
742.0988973844
 21
407.5972278146
 31
0.0
  0
LINE
  5
50D
330
1F
100
AcDbEntity
  8
0
  6
Continuous
 62
     7
370
    25
100
AcDbLine
 10
742.0988973844
 20
412.2881516146
 30
0.0
 11
742.0988973844
 21
407.5972278146
 31
0.0
  0
LINE
  5
50E
330
1F
100
AcDbEntity
  8
0
  6
Continuous
 62
     7
370
    25
100
AcDbLine
 10
735.0988973844
 20
412.2881516146
 30
0.0
 11
734.5357488593
 21
412.2881516146
 31
0.0
  0
LINE
  5
50F
330
1F
100
AcDbEntity
  8
0
  6
Continuous
 62
     7
370
    25
100
AcDbLine
 10
734.5357488593
 20
412.2881516146
 30
0.0
 11
734.5357488593
 21
412.7202024226
 31
0.0
  0
LINE
  5
510
330
1F
100
AcDbEntity
  8
0
  6
Continuous
 62
     7
370
    25
100
AcDbLine
 10
734.5357488593
 20
412.7202024226
 30
0.0
 11
734.9591422933
 21
412.7202024226
 31
0.0
  0
LINE
  5
511
330
1F
100
AcDbEntity
  8
0
  6
Continuous
 62
     7
370
    25
100
AcDbLine
 10
734.9591422933
 20
412.7202024226
 30
0.0
 11
735.0988973844
 21
413.1067590578
 31
0.0
  0
LINE
  5
512
330
1F
100
AcDbEntity
  8
0
  6
Continuous
 62
     7
370
    25
100
AcDbLine
 10
735.0988973844
 20
413.5041770186
 30
0.0
 11
735.0988973844
 21
413.1067590578
 31
0.0
  0
LINE
  5
513
330
1F
100
AcDbEntity
  8
0
  6
Continuous
 62
     7
370
    25
100
AcDbLine
 10
735.0988973844
 20
413.5041770186
 30
0.0
 11
732.2725792623
 21
413.5041770186
 31
0.0
  0
LINE
  5
514
330
1F
100
AcDbEntity
  8
0
  6
Continuous
 62
     7
370
    25
100
AcDbLine
 10
732.2725792623
 20
413.5041770186
 30
0.0
 11
732.5560162323
 21
412.7202024226
 31
0.0
  0
LINE
  5
515
330
1F
100
AcDbEntity
  8
0
  6
Continuous
 62
     7
370
    25
100
AcDbLine
 10
732.5560162323
 20
412.7202024226
 30
0.0
 11
732.9794096663
 21
412.7202024226
 31
0.0
  0
LINE
  5
516
330
1F
100
AcDbEntity
  8
0
  6
Continuous
 62
     7
370
    25
100
AcDbLine
 10
732.9794096663
 20
412.7202024226
 30
0.0
 11
732.9794096663
 21
412.2881516146
 31
0.0
  0
LINE
  5
517
330
1F
100
AcDbEntity
  8
0
  6
Continuous
 62
     7
370
    25
100
AcDbLine
 10
732.9794096663
 20
412.2881516146
 30
0.0
 11
732.2075792623
 21
412.2881516146
 31
0.0
  0
LINE
  5
518
330
1F
100
AcDbEntity
  8
0
  6
Continuous
 62
     7
370
    25
100
AcDbLine
 10
732.2075792623
 20
412.2881516146
 30
0.0
 11
732.2075792623
 21
407.5972278146
 31
0.0
  0
LINE
  5
519
330
1F
100
AcDbEntity
  8
0
  6
Continuous
 62
     7
370
    25
100
AcDbLine
 10
732.2075792623
 20
407.5972278146
 30
0.0
 11
732.7693077423
 21
407.5972278146
 31
0.0
  0
ARC
  5
51A
330
1F
100
AcDbEntity
  8
0
  6
Continuous
 62
     7
370
    25
100
AcDbCircle
 10
733.7575792628
 20
406.6534006107
 30
0.0
 40
1.366561520355493
100
AcDbArc
 50
43.6822501722
 51
136.3177498278
  0
LINE
  5
51B
330
1F
100
AcDbEntity
  8
0
  6
Continuous
 62
     7
370
    25
100
AcDbLine
 10
734.7458507833
 20
407.5972278146
 30
0.0
 11
735.0988973844
 21
407.5972278146
 31
0.0
  0
LINE
  5
51C
330
1F
100
AcDbEntity
  8
0
  6
Continuous
 62
     7
370
    25
100
AcDbLine
 10
735.0988973844
 20
412.2881516146
 30
0.0
 11
735.0988973844
 21
407.5972278146
 31
0.0
  0
LINE
  5
51D
330
1F
100
AcDbEntity
  8
0
  6
Continuous
 62
     7
370
    25
100
AcDbLine
 10
728.0988973844
 20
412.2881516146
 30
0.0
 11
727.5357488593
 21
412.2881516146
 31
0.0
  0
LINE
  5
51E
330
1F
100
AcDbEntity
  8
0
  6
Continuous
 62
     7
370
    25
100
AcDbLine
 10
727.5357488593
 20
412.2881516146
 30
0.0
 11
727.5357488593
 21
412.7202024226
 31
0.0
  0
LINE
  5
51F
330
1F
100
AcDbEntity
  8
0
  6
Continuous
 62
     7
370
    25
100
AcDbLine
 10
727.5357488593
 20
412.7202024226
 30
0.0
 11
727.9591422933
 21
412.7202024226
 31
0.0
  0
LINE
  5
520
330
1F
100
AcDbEntity
  8
0
  6
Continuous
 62
     7
370
    25
100
AcDbLine
 10
727.9591422933
 20
412.7202024226
 30
0.0
 11
728.0988973844
 21
413.1067590578
 31
0.0
  0
LINE
  5
521
330
1F
100
AcDbEntity
  8
0
  6
Continuous
 62
     7
370
    25
100
AcDbLine
 10
728.0988973844
 20
413.5041770186
 30
0.0
 11
728.0988973844
 21
413.1067590578
 31
0.0
  0
LINE
  5
522
330
1F
100
AcDbEntity
  8
0
  6
Continuous
 62
     7
370
    25
100
AcDbLine
 10
728.0988973844
 20
413.5041770186
 30
0.0
 11
725.2725792623
 21
413.5041770186
 31
0.0
  0
LINE
  5
523
330
1F
100
AcDbEntity
  8
0
  6
Continuous
 62
     7
370
    25
100
AcDbLine
 10
725.2725792623
 20
413.5041770186
 30
0.0
 11
725.5560162323
 21
412.7202024226
 31
0.0
  0
LINE
  5
524
330
1F
100
AcDbEntity
  8
0
  6
Continuous
 62
     7
370
    25
100
AcDbLine
 10
725.5560162323
 20
412.7202024226
 30
0.0
 11
725.9794096663
 21
412.7202024226
 31
0.0
  0
LINE
  5
525
330
1F
100
AcDbEntity
  8
0
  6
Continuous
 62
     7
370
    25
100
AcDbLine
 10
725.9794096663
 20
412.7202024226
 30
0.0
 11
725.9794096663
 21
412.2881516146
 31
0.0
  0
LINE
  5
526
330
1F
100
AcDbEntity
  8
0
  6
Continuous
 62
     7
370
    25
100
AcDbLine
 10
725.9794096663
 20
412.2881516146
 30
0.0
 11
725.2075792623
 21
412.2881516146
 31
0.0
  0
LINE
  5
527
330
1F
100
AcDbEntity
  8
0
  6
Continuous
 62
     7
370
    25
100
AcDbLine
 10
725.2075792623
 20
412.2881516146
 30
0.0
 11
725.2075792623
 21
407.5972278146
 31
0.0
  0
LINE
  5
528
330
1F
100
AcDbEntity
  8
0
  6
Continuous
 62
     7
370
    25
100
AcDbLine
 10
725.2075792623
 20
407.5972278146
 30
0.0
 11
725.7693077423
 21
407.5972278146
 31
0.0
  0
ARC
  5
529
330
1F
100
AcDbEntity
  8
0
  6
Continuous
 62
     7
370
    25
100
AcDbCircle
 10
726.7575792628
 20
406.6534006107
 30
0.0
 40
1.366561520355493
100
AcDbArc
 50
43.6822501722
 51
136.3177498278
  0
LINE
  5
52A
330
1F
100
AcDbEntity
  8
0
  6
Continuous
 62
     7
370
    25
100
AcDbLine
 10
727.7458507833
 20
407.5972278146
 30
0.0
 11
728.0988973844
 21
407.5972278146
 31
0.0
  0
LINE
  5
52B
330
1F
100
AcDbEntity
  8
0
  6
Continuous
 62
     7
370
    25
100
AcDbLine
 10
728.0988973844
 20
412.2881516146
 30
0.0
 11
728.0988973844
 21
407.5972278146
 31
0.0
  0
LINE
  5
52C
330
1F
100
AcDbEntity
  8
0
  6
Continuous
 62
     7
370
    25
100
AcDbLine
 10
717.5988973844
 20
414.1541770186
 30
0.0
 11
717.5988973844
 21
407.4075373295
 31
0.0
  0
LINE
  5
52D
330
1F
100
AcDbEntity
  8
0
  6
Continuous
 62
     7
370
    25
100
AcDbLine
 10
721.0988973844
 20
412.2881516146
 30
0.0
 11
720.5357488593
 21
412.2881516146
 31
0.0
  0
LINE
  5
52E
330
1F
100
AcDbEntity
  8
0
  6
Continuous
 62
     7
370
    25
100
AcDbLine
 10
720.5357488593
 20
412.2881516146
 30
0.0
 11
720.5357488593
 21
412.7202024226
 31
0.0
  0
LINE
  5
52F
330
1F
100
AcDbEntity
  8
0
  6
Continuous
 62
     7
370
    25
100
AcDbLine
 10
720.5357488593
 20
412.7202024226
 30
0.0
 11
720.9591422933
 21
412.7202024226
 31
0.0
  0
LINE
  5
530
330
1F
100
AcDbEntity
  8
0
  6
Continuous
 62
     7
370
    25
100
AcDbLine
 10
720.9591422933
 20
412.7202024226
 30
0.0
 11
721.0988973844
 21
413.1067590578
 31
0.0
  0
LINE
  5
531
330
1F
100
AcDbEntity
  8
0
  6
Continuous
 62
     7
370
    25
100
AcDbLine
 10
721.0988973844
 20
413.5041770186
 30
0.0
 11
721.0988973844
 21
413.1067590578
 31
0.0
  0
LINE
  5
532
330
1F
100
AcDbEntity
  8
0
  6
Continuous
 62
     7
370
    25
100
AcDbLine
 10
721.0988973844
 20
413.5041770186
 30
0.0
 11
718.2725792623
 21
413.5041770186
 31
0.0
  0
LINE
  5
533
330
1F
100
AcDbEntity
  8
0
  6
Continuous
 62
     7
370
    25
100
AcDbLine
 10
718.2725792623
 20
413.5041770186
 30
0.0
 11
718.5560162323
 21
412.7202024226
 31
0.0
  0
LINE
  5
534
330
1F
100
AcDbEntity
  8
0
  6
Continuous
 62
     7
370
    25
100
AcDbLine
 10
718.5560162323
 20
412.7202024226
 30
0.0
 11
718.9794096663
 21
412.7202024226
 31
0.0
  0
LINE
  5
535
330
1F
100
AcDbEntity
  8
0
  6
Continuous
 62
     7
370
    25
100
AcDbLine
 10
718.9794096663
 20
412.7202024226
 30
0.0
 11
718.9794096663
 21
412.2881516146
 31
0.0
  0
LINE
  5
536
330
1F
100
AcDbEntity
  8
0
  6
Continuous
 62
     7
370
    25
100
AcDbLine
 10
718.9794096663
 20
412.2881516146
 30
0.0
 11
718.2075792623
 21
412.2881516146
 31
0.0
  0
LINE
  5
537
330
1F
100
AcDbEntity
  8
0
  6
Continuous
 62
     7
370
    25
100
AcDbLine
 10
718.2075792623
 20
412.2881516146
 30
0.0
 11
718.2075792623
 21
407.5972278146
 31
0.0
  0
LINE
  5
538
330
1F
100
AcDbEntity
  8
0
  6
Continuous
 62
     7
370
    25
100
AcDbLine
 10
718.2075792623
 20
407.5972278146
 30
0.0
 11
718.7693077423
 21
407.5972278146
 31
0.0
  0
ARC
  5
539
330
1F
100
AcDbEntity
  8
0
  6
Continuous
 62
     7
370
    25
100
AcDbCircle
 10
719.7575792628
 20
406.6534006107
 30
0.0
 40
1.366561520355493
100
AcDbArc
 50
43.6822501723
 51
136.3177498278
  0
LINE
  5
53A
330
1F
100
AcDbEntity
  8
0
  6
Continuous
 62
     7
370
    25
100
AcDbLine
 10
720.7458507833
 20
407.5972278146
 30
0.0
 11
721.0988973844
 21
407.5972278146
 31
0.0
  0
LINE
  5
53B
330
1F
100
AcDbEntity
  8
0
  6
Continuous
 62
     7
370
    25
100
AcDbLine
 10
721.0988973844
 20
412.2881516146
 30
0.0
 11
721.0988973844
 21
407.5972278146
 31
0.0
  0
LINE
  5
53C
330
1F
100
AcDbEntity
  8
0
  6
Continuous
 62
     7
370
    25
100
AcDbLine
 10
759.9447084579
 20
414.1541770186
 30
0.0
 11
717.5988973844
 21
414.1541770186
 31
0.0
  0
LINE
  5
53D
330
1F
100
AcDbEntity
  8
0
  6
Continuous
 62
     7
370
    25
100
AcDbLine
 10
759.2458507833
 20
407.5972278146
 30
0.0
 11
759.7725792623
 21
407.5972278146
 31
0.0
  0
LINE
  5
53E
330
1F
100
AcDbEntity
  8
0
  6
Continuous
 62
     7
370
    25
100
AcDbLine
 10
759.7425792623
 20
413.5041770186
 30
0.0
 11
756.7725792623
 21
413.5041770186
 31
0.0
  0
LINE
  5
53F
330
1F
100
AcDbEntity
  8
0
  6
Continuous
 62
     7
370
    25
100
AcDbLine
 10
717.5988973844
 20
407.4075373295
 30
0.0
 11
759.9447084579
 21
407.4075373295
 31
0.0
  0
ARC
  5
540
330
1F
100
AcDbEntity
  8
0
  6
Continuous
 62
     7
370
    25
100
AcDbCircle
 10
758.2575792628
 20
406.6534006107
 30
0.0
 40
1.36656152035541
100
AcDbArc
 50
43.6822501723
 51
136.3177498278
  0
LINE
  5
541
330
1F
100
AcDbEntity
  8
0
  6
Continuous
 62
     7
370
    25
100
AcDbLine
 10
759.0357488593
 20
412.7202024226
 30
0.0
 11
759.4591422933
 21
412.7202024226
 31
0.0
  0
LINE
  5
542
330
1F
100
AcDbEntity
  8
0
  6
Continuous
 62
     7
370
    25
100
AcDbLine
 10
759.7725792623
 20
407.5972278146
 30
0.0
 11
759.7725792623
 21
412.2881516146
 31
0.0
  0
LINE
  5
543
330
1F
100
AcDbEntity
  8
0
  6
Continuous
 62
     7
370
    25
100
AcDbLine
 10
759.9447084579
 20
407.4075373295
 30
0.0
 11
759.9447084579
 21
414.1541770186
 31
0.0
  0
LINE
  5
544
330
1F
100
AcDbEntity
  8
0
  6
Continuous
 62
     7
370
    25
100
AcDbLine
 10
759.0357488593
 20
412.2881516146
 30
0.0
 11
759.0357488593
 21
412.7202024226
 31
0.0
  0
LINE
  5
545
330
1F
100
AcDbEntity
  8
0
  6
Continuous
 62
     7
370
    25
100
AcDbLine
 10
759.7725792623
 20
412.2881516146
 30
0.0
 11
759.0357488593
 21
412.2881516146
 31
0.0
  0
LINE
  5
546
330
1F
100
AcDbEntity
  8
0
  6
Continuous
 62
     7
370
    25
100
AcDbLine
 10
758.6576254367
 20
410.5541770186
 30
0.0
 11
757.8576254367
 21
410.5541770186
 31
0.0
  0
LINE
  5
547
330
1F
100
AcDbEntity
  8
0
  6
Continuous
 62
     7
370
    25
100
AcDbLine
 10
758.6576254367
 20
409.7541770186
 30
0.0
 11
758.6576254367
 21
410.5541770186
 31
0.0
  0
LINE
  5
548
330
1F
100
AcDbEntity
  8
0
  6
Continuous
 62
     7
370
    25
100
AcDbLine
 10
757.8576254367
 20
409.7541770186
 30
0.0
 11
758.6576254367
 21
409.7541770186
 31
0.0
  0
LINE
  5
549
330
1F
100
AcDbEntity
  8
0
  6
Continuous
 62
     7
370
    25
100
AcDbLine
 10
757.8576254367
 20
410.5541770186
 30
0.0
 11
757.8576254367
 21
409.7541770186
 31
0.0
  0
LINE
  5
54A
330
1F
100
AcDbEntity
  8
0
  6
Continuous
 62
     7
370
    25
100
AcDbLine
 10
755.1576254367
 20
409.7541770186
 30
0.0
 11
755.1576254367
 21
410.5541770186
 31
0.0
  0
LINE
  5
54B
330
1F
100
AcDbEntity
  8
0
  6
Continuous
 62
     7
370
    25
100
AcDbLine
 10
754.3576254367
 20
409.7541770186
 30
0.0
 11
755.1576254367
 21
409.7541770186
 31
0.0
  0
LINE
  5
54C
330
1F
100
AcDbEntity
  8
0
  6
Continuous
 62
     7
370
    25
100
AcDbLine
 10
754.3576254367
 20
410.5541770186
 30
0.0
 11
754.3576254367
 21
409.7541770186
 31
0.0
  0
LINE
  5
54D
330
1F
100
AcDbEntity
  8
0
  6
Continuous
 62
     7
370
    25
100
AcDbLine
 10
755.1576254367
 20
410.5541770186
 30
0.0
 11
754.3576254367
 21
410.5541770186
 31
0.0
  0
LINE
  5
54E
330
1F
100
AcDbEntity
  8
0
  6
Continuous
 62
     7
370
    25
100
AcDbLine
 10
750.8576254367
 20
410.5541770186
 30
0.0
 11
750.8576254367
 21
409.7541770186
 31
0.0
  0
LINE
  5
54F
330
1F
100
AcDbEntity
  8
0
  6
Continuous
 62
     7
370
    25
100
AcDbLine
 10
751.6576254367
 20
409.7541770186
 30
0.0
 11
751.6576254367
 21
410.5541770186
 31
0.0
  0
LINE
  5
550
330
1F
100
AcDbEntity
  8
0
  6
Continuous
 62
     7
370
    25
100
AcDbLine
 10
750.8576254367
 20
409.7541770186
 30
0.0
 11
751.6576254367
 21
409.7541770186
 31
0.0
  0
LINE
  5
551
330
1F
100
AcDbEntity
  8
0
  6
Continuous
 62
     7
370
    25
100
AcDbLine
 10
751.6576254367
 20
410.5541770186
 30
0.0
 11
750.8576254367
 21
410.5541770186
 31
0.0
  0
LINE
  5
552
330
1F
100
AcDbEntity
  8
0
  6
Continuous
 62
     7
370
    25
100
AcDbLine
 10
747.3576254367
 20
410.5541770186
 30
0.0
 11
747.3576254367
 21
409.7541770186
 31
0.0
  0
LINE
  5
553
330
1F
100
AcDbEntity
  8
0
  6
Continuous
 62
     7
370
    25
100
AcDbLine
 10
747.3576254367
 20
409.7541770186
 30
0.0
 11
748.1576254367
 21
409.7541770186
 31
0.0
  0
LINE
  5
554
330
1F
100
AcDbEntity
  8
0
  6
Continuous
 62
     7
370
    25
100
AcDbLine
 10
748.1576254367
 20
410.5541770186
 30
0.0
 11
747.3576254367
 21
410.5541770186
 31
0.0
  0
LINE
  5
555
330
1F
100
AcDbEntity
  8
0
  6
Continuous
 62
     7
370
    25
100
AcDbLine
 10
748.1576254367
 20
409.7541770186
 30
0.0
 11
748.1576254367
 21
410.5541770186
 31
0.0
  0
LINE
  5
556
330
1F
100
AcDbEntity
  8
0
  6
Continuous
 62
     7
370
    25
100
AcDbLine
 10
744.6576254367
 20
410.5541770186
 30
0.0
 11
743.8576254367
 21
410.5541770186
 31
0.0
  0
LINE
  5
557
330
1F
100
AcDbEntity
  8
0
  6
Continuous
 62
     7
370
    25
100
AcDbLine
 10
744.6576254367
 20
409.7541770186
 30
0.0
 11
744.6576254367
 21
410.5541770186
 31
0.0
  0
LINE
  5
558
330
1F
100
AcDbEntity
  8
0
  6
Continuous
 62
     7
370
    25
100
AcDbLine
 10
743.8576254367
 20
409.7541770186
 30
0.0
 11
744.6576254367
 21
409.7541770186
 31
0.0
  0
LINE
  5
559
330
1F
100
AcDbEntity
  8
0
  6
Continuous
 62
     7
370
    25
100
AcDbLine
 10
743.8576254367
 20
410.5541770186
 30
0.0
 11
743.8576254367
 21
409.7541770186
 31
0.0
  0
LINE
  5
55A
330
1F
100
AcDbEntity
  8
0
  6
Continuous
 62
     7
370
    25
100
AcDbLine
 10
741.1576254367
 20
410.5541770186
 30
0.0
 11
740.3576254367
 21
410.5541770186
 31
0.0
  0
LINE
  5
55B
330
1F
100
AcDbEntity
  8
0
  6
Continuous
 62
     7
370
    25
100
AcDbLine
 10
740.3576254367
 20
410.5541770186
 30
0.0
 11
740.3576254367
 21
409.7541770186
 31
0.0
  0
LINE
  5
55C
330
1F
100
AcDbEntity
  8
0
  6
Continuous
 62
     7
370
    25
100
AcDbLine
 10
741.1576254367
 20
409.7541770186
 30
0.0
 11
741.1576254367
 21
410.5541770186
 31
0.0
  0
LINE
  5
55D
330
1F
100
AcDbEntity
  8
0
  6
Continuous
 62
     7
370
    25
100
AcDbLine
 10
740.3576254367
 20
409.7541770186
 30
0.0
 11
741.1576254367
 21
409.7541770186
 31
0.0
  0
LINE
  5
55E
330
1F
100
AcDbEntity
  8
0
  6
Continuous
 62
     7
370
    25
100
AcDbLine
 10
737.6576254367
 20
410.5541770186
 30
0.0
 11
736.8576254367
 21
410.5541770186
 31
0.0
  0
LINE
  5
55F
330
1F
100
AcDbEntity
  8
0
  6
Continuous
 62
     7
370
    25
100
AcDbLine
 10
737.6576254367
 20
409.7541770186
 30
0.0
 11
737.6576254367
 21
410.5541770186
 31
0.0
  0
LINE
  5
560
330
1F
100
AcDbEntity
  8
0
  6
Continuous
 62
     7
370
    25
100
AcDbLine
 10
736.8576254367
 20
409.7541770186
 30
0.0
 11
737.6576254367
 21
409.7541770186
 31
0.0
  0
LINE
  5
561
330
1F
100
AcDbEntity
  8
0
  6
Continuous
 62
     7
370
    25
100
AcDbLine
 10
736.8576254367
 20
410.5541770186
 30
0.0
 11
736.8576254367
 21
409.7541770186
 31
0.0
  0
LINE
  5
562
330
1F
100
AcDbEntity
  8
0
  6
Continuous
 62
     7
370
    25
100
AcDbLine
 10
734.1576254367
 20
410.5541770186
 30
0.0
 11
733.3576254367
 21
410.5541770186
 31
0.0
  0
LINE
  5
563
330
1F
100
AcDbEntity
  8
0
  6
Continuous
 62
     7
370
    25
100
AcDbLine
 10
733.3576254367
 20
409.7541770186
 30
0.0
 11
734.1576254367
 21
409.7541770186
 31
0.0
  0
LINE
  5
564
330
1F
100
AcDbEntity
  8
0
  6
Continuous
 62
     7
370
    25
100
AcDbLine
 10
733.3576254367
 20
410.5541770186
 30
0.0
 11
733.3576254367
 21
409.7541770186
 31
0.0
  0
LINE
  5
565
330
1F
100
AcDbEntity
  8
0
  6
Continuous
 62
     7
370
    25
100
AcDbLine
 10
734.1576254367
 20
409.7541770186
 30
0.0
 11
734.1576254367
 21
410.5541770186
 31
0.0
  0
LINE
  5
566
330
1F
100
AcDbEntity
  8
0
  6
Continuous
 62
     7
370
    25
100
AcDbLine
 10
730.6576254367
 20
410.5541770186
 30
0.0
 11
729.8576254367
 21
410.5541770186
 31
0.0
  0
LINE
  5
567
330
1F
100
AcDbEntity
  8
0
  6
Continuous
 62
     7
370
    25
100
AcDbLine
 10
729.8576254367
 20
410.5541770186
 30
0.0
 11
729.8576254367
 21
409.7541770186
 31
0.0
  0
LINE
  5
568
330
1F
100
AcDbEntity
  8
0
  6
Continuous
 62
     7
370
    25
100
AcDbLine
 10
730.6576254367
 20
409.7541770186
 30
0.0
 11
730.6576254367
 21
410.5541770186
 31
0.0
  0
LINE
  5
569
330
1F
100
AcDbEntity
  8
0
  6
Continuous
 62
     7
370
    25
100
AcDbLine
 10
729.8576254367
 20
409.7541770186
 30
0.0
 11
730.6576254367
 21
409.7541770186
 31
0.0
  0
LINE
  5
56A
330
1F
100
AcDbEntity
  8
0
  6
Continuous
 62
     7
370
    25
100
AcDbLine
 10
726.3576254367
 20
410.5541770186
 30
0.0
 11
726.3576254367
 21
409.7541770186
 31
0.0
  0
LINE
  5
56B
330
1F
100
AcDbEntity
  8
0
  6
Continuous
 62
     7
370
    25
100
AcDbLine
 10
726.3576254367
 20
409.7541770186
 30
0.0
 11
727.1576254367
 21
409.7541770186
 31
0.0
  0
LINE
  5
56C
330
1F
100
AcDbEntity
  8
0
  6
Continuous
 62
     7
370
    25
100
AcDbLine
 10
727.1576254367
 20
410.5541770186
 30
0.0
 11
726.3576254367
 21
410.5541770186
 31
0.0
  0
LINE
  5
56D
330
1F
100
AcDbEntity
  8
0
  6
Continuous
 62
     7
370
    25
100
AcDbLine
 10
727.1576254367
 20
409.7541770186
 30
0.0
 11
727.1576254367
 21
410.5541770186
 31
0.0
  0
LINE
  5
56E
330
1F
100
AcDbEntity
  8
0
  6
Continuous
 62
     7
370
    25
100
AcDbLine
 10
723.6576254367
 20
410.5541770186
 30
0.0
 11
722.8576254367
 21
410.5541770186
 31
0.0
  0
LINE
  5
56F
330
1F
100
AcDbEntity
  8
0
  6
Continuous
 62
     7
370
    25
100
AcDbLine
 10
722.8576254367
 20
410.5541770186
 30
0.0
 11
722.8576254367
 21
409.7541770186
 31
0.0
  0
LINE
  5
570
330
1F
100
AcDbEntity
  8
0
  6
Continuous
 62
     7
370
    25
100
AcDbLine
 10
723.6576254367
 20
409.7541770186
 30
0.0
 11
723.6576254367
 21
410.5541770186
 31
0.0
  0
LINE
  5
571
330
1F
100
AcDbEntity
  8
0
  6
Continuous
 62
     7
370
    25
100
AcDbLine
 10
722.8576254367
 20
409.7541770186
 30
0.0
 11
723.6576254367
 21
409.7541770186
 31
0.0
  0
LINE
  5
572
330
1F
100
AcDbEntity
  8
0
  6
Continuous
 62
     7
370
    25
100
AcDbLine
 10
719.3576254367
 20
409.7541770186
 30
0.0
 11
720.1576254367
 21
409.7541770186
 31
0.0
  0
LINE
  5
573
330
1F
100
AcDbEntity
  8
0
  6
Continuous
 62
     7
370
    25
100
AcDbLine
 10
720.1576254367
 20
409.7541770186
 30
0.0
 11
720.1576254367
 21
410.5541770186
 31
0.0
  0
LINE
  5
574
330
1F
100
AcDbEntity
  8
0
  6
Continuous
 62
     7
370
    25
100
AcDbLine
 10
719.3576254367
 20
410.5541770186
 30
0.0
 11
719.3576254367
 21
409.7541770186
 31
0.0
  0
LINE
  5
575
330
1F
100
AcDbEntity
  8
0
  6
Continuous
 62
     7
370
    25
100
AcDbLine
 10
720.1576254367
 20
410.5541770186
 30
0.0
 11
719.3576254367
 21
410.5541770186
 31
0.0
  0
LINE
  5
576
330
1F
100
AcDbEntity
  8
0
  6
Continuous
 62
     7
370
    25
100
AcDbLine
 10
783.3828128404
 20
433.6541632094
 30
0.0
 11
782.3828128404
 21
433.6541632094
 31
0.0
  0
LINE
  5
577
330
1F
100
AcDbEntity
  8
0
  6
Continuous
 62
     7
370
    25
100
AcDbLine
 10
764.3827351343
 20
401.5659071769
 30
0.0
 11
770.3827351343
 21
401.5659071769
 31
0.0
  0
LINE
  5
578
330
1F
100
AcDbEntity
  8
0
  6
Continuous
 62
     7
370
    25
100
AcDbLine
 10
764.3827351343
 20
400.5659071769
 30
0.0
 11
770.3827351343
 21
400.5659071769
 31
0.0
  0
MTEXT
  5
579
330
1F
100
AcDbEntity
  8
SLD-0
 62
     7
100
AcDbMText
 10
742.8076026602
 20
388.0107041873
 30
0.0
 40
4.7625
 41
0.0
 71
     1
 72
     1
  1
REAR VIEW
  7
SLDTEXTSTYLE0
 73
     1
 44
1.0
  0
MTEXT
  5
57A
330
1F
100
AcDbEntity
  8
SLD-0
 62
     7
100
AcDbMText
 10
787.4607360551
 20
471.8070108708
 30
0.0
 40
4.7625
 41
0.0
 71
     1
 72
     1
  1
EXHAUST
  7
SLDTEXTSTYLE0
 73
     1
 44
1.0
  0
LEADER
  5
57B
330
1F
100
AcDbEntity
  8
SLD-0
 62
     7
100
AcDbLeader
  3
SLDDIMSTYLE1
 76
     3
 10
757.8238947382
 20
439.0159658186
 30
0.0
 10
782.4272409779
 20
469.470266844
 30
0.0
 10
786.4272409779
 20
469.470266844
 30
0.0
  0
ENDSEC
  0
SECTION
  2
OBJECTS
  0
DICTIONARY
  5
C
330
0
100
AcDbDictionary
281
     1
  3
ACAD_GROUP
350
D
  3
ACAD_LAYOUT
350
1A
  3
ACAD_MLINESTYLE
350
17
  3
ACAD_PLOTSETTINGS
350
19
  3
ACAD_PLOTSTYLENAME
350
E
  3
ACAD_SCALELIST
350
47
  3
DWGPROPS
350
57C
  0
DICTIONARY
  5
D
102
{ACAD_REACTORS
330
C
102
}
330
C
100
AcDbDictionary
281
     1
  0
DICTIONARY
  5
1A
102
{ACAD_REACTORS
330
C
102
}
330
C
100
AcDbDictionary
281
     1
  3
Layout1
350
1E
  3
Layout2
350
26
  3
Model
350
22
  0
DICTIONARY
  5
17
102
{ACAD_REACTORS
330
C
102
}
330
C
100
AcDbDictionary
281
     1
  3
Standard
350
18
  0
DICTIONARY
  5
19
102
{ACAD_REACTORS
330
C
102
}
330
C
100
AcDbDictionary
281
     1
  0
ACDBDICTIONARYWDFLT
  5
E
102
{ACAD_REACTORS
330
C
102
}
330
C
100
AcDbDictionary
281
     1
  3
Normal
350
F
100
AcDbDictionaryWithDefault
340
F
  0
DICTIONARY
  5
47
102
{ACAD_REACTORS
330
C
102
}
330
C
100
AcDbDictionary
281
     1
  3
A0
350
48
  3
A1
350
49
  3
A2
350
4A
  3
A3
350
4B
  3
A4
350
4C
  3
A5
350
4D
  3
A6
350
4E
  3
A7
350
4F
  3
A8
350
50
  3
A9
350
51
  3
B0
350
52
  3
B1
350
53
  3
B2
350
54
  3
B3
350
55
  3
B4
350
56
  3
B5
350
57
  3
B6
350
58
  3
B7
350
59
  3
B8
350
5A
  3
B9
350
5B
  3
C0
350
5C
  3
C1
350
5D
  3
C2
350
5E
  3
C3
350
5F
  3
C4
350
60
  3
C5
350
61
  3
C6
350
62
  3
C7
350
63
  3
C8
350
64
  3
C9
350
65
  3
D0
350
66
  3
D1
350
67
  3
D2
350
68
  0
XRECORD
  5
57C
102
{ACAD_REACTORS
330
C
102
}
330
C
100
AcDbXrecord
280
     1
  1
DWGPROPS COOKIE
  2

  3

  4

  6

  7

  8
Suzanne.Stasiak
  9

300
=
301
=
302
=
303
=
304
=
305
=
306
=
307
=
308
=
309
=
 40
0.0
 41
2459523.912504444
 42
2459523.912507639
  1

 90
        0
  0
LAYOUT
  5
1E
102
{ACAD_REACTORS
330
1A
102
}
330
1A
100
AcDbPlotSettings
  1

  2
none_device
  4

  6

 40
0.0
 41
0.0
 42
0.0
 43
0.0
 44
0.0
 45
0.0
 46
0.0
 47
0.0
 48
0.0
 49
0.0
140
0.0
141
0.0
142
1.0
143
1.0
 70
   688
 72
     1
 73
     0
 74
     5
  7

 75
    16
147
1.0
148
0.0
149
0.0
100
AcDbLayout
  1
Layout1
 70
     1
 71
     1
 10
0.0
 20
0.0
 11
420.0
 21
297.0
 12
0.0
 22
0.0
 32
0.0
 14
1.0000000000E+20
 24
1.0000000000E+20
 34
1.0000000000E+20
 15
-1.0000000000E+20
 25
-1.0000000000E+20
 35
-1.0000000000E+20
146
0.0
 13
0.0
 23
0.0
 33
0.0
 16
1.0
 26
0.0
 36
0.0
 17
0.0
 27
1.0
 37
0.0
 76
     0
330
1B
  0
LAYOUT
  5
26
102
{ACAD_REACTORS
330
1A
102
}
330
1A
100
AcDbPlotSettings
  1

  2
none_device
  4

  6

 40
0.0
 41
0.0
 42
0.0
 43
0.0
 44
0.0
 45
0.0
 46
0.0
 47
0.0
 48
0.0
 49
0.0
140
0.0
141
0.0
142
1.0
143
1.0
 70
   688
 72
     1
 73
     0
 74
     5
  7

 75
    16
147
1.0
148
0.0
149
0.0
100
AcDbLayout
  1
Layout2
 70
     1
 71
     2
 10
0.0
 20
0.0
 11
0.0
 21
0.0
 12
0.0
 22
0.0
 32
0.0
 14
0.0
 24
0.0
 34
0.0
 15
0.0
 25
0.0
 35
0.0
146
0.0
 13
0.0
 23
0.0
 33
0.0
 16
1.0
 26
0.0
 36
0.0
 17
0.0
 27
1.0
 37
0.0
 76
     0
330
23
  0
LAYOUT
  5
22
102
{ACAD_REACTORS
330
1A
102
}
330
1A
100
AcDbPlotSettings
  1

  2
none_device
  4
Letter_(8.50_x_11.00_Inches)
  6

 40
6.35
 41
6.35
 42
6.35000508
 43
6.35000508
 44
215.9
 45
279.4
 46
0.0
 47
0.0
 48
0.0
 49
0.0
140
0.0
141
0.0
142
1.0
143
1.0
 70
  1712
 72
     1
 73
     0
 74
     0
  7

 75
     0
147
1.0
148
0.0
149
0.0
100
AcDbLayout
  1
Model
 70
     1
 71
     0
 10
0.0
 20
0.0
 11
863.6
 21
558.8
 12
0.0
 22
0.0
 32
0.0
 14
0.0
 24
0.0
 34
0.0
 15
863.6
 25
558.8
 35
0.0
146
0.0
 13
0.0
 23
0.0
 33
0.0
 16
1.0
 26
0.0
 36
0.0
 17
0.0
 27
1.0
 37
0.0
 76
     0
330
1F
331
29
  0
MLINESTYLE
  5
18
102
{ACAD_REACTORS
330
17
102
}
330
17
100
AcDbMlineStyle
  2
Standard
 70
     0
  3

 62
   256
 51
90.0
 52
90.0
 71
     2
 49
0.5
 62
   256
  6
BYLAYER
 49
-0.5
 62
   256
  6
BYLAYER
  0
ACDBPLACEHOLDER
  5
F
102
{ACAD_REACTORS
330
E
102
}
330
E
  0
SCALE
  5
48
102
{ACAD_REACTORS
330
47
102
}
330
47
100
AcDbScale
 70
     0
300
1:1
140
1.0
141
1.0
290
     1
  0
SCALE
  5
49
102
{ACAD_REACTORS
330
47
102
}
330
47
100
AcDbScale
 70
     0
300
1:2
140
1.0
141
2.0
290
     0
  0
SCALE
  5
4A
102
{ACAD_REACTORS
330
47
102
}
330
47
100
AcDbScale
 70
     0
300
1:4
140
1.0
141
4.0
290
     0
  0
SCALE
  5
4B
102
{ACAD_REACTORS
330
47
102
}
330
47
100
AcDbScale
 70
     0
300
1:5
140
1.0
141
5.0
290
     0
  0
SCALE
  5
4C
102
{ACAD_REACTORS
330
47
102
}
330
47
100
AcDbScale
 70
     0
300
1:8
140
1.0
141
8.0
290
     0
  0
SCALE
  5
4D
102
{ACAD_REACTORS
330
47
102
}
330
47
100
AcDbScale
 70
     0
300
1:10
140
1.0
141
10.0
290
     0
  0
SCALE
  5
4E
102
{ACAD_REACTORS
330
47
102
}
330
47
100
AcDbScale
 70
     0
300
1:16
140
1.0
141
16.0
290
     0
  0
SCALE
  5
4F
102
{ACAD_REACTORS
330
47
102
}
330
47
100
AcDbScale
 70
     0
300
1:20
140
1.0
141
20.0
290
     0
  0
SCALE
  5
50
102
{ACAD_REACTORS
330
47
102
}
330
47
100
AcDbScale
 70
     0
300
1:30
140
1.0
141
30.0
290
     0
  0
SCALE
  5
51
102
{ACAD_REACTORS
330
47
102
}
330
47
100
AcDbScale
 70
     0
300
1:40
140
1.0
141
40.0
290
     0
  0
SCALE
  5
52
102
{ACAD_REACTORS
330
47
102
}
330
47
100
AcDbScale
 70
     0
300
1:50
140
1.0
141
50.0
290
     0
  0
SCALE
  5
53
102
{ACAD_REACTORS
330
47
102
}
330
47
100
AcDbScale
 70
     0
300
1:100
140
1.0
141
100.0
290
     0
  0
SCALE
  5
54
102
{ACAD_REACTORS
330
47
102
}
330
47
100
AcDbScale
 70
     0
300
2:1
140
2.0
141
1.0
290
     0
  0
SCALE
  5
55
102
{ACAD_REACTORS
330
47
102
}
330
47
100
AcDbScale
 70
     0
300
4:1
140
4.0
141
1.0
290
     0
  0
SCALE
  5
56
102
{ACAD_REACTORS
330
47
102
}
330
47
100
AcDbScale
 70
     0
300
8:1
140
8.0
141
1.0
290
     0
  0
SCALE
  5
57
102
{ACAD_REACTORS
330
47
102
}
330
47
100
AcDbScale
 70
     0
300
10:1
140
10.0
141
1.0
290
     0
  0
SCALE
  5
58
102
{ACAD_REACTORS
330
47
102
}
330
47
100
AcDbScale
 70
     0
300
100:1
140
100.0
141
1.0
290
     0
  0
SCALE
  5
59
102
{ACAD_REACTORS
330
47
102
}
330
47
100
AcDbScale
 70
     0
300
1/128" = 1'-0"
140
0.0078125
141
12.0
290
     0
  0
SCALE
  5
5A
102
{ACAD_REACTORS
330
47
102
}
330
47
100
AcDbScale
 70
     0
300
1/64" = 1'-0"
140
0.015625
141
12.0
290
     0
  0
SCALE
  5
5B
102
{ACAD_REACTORS
330
47
102
}
330
47
100
AcDbScale
 70
     0
300
1/32" = 1'-0"
140
0.03125
141
12.0
290
     0
  0
SCALE
  5
5C
102
{ACAD_REACTORS
330
47
102
}
330
47
100
AcDbScale
 70
     0
300
1/16" = 1'-0"
140
0.0625
141
12.0
290
     0
  0
SCALE
  5
5D
102
{ACAD_REACTORS
330
47
102
}
330
47
100
AcDbScale
 70
     0
300
3/32" = 1'-0"
140
0.09375
141
12.0
290
     0
  0
SCALE
  5
5E
102
{ACAD_REACTORS
330
47
102
}
330
47
100
AcDbScale
 70
     0
300
1/8" = 1'-0"
140
0.125
141
12.0
290
     0
  0
SCALE
  5
5F
102
{ACAD_REACTORS
330
47
102
}
330
47
100
AcDbScale
 70
     0
300
3/16" = 1'-0"
140
0.1875
141
12.0
290
     0
  0
SCALE
  5
60
102
{ACAD_REACTORS
330
47
102
}
330
47
100
AcDbScale
 70
     0
300
1/4" = 1'-0"
140
0.25
141
12.0
290
     0
  0
SCALE
  5
61
102
{ACAD_REACTORS
330
47
102
}
330
47
100
AcDbScale
 70
     0
300
3/8" = 1'-0"
140
0.375
141
12.0
290
     0
  0
SCALE
  5
62
102
{ACAD_REACTORS
330
47
102
}
330
47
100
AcDbScale
 70
     0
300
1/2" = 1'-0"
140
0.5
141
12.0
290
     0
  0
SCALE
  5
63
102
{ACAD_REACTORS
330
47
102
}
330
47
100
AcDbScale
 70
     0
300
3/4" = 1'-0"
140
0.75
141
12.0
290
     0
  0
SCALE
  5
64
102
{ACAD_REACTORS
330
47
102
}
330
47
100
AcDbScale
 70
     0
300
1" = 1'-0"
140
1.0
141
12.0
290
     0
  0
SCALE
  5
65
102
{ACAD_REACTORS
330
47
102
}
330
47
100
AcDbScale
 70
     0
300
1-1/2" = 1'-0"
140
1.5
141
12.0
290
     0
  0
SCALE
  5
66
102
{ACAD_REACTORS
330
47
102
}
330
47
100
AcDbScale
 70
     0
300
3" = 1'-0"
140
3.0
141
12.0
290
     0
  0
SCALE
  5
67
102
{ACAD_REACTORS
330
47
102
}
330
47
100
AcDbScale
 70
     0
300
6" = 1'-0"
140
6.0
141
12.0
290
     0
  0
SCALE
  5
68
102
{ACAD_REACTORS
330
47
102
}
330
47
100
AcDbScale
 70
     0
300
1'-0" = 1'-0"
140
12.0
141
12.0
290
     0
  0
ENDSEC
  0
EOF
