999
DXF file: C:\Users\suzanne.stasiak\OneDrive - qsc.com\Desktop\fg-901507-2d-B-1-OF-2.dxf
999
Pro/ENGINEER 2022014 by Parametric Technology Corporation
  0
SECTION
  2
HEADER
  9
$ACADVER
  1
AC1015
  9
$DWGCODEPAGE
  3
ANSI_1252
  9
$EXTMAX
 10
1727.2
 20
1117.6
 30
0.0
  9
$EXTMIN
 10
0.0
 20
0.0
 30
0.0
  9
$LIMMIN
 10
0.0
 20
0.0
  9
$LIMMAX
 10
1727.2
 20
1117.6
  9
$VIEWCTR
 10
863.6
 20
558.8
  9
$VIEWSIZE
 40
1117.6
  9
$CLAYER
  8
0
  9
$LTSCALE
 40
94.996
  9
$CELTYPE
  6
BYLAYER
  9
$DIMSCALE
 40
1.0
  9
$DIMASZ
 40
8.0
  9
$DIMEXO
 40
1.5875
  9
$DIMDLI
 40
65.6336
  9
$DIMEXE
 40
3.175
  9
$DIMCEN
 40
15.5448
  9
$DIMLFAC
 40
1.0
  9
$DIMBLK
  1
_FILLED
  9
$DIMALT
 70
1
  9
$DIMALTD
 70
1
  9
$DIMALTTD
 70
2
  9
$DIMALTF
 40
0.0393700787
  9
$DIMTXT
 40
9.144
  9
$DIMTOL
 70
1
  9
$DIMLIM
 70
0
  9
$DIMTFAC
 40
1.0
  9
$DIMTP
 40
0.01
  9
$DIMTM
 40
0.01
  9
$DIMGAP
 40
0.625
  9
$DIMDSEP
 70
46
  9
$AUNITS
 70
0
  9
$PDMODE
 70
3
  9
$PDSIZE
 40
7.9375
  9
$HANDSEED
  5
757
  9
$TILEMODE
 70
1
  9
$MEASUREMENT
 70
1
  9
$INSUNITS
 70
4
  0
ENDSEC
  0
SECTION
  2
CLASSES
  0
CLASS
  1
ACDBDICTIONARYWDFLT
  2
AcDbDictionaryWithDefault
  3
AutoCAD 2000
 90
0
280
0
281
0
  0
CLASS
  1
ACDBPLACEHOLDER
  2
AcDbPlaceHolder
  3
AutoCAD 2000
 90
0
280
0
281
0
  0
CLASS
  1
LAYOUT
  2
AcDbLayout
  3
AutoCAD 2000
 90
0
280
0
281
0
  0
ENDSEC
  0
SECTION
  2
TABLES
  0
TABLE
  2
VPORT
  5
8
100
AcDbSymbolTable
 70
2
  0
VPORT
  5
1F4
100
AcDbSymbolTableRecord
100
AcDbViewportTableRecord
  2
*ACTIVE
 70
0
 10
0.0
 20
0.0
 11
1.0
 21
1.0
 12
863.6
 22
558.8
 13
0.0
 23
0.0
 14
1.0
 24
1.0
 15
0.0
 25
0.0
 16
0.0
 26
0.0
 36
1.0
 17
0.0
 27
0.0
 37
0.0
 40
1117.6
 41
1.5454545455
 42
50.0
 43
0.0
 44
0.0
 50
0.0
 51
0.0
 71
0
 72
100
 73
1
 74
1
 75
0
 76
0
 77
0
 78
0
  0
ENDTAB
  0
TABLE
  2
LTYPE
  5
5
100
AcDbSymbolTable
 70
6
  0
LTYPE
  5
14
100
AcDbSymbolTableRecord
100
AcDbLinetypeTableRecord
  2
BYBLOCK
 70
0
  3

 72
65
 73
0
 40
0.0
  0
LTYPE
  5
15
100
AcDbSymbolTableRecord
100
AcDbLinetypeTableRecord
  2
BYLAYER
 70
0
  3

 72
65
 73
0
 40
0.0
  0
LTYPE
  5
16
100
AcDbSymbolTableRecord
100
AcDbLinetypeTableRecord
  2
CONTINUOUS
 70
64
  3
Solid line
 72
65
 73
0
 40
0.0
  0
LTYPE
  5
1F5
100
AcDbSymbolTableRecord
100
AcDbLinetypeTableRecord
  2
CENTER
 70
64
  3
____ _ ____ _ ____ _ ____ _ ____ _ ____ _ ____
 72
65
 73
4
 40
0.6
 49
0.375
 74
0
 49
-0.075
 74
0
 49
0.075
 74
0
 49
-0.075
 74
0
  0
LTYPE
  5
1F6
100
AcDbSymbolTableRecord
100
AcDbLinetypeTableRecord
  2
HIDDEN
 70
64
  3
- - - - - - - - - - - - - - - - - - - -
 72
65
 73
2
 40
0.2
 49
0.1
 74
0
 49
-0.1
 74
0
  0
LTYPE
  5
1F7
100
AcDbSymbolTableRecord
100
AcDbLinetypeTableRecord
  2
PHANTOM
 70
64
  3
_____ _ _ _____ _ _ _____ _ _ _____
 72
65
 73
6
 40
0.8
 49
0.45
 74
0
 49
-0.05
 74
0
 49
0.1
 74
0
 49
-0.05
 74
0
 49
0.1
 74
0
 49
-0.05
 74
0
  0
LTYPE
  5
1F8
100
AcDbSymbolTableRecord
100
AcDbLinetypeTableRecord
  2
DOT
 70
64
  3
. . . . . . . . . . . . . . . . . . . .
 72
65
 73
2
 40
0.2
 49
0.1
 74
0
 49
-0.1
 74
0
  0
LTYPE
  5
1F9
100
AcDbSymbolTableRecord
100
AcDbLinetypeTableRecord
  2
DASHED
 70
64
  3
- - - - - - - - - - - - - - - - - - - -
 72
65
 73
2
 40
0.2
 49
0.1
 74
0
 49
-0.1
 74
0
  0
ENDTAB
  0
TABLE
  2
LAYER
  5
2
100
AcDbSymbolTable
 70
36
  0
LAYER
  5
10
100
AcDbSymbolTableRecord
100
AcDbLayerTableRecord
  2
0
 70
0
 62
7
  6
CONTINUOUS
370
-3
390
F
  0
LAYER
  5
1FA
100
AcDbSymbolTableRecord
100
AcDbLayerTableRecord
  2
DEFAULT_1
 70
0
 62
7
  6
CENTER
370
-3
390
F
  0
LAYER
  5
1FB
100
AcDbSymbolTableRecord
100
AcDbLayerTableRecord
  2
DEFAULT_2
 70
0
 62
8
  6
HIDDEN
370
-3
390
F
  0
LAYER
  5
1FC
100
AcDbSymbolTableRecord
100
AcDbLayerTableRecord
  2
DEFAULT_3
 70
0
 62
7
  6
PHANTOM
370
-3
390
F
  0
LAYER
  5
1FD
100
AcDbSymbolTableRecord
100
AcDbLayerTableRecord
  2
01___PRT_ALL_DTM_PLN
 70
0
 62
7
  6
CONTINUOUS
370
-3
390
F
  0
LAYER
  5
1FE
100
AcDbSymbolTableRecord
100
AcDbLayerTableRecord
  2
01___PRT_DEF_DTM_PLN
 70
0
 62
7
  6
CONTINUOUS
370
-3
390
F
  0
LAYER
  5
1FF
100
AcDbSymbolTableRecord
100
AcDbLayerTableRecord
  2
02___PRT_ALL_AXES
 70
0
 62
7
  6
CONTINUOUS
370
-3
390
F
  0
LAYER
  5
200
100
AcDbSymbolTableRecord
100
AcDbLayerTableRecord
  2
03___PRT_ALL_CURVES
 70
0
 62
7
  6
CONTINUOUS
370
-3
390
F
  0
LAYER
  5
201
100
AcDbSymbolTableRecord
100
AcDbLayerTableRecord
  2
04___PRT_ALL_DTM_PNT
 70
0
 62
7
  6
CONTINUOUS
370
-3
390
F
  0
LAYER
  5
202
100
AcDbSymbolTableRecord
100
AcDbLayerTableRecord
  2
05___PRT_ALL_DTM_CSYS
 70
0
 62
7
  6
CONTINUOUS
370
-3
390
F
  0
LAYER
  5
203
100
AcDbSymbolTableRecord
100
AcDbLayerTableRecord
  2
05___PRT_DEF_DTM_CSYS
 70
0
 62
7
  6
CONTINUOUS
370
-3
390
F
  0
LAYER
  5
204
100
AcDbSymbolTableRecord
100
AcDbLayerTableRecord
  2
06___PRT_ALL_SURFS
 70
0
 62
7
  6
CONTINUOUS
370
-3
390
F
  0
ENDTAB
  0
TABLE
  2
STYLE
  5
3
100
AcDbSymbolTable
 70
1
  0
STYLE
  5
11
100
AcDbSymbolTableRecord
100
AcDbTextStyleTableRecord
  2
STANDARD
 70
0
 40
0.0
 41
1.0
 50
0.0
 71
0
 42
0.2
  3
gothic.ttf
  4

1001
ACAD
1000
Century Gothic
1071
34
  0
STYLE
  5
205
100
AcDbSymbolTableRecord
100
AcDbTextStyleTableRecord
  2
TEXTSTYLE_1
 70
0
 40
0.0
 41
0.8
 50
0.0
 71
0
 42
0.2
  3
gdt
  4

  0
STYLE
  5
206
100
AcDbSymbolTableRecord
100
AcDbTextStyleTableRecord
  2
TEXTSTYLE_2
 70
0
 40
0.0
 41
1.0
 50
0.0
 71
0
 42
0.2
  3
gothic.ttf
  4

1001
ACAD
1000
Century Gothic
1071
34
  0
STYLE
  5
207
100
AcDbSymbolTableRecord
100
AcDbTextStyleTableRecord
  2
TEXTSTYLE_3
 70
0
 40
0.0
 41
0.8
 50
0.0
 71
0
 42
0.2
  3
txt
  4

  0
STYLE
  5
208
100
AcDbSymbolTableRecord
100
AcDbTextStyleTableRecord
  2
TEXTSTYLE_4
 70
0
 40
0.0
 41
1.0
 50
0.0
 71
0
 42
0.2
  3
gdt
  4

  0
ENDTAB
  0
TABLE
  2
VIEW
  5
6
100
AcDbSymbolTable
 70
0
  0
ENDTAB
  0
TABLE
  2
UCS
  5
7
100
AcDbSymbolTable
 70
0
  0
ENDTAB
  0
TABLE
  2
APPID
  5
9
100
AcDbSymbolTable
 70
1
  0
APPID
  5
209
100
AcDbSymbolTableRecord
100
AcDbRegAppTableRecord
  2
ACAD
 70
0
  0
ENDTAB
  0
TABLE
  2
BLOCK_RECORD
  5
1
100
AcDbSymbolTable
 70
0
  0
BLOCK_RECORD
  5
20A
100
AcDbSymbolTableRecord
100
AcDbBlockTableRecord
  2
*Model_Space
  0
BLOCK_RECORD
  5
20B
100
AcDbSymbolTableRecord
100
AcDbBlockTableRecord
  2
*Paper_Space
  0
BLOCK_RECORD
  5
20C
100
AcDbSymbolTableRecord
100
AcDbBlockTableRecord
  2
_FILLED
  0
BLOCK_RECORD
  5
20D
100
AcDbSymbolTableRecord
100
AcDbBlockTableRecord
  2
_DOT
  0
BLOCK_RECORD
  5
20E
100
AcDbSymbolTableRecord
100
AcDbBlockTableRecord
  2
*D0
  0
BLOCK_RECORD
  5
20F
100
AcDbSymbolTableRecord
100
AcDbBlockTableRecord
  2
*D1
  0
BLOCK_RECORD
  5
210
100
AcDbSymbolTableRecord
100
AcDbBlockTableRecord
  2
*D2
  0
BLOCK_RECORD
  5
211
100
AcDbSymbolTableRecord
100
AcDbBlockTableRecord
  2
*D3
  0
BLOCK_RECORD
  5
212
100
AcDbSymbolTableRecord
100
AcDbBlockTableRecord
  2
*D4
  0
BLOCK_RECORD
  5
213
100
AcDbSymbolTableRecord
100
AcDbBlockTableRecord
  2
*D5
  0
BLOCK_RECORD
  5
214
100
AcDbSymbolTableRecord
100
AcDbBlockTableRecord
  2
*D6
  0
BLOCK_RECORD
  5
215
100
AcDbSymbolTableRecord
100
AcDbBlockTableRecord
  2
*D7
  0
BLOCK_RECORD
  5
216
100
AcDbSymbolTableRecord
100
AcDbBlockTableRecord
  2
*D8
  0
BLOCK_RECORD
  5
217
100
AcDbSymbolTableRecord
100
AcDbBlockTableRecord
  2
*D9
  0
BLOCK_RECORD
  5
218
100
AcDbSymbolTableRecord
100
AcDbBlockTableRecord
  2
*D10
  0
BLOCK_RECORD
  5
219
100
AcDbSymbolTableRecord
100
AcDbBlockTableRecord
  2
*D11
  0
BLOCK_RECORD
  5
21A
100
AcDbSymbolTableRecord
100
AcDbBlockTableRecord
  2
*D12
  0
BLOCK_RECORD
  5
21B
100
AcDbSymbolTableRecord
100
AcDbBlockTableRecord
  2
*D13
  0
BLOCK_RECORD
  5
21C
100
AcDbSymbolTableRecord
100
AcDbBlockTableRecord
  2
CG_BL2
  0
BLOCK_RECORD
  5
21D
100
AcDbSymbolTableRecord
100
AcDbBlockTableRecord
  2
CG_BL1
  0
BLOCK_RECORD
  5
21E
100
AcDbSymbolTableRecord
100
AcDbBlockTableRecord
  2
CG_BL0
  0
ENDTAB
  0
TABLE
  2
DIMSTYLE
  5
A
100
AcDbSymbolTable
 70
1
100
AcDbDimStyleTable
 71
0
  0
DIMSTYLE
105
21F
100
AcDbSymbolTableRecord
100
AcDbDimStyleTableRecord
  2
STANDARD
 70
0
  3

  4

 40
1.0
 41
8.0
 42
1.5875
 43
0.38
 44
3.175
 45
0.0
 46
0.0
 47
0.01
 48
0.01
140
9.144
141
0.09
142
0.0
143
0.0393700787
144
1.0
145
0.0
146
1.0
147
0.625
 71
1
 72
0
 73
1
 74
1
 75
0
 76
0
 77
0
 78
4
 79
1
170
1
171
1
172
0
173
0
174
0
175
0
176
0
177
0
178
0
270
2
179
2
271
2
272
2
273
2
274
2
275
0
280
0
281
0
282
0
283
1
284
4
285
0
286
0
287
3
288
0
340
11
278
46
341
20C
342
20C
343
20C
344
20C
  0
DIMSTYLE
105
220
100
AcDbSymbolTableRecord
100
AcDbDimStyleTableRecord
  2
DIMSTYLE_1
 70
0
  3

  4

 40
1.0
 41
8.0
 42
1.5875
 43
0.38
 44
3.175
 45
0.0
 46
0.0
 47
0.1
 48
0.1
140
9.144
141
0.09
142
0.0
143
0.0393700787
144
1.0
145
0.0
146
1.0
147
1.143
 71
0
 72
0
 73
1
 74
1
 75
0
 76
0
 77
0
 78
4
 79
1
170
1
171
2
172
0
173
0
174
0
175
0
176
0
177
0
178
0
270
2
179
2
271
1
272
1
273
2
274
-1
275
0
280
0
281
0
282
0
283
1
284
4
285
0
286
0
287
3
288
0
340
11
278
46
341
20C
342
20C
343
20C
344
20C
  0
DIMSTYLE
105
221
100
AcDbSymbolTableRecord
100
AcDbDimStyleTableRecord
  2
DIMSTYLE_2
 70
0
  3

  4

 40
1.0
 41
8.0
 42
1.5875
 43
0.38
 44
3.175
 45
0.0
 46
0.0
 47
0.1
 48
0.1
140
9.144
141
0.09
142
0.0
143
0.0393700787
144
1.0
145
0.0
146
1.0
147
1.143
 71
0
 72
0
 73
1
 74
1
 75
0
 76
0
 77
0
 78
4
 79
1
170
1
171
2
172
0
173
0
174
0
175
0
176
0
177
0
178
0
270
2
179
2
271
1
272
1
273
2
274
2
275
0
280
0
281
0
282
0
283
1
284
4
285
0
286
0
287
3
288
0
340
11
278
46
341
20C
342
20C
343
20C
344
20C
  0
DIMSTYLE
105
222
100
AcDbSymbolTableRecord
100
AcDbDimStyleTableRecord
  2
DIMSTYLE_3
 70
0
  3

  4

 40
1.0
 41
8.0
 42
1.5875
 43
0.38
 44
3.175
 45
0.0
 46
0.0
 47
0.01
 48
0.01
140
9.144
141
0.09
142
0.0
143
0.0393700787
144
1.0
145
0.0
146
1.0
147
1.143
 71
0
 72
0
 73
1
 74
1
 75
0
 76
0
 77
0
 78
4
 79
1
170
1
171
2
172
0
173
0
174
0
175
0
176
0
177
0
178
0
270
2
179
2
271
1
272
1
273
2
274
2
275
0
280
0
281
0
282
0
283
1
284
4
285
0
286
0
287
3
288
0
340
11
278
46
341
20C
342
20C
343
20C
344
20C
  0
ENDTAB
  0
ENDSEC
  0
SECTION
  2
BLOCKS
  0
BLOCK
  5
20
100
AcDbEntity
  8
0
100
AcDbBlockBegin
  2
*Model_Space
 70
0
 10
0.0
 20
0.0
 30
0.0
  3
*Model_Space
  1

  0
ENDBLK
  5
21
100
AcDbEntity
  8
0
100
AcDbBlockEnd
  0
BLOCK
  5
1C
100
AcDbEntity
  8
0
100
AcDbBlockBegin
  2
*Paper_Space
 70
0
 10
0.0
 20
0.0
 30
0.0
  3
*Paper_Space
  1

  0
ENDBLK
  5
1D
100
AcDbEntity
  8
0
100
AcDbBlockEnd
  0
BLOCK
  5
223
100
AcDbEntity
  8
0
100
AcDbBlockBegin
 62
2
  6
CONTINUOUS
  2
CG_BL2
 70
64
 10
497.0218051342
 20
601.788130564
  3
CG_BL2
  1

  0
ARC
  5
224
100
AcDbEntity
  8
0
100
AcDbCircle
 62
7
  6
CONTINUOUS
 10
497.0218051342
 20
601.788130564
 40
5.0
100
AcDbArc
 50
90.0
 51
180.0
  0
ARC
  5
225
100
AcDbEntity
  8
0
100
AcDbCircle
 62
7
  6
CONTINUOUS
 10
497.0218051342
 20
601.788130564
 40
5.0
100
AcDbArc
 50
180.0
 51
270.0
  0
ARC
  5
226
100
AcDbEntity
  8
0
100
AcDbCircle
 62
7
  6
CONTINUOUS
 10
497.0218051342
 20
601.788130564
 40
5.0
100
AcDbArc
 50
270.0
 51
360.0
  0
ARC
  5
227
100
AcDbEntity
  8
0
100
AcDbCircle
 62
7
  6
CONTINUOUS
 10
497.0218051342
 20
601.788130564
 40
5.0
100
AcDbArc
 50
0.0
 51
90.0
  0
LINE
  5
228
100
AcDbEntity
  8
0
100
AcDbLine
 62
7
  6
CONTINUOUS
 10
497.0218051342
 20
601.788130564
 11
502.0218051342
 21
601.788130564
  0
LINE
  5
229
100
AcDbEntity
  8
0
100
AcDbLine
 62
7
  6
CONTINUOUS
 10
497.0218051342
 20
601.788130564
 11
497.0218051342
 21
596.788130564
  0
LINE
  5
22A
100
AcDbEntity
  8
0
100
AcDbLine
 62
7
  6
CONTINUOUS
 10
492.0218051342
 20
601.788130564
 11
497.0218051342
 21
601.788130564
  0
LINE
  5
22B
100
AcDbEntity
  8
0
100
AcDbLine
 62
7
  6
CONTINUOUS
 10
497.0218051342
 20
606.788130564
 11
497.0218051342
 21
601.788130564
  0
LINE
  5
22C
100
AcDbEntity
  8
0
100
AcDbLine
 62
2
  6
CONTINUOUS
 10
497.0218051342
 20
601.7551772672
 11
497.054758431
 21
601.788130564
  0
LWPOLYLINE
  5
22D
100
AcDbEntity
  8
0
100
AcDbPolyline
 62
7
  6
CONTINUOUS
 90
8
 70
0
 10
497.0218051342
 20
601.788130564
 10
497.0218051342
 20
596.788130564
 10
498.566890106
 20
597.0328479825
 10
499.9607313956
 20
597.7430455921
 10
501.066890106
 20
598.8492043025
 10
501.7770877156
 20
600.2430455921
 10
502.0218051342
 20
601.788130564
 10
497.0218051342
 20
601.788130564
  0
HATCH
  5
22E
100
AcDbEntity
  8
0
100
AcDbHatch
 62
7
  6
CONTINUOUS
 10
0.0
 20
0.0
 30
0.0
210
0.0
220
0.0
230
1.0
  2
SOLID
 70
1
 71
1
 91
1
 92
1
 93
7
 72
1
 10
497.0218051342
 20
601.788130564
 11
497.0218051342
 21
596.788130564
 72
1
 10
497.0218051342
 20
596.788130564
 11
498.566890106
 21
597.0328479825
 72
1
 10
498.566890106
 20
597.0328479825
 11
499.9607313956
 21
597.7430455921
 72
1
 10
499.9607313956
 20
597.7430455921
 11
501.066890106
 21
598.8492043025
 72
1
 10
501.066890106
 20
598.8492043025
 11
501.7770877156
 21
600.2430455921
 72
1
 10
501.7770877156
 20
600.2430455921
 11
502.0218051342
 21
601.788130564
 72
1
 10
502.0218051342
 20
601.788130564
 11
497.0218051342
 21
601.788130564
 97
1
330
22D
 75
0
 76
1
 98
1
 10
0.0
 20
0.0
  0
LWPOLYLINE
  5
22F
100
AcDbEntity
  8
0
100
AcDbPolyline
 62
7
  6
CONTINUOUS
 90
8
 70
0
 10
497.0218051342
 20
601.788130564
 10
492.0218051342
 20
601.788130564
 10
492.2665225527
 20
603.3332155359
 10
492.9767201623
 20
604.7270568254
 10
494.0828788727
 20
605.8332155359
 10
495.4767201623
 20
606.5434131455
 10
497.0218051342
 20
606.788130564
 10
497.0218051342
 20
601.788130564
  0
HATCH
  5
230
100
AcDbEntity
  8
0
100
AcDbHatch
 62
7
  6
CONTINUOUS
 10
0.0
 20
0.0
 30
0.0
210
0.0
220
0.0
230
1.0
  2
SOLID
 70
1
 71
1
 91
1
 92
1
 93
7
 72
1
 10
497.0218051342
 20
601.788130564
 11
492.0218051342
 21
601.788130564
 72
1
 10
492.0218051342
 20
601.788130564
 11
492.2665225527
 21
603.3332155359
 72
1
 10
492.2665225527
 20
603.3332155359
 11
492.9767201623
 21
604.7270568254
 72
1
 10
492.9767201623
 20
604.7270568254
 11
494.0828788727
 21
605.8332155359
 72
1
 10
494.0828788727
 20
605.8332155359
 11
495.4767201623
 21
606.5434131455
 72
1
 10
495.4767201623
 20
606.5434131455
 11
497.0218051342
 21
606.788130564
 72
1
 10
497.0218051342
 20
606.788130564
 11
497.0218051342
 21
601.788130564
 97
1
330
22F
 75
0
 76
1
 98
1
 10
0.0
 20
0.0
  0
ENDBLK
  5
231
100
AcDbEntity
  8
0
  6
BYBLOCK
 62
0
100
AcDbBlockEnd
  0
BLOCK
  5
232
100
AcDbEntity
  8
0
100
AcDbBlockBegin
 62
2
  6
CONTINUOUS
  2
CG_BL1
 70
64
 10
497.0182001209
 20
354.3732845302
  3
CG_BL1
  1

  0
ARC
  5
233
100
AcDbEntity
  8
0
100
AcDbCircle
 62
7
  6
CONTINUOUS
 10
497.0182001209
 20
354.3732845302
 40
5.0
100
AcDbArc
 50
90.0
 51
180.0
  0
ARC
  5
234
100
AcDbEntity
  8
0
100
AcDbCircle
 62
7
  6
CONTINUOUS
 10
497.0182001209
 20
354.3732845302
 40
5.0
100
AcDbArc
 50
180.0
 51
270.0
  0
ARC
  5
235
100
AcDbEntity
  8
0
100
AcDbCircle
 62
7
  6
CONTINUOUS
 10
497.0182001209
 20
354.3732845302
 40
5.0
100
AcDbArc
 50
270.0
 51
360.0
  0
ARC
  5
236
100
AcDbEntity
  8
0
100
AcDbCircle
 62
7
  6
CONTINUOUS
 10
497.0182001209
 20
354.3732845302
 40
5.0
100
AcDbArc
 50
0.0
 51
90.0
  0
LINE
  5
237
100
AcDbEntity
  8
0
100
AcDbLine
 62
7
  6
CONTINUOUS
 10
497.0182001209
 20
354.3732845302
 11
502.0182001209
 21
354.3732845302
  0
LINE
  5
238
100
AcDbEntity
  8
0
100
AcDbLine
 62
7
  6
CONTINUOUS
 10
497.0182001209
 20
354.3732845302
 11
497.0182001209
 21
349.3732845302
  0
LINE
  5
239
100
AcDbEntity
  8
0
100
AcDbLine
 62
7
  6
CONTINUOUS
 10
492.0182001209
 20
354.3732845302
 11
497.0182001209
 21
354.3732845302
  0
LINE
  5
23A
100
AcDbEntity
  8
0
100
AcDbLine
 62
7
  6
CONTINUOUS
 10
497.0182001209
 20
359.3732845302
 11
497.0182001209
 21
354.3732845302
  0
LINE
  5
23B
100
AcDbEntity
  8
0
100
AcDbLine
 62
2
  6
CONTINUOUS
 10
497.0182001209
 20
354.3403312334
 11
497.0511534177
 21
354.3732845302
  0
LWPOLYLINE
  5
23C
100
AcDbEntity
  8
0
100
AcDbPolyline
 62
7
  6
CONTINUOUS
 90
8
 70
0
 10
497.0182001209
 20
354.3732845302
 10
497.0182001209
 20
349.3732845302
 10
498.5632850928
 20
349.6180019487
 10
499.9571263824
 20
350.3281995583
 10
501.0632850928
 20
351.4343582687
 10
501.7734827024
 20
352.8281995583
 10
502.0182001209
 20
354.3732845302
 10
497.0182001209
 20
354.3732845302
  0
HATCH
  5
23D
100
AcDbEntity
  8
0
100
AcDbHatch
 62
7
  6
CONTINUOUS
 10
0.0
 20
0.0
 30
0.0
210
0.0
220
0.0
230
1.0
  2
SOLID
 70
1
 71
1
 91
1
 92
1
 93
7
 72
1
 10
497.0182001209
 20
354.3732845302
 11
497.0182001209
 21
349.3732845302
 72
1
 10
497.0182001209
 20
349.3732845302
 11
498.5632850928
 21
349.6180019487
 72
1
 10
498.5632850928
 20
349.6180019487
 11
499.9571263824
 21
350.3281995583
 72
1
 10
499.9571263824
 20
350.3281995583
 11
501.0632850928
 21
351.4343582687
 72
1
 10
501.0632850928
 20
351.4343582687
 11
501.7734827024
 21
352.8281995583
 72
1
 10
501.7734827024
 20
352.8281995583
 11
502.0182001209
 21
354.3732845302
 72
1
 10
502.0182001209
 20
354.3732845302
 11
497.0182001209
 21
354.3732845302
 97
1
330
23C
 75
0
 76
1
 98
1
 10
0.0
 20
0.0
  0
LWPOLYLINE
  5
23E
100
AcDbEntity
  8
0
100
AcDbPolyline
 62
7
  6
CONTINUOUS
 90
8
 70
0
 10
497.0182001209
 20
354.3732845302
 10
492.0182001209
 20
354.3732845302
 10
492.2629175394
 20
355.9183695021
 10
492.973115149
 20
357.3122107917
 10
494.0792738594
 20
358.4183695021
 10
495.473115149
 20
359.1285671117
 10
497.0182001209
 20
359.3732845302
 10
497.0182001209
 20
354.3732845302
  0
HATCH
  5
23F
100
AcDbEntity
  8
0
100
AcDbHatch
 62
7
  6
CONTINUOUS
 10
0.0
 20
0.0
 30
0.0
210
0.0
220
0.0
230
1.0
  2
SOLID
 70
1
 71
1
 91
1
 92
1
 93
7
 72
1
 10
497.0182001209
 20
354.3732845302
 11
492.0182001209
 21
354.3732845302
 72
1
 10
492.0182001209
 20
354.3732845302
 11
492.2629175394
 21
355.9183695021
 72
1
 10
492.2629175394
 20
355.9183695021
 11
492.973115149
 21
357.3122107917
 72
1
 10
492.973115149
 20
357.3122107917
 11
494.0792738594
 21
358.4183695021
 72
1
 10
494.0792738594
 20
358.4183695021
 11
495.473115149
 21
359.1285671117
 72
1
 10
495.473115149
 20
359.1285671117
 11
497.0182001209
 21
359.3732845302
 72
1
 10
497.0182001209
 20
359.3732845302
 11
497.0182001209
 21
354.3732845302
 97
1
330
23E
 75
0
 76
1
 98
1
 10
0.0
 20
0.0
  0
ENDBLK
  5
240
100
AcDbEntity
  8
0
  6
BYBLOCK
 62
0
100
AcDbBlockEnd
  0
BLOCK
  5
241
100
AcDbEntity
  8
0
100
AcDbBlockBegin
 62
2
  6
CONTINUOUS
  2
CG_BL0
 70
64
 10
117.2345836095
 20
953.8345962173
  3
CG_BL0
  1

  0
ARC
  5
242
100
AcDbEntity
  8
0
100
AcDbCircle
 62
7
  6
CONTINUOUS
 10
117.2345836095
 20
953.8345962173
 40
5.0
100
AcDbArc
 50
90.0
 51
180.0
  0
ARC
  5
243
100
AcDbEntity
  8
0
100
AcDbCircle
 62
7
  6
CONTINUOUS
 10
117.2345836095
 20
953.8345962173
 40
5.0
100
AcDbArc
 50
180.0
 51
270.0
  0
ARC
  5
244
100
AcDbEntity
  8
0
100
AcDbCircle
 62
7
  6
CONTINUOUS
 10
117.2345836095
 20
953.8345962173
 40
5.0
100
AcDbArc
 50
270.0
 51
360.0
  0
ARC
  5
245
100
AcDbEntity
  8
0
100
AcDbCircle
 62
7
  6
CONTINUOUS
 10
117.2345836095
 20
953.8345962173
 40
5.0
100
AcDbArc
 50
0.0
 51
90.0
  0
LINE
  5
246
100
AcDbEntity
  8
0
100
AcDbLine
 62
7
  6
CONTINUOUS
 10
117.2345836095
 20
953.8345962173
 11
122.2345836095
 21
953.8345962173
  0
LINE
  5
247
100
AcDbEntity
  8
0
100
AcDbLine
 62
7
  6
CONTINUOUS
 10
117.2345836095
 20
953.8345962173
 11
117.2345836095
 21
948.8345962173
  0
LINE
  5
248
100
AcDbEntity
  8
0
100
AcDbLine
 62
7
  6
CONTINUOUS
 10
112.2345836095
 20
953.8345962173
 11
117.2345836095
 21
953.8345962173
  0
LINE
  5
249
100
AcDbEntity
  8
0
100
AcDbLine
 62
7
  6
CONTINUOUS
 10
117.2345836095
 20
958.8345962173
 11
117.2345836095
 21
953.8345962173
  0
LINE
  5
24A
100
AcDbEntity
  8
0
100
AcDbLine
 62
2
  6
CONTINUOUS
 10
117.2345836095
 20
953.8016429205
 11
117.2675369063
 21
953.8345962173
  0
LWPOLYLINE
  5
24B
100
AcDbEntity
  8
0
100
AcDbPolyline
 62
7
  6
CONTINUOUS
 90
8
 70
0
 10
117.2345836095
 20
953.8345962173
 10
117.2345836095
 20
948.8345962173
 10
118.7796685814
 20
949.0793136358
 10
120.173509871
 20
949.7895112454
 10
121.2796685814
 20
950.8956699558
 10
121.989866191
 20
952.2895112454
 10
122.2345836095
 20
953.8345962173
 10
117.2345836095
 20
953.8345962173
  0
HATCH
  5
24C
100
AcDbEntity
  8
0
100
AcDbHatch
 62
7
  6
CONTINUOUS
 10
0.0
 20
0.0
 30
0.0
210
0.0
220
0.0
230
1.0
  2
SOLID
 70
1
 71
1
 91
1
 92
1
 93
7
 72
1
 10
117.2345836095
 20
953.8345962173
 11
117.2345836095
 21
948.8345962173
 72
1
 10
117.2345836095
 20
948.8345962173
 11
118.7796685814
 21
949.0793136358
 72
1
 10
118.7796685814
 20
949.0793136358
 11
120.173509871
 21
949.7895112454
 72
1
 10
120.173509871
 20
949.7895112454
 11
121.2796685814
 21
950.8956699558
 72
1
 10
121.2796685814
 20
950.8956699558
 11
121.989866191
 21
952.2895112454
 72
1
 10
121.989866191
 20
952.2895112454
 11
122.2345836095
 21
953.8345962173
 72
1
 10
122.2345836095
 20
953.8345962173
 11
117.2345836095
 21
953.8345962173
 97
1
330
24B
 75
0
 76
1
 98
1
 10
0.0
 20
0.0
  0
LWPOLYLINE
  5
24D
100
AcDbEntity
  8
0
100
AcDbPolyline
 62
7
  6
CONTINUOUS
 90
8
 70
0
 10
117.2345836095
 20
953.8345962173
 10
112.2345836095
 20
953.8345962173
 10
112.4793010281
 20
955.3796811892
 10
113.1894986377
 20
956.7735224788
 10
114.2956573481
 20
957.8796811892
 10
115.6894986377
 20
958.5898787988
 10
117.2345836095
 20
958.8345962173
 10
117.2345836095
 20
953.8345962173
  0
HATCH
  5
24E
100
AcDbEntity
  8
0
100
AcDbHatch
 62
7
  6
CONTINUOUS
 10
0.0
 20
0.0
 30
0.0
210
0.0
220
0.0
230
1.0
  2
SOLID
 70
1
 71
1
 91
1
 92
1
 93
7
 72
1
 10
117.2345836095
 20
953.8345962173
 11
112.2345836095
 21
953.8345962173
 72
1
 10
112.2345836095
 20
953.8345962173
 11
112.4793010281
 21
955.3796811892
 72
1
 10
112.4793010281
 20
955.3796811892
 11
113.1894986377
 21
956.7735224788
 72
1
 10
113.1894986377
 20
956.7735224788
 11
114.2956573481
 21
957.8796811892
 72
1
 10
114.2956573481
 20
957.8796811892
 11
115.6894986377
 21
958.5898787988
 72
1
 10
115.6894986377
 20
958.5898787988
 11
117.2345836095
 21
958.8345962173
 72
1
 10
117.2345836095
 20
958.8345962173
 11
117.2345836095
 21
953.8345962173
 97
1
330
24D
 75
0
 76
1
 98
1
 10
0.0
 20
0.0
  0
ENDBLK
  5
24F
100
AcDbEntity
  8
0
  6
BYBLOCK
 62
0
100
AcDbBlockEnd
  0
BLOCK
  5
250
100
AcDbEntity
  8
0
100
AcDbBlockBegin
  2
_FILLED
 70
64
 10
0.0
 20
0.0
  3
_FILLED
  1

  0
SOLID
  5
251
100
AcDbEntity
  8
0
  6
BYBLOCK
 62
0
100
AcDbTrace
 10
0.0
 20
0.0
 11
-1.0
 21
0.1275
 12
-1.0
 22
-0.1275
 13
-1.0
 23
-0.1275
  0
ENDBLK
  5
252
100
AcDbEntity
  8
0
  6
BYBLOCK
 62
0
100
AcDbBlockEnd
  0
BLOCK
  5
253
100
AcDbEntity
  8
0
100
AcDbBlockBegin
  2
_DOT
 70
64
 10
0.0
 20
0.0
  3
_DOT
  1

  0
LWPOLYLINE
  5
254
100
AcDbEntity
  8
0
  6
BYBLOCK
 62
0
100
AcDbPolyline
 90
2
 70
1
 43
0.1275
 10
-0.06375
 20
0.0
 42
1.0
 10
0.06375
 20
0.0
 42
1.0
  0
LINE
  5
255
100
AcDbEntity
  8
0
  6
BYBLOCK
 62
0
100
AcDbLine
 10
-0.1275
 20
0.0
 11
-1.0
 21
0.0
  0
ENDBLK
  5
256
100
AcDbEntity
  8
0
  6
BYBLOCK
 62
0
100
AcDbBlockEnd
  0
BLOCK
  5
257
100
AcDbEntity
  8
0
100
AcDbBlockBegin
 62
2
  6
CONTINUOUS
  2
*D0
 70
65
 10
0.0
 20
0.0
  3
*D0
  1

  0
MTEXT
  5
258
100
AcDbEntity
  8
0
100
AcDbMText
 62
2
  6
CONTINUOUS
  7
STANDARD
 71
2
 72
1
 10
170.4489299501
 20
612.4109741048
 30
0.0
 11
1.0
 21
0.0
 31
0.0
 73
2
 44
0.9
  1
73,0\P[2.87]
 40
9.144
 41
33.7206245353
  0
LINE
  5
259
100
AcDbEntity
  8
0
100
AcDbLine
 62
2
  6
CONTINUOUS
 10
219.6011740886
 20
644.3389741048
 11
162.2359485375
 21
644.3389741048
  0
LINE
  5
25A
100
AcDbEntity
  8
0
100
AcDbLine
 62
2
  6
CONTINUOUS
 10
209.5352779764
 20
571.3389741048
 11
162.2359485375
 21
571.3389741048
  0
LINE
  5
25B
100
AcDbEntity
  8
0
100
AcDbLine
 62
2
  6
CONTINUOUS
 10
174.9359485375
 20
644.3389741048
 11
174.9359485375
 21
616.9829741048
  0
LINE
  5
25C
100
AcDbEntity
  8
0
100
AcDbLine
 62
2
  6
CONTINUOUS
 10
174.9359485375
 20
571.3389741048
 11
174.9359485375
 21
584.9789741048
  0
INSERT
  5
25D
100
AcDbEntity
  8
0
100
AcDbBlockReference
 62
2
  6
CONTINUOUS
  2
_FILLED
 10
174.9359485375
 20
644.3389741048
 41
8.0
 42
8.0
 43
8.0
 50
90.0
  0
INSERT
  5
25E
100
AcDbEntity
  8
0
100
AcDbBlockReference
 62
2
  6
CONTINUOUS
  2
_FILLED
 10
174.9359485375
 20
571.3389741048
 41
8.0
 42
8.0
 43
8.0
 50
270.0
  0
ENDBLK
  5
25F
100
AcDbEntity
  8
0
  6
BYBLOCK
 62
0
100
AcDbBlockEnd
  0
BLOCK
  5
260
100
AcDbEntity
  8
0
100
AcDbBlockBegin
 62
2
  6
CONTINUOUS
  2
*D1
 70
65
 10
0.0
 20
0.0
  3
*D1
  1

  0
MTEXT
  5
261
100
AcDbEntity
  8
0
100
AcDbMText
 62
2
  6
CONTINUOUS
  7
STANDARD
 71
2
 72
1
 10
126.4853507466
 20
617.5609741048
 30
0.0
 11
1.0
 21
0.0
 31
0.0
 73
2
 44
0.9
  1
83,3\P[3.28]
 40
9.144
 41
33.7206245353
  0
LINE
  5
262
100
AcDbEntity
  8
0
100
AcDbLine
 62
2
  6
CONTINUOUS
 10
247.3029782056
 20
654.6389741048
 11
118.2723693339
 21
654.6389741048
  0
LINE
  5
263
100
AcDbEntity
  8
0
100
AcDbLine
 62
2
  6
CONTINUOUS
 10
209.5352779764
 20
571.3389741048
 11
118.2723693339
 21
571.3389741048
  0
LINE
  5
264
100
AcDbEntity
  8
0
100
AcDbLine
 62
2
  6
CONTINUOUS
 10
130.9723693339
 20
654.6389741048
 11
130.9723693339
 21
622.1329741048
  0
LINE
  5
265
100
AcDbEntity
  8
0
100
AcDbLine
 62
2
  6
CONTINUOUS
 10
130.9723693339
 20
571.3389741048
 11
130.9723693339
 21
590.1289741048
  0
INSERT
  5
266
100
AcDbEntity
  8
0
100
AcDbBlockReference
 62
2
  6
CONTINUOUS
  2
_FILLED
 10
130.9723693339
 20
654.6389741048
 41
8.0
 42
8.0
 43
8.0
 50
90.0
  0
INSERT
  5
267
100
AcDbEntity
  8
0
100
AcDbBlockReference
 62
2
  6
CONTINUOUS
  2
_FILLED
 10
130.9723693339
 20
571.3389741048
 41
8.0
 42
8.0
 43
8.0
 50
270.0
  0
ENDBLK
  5
268
100
AcDbEntity
  8
0
  6
BYBLOCK
 62
0
100
AcDbBlockEnd
  0
BLOCK
  5
269
100
AcDbEntity
  8
0
100
AcDbBlockBegin
 62
2
  6
CONTINUOUS
  2
*D2
 70
65
 10
0.0
 20
0.0
  3
*D2
  1

  0
MTEXT
  5
26A
100
AcDbEntity
  8
0
100
AcDbMText
 62
2
  6
CONTINUOUS
  7
STANDARD
 71
2
 72
1
 10
468.4659596182
 20
444.8643846037
 30
0.0
 11
1.0
 21
0.0
 31
0.0
 73
2
 44
0.9
  1
518,1\P[20.40]
 40
9.144
 41
40.7910780669
  0
LINE
  5
26B
100
AcDbEntity
  8
0
100
AcDbLine
 62
2
  6
CONTINUOUS
 10
213.8932011671
 20
360.7239424941
 11
213.8932011671
 21
452.9923846037
  0
LINE
  5
26C
100
AcDbEntity
  8
0
100
AcDbLine
 62
2
  6
CONTINUOUS
 10
732.012755244
 20
360.7239540355
 11
732.012755244
 21
452.9923846037
  0
LINE
  5
26D
100
AcDbEntity
  8
0
100
AcDbLine
 62
2
  6
CONTINUOUS
 10
213.8932011671
 20
440.2923846037
 11
447.9854391721
 21
440.2923846037
  0
LINE
  5
26E
100
AcDbEntity
  8
0
100
AcDbLine
 62
2
  6
CONTINUOUS
 10
732.012755244
 20
440.2923846037
 11
497.920517239
 21
440.2923846037
  0
INSERT
  5
26F
100
AcDbEntity
  8
0
100
AcDbBlockReference
 62
2
  6
CONTINUOUS
  2
_FILLED
 10
213.8932011671
 20
440.2923846037
 41
8.0
 42
8.0
 43
8.0
 50
180.0
  0
INSERT
  5
270
100
AcDbEntity
  8
0
100
AcDbBlockReference
 62
2
  6
CONTINUOUS
  2
_FILLED
 10
732.012755244
 20
440.2923846037
 41
8.0
 42
8.0
 43
8.0
  0
ENDBLK
  5
271
100
AcDbEntity
  8
0
  6
BYBLOCK
 62
0
100
AcDbBlockEnd
  0
BLOCK
  5
272
100
AcDbEntity
  8
0
100
AcDbBlockBegin
 62
2
  6
CONTINUOUS
  2
*D3
 70
65
 10
0.0
 20
0.0
  3
*D3
  1

  0
MTEXT
  5
273
100
AcDbEntity
  8
0
100
AcDbMText
 62
2
  6
CONTINUOUS
  7
STANDARD
 71
2
 72
1
 10
134.3036026137
 20
365.8026215765
 30
0.0
 11
1.0
 21
0.0
 31
0.0
 73
2
 44
0.9
  1
101,2\P[3.99]
 40
9.144
 41
33.7206245353
  0
LINE
  5
274
100
AcDbEntity
  8
0
100
AcDbLine
 62
2
  6
CONTINUOUS
 10
219.801036582
 20
404.9897860618
 11
122.5553944352
 21
404.9897860617
  0
LINE
  5
275
100
AcDbEntity
  8
0
100
AcDbLine
 62
2
  6
CONTINUOUS
 10
219.8010365817
 20
303.7581104551
 11
122.5553944353
 21
303.758110455
  0
LINE
  5
276
100
AcDbEntity
  8
0
100
AcDbLine
 62
2
  6
CONTINUOUS
 10
135.2553944352
 20
404.9897860617
 11
135.2553944352
 21
370.3746215765
  0
LINE
  5
277
100
AcDbEntity
  8
0
100
AcDbLine
 62
2
  6
CONTINUOUS
 10
135.2553944353
 20
303.758110455
 11
135.2553944352
 21
338.3706215765
  0
INSERT
  5
278
100
AcDbEntity
  8
0
100
AcDbBlockReference
 62
2
  6
CONTINUOUS
  2
_FILLED
 10
135.2553944352
 20
404.9897860617
 41
8.0
 42
8.0
 43
8.0
 50
90.0
  0
INSERT
  5
279
100
AcDbEntity
  8
0
100
AcDbBlockReference
 62
2
  6
CONTINUOUS
  2
_FILLED
 10
135.2553944353
 20
303.758110455
 41
8.0
 42
8.0
 43
8.0
 50
270.0000000001
  0
ENDBLK
  5
27A
100
AcDbEntity
  8
0
  6
BYBLOCK
 62
0
100
AcDbBlockEnd
  0
BLOCK
  5
27B
100
AcDbEntity
  8
0
100
AcDbBlockBegin
 62
2
  6
CONTINUOUS
  2
*D4
 70
65
 10
0.0
 20
0.0
  3
*D4
  1

  0
MTEXT
  5
27C
100
AcDbEntity
  8
0
100
AcDbMText
 62
2
  6
CONTINUOUS
  7
STANDARD
 71
1
 72
1
 10
518.5635450799
 20
687.5807998045
 30
0.0
 11
1.0
 21
0.0
 31
0.0
 73
2
 44
0.9
  1
24,1\P[.95]
 40
9.144
 41
26.6501710037
  0
LINE
  5
27D
100
AcDbEntity
  8
0
100
AcDbLine
 62
2
  6
CONTINUOUS
 10
472.9529782099
 20
669.1296683758
 11
472.952978212
 21
695.708799808
  0
LINE
  5
27E
100
AcDbEntity
  8
0
100
AcDbLine
 62
2
  6
CONTINUOUS
 10
497.0229782061
 20
608.1389741048
 11
497.0229782128
 21
695.7087998061
  0
LINE
  5
27F
100
AcDbEntity
  8
0
100
AcDbLine
 62
2
  6
CONTINUOUS
 10
472.952978211
 20
683.008799808
 11
484.9879782114
 21
683.0087998071
  0
LINE
  5
280
100
AcDbEntity
  8
0
100
AcDbLine
 62
2
  6
CONTINUOUS
 10
497.0229782119
 20
683.0087998061
 11
484.9879782114
 21
683.0087998071
  0
LINE
  5
281
100
AcDbEntity
  8
0
100
AcDbLine
 62
2
  6
CONTINUOUS
 10
484.9879782114
 20
683.0087998071
 11
513.9915450799
 21
683.0087998071
  0
INSERT
  5
282
100
AcDbEntity
  8
0
100
AcDbBlockReference
 62
2
  6
CONTINUOUS
  2
_FILLED
 10
472.952978211
 20
683.008799808
 41
8.0
 42
8.0
 43
8.0
 50
179.9999999956
  0
INSERT
  5
283
100
AcDbEntity
  8
0
100
AcDbBlockReference
 62
2
  6
CONTINUOUS
  2
_FILLED
 10
497.0229782119
 20
683.0087998061
 41
8.0
 42
8.0
 43
8.0
 50
359.9999999956
  0
ENDBLK
  5
284
100
AcDbEntity
  8
0
  6
BYBLOCK
 62
0
100
AcDbBlockEnd
  0
BLOCK
  5
285
100
AcDbEntity
  8
0
100
AcDbBlockBegin
 62
2
  6
CONTINUOUS
  2
*D5
 70
65
 10
0.0
 20
0.0
  3
*D5
  1

  0
MTEXT
  5
286
100
AcDbEntity
  8
0
100
AcDbMText
 62
2
  6
CONTINUOUS
  7
STANDARD
 71
1
 72
1
 10
785.2439684181
 20
622.7994633738
 30
0.0
 11
1.0
 21
0.0
 31
0.0
 73
2
 44
0.9
  1
30,5\P[1.20]
 40
9.144
 41
33.7206245353
  0
LINE
  5
287
100
AcDbEntity
  8
0
100
AcDbLine
 62
2
  6
CONTINUOUS
 10
503.3729782056
 20
601.7889741048
 11
772.5439684181
 21
601.7889741048
  0
LINE
  5
288
100
AcDbEntity
  8
0
100
AcDbLine
 62
2
  6
CONTINUOUS
 10
736.3706784332
 20
571.3389741048
 11
772.5439684181
 21
571.3389741048
  0
LINE
  5
289
100
AcDbEntity
  8
0
100
AcDbLine
 62
2
  6
CONTINUOUS
 10
759.8439684181
 20
601.7889741048
 11
759.8439684181
 21
586.5639741048
  0
LINE
  5
28A
100
AcDbEntity
  8
0
100
AcDbLine
 62
2
  6
CONTINUOUS
 10
759.8439684181
 20
586.5639741048
 11
759.8439684181
 21
618.2274633738
  0
LINE
  5
28B
100
AcDbEntity
  8
0
100
AcDbLine
 62
2
  6
CONTINUOUS
 10
759.8439684181
 20
618.2274633738
 11
780.6719684181
 21
618.2274633738
  0
LINE
  5
28C
100
AcDbEntity
  8
0
100
AcDbLine
 62
2
  6
CONTINUOUS
 10
759.8439684181
 20
571.3389741048
 11
759.8439684181
 21
586.5639741048
  0
INSERT
  5
28D
100
AcDbEntity
  8
0
100
AcDbBlockReference
 62
2
  6
CONTINUOUS
  2
_FILLED
 10
759.8439684181
 20
601.7889741048
 41
8.0
 42
8.0
 43
8.0
 50
90.0
  0
INSERT
  5
28E
100
AcDbEntity
  8
0
100
AcDbBlockReference
 62
2
  6
CONTINUOUS
  2
_FILLED
 10
759.8439684181
 20
571.3389741048
 41
8.0
 42
8.0
 43
8.0
 50
270.0
  0
ENDBLK
  5
28F
100
AcDbEntity
  8
0
  6
BYBLOCK
 62
0
100
AcDbBlockEnd
  0
BLOCK
  5
290
100
AcDbEntity
  8
0
100
AcDbBlockBegin
 62
2
  6
CONTINUOUS
  2
*D6
 70
65
 10
0.0
 20
0.0
  3
*D6
  1

  0
MTEXT
  5
291
100
AcDbEntity
  8
0
100
AcDbMText
 62
2
  6
CONTINUOUS
  7
STANDARD
 71
3
 72
1
 10
1052.0537349415
 20
406.6977802952
 30
0.0
 11
1.0
 21
0.0
 31
0.0
 73
2
 44
0.9
  1
50,0{\ftxt;\W0.0001;\H0.0001;\~}{\ftxt;\W0.9814126394;\H9.144; } TYP\P[1.97]
 40
9.144
 41
57.7873605948
  0
LINE
  5
292
100
AcDbEntity
  8
0
100
AcDbLine
 62
2
  6
CONTINUOUS
 10
1176.1338769056
 20
379.3739482586
 11
1064.7537349415
 21
379.3739482586
  0
LINE
  5
293
100
AcDbEntity
  8
0
100
AcDbLine
 62
2
  6
CONTINUOUS
 10
1135.3650168603
 20
329.3739482586
 11
1064.7537349415
 21
329.3739482586
  0
LINE
  5
294
100
AcDbEntity
  8
0
100
AcDbLine
 62
2
  6
CONTINUOUS
 10
1077.4537349415
 20
379.3739482586
 11
1077.4537349415
 21
354.3739482586
  0
LINE
  5
295
100
AcDbEntity
  8
0
100
AcDbLine
 62
2
  6
CONTINUOUS
 10
1077.4537349415
 20
354.3739482586
 11
1077.4537349415
 21
402.1257802952
  0
LINE
  5
296
100
AcDbEntity
  8
0
100
AcDbLine
 62
2
  6
CONTINUOUS
 10
1077.4537349415
 20
402.1257802952
 11
1056.6257349415
 21
402.1257802952
  0
LINE
  5
297
100
AcDbEntity
  8
0
100
AcDbLine
 62
2
  6
CONTINUOUS
 10
1077.4537349415
 20
329.3739482586
 11
1077.4537349415
 21
354.3739482586
  0
INSERT
  5
298
100
AcDbEntity
  8
0
100
AcDbBlockReference
 62
2
  6
CONTINUOUS
  2
_FILLED
 10
1077.4537349415
 20
379.3739482586
 41
8.0
 42
8.0
 43
8.0
 50
90.0
  0
INSERT
  5
299
100
AcDbEntity
  8
0
100
AcDbBlockReference
 62
2
  6
CONTINUOUS
  2
_FILLED
 10
1077.4537349415
 20
329.3739482586
 41
8.0
 42
8.0
 43
8.0
 50
270.0
  0
ENDBLK
  5
29A
100
AcDbEntity
  8
0
  6
BYBLOCK
 62
0
100
AcDbBlockEnd
  0
BLOCK
  5
29B
100
AcDbEntity
  8
0
100
AcDbBlockBegin
 62
2
  6
CONTINUOUS
  2
*D7
 70
65
 10
0.0
 20
0.0
  3
*D7
  1

  0
MTEXT
  5
29C
100
AcDbEntity
  8
0
100
AcDbMText
 62
2
  6
CONTINUOUS
  7
STANDARD
 71
2
 72
1
 10
934.6820270747
 20
367.5167899062
 30
0.0
 11
1.0
 21
0.0
 31
0.0
 73
2
 44
0.9
  1
70,0\P[2.76]
 40
9.144
 41
33.7206245353
  0
LINE
  5
29D
100
AcDbEntity
  8
0
100
AcDbLine
 62
2
  6
CONTINUOUS
 10
915.694412472
 20
319.3739482586
 11
951.869045662
 21
319.3739482586
  0
LINE
  5
29E
100
AcDbEntity
  8
0
100
AcDbLine
 62
2
  6
CONTINUOUS
 10
915.694412472
 20
389.3739482586
 11
951.869045662
 21
389.3739482586
  0
LINE
  5
29F
100
AcDbEntity
  8
0
100
AcDbLine
 62
2
  6
CONTINUOUS
 10
939.169045662
 20
319.3739482586
 11
939.169045662
 21
340.0847899062
  0
LINE
  5
2A0
100
AcDbEntity
  8
0
100
AcDbLine
 62
2
  6
CONTINUOUS
 10
939.169045662
 20
389.3739482586
 11
939.169045662
 21
372.0887899062
  0
INSERT
  5
2A1
100
AcDbEntity
  8
0
100
AcDbBlockReference
 62
2
  6
CONTINUOUS
  2
_FILLED
 10
939.169045662
 20
319.3739482586
 41
8.0
 42
8.0
 43
8.0
 50
270.0
  0
INSERT
  5
2A2
100
AcDbEntity
  8
0
100
AcDbBlockReference
 62
2
  6
CONTINUOUS
  2
_FILLED
 10
939.169045662
 20
389.3739482586
 41
8.0
 42
8.0
 43
8.0
 50
90.0
  0
ENDBLK
  5
2A3
100
AcDbEntity
  8
0
  6
BYBLOCK
 62
0
100
AcDbBlockEnd
  0
BLOCK
  5
2A4
100
AcDbEntity
  8
0
100
AcDbBlockBegin
 62
2
  6
CONTINUOUS
  2
*D8
 70
65
 10
0.0
 20
0.0
  3
*D8
  1

  0
MTEXT
  5
2A5
100
AcDbEntity
  8
0
100
AcDbMText
 62
2
  6
CONTINUOUS
  7
STANDARD
 71
2
 72
1
 10
470.7159596182
 20
746.9023167627
 30
0.0
 11
1.0
 21
0.0
 31
0.0
 73
2
 44
0.9
  1
446,1\P[17.56]
 40
9.144
 41
40.7910780669
  0
LINE
  5
2A6
100
AcDbEntity
  8
0
100
AcDbLine
 62
2
  6
CONTINUOUS
 10
252.1529782056
 20
657.2389741048
 11
252.1529782056
 21
755.0303167627
  0
LINE
  5
2A7
100
AcDbEntity
  8
0
100
AcDbLine
 62
2
  6
CONTINUOUS
 10
698.2529782056
 20
656.2389741048
 11
698.2529782056
 21
755.0303167627
  0
LINE
  5
2A8
100
AcDbEntity
  8
0
100
AcDbLine
 62
2
  6
CONTINUOUS
 10
252.1529782056
 20
742.3303167627
 11
450.2354391721
 21
742.3303167627
  0
LINE
  5
2A9
100
AcDbEntity
  8
0
100
AcDbLine
 62
2
  6
CONTINUOUS
 10
698.2529782056
 20
742.3303167627
 11
500.170517239
 21
742.3303167627
  0
INSERT
  5
2AA
100
AcDbEntity
  8
0
100
AcDbBlockReference
 62
2
  6
CONTINUOUS
  2
_FILLED
 10
252.1529782056
 20
742.3303167627
 41
8.0
 42
8.0
 43
8.0
 50
180.0
  0
INSERT
  5
2AB
100
AcDbEntity
  8
0
100
AcDbBlockReference
 62
2
  6
CONTINUOUS
  2
_FILLED
 10
698.2529782056
 20
742.3303167627
 41
8.0
 42
8.0
 43
8.0
  0
ENDBLK
  5
2AC
100
AcDbEntity
  8
0
  6
BYBLOCK
 62
0
100
AcDbBlockEnd
  0
BLOCK
  5
2AD
100
AcDbEntity
  8
0
100
AcDbBlockBegin
 62
2
  6
CONTINUOUS
  2
*D9
 70
65
 10
0.0
 20
0.0
  3
*D9
  1

  0
MTEXT
  5
2AE
100
AcDbEntity
  8
0
100
AcDbMText
 62
2
  6
CONTINUOUS
  7
STANDARD
 71
2
 72
1
 10
1127.466969799
 20
446.3605762449
 30
0.0
 11
1.0
 21
0.0
 31
0.0
 73
2
 44
0.9
  1
83,1\P[3.27]
 40
9.144
 41
33.7206245353
  0
LINE
  5
2AF
100
AcDbEntity
  8
0
100
AcDbLine
 62
2
  6
CONTINUOUS
 10
1173.4838769056
 20
374.7239482586
 11
1173.4838769056
 21
454.4885762449
  0
LINE
  5
2B0
100
AcDbEntity
  8
0
100
AcDbLine
 62
2
  6
CONTINUOUS
 10
1090.4240998671
 20
360.7239540356
 11
1090.4240998671
 21
454.4885762449
  0
LINE
  5
2B1
100
AcDbEntity
  8
0
100
AcDbLine
 62
2
  6
CONTINUOUS
 10
1173.4838769056
 20
441.7885762449
 11
1153.386300654
 21
441.7885762449
  0
LINE
  5
2B2
100
AcDbEntity
  8
0
100
AcDbLine
 62
2
  6
CONTINUOUS
 10
1090.4240998671
 20
441.7885762449
 11
1110.5216761187
 21
441.7885762449
  0
INSERT
  5
2B3
100
AcDbEntity
  8
0
100
AcDbBlockReference
 62
2
  6
CONTINUOUS
  2
_FILLED
 10
1173.4838769056
 20
441.7885762449
 41
8.0
 42
8.0
 43
8.0
  0
INSERT
  5
2B4
100
AcDbEntity
  8
0
100
AcDbBlockReference
 62
2
  6
CONTINUOUS
  2
_FILLED
 10
1090.4240998671
 20
441.7885762449
 41
8.0
 42
8.0
 43
8.0
 50
180.0
  0
ENDBLK
  5
2B5
100
AcDbEntity
  8
0
  6
BYBLOCK
 62
0
100
AcDbBlockEnd
  0
BLOCK
  5
2B6
100
AcDbEntity
  8
0
100
AcDbBlockBegin
 62
2
  6
CONTINUOUS
  2
*D10
 70
65
 10
0.0
 20
0.0
  3
*D10
  1

  0
MTEXT
  5
2B7
100
AcDbEntity
  8
0
100
AcDbMText
 62
2
  6
CONTINUOUS
  7
STANDARD
 71
1
 72
1
 10
1236.2989415209
 20
446.3605762449
 30
0.0
 11
1.0
 21
0.0
 31
0.0
 73
2
 44
0.9
  1
44,0{\ftxt;\W0.0001;\H0.0001;\~}{\ftxt;\W0.9814126394;\H9.144; } TYP\P[1.73]
 40
9.144
 41
57.7873605948
  0
LINE
  5
2B8
100
AcDbEntity
  8
0
100
AcDbLine
 62
2
  6
CONTINUOUS
 10
1173.4838769056
 20
374.7239482586
 11
1173.4838769056
 21
454.4885762449
  0
LINE
  5
2B9
100
AcDbEntity
  8
0
100
AcDbLine
 62
2
  6
CONTINUOUS
 10
1217.4838769056
 20
374.7239482586
 11
1217.4838769056
 21
454.4885762449
  0
LINE
  5
2BA
100
AcDbEntity
  8
0
100
AcDbLine
 62
2
  6
CONTINUOUS
 10
1173.4838769056
 20
441.7885762449
 11
1195.4838769056
 21
441.7885762449
  0
LINE
  5
2BB
100
AcDbEntity
  8
0
100
AcDbLine
 62
2
  6
CONTINUOUS
 10
1217.4838769056
 20
441.7885762449
 11
1195.4838769056
 21
441.7885762449
  0
LINE
  5
2BC
100
AcDbEntity
  8
0
100
AcDbLine
 62
2
  6
CONTINUOUS
 10
1195.4838769056
 20
441.7885762449
 11
1231.7269415209
 21
441.7885762449
  0
INSERT
  5
2BD
100
AcDbEntity
  8
0
100
AcDbBlockReference
 62
2
  6
CONTINUOUS
  2
_FILLED
 10
1173.4838769056
 20
441.7885762449
 41
8.0
 42
8.0
 43
8.0
 50
180.0
  0
INSERT
  5
2BE
100
AcDbEntity
  8
0
100
AcDbBlockReference
 62
2
  6
CONTINUOUS
  2
_FILLED
 10
1217.4838769056
 20
441.7885762449
 41
8.0
 42
8.0
 43
8.0
  0
ENDBLK
  5
2BF
100
AcDbEntity
  8
0
  6
BYBLOCK
 62
0
100
AcDbBlockEnd
  0
BLOCK
  5
2C0
100
AcDbEntity
  8
0
100
AcDbBlockBegin
 62
2
  6
CONTINUOUS
  2
*D11
 70
65
 10
0.0
 20
0.0
  3
*D11
  1

  0
MTEXT
  5
2C1
100
AcDbEntity
  8
0
100
AcDbMText
 62
2
  6
CONTINUOUS
  7
STANDARD
 71
2
 72
1
 10
1116.466969799
 20
286.6076035897
 30
0.0
 11
1.0
 21
0.0
 31
0.0
 73
2
 44
0.9
  1
61,1\P[2.40]
 40
9.144
 41
33.7206245353
  0
LINE
  5
2C2
100
AcDbEntity
  8
0
100
AcDbLine
 62
2
  6
CONTINUOUS
 10
1151.4838769056
 20
320.0239482586
 11
1151.4838769056
 21
269.3356035897
  0
LINE
  5
2C3
100
AcDbEntity
  8
0
100
AcDbLine
 62
2
  6
CONTINUOUS
 10
1090.4240998671
 20
348.0239540356
 11
1090.4240998671
 21
269.3356035897
  0
LINE
  5
2C4
100
AcDbEntity
  8
0
100
AcDbLine
 62
2
  6
CONTINUOUS
 10
1151.4838769056
 20
282.0356035897
 11
1142.386300654
 21
282.0356035897
  0
LINE
  5
2C5
100
AcDbEntity
  8
0
100
AcDbLine
 62
2
  6
CONTINUOUS
 10
1090.4240998671
 20
282.0356035897
 11
1099.5216761187
 21
282.0356035897
  0
INSERT
  5
2C6
100
AcDbEntity
  8
0
100
AcDbBlockReference
 62
2
  6
CONTINUOUS
  2
_FILLED
 10
1151.4838769056
 20
282.0356035897
 41
8.0
 42
8.0
 43
8.0
  0
INSERT
  5
2C7
100
AcDbEntity
  8
0
100
AcDbBlockReference
 62
2
  6
CONTINUOUS
  2
_FILLED
 10
1090.4240998671
 20
282.0356035897
 41
8.0
 42
8.0
 43
8.0
 50
180.0
  0
ENDBLK
  5
2C8
100
AcDbEntity
  8
0
  6
BYBLOCK
 62
0
100
AcDbBlockEnd
  0
BLOCK
  5
2C9
100
AcDbEntity
  8
0
100
AcDbBlockBegin
 62
2
  6
CONTINUOUS
  2
*D12
 70
65
 10
0.0
 20
0.0
  3
*D12
  1

  0
MTEXT
  5
2CA
100
AcDbEntity
  8
0
100
AcDbMText
 62
2
  6
CONTINUOUS
  7
STANDARD
 71
1
 72
1
 10
1217.0286720593
 20
286.6076035897
 30
0.0
 11
1.0
 21
0.0
 31
0.0
 73
2
 44
0.9
  1
44,0{\ftxt;\W0.0001;\H0.0001;\~}{\ftxt;\W0.9814126394;\H9.144; } TYP\P[1.73]
 40
9.144
 41
57.7873605948
  0
LINE
  5
2CB
100
AcDbEntity
  8
0
100
AcDbLine
 62
2
  6
CONTINUOUS
 10
1151.4838769056
 20
320.0239482586
 11
1151.4838769056
 21
269.3356035897
  0
LINE
  5
2CC
100
AcDbEntity
  8
0
100
AcDbLine
 62
2
  6
CONTINUOUS
 10
1195.4838769056
 20
320.0239482586
 11
1195.4838769056
 21
269.3356035897
  0
LINE
  5
2CD
100
AcDbEntity
  8
0
100
AcDbLine
 62
2
  6
CONTINUOUS
 10
1151.4838769056
 20
282.0356035897
 11
1173.4838769056
 21
282.0356035897
  0
LINE
  5
2CE
100
AcDbEntity
  8
0
100
AcDbLine
 62
2
  6
CONTINUOUS
 10
1195.4838769056
 20
282.0356035897
 11
1173.4838769056
 21
282.0356035897
  0
LINE
  5
2CF
100
AcDbEntity
  8
0
100
AcDbLine
 62
2
  6
CONTINUOUS
 10
1173.4838769056
 20
282.0356035897
 11
1212.4566720593
 21
282.0356035897
  0
INSERT
  5
2D0
100
AcDbEntity
  8
0
100
AcDbBlockReference
 62
2
  6
CONTINUOUS
  2
_FILLED
 10
1151.4838769056
 20
282.0356035897
 41
8.0
 42
8.0
 43
8.0
 50
180.0
  0
INSERT
  5
2D1
100
AcDbEntity
  8
0
100
AcDbBlockReference
 62
2
  6
CONTINUOUS
  2
_FILLED
 10
1195.4838769056
 20
282.0356035897
 41
8.0
 42
8.0
 43
8.0
  0
ENDBLK
  5
2D2
100
AcDbEntity
  8
0
  6
BYBLOCK
 62
0
100
AcDbBlockEnd
  0
BLOCK
  5
2D3
100
AcDbEntity
  8
0
100
AcDbBlockBegin
 62
2
  6
CONTINUOUS
  2
*D13
 70
65
 10
0.0
 20
0.0
  3
*D13
  1

  0
MTEXT
  5
2D4
100
AcDbEntity
  8
0
100
AcDbMText
 62
2
  6
CONTINUOUS
  7
STANDARD
 71
2
 72
1
 10
183.6021692211
 20
339.4054711422
 30
0.0
 11
1.0
 21
0.0
 31
0.0
 73
2
 44
0.9
  1
50,6\P[1.99]
 40
9.144
 41
33.7206245353
  0
LINE
  5
2D5
100
AcDbEntity
  8
0
100
AcDbLine
 62
2
  6
CONTINUOUS
 10
218.8100992174
 20
354.3739482586
 11
175.3891878085
 21
354.3739482586
  0
LINE
  5
2D6
100
AcDbEntity
  8
0
100
AcDbLine
 62
2
  6
CONTINUOUS
 10
466.6029782054
 20
303.7581104553
 11
175.3891878085
 21
303.7581104553
  0
LINE
  5
2D7
100
AcDbEntity
  8
0
100
AcDbLine
 62
2
  6
CONTINUOUS
 10
188.0891878085
 20
354.3739482586
 11
188.0891878085
 21
343.9774711422
  0
LINE
  5
2D8
100
AcDbEntity
  8
0
100
AcDbLine
 62
2
  6
CONTINUOUS
 10
188.0891878085
 20
303.7581104553
 11
188.0891878085
 21
311.9734711422
  0
INSERT
  5
2D9
100
AcDbEntity
  8
0
100
AcDbBlockReference
 62
2
  6
CONTINUOUS
  2
_FILLED
 10
188.0891878085
 20
354.3739482586
 41
8.0
 42
8.0
 43
8.0
 50
90.0
  0
INSERT
  5
2DA
100
AcDbEntity
  8
0
100
AcDbBlockReference
 62
2
  6
CONTINUOUS
  2
_FILLED
 10
188.0891878085
 20
303.7581104553
 41
8.0
 42
8.0
 43
8.0
 50
270.0
  0
ENDBLK
  5
2DB
100
AcDbEntity
  8
0
  6
BYBLOCK
 62
0
100
AcDbBlockEnd
  0
ENDSEC
  0
SECTION
  2
ENTITIES
  0
MTEXT
  5
2DC
100
AcDbEntity
  8
0
100
AcDbMText
 62
2
  6
CONTINUOUS
  7
TEXTSTYLE_2
 71
1
 72
1
 10
23.0711448307
 20
173.5181095737
 30
0.0
 11
1.0
 21
0.0
 31
0.0
 73
2
 44
1.0
  1
A
 40
9.525
 41
9.8082713755
  0
MTEXT
  5
2DD
100
AcDbEntity
  8
0
100
AcDbMText
 62
2
  6
CONTINUOUS
  7
TEXTSTYLE_2
 71
1
 72
1
 10
23.0335150431
 20
435.0066860241
 30
0.0
 11
1.0
 21
0.0
 31
0.0
 73
2
 44
1.0
  1
B
 40
9.525
 41
7.6129182156
  0
MTEXT
  5
2DE
100
AcDbEntity
  8
0
100
AcDbMText
 62
2
  6
CONTINUOUS
  7
TEXTSTYLE_2
 71
1
 72
1
 10
23.0353379419
 20
696.5434201609
 30
0.0
 11
1.0
 21
0.0
 31
0.0
 73
2
 44
1.0
  1
C
 40
9.525
 41
10.7997211896
  0
MTEXT
  5
2DF
100
AcDbEntity
  8
0
100
AcDbMText
 62
2
  6
CONTINUOUS
  7
TEXTSTYLE_2
 71
1
 72
1
 10
23.0157104531
 20
958.1806099077
 30
0.0
 11
1.0
 21
0.0
 31
0.0
 73
2
 44
1.0
  1
D
 40
9.525
 41
9.8790892193
  0
MTEXT
  5
2E0
100
AcDbEntity
  8
0
100
AcDbMText
 62
2
  6
CONTINUOUS
  7
TEXTSTYLE_2
 71
1
 72
1
 10
1458.8330592264
 20
47.2666049274
 30
0.0
 11
1.0
 21
0.0
 31
0.0
 73
2
 44
1.0000002
  1
SCALE:  
 40
5.291668
 41
28.6222191078
  0
MTEXT
  5
2E1
100
AcDbEntity
  8
0
100
AcDbMText
 62
2
  6
CONTINUOUS
  7
TEXTSTYLE_2
 71
1
 72
1
 10
1459.2709101032
 20
74.2757492288
 30
0.0
 11
1.0
 21
0.0
 31
0.0
 73
2
 44
1.0000002
  1
SIZE
 40
5.291668
 41
12.8455732491
  0
MTEXT
  5
2E2
100
AcDbEntity
  8
0
100
AcDbMText
 62
2
  6
CONTINUOUS
  7
TEXTSTYLE_2
 71
1
 72
1
 10
1506.0741067672
 20
46.8877159515
 30
0.0
 11
1.0
 21
0.0
 31
0.0
 73
2
 44
1.0000002
  1
CAD FILE:                   
 40
5.328
 41
73.007464684
  0
MTEXT
  5
2E3
100
AcDbEntity
  8
0
100
AcDbMText
 62
2
  6
CONTINUOUS
  7
TEXTSTYLE_2
 71
1
 72
1
 10
1525.8732860668
 20
74.0910693624
 30
0.0
 11
1.0
 21
0.0
 31
0.0
 73
2
 44
1.0000002
  1
DWG. NO.
 40
5.291668
 41
37.0023327435
  0
MTEXT
  5
2E4
100
AcDbEntity
  8
0
100
AcDbMText
 62
2
  6
CONTINUOUS
  7
TEXTSTYLE_2
 71
1
 72
1
 10
1462.4707503382
 20
62.6145470835
 30
0.0
 11
1.0
 21
0.0
 31
0.0
 73
2
 44
1.0000002
  1
B
 40
7.408332
 41
5.9211575465
  0
MTEXT
  5
2E5
100
AcDbEntity
  8
0
100
AcDbMText
 62
2
  6
CONTINUOUS
  7
TEXTSTYLE_2
 71
1
 72
1
 10
1624.4595136648
 20
47.0838336153
 30
0.0
 11
1.0
 21
0.0
 31
0.0
 73
2
 44
1.0000002
  1
SHEET:
 40
5.291668
 41
21.8158357323
  0
MTEXT
  5
2E6
100
AcDbEntity
  8
0
100
AcDbMText
 62
2
  6
CONTINUOUS
  7
TEXTSTYLE_2
 71
1
 72
1
 10
1321.3723872497
 20
141.8076523922
 30
0.0
 11
1.0
 21
0.0
 31
0.0
 73
2
 44
1.0000002
  1
DRAWN BY
 40
5.291668
 41
38.595734632
  0
MTEXT
  5
2E7
100
AcDbEntity
  8
0
100
AcDbMText
 62
2
  6
CONTINUOUS
  7
TEXTSTYLE_2
 71
1
 72
1
 10
1321.9091608178
 20
114.9691440679
 30
0.0
 11
1.0
 21
0.0
 31
0.0
 73
2
 44
1.0000002
  1
MECH ENGINEER
 40
5.291668
 41
59.1722577844
  0
MTEXT
  5
2E8
100
AcDbEntity
  8
0
100
AcDbMText
 62
2
  6
CONTINUOUS
  7
TEXTSTYLE_2
 71
1
 72
1
 10
1321.9091608178
 20
88.1112093999
 30
0.0
 11
1.0
 21
0.0
 31
0.0
 73
2
 44
1.0000002
  1
TECH DIRECTOR
 40
5.291668
 41
55.8280809814
  0
MTEXT
  5
2E9
100
AcDbEntity
  8
0
100
AcDbMText
 62
2
  6
CONTINUOUS
  7
TEXTSTYLE_2
 71
1
 72
1
 10
1321.9091608178
 20
60.8214048279
 30
0.0
 11
1.0
 21
0.0
 31
0.0
 73
2
 44
1.0000002
  1
MFG ENGINEER
 40
5.291668
 41
54.1953358364
  0
MTEXT
  5
2EA
100
AcDbEntity
  8
0
100
AcDbMText
 62
2
  6
CONTINUOUS
  7
TEXTSTYLE_2
 71
1
 72
1
 10
1199.4006689637
 20
149.357069528
 30
0.0
 11
1.0
 21
0.0
 31
0.0
 73
2
 44
1.0000002
  1
DECIMALS                    ANGLES
 40
5.291668
 41
105.7153302305
  0
MTEXT
  5
2EB
100
AcDbEntity
  8
0
100
AcDbMText
 62
2
  6
CONTINUOUS
  7
TEXTSTYLE_2
 71
1
 72
1
 10
1185.9551181885
 20
108.3151231373
 30
0.0
 11
1.0
 21
0.0
 31
0.0
 73
2
 44
1.0000002
  1
MATERIAL
 40
5.291668
 41
34.3466629294
  0
MTEXT
  5
2EC
100
AcDbEntity
  8
0
100
AcDbMText
 62
2
  6
CONTINUOUS
  7
TEXTSTYLE_2
 71
1
 72
1
 10
1186.3181208545
 20
89.8002161297
 30
0.0
 11
1.0
 21
0.0
 31
0.0
 73
2
 44
1.0000002
  1
FINISH
 40
5.291668
 41
21.087985487
  0
MTEXT
  5
2ED
100
AcDbEntity
  8
0
100
AcDbMText
 62
2
  6
CONTINUOUS
  7
TEXTSTYLE_2
 71
1
 72
1
 10
1193.2322158864
 20
68.7561159686
 30
0.0
 11
1.0
 21
0.0
 31
0.0
 73
2
 44
1.0000002
  1
DO  NOT  SCALE  DRAWING
 40
6.35
 41
117.2743494424
  0
MTEXT
  5
2EE
100
AcDbEntity
  8
0
100
AcDbMText
 62
2
  6
CONTINUOUS
  7
TEXTSTYLE_2
 71
1
 72
1
 10
1584.8595210358
 20
35.0840142145
 30
0.0
 11
1.0
 21
0.0
 31
0.0
 73
2
 44
1.0
  1
1
 40
9.525
 41
7.3650557621
  0
MTEXT
  5
2EF
100
AcDbEntity
  8
0
100
AcDbMText
 62
2
  6
CONTINUOUS
  7
TEXTSTYLE_2
 71
1
 72
1
 10
1377.8032451226
 20
35.4148679145
 30
0.0
 11
1.0
 21
0.0
 31
0.0
 73
2
 44
1.0
  1
2
 40
9.525
 41
7.3650557621
  0
MTEXT
  5
2F0
100
AcDbEntity
  8
0
100
AcDbMText
 62
2
  6
CONTINUOUS
  7
TEXTSTYLE_2
 71
1
 72
1
 10
1170.6100148166
 20
35.2039261165
 30
0.0
 11
1.0
 21
0.0
 31
0.0
 73
2
 44
1.0
  1
3
 40
9.525
 41
7.3650557621
  0
MTEXT
  5
2F1
100
AcDbEntity
  8
0
100
AcDbMText
 62
2
  6
CONTINUOUS
  7
TEXTSTYLE_2
 71
1
 72
1
 10
963.7488000578
 20
35.3273895781
 30
0.0
 11
1.0
 21
0.0
 31
0.0
 73
2
 44
1.0
  1
4
 40
9.525
 41
7.3650557621
  0
MTEXT
  5
2F2
100
AcDbEntity
  8
0
100
AcDbMText
 62
2
  6
CONTINUOUS
  7
TEXTSTYLE_2
 71
1
 72
1
 10
756.9084021939
 20
35.2223227449
 30
0.0
 11
1.0
 21
0.0
 31
0.0
 73
2
 44
1.0
  1
5
 40
9.525
 41
7.3650557621
  0
MTEXT
  5
2F3
100
AcDbEntity
  8
0
100
AcDbMText
 62
2
  6
CONTINUOUS
  7
TEXTSTYLE_2
 71
1
 72
1
 10
549.8734287107
 20
35.5049857457
 30
0.0
 11
1.0
 21
0.0
 31
0.0
 73
2
 44
1.0
  1
6
 40
9.525
 41
7.3650557621
  0
MTEXT
  5
2F4
100
AcDbEntity
  8
0
100
AcDbMText
 62
2
  6
CONTINUOUS
  7
TEXTSTYLE_2
 71
1
 72
1
 10
342.7940611855
 20
35.3421296153
 30
0.0
 11
1.0
 21
0.0
 31
0.0
 73
2
 44
1.0
  1
7
 40
9.525
 41
7.3650557621
  0
MTEXT
  5
2F5
100
AcDbEntity
  8
0
100
AcDbMText
 62
2
  6
CONTINUOUS
  7
TEXTSTYLE_2
 71
1
 72
1
 10
135.6287358623
 20
35.1975627597
 30
0.0
 11
1.0
 21
0.0
 31
0.0
 73
2
 44
1.0
  1
8
 40
9.525
 41
7.3650557621
  0
MTEXT
  5
2F6
100
AcDbEntity
  8
0
100
AcDbMText
 62
2
  6
CONTINUOUS
  7
TEXTSTYLE_2
 71
1
 72
1
 10
138.5049072882
 20
1094.4739901821
 30
0.0
 11
1.0
 21
0.0
 31
0.0
 73
2
 44
1.0000002
  1
8
 40
9.525
 41
7.3650557621
  0
MTEXT
  5
2F7
100
AcDbEntity
  8
0
100
AcDbMText
 62
2
  6
CONTINUOUS
  7
TEXTSTYLE_2
 71
1
 72
1
 10
1185.6502222994
 20
49.6338003596
 30
0.0
 11
1.0
 21
0.0
 31
0.0
 73
2
 44
1.0000002
  1
PROJECTION SYMBOL
 40
6.28
 41
90.6514498141
  0
MTEXT
  5
2F8
100
AcDbEntity
  8
0
100
AcDbMText
 62
2
  6
CONTINUOUS
  7
TEXTSTYLE_2
 71
1
 72
1
 10
1364.6222307839
 20
152.969056616
 30
0.0
 11
1.0
 21
0.0
 31
0.0
 73
2
 44
1.0000002
  1
APPROVALS
 40
5.291668
 41
42.7857914498
  0
MTEXT
  5
2F9
100
AcDbEntity
  8
0
100
AcDbMText
 62
2
  6
CONTINUOUS
  7
TEXTSTYLE_2
 71
1
 72
1
 10
343.1262274723
 20
1094.5634107817
 30
0.0
 11
1.0
 21
0.0
 31
0.0
 73
2
 44
1.0000002
  1
7
 40
9.525
 41
7.3650557621
  0
MTEXT
  5
2FA
100
AcDbEntity
  8
0
100
AcDbMText
 62
2
  6
CONTINUOUS
  7
TEXTSTYLE_2
 71
1
 72
1
 10
756.9293223878
 20
1094.1637492113
 30
0.0
 11
1.0
 21
0.0
 31
0.0
 73
2
 44
1.0
  1
5
 40
9.525
 41
7.3650557621
  0
MTEXT
  5
2FB
100
AcDbEntity
  8
0
100
AcDbMText
 62
2
  6
CONTINUOUS
  7
TEXTSTYLE_2
 71
1
 72
1
 10
963.9052151322
 20
1094.1977828289
 30
0.0
 11
1.0
 21
0.0
 31
0.0
 73
2
 44
1.0
  1
4
 40
9.525
 41
7.3650557621
  0
MTEXT
  5
2FC
100
AcDbEntity
  8
0
100
AcDbMText
 62
2
  6
CONTINUOUS
  7
TEXTSTYLE_2
 71
1
 72
1
 10
1170.7985780322
 20
1094.1731984829
 30
0.0
 11
1.0
 21
0.0
 31
0.0
 73
2
 44
1.0
  1
3
 40
9.525
 41
7.3650557621
  0
MTEXT
  5
2FD
100
AcDbEntity
  8
0
100
AcDbMText
 62
2
  6
CONTINUOUS
  7
TEXTSTYLE_2
 71
1
 72
1
 10
1377.866180487
 20
1094.3842516237
 30
0.0
 11
1.0
 21
0.0
 31
0.0
 73
2
 44
1.0
  1
2
 40
9.525
 41
7.3650557621
  0
MTEXT
  5
2FE
100
AcDbEntity
  8
0
100
AcDbMText
 62
2
  6
CONTINUOUS
  7
TEXTSTYLE_2
 71
1
 72
1
 10
1585.2424565466
 20
1094.4670994377
 30
0.0
 11
1.0
 21
0.0
 31
0.0
 73
2
 44
1.0
  1
1
 40
9.525
 41
7.3650557621
  0
MTEXT
  5
2FF
100
AcDbEntity
  8
0
100
AcDbMText
 62
2
  6
CONTINUOUS
  7
TEXTSTYLE_2
 71
1
 72
1
 10
1695.3576501878
 20
957.8991524141
 30
0.0
 11
1.0
 21
0.0
 31
0.0
 73
2
 44
1.0
  1
D
 40
9.525
 41
9.8790892193
  0
MTEXT
  5
300
100
AcDbEntity
  8
0
100
AcDbMText
 62
2
  6
CONTINUOUS
  7
TEXTSTYLE_2
 71
1
 72
1
 10
1694.3037121558
 20
696.4813098933
 30
0.0
 11
1.0
 21
0.0
 31
0.0
 73
2
 44
1.0
  1
C
 40
9.525
 41
10.7997211896
  0
MTEXT
  5
301
100
AcDbEntity
  8
0
100
AcDbMText
 62
2
  6
CONTINUOUS
  7
TEXTSTYLE_2
 71
1
 72
1
 10
1697.2110230018
 20
434.6214485405
 30
0.0
 11
1.0
 21
0.0
 31
0.0
 73
2
 44
1.0
  1
B
 40
9.525
 41
7.6129182156
  0
MTEXT
  5
302
100
AcDbEntity
  8
0
100
AcDbMText
 62
2
  6
CONTINUOUS
  7
TEXTSTYLE_2
 71
1
 72
1
 10
1695.1195328674
 20
173.1618677117
 30
0.0
 11
1.0
 21
0.0
 31
0.0
 73
2
 44
1.0
  1
A
 40
9.525
 41
9.8082713755
  0
MTEXT
  5
303
100
AcDbEntity
  8
0
100
AcDbMText
 62
2
  6
CONTINUOUS
  7
TEXTSTYLE_2
 71
1
 72
1
 10
1186.618836677
 20
185.9952507918
 30
0.0
 11
1.0
 21
0.0
 31
0.0
 73
2
 44
1.2
  1
UNLESS  OTHERWISE  SPECIFIED\PDIMENSIONS ARE IN MM [IN]\PTOLERANCES ARE:
 40
6.35
 41
128.3691449814
  0
MTEXT
  5
304
100
AcDbEntity
  8
0
100
AcDbMText
 62
2
  6
CONTINUOUS
  7
TEXTSTYLE_2
 71
1
 72
1
 10
1324.7476303845
 20
182.9897129239
 30
0.0
 11
1.0
 21
0.0
 31
0.0
 73
2
 44
1.0000002
  1
CAD GENERATED DRAWING\PDO NOT MANUALLY UPDATE
 40
6.35
 41
119.3280669145
  0
MTEXT
  5
305
100
AcDbEntity
  8
0
100
AcDbMText
 62
2
  6
CONTINUOUS
  7
TEXTSTYLE_2
 71
1
 72
1
 10
1664.5060767554
 20
74.2716664587
 30
0.0
 11
1.0
 21
0.0
 31
0.0
 73
2
 44
1.0000002
  1
REV
 40
5.291668
 41
13.6127667509
  0
MTEXT
  5
306
100
AcDbEntity
  8
0
100
AcDbMText
 62
2
  6
CONTINUOUS
  7
TEXTSTYLE_2
 71
1
 72
1
 10
549.8853456819
 20
1094.3120752389
 30
0.0
 11
1.0
 21
0.0
 31
0.0
 73
2
 44
1.0
  1
6
 40
9.525
 41
7.3650557621
  0
MTEXT
  5
307
100
AcDbEntity
  8
0
100
AcDbMText
 62
2
  6
CONTINUOUS
  7
TEXTSTYLE_2
 71
1
 72
1
 10
1476.0826814464
 20
73.8302197233
 30
0.0
 11
1.0
 21
0.0
 31
0.0
 73
2
 44
1.0000002
  1
CAGE CODE
 40
5.291668
 41
45.7365356877
  0
MTEXT
  5
308
100
AcDbEntity
  8
0
100
AcDbMText
 62
2
  6
CONTINUOUS
  7
TEXTSTYLE_2
 71
1
 72
1
 10
1482.7907503382
 20
62.6145470835
 30
0.0
 11
1.0
 21
0.0
 31
0.0
 73
2
 44
1.0000002
  1
00PW4
 40
7.408332
 41
33.2135627955
  0
MTEXT
  5
309
100
AcDbEntity
  8
0
100
AcDbMText
 62
2
  6
CONTINUOUS
  7
TEXTSTYLE_2
 71
1
 72
1
 10
1563.3726602331
 20
171.6567485346
 30
0.0
 11
1.0
 21
0.0
 31
0.0
 73
2
 44
1.0000002
  1
1675 MACARTHUR BOULEVARD\PCOSTA MESA, CA 92626 USA
 40
6.096
 41
126.2257249071
  0
MTEXT
  5
30A
100
AcDbEntity
  8
0
100
AcDbMText
 62
2
  6
CONTINUOUS
  7
TEXTSTYLE_2
 71
1
 72
1
 10
1564.2327187974
 20
186.0281332825
 30
0.0
 11
1.0
 21
0.0
 31
0.0
 73
2
 44
1.0000002
  1
QSC, LLC
 40
10.16
 41
63.3772490706
  0
MTEXT
  5
30B
100
AcDbEntity
  8
0
100
AcDbMText
 62
2
  6
CONTINUOUS
  7
TEXTSTYLE_2
 71
3
 72
1
 10
1690.6587839942
 20
29.6590512033
 30
0.0
 11
1.0
 21
0.0
 31
0.0
 73
2
 44
1.0000002
  1
Form: QMS100206 Rev C
 40
4.0
 41
65.4423791822
  0
MTEXT
  5
30C
100
AcDbEntity
  8
0
100
AcDbMText
 62
2
  6
CONTINUOUS
  7
TEXTSTYLE_2
 71
1
 72
1
 10
38.4270911095
 20
1079.9630885284
 30
0.0
 11
1.0
 21
0.0
 31
0.0
 73
2
 44
1.0000002
  3
THIS DOCUMENT CONTAINS CONFIDENTIAL OR PROPRIETARY INFORMATION \PWHICH IS THE PROPERTY OF QSC, LLC, THAT MAY NOT BE DISCLOSED, \PREPRODUCED OR USED WITHOUT EXPRESS WRITTEN CONSENT FROM QSC, \PLLC. NO PORTION OF THIS DOCUMENT MAY BE REPRODUCED,\PREDIS
  1
TRUBUTED, OR OTHERWISE DISCLOSED TO ANY THIRD PARTY WITHOUT \PQSC'S WRITTEN PERMISSION.
 40
5.291668
 41
267.4751293532
  0
DIMENSION
  5
30D
100
AcDbEntity
  8
0
100
AcDbDimension
 62
2
  6
CONTINUOUS
  2
*D0
 10
174.9359485375
 20
571.3389741048
 11
174.9359485375
 21
600.9809741048
 70
160
 71
2
 72
2
 41
0.9
 42
73.0
  1
<>\P[]
  3
DIMSTYLE_1
100
AcDbAlignedDimension
 13
221.1886740886
 23
644.3389741048
 14
211.1227779764
 24
571.3389741048
 50
270.0
100
AcDbRotatedDimension
  0
DIMENSION
  5
30E
100
AcDbEntity
  8
0
100
AcDbDimension
 62
2
  6
CONTINUOUS
  2
*D1
 10
130.9723693339
 20
571.3389741048
 11
130.9723693339
 21
606.1309741048
 70
160
 71
2
 72
2
 41
0.9
 42
83.3
  1
<>\P[]
  3
DIMSTYLE_1
100
AcDbAlignedDimension
 13
248.8904782056
 23
654.6389741048
 14
211.1227779764
 24
571.3389741048
 50
270.0
100
AcDbRotatedDimension
  0
DIMENSION
  5
30F
100
AcDbEntity
  8
0
100
AcDbDimension
 62
2
  6
CONTINUOUS
  2
*D2
 10
732.012755244
 20
440.2923846037
 11
472.9529782056
 21
433.4343846037
 70
160
 71
2
 72
2
 41
0.9
 42
518.1195540768
  1
<>\P[]
  3
DIMSTYLE_1
100
AcDbAlignedDimension
 13
213.8932011671
 23
359.1364424941
 14
732.012755244
 24
359.1364540355
100
AcDbRotatedDimension
  0
DIMENSION
  5
310
100
AcDbEntity
  8
0
100
AcDbDimension
 62
2
  6
CONTINUOUS
  2
*D3
 10
135.2553944353
 20
303.758110455
 11
135.2553944352
 21
354.3726215765
 70
160
 71
2
 72
2
 41
0.9
 42
101.2316756067
  1
<>\P[]
  3
DIMSTYLE_2
100
AcDbAlignedDimension
 13
221.388536582
 23
404.9897860618
 14
221.3885365817
 24
303.7581104551
 50
270.0
100
AcDbRotatedDimension
  0
DIMENSION
  5
311
100
AcDbEntity
  8
0
100
AcDbDimension
 62
2
  6
CONTINUOUS
  2
*D4
 10
497.0229782119
 20
683.0087998061
 11
531.8886305817
 21
676.1507998045
 70
160
 71
1
 72
2
 41
0.9
 42
24.0700000008
  1
<>\P[]
  3
DIMSTYLE_1
100
AcDbAlignedDimension
 13
472.9529782098
 23
667.5421683758
 14
497.0229782059
 24
606.5514741048
 50
359.9999999956
100
AcDbRotatedDimension
  0
DIMENSION
  5
312
100
AcDbEntity
  8
0
100
AcDbDimension
 62
2
  6
CONTINUOUS
  2
*D5
 10
759.8439684181
 20
571.3389741048
 11
802.1042806857
 21
611.3694633738
 70
160
 71
1
 72
2
 41
0.9
 42
30.45
  1
<>\P[]
  3
DIMSTYLE_1
100
AcDbAlignedDimension
 13
501.7854782056
 23
601.7889741048
 14
734.7831784332
 24
571.3389741048
 50
270.0
100
AcDbRotatedDimension
  0
DIMENSION
  5
313
100
AcDbEntity
  8
0
100
AcDbDimension
 62
2
  6
CONTINUOUS
  2
*D6
 10
1077.4537349415
 20
329.3739482586
 11
1023.1600546441
 21
395.2677802952
 70
160
 71
3
 72
2
 41
0.9
 42
50.0
  1
<> TYP\P[]
  3
DIMSTYLE_2
100
AcDbAlignedDimension
 13
1177.7213769056
 23
379.3739482586
 14
1136.9525168603
 24
329.3739482586
 50
270.0
100
AcDbRotatedDimension
  0
DIMENSION
  5
314
100
AcDbEntity
  8
0
100
AcDbDimension
 62
2
  6
CONTINUOUS
  2
*D7
 10
939.169045662
 20
389.3739482586
 11
939.169045662
 21
356.0867899062
 70
160
 71
2
 72
2
 41
0.9
 42
70.0
  1
<>\P[]
  3
DIMSTYLE_1
100
AcDbAlignedDimension
 13
914.106912472
 23
319.3739482586
 14
914.106912472
 24
389.3739482586
 50
90.0
100
AcDbRotatedDimension
  0
DIMENSION
  5
315
100
AcDbEntity
  8
0
100
AcDbDimension
 62
2
  6
CONTINUOUS
  2
*D8
 10
698.2529782056
 20
742.3303167627
 11
475.2029782056
 21
735.4723167627
 70
160
 71
2
 72
2
 41
0.9
 42
446.1
  1
<>\P[]
  3
DIMSTYLE_1
100
AcDbAlignedDimension
 13
252.1529782056
 23
655.6514741048
 14
698.2529782056
 24
654.6514741048
100
AcDbRotatedDimension
  0
DIMENSION
  5
316
100
AcDbEntity
  8
0
100
AcDbDimension
 62
2
  6
CONTINUOUS
  2
*D9
 10
1090.4240998671
 20
441.7885762449
 11
1131.9539883864
 21
434.9305762449
 70
160
 71
2
 72
2
 41
0.9
 42
83.0597770384
  1
<>\P[]
  3
DIMSTYLE_1
100
AcDbAlignedDimension
 13
1173.4838769056
 23
373.1364482586
 14
1090.4240998671
 24
359.1364540356
 50
180.0
100
AcDbRotatedDimension
  0
DIMENSION
  5
317
100
AcDbEntity
  8
0
100
AcDbDimension
 62
2
  6
CONTINUOUS
  2
*D10
 10
1217.4838769056
 20
441.7885762449
 11
1265.1926218183
 21
434.9305762449
 70
160
 71
1
 72
2
 41
0.9
 42
44.0
  1
<> TYP\P[]
  3
DIMSTYLE_2
100
AcDbAlignedDimension
 13
1173.4838769056
 23
373.1364482586
 14
1217.4838769056
 24
373.1364482586
100
AcDbRotatedDimension
  0
DIMENSION
  5
318
100
AcDbEntity
  8
0
100
AcDbDimension
 62
2
  6
CONTINUOUS
  2
*D11
 10
1090.4240998671
 20
282.0356035897
 11
1120.9539883864
 21
275.1776035897
 70
160
 71
2
 72
2
 41
0.9
 42
61.0597770384
  1
<>\P[]
  3
DIMSTYLE_3
100
AcDbAlignedDimension
 13
1151.4838769056
 23
321.6114482586
 14
1090.4240998671
 24
349.6114540356
 50
180.0
100
AcDbRotatedDimension
  0
DIMENSION
  5
319
100
AcDbEntity
  8
0
100
AcDbDimension
 62
2
  6
CONTINUOUS
  2
*D12
 10
1195.4838769056
 20
282.0356035897
 11
1245.9223523567
 21
275.1776035897
 70
160
 71
1
 72
2
 41
0.9
 42
44.0
  1
<> TYP\P[]
  3
DIMSTYLE_3
100
AcDbAlignedDimension
 13
1151.4838769056
 23
321.6114482586
 14
1195.4838769056
 24
321.6114482586
100
AcDbRotatedDimension
  0
DIMENSION
  5
31A
100
AcDbEntity
  8
0
100
AcDbDimension
 62
2
  6
CONTINUOUS
  2
*D13
 10
188.0891878085
 20
303.7581104553
 11
188.0891878085
 21
327.9754711422
 70
160
 71
2
 72
2
 41
0.9
 42
50.6158378033
  1
<>\P[]
  3
DIMSTYLE_3
100
AcDbAlignedDimension
 13
220.3975992174
 23
354.3739482586
 14
468.1904782054
 24
303.7581104553
 50
270.0
100
AcDbRotatedDimension
  0
LINE
  5
31B
100
AcDbEntity
  8
0
100
AcDbLine
 62
2
  6
CONTINUOUS
 10
1456.4823015203
 20
152.0606529325
 11
1692.0823015203
 21
152.0606529325
  0
LINE
  5
31C
100
AcDbEntity
  8
0
100
AcDbLine
 62
2
  6
CONTINUOUS
 10
1456.4823015203
 20
152.0606529325
 11
1456.4823015203
 21
75.6231529325
  0
LINE
  5
31D
100
AcDbEntity
  8
0
100
AcDbLine
 62
2
  6
CONTINUOUS
 10
1456.4823015203
 20
75.6231529325
 11
1692.0823015203
 21
75.6231529325
  0
LINE
  5
31E
100
AcDbEntity
  8
0
100
AcDbLine
 62
2
  6
CONTINUOUS
 10
1692.0823015203
 20
152.0606529325
 11
1692.0823015203
 21
75.6231529325
  0
MTEXT
  5
31F
100
AcDbEntity
  8
0
100
AcDbMText
 62
2
  6
CONTINUOUS
  7
STANDARD
 71
2
 72
1
 10
1574.2823015203
 20
126.0339026277
 30
0.0
 11
1.0
 21
0.0
 31
0.0
 73
2
 44
0.99999996
  1
LOUDSPEAKER,NL-SB42-BK,\PSPEAKER BAR 
 40
9.144
 41
160.6148698885
  0
LINE
  5
320
100
AcDbEntity
  8
0
100
AcDbLine
 62
2
  6
CONTINUOUS
 10
1650.0642053087
 20
75.5900853305
 11
1691.9142053087
 21
75.5900853305
  0
LINE
  5
321
100
AcDbEntity
  8
0
100
AcDbLine
 62
2
  6
CONTINUOUS
 10
1650.0642053087
 20
75.5900853305
 11
1650.0642053087
 21
50.5900853305
  0
LINE
  5
322
100
AcDbEntity
  8
0
100
AcDbLine
 62
2
  6
CONTINUOUS
 10
1650.0642053087
 20
50.5900853305
 11
1691.9142053087
 21
50.5900853305
  0
LINE
  5
323
100
AcDbEntity
  8
0
100
AcDbLine
 62
2
  6
CONTINUOUS
 10
1691.9142053087
 20
75.5900853305
 11
1691.9142053087
 21
50.5900853305
  0
MTEXT
  5
324
100
AcDbEntity
  8
0
100
AcDbMText
 62
2
  6
CONTINUOUS
  7
TEXTSTYLE_3
 71
2
 72
1
 10
1670.9892053087
 20
65.9025853305
 30
0.0
 11
1.0
 21
0.0
 31
0.0
 73
2
 44
0.9
  1
B
 40
12.7
 41
10.16
  0
LINE
  5
325
100
AcDbEntity
  8
0
100
AcDbLine
 62
2
  6
CONTINUOUS
 10
1523.4122955601
 20
75.5121868332
 11
1649.4122955601
 21
75.5121868332
  0
LINE
  5
326
100
AcDbEntity
  8
0
100
AcDbLine
 62
2
  6
CONTINUOUS
 10
1523.4122955601
 20
75.5121868332
 11
1523.4122955601
 21
50.5746868332
  0
LINE
  5
327
100
AcDbEntity
  8
0
100
AcDbLine
 62
2
  6
CONTINUOUS
 10
1523.4122955601
 20
50.5746868332
 11
1649.4122955601
 21
50.5746868332
  0
LINE
  5
328
100
AcDbEntity
  8
0
100
AcDbLine
 62
2
  6
CONTINUOUS
 10
1649.4122955601
 20
75.5121868332
 11
1649.4122955601
 21
50.5746868332
  0
MTEXT
  5
329
100
AcDbEntity
  8
0
100
AcDbMText
 62
2
  6
CONTINUOUS
  7
TEXTSTYLE_3
 71
2
 72
1
 10
1586.4122955601
 20
66.8871868332
 30
0.0
 11
1.0
 21
0.0
 31
0.0
 73
2
 44
0.9
  1
FG-901507-2D
 40
12.7
 41
121.92
  0
LINE
  5
32A
100
AcDbEntity
  8
0
100
AcDbLine
 62
2
  6
CONTINUOUS
 10
1183.8766520002
 20
110.565685306
 11
1317.8766520002
 21
110.565685306
  0
LINE
  5
32B
100
AcDbEntity
  8
0
100
AcDbLine
 62
2
  6
CONTINUOUS
 10
1183.8766520002
 20
110.565685306
 11
1183.8766520002
 21
92.159435306
  0
LINE
  5
32C
100
AcDbEntity
  8
0
100
AcDbLine
 62
2
  6
CONTINUOUS
 10
1183.8766520002
 20
92.159435306
 11
1317.8766520002
 21
92.159435306
  0
LINE
  5
32D
100
AcDbEntity
  8
0
100
AcDbLine
 62
2
  6
CONTINUOUS
 10
1317.8766520002
 20
110.565685306
 11
1317.8766520002
 21
92.159435306
  0
MTEXT
  5
32E
100
AcDbEntity
  8
0
100
AcDbMText
 62
2
  6
CONTINUOUS
  7
TEXTSTYLE_3
 71
2
 72
1
 10
1264.2766520002
 20
105.934560306
 30
0.0
 11
1.0
 21
0.0
 31
0.0
 73
2
 44
0.9
  1
N/A
 40
9.144
 41
21.9456
  0
LINE
  5
32F
100
AcDbEntity
  8
0
100
AcDbLine
 62
2
  6
CONTINUOUS
 10
1183.9603803818
 20
91.9468496223
 11
1317.9603803818
 21
91.9468496223
  0
LINE
  5
330
100
AcDbEntity
  8
0
100
AcDbLine
 62
2
  6
CONTINUOUS
 10
1183.9603803818
 20
91.9468496223
 11
1183.9603803818
 21
73.5405996223
  0
LINE
  5
331
100
AcDbEntity
  8
0
100
AcDbLine
 62
2
  6
CONTINUOUS
 10
1183.9603803818
 20
73.5405996223
 11
1317.9603803818
 21
73.5405996223
  0
LINE
  5
332
100
AcDbEntity
  8
0
100
AcDbLine
 62
2
  6
CONTINUOUS
 10
1317.9603803818
 20
91.9468496223
 11
1317.9603803818
 21
73.5405996223
  0
MTEXT
  5
333
100
AcDbEntity
  8
0
100
AcDbMText
 62
2
  6
CONTINUOUS
  7
TEXTSTYLE_3
 71
2
 72
1
 10
1264.3603803818
 20
87.3157246223
 30
0.0
 11
1.0
 21
0.0
 31
0.0
 73
2
 44
0.9
  1
N/A
 40
9.144
 41
21.9456
  0
LINE
  5
334
100
AcDbEntity
  8
0
100
AcDbLine
 62
2
  6
CONTINUOUS
 10
1318.0830211434
 20
144.2940142976
 11
1456.0830211434
 21
144.2940142976
  0
LINE
  5
335
100
AcDbEntity
  8
0
100
AcDbLine
 62
2
  6
CONTINUOUS
 10
1318.0830211434
 20
144.2940142976
 11
1318.0830211434
 21
118.5440142976
  0
LINE
  5
336
100
AcDbEntity
  8
0
100
AcDbLine
 62
2
  6
CONTINUOUS
 10
1318.0830211434
 20
118.5440142976
 11
1456.0830211434
 21
118.5440142976
  0
LINE
  5
337
100
AcDbEntity
  8
0
100
AcDbLine
 62
2
  6
CONTINUOUS
 10
1456.0830211434
 20
144.2940142976
 11
1456.0830211434
 21
118.5440142976
  0
MTEXT
  5
338
100
AcDbEntity
  8
0
100
AcDbMText
 62
2
  6
CONTINUOUS
  7
TEXTSTYLE_3
 71
1
 72
1
 10
1318.3330211434
 20
131.3752642976
 30
0.0
 11
1.0
 21
0.0
 31
0.0
 73
2
 44
0.9
  1
 H.HE
 40
6.35
 41
25.4
  0
LINE
  5
339
100
AcDbEntity
  8
0
100
AcDbLine
 62
2
  6
CONTINUOUS
 10
1318.121163353
 20
118.6763282829
 11
1456.121163353
 21
118.6763282829
  0
LINE
  5
33A
100
AcDbEntity
  8
0
100
AcDbLine
 62
2
  6
CONTINUOUS
 10
1318.121163353
 20
118.6763282829
 11
1318.121163353
 21
91.4263282829
  0
LINE
  5
33B
100
AcDbEntity
  8
0
100
AcDbLine
 62
2
  6
CONTINUOUS
 10
1318.121163353
 20
91.4263282829
 11
1456.121163353
 21
91.4263282829
  0
LINE
  5
33C
100
AcDbEntity
  8
0
100
AcDbLine
 62
2
  6
CONTINUOUS
 10
1456.121163353
 20
118.6763282829
 11
1456.121163353
 21
91.4263282829
  0
MTEXT
  5
33D
100
AcDbEntity
  8
0
100
AcDbMText
 62
2
  6
CONTINUOUS
  7
TEXTSTYLE_3
 71
1
 72
1
 10
1318.371163353
 20
104.8200782829
 30
0.0
 11
1.0
 21
0.0
 31
0.0
 73
2
 44
0.9
  1
 T.GOSSARD
 40
6.35
 41
50.8
  0
LINE
  5
33E
100
AcDbEntity
  8
0
100
AcDbLine
 62
2
  6
CONTINUOUS
 10
1318.1494588242
 20
91.372939189
 11
1456.1494588242
 21
91.372939189
  0
LINE
  5
33F
100
AcDbEntity
  8
0
100
AcDbLine
 62
2
  6
CONTINUOUS
 10
1318.1494588242
 20
91.372939189
 11
1318.1494588242
 21
64.122939189
  0
LINE
  5
340
100
AcDbEntity
  8
0
100
AcDbLine
 62
2
  6
CONTINUOUS
 10
1318.1494588242
 20
64.122939189
 11
1456.1494588242
 21
64.122939189
  0
LINE
  5
341
100
AcDbEntity
  8
0
100
AcDbLine
 62
2
  6
CONTINUOUS
 10
1456.1494588242
 20
91.372939189
 11
1456.1494588242
 21
64.122939189
  0
MTEXT
  5
342
100
AcDbEntity
  8
0
100
AcDbMText
 62
2
  6
CONTINUOUS
  7
TEXTSTYLE_3
 71
1
 72
1
 10
1318.3994588242
 20
77.516689189
 30
0.0
 11
1.0
 21
0.0
 31
0.0
 73
2
 44
0.9
  1
 J.SANDERS
 40
6.35
 41
50.8
  0
LINE
  5
343
100
AcDbEntity
  8
0
100
AcDbLine
 62
2
  6
CONTINUOUS
 10
1318.13076652
 20
64.4737561542
 11
1456.13076652
 21
64.4737561542
  0
LINE
  5
344
100
AcDbEntity
  8
0
100
AcDbLine
 62
2
  6
CONTINUOUS
 10
1318.13076652
 20
64.4737561542
 11
1318.13076652
 21
37.2237561542
  0
LINE
  5
345
100
AcDbEntity
  8
0
100
AcDbLine
 62
2
  6
CONTINUOUS
 10
1318.13076652
 20
37.2237561542
 11
1456.13076652
 21
37.2237561542
  0
LINE
  5
346
100
AcDbEntity
  8
0
100
AcDbLine
 62
2
  6
CONTINUOUS
 10
1456.13076652
 20
64.4737561542
 11
1456.13076652
 21
37.2237561542
  0
MTEXT
  5
347
100
AcDbEntity
  8
0
100
AcDbMText
 62
2
  6
CONTINUOUS
  7
TEXTSTYLE_3
 71
1
 72
1
 10
1318.38076652
 20
50.6175061542
 30
0.0
 11
1.0
 21
0.0
 31
0.0
 73
2
 44
0.9
  1
 M.LUO
 40
6.35
 41
30.48
  0
LINE
  5
348
100
AcDbEntity
  8
0
100
AcDbLine
 62
2
  6
CONTINUOUS
 10
1456.4412255114
 20
49.8064818584
 11
1503.6412255114
 21
49.8064818584
  0
LINE
  5
349
100
AcDbEntity
  8
0
100
AcDbLine
 62
2
  6
CONTINUOUS
 10
1456.4412255114
 20
49.8064818584
 11
1456.4412255114
 21
37.4002318584
  0
LINE
  5
34A
100
AcDbEntity
  8
0
100
AcDbLine
 62
2
  6
CONTINUOUS
 10
1456.4412255114
 20
37.4002318584
 11
1503.6412255114
 21
37.4002318584
  0
LINE
  5
34B
100
AcDbEntity
  8
0
100
AcDbLine
 62
2
  6
CONTINUOUS
 10
1503.6412255114
 20
49.8064818584
 11
1503.6412255114
 21
37.4002318584
  0
MTEXT
  5
34C
100
AcDbEntity
  8
0
100
AcDbMText
 62
2
  6
CONTINUOUS
  7
TEXTSTYLE_3
 71
2
 72
1
 10
1491.8412255114
 20
47.1593568584
 30
0.0
 11
1.0
 21
0.0
 31
0.0
 73
2
 44
0.9
  1
1:4
 40
7.112
 41
17.0688
  0
LINE
  5
34D
100
AcDbEntity
  8
0
100
AcDbLine
 62
2
  6
CONTINUOUS
 10
1623.1717268519
 20
49.9004320898
 11
1692.1717268519
 21
49.9004320898
  0
LINE
  5
34E
100
AcDbEntity
  8
0
100
AcDbLine
 62
2
  6
CONTINUOUS
 10
1623.1717268519
 20
49.9004320898
 11
1623.1717268519
 21
37.8691820898
  0
LINE
  5
34F
100
AcDbEntity
  8
0
100
AcDbLine
 62
2
  6
CONTINUOUS
 10
1623.1717268519
 20
37.8691820898
 11
1692.1717268519
 21
37.8691820898
  0
LINE
  5
350
100
AcDbEntity
  8
0
100
AcDbLine
 62
2
  6
CONTINUOUS
 10
1692.1717268519
 20
49.9004320898
 11
1692.1717268519
 21
37.8691820898
  0
MTEXT
  5
351
100
AcDbEntity
  8
0
100
AcDbMText
 62
2
  6
CONTINUOUS
  7
TEXTSTYLE_3
 71
2
 72
1
 10
1671.4717268519
 20
47.5889730898
 30
0.0
 11
1.0
 21
0.0
 31
0.0
 73
2
 44
0.9
  1
1 OF 2
 40
7.408332
 41
35.5599936
  0
LINE
  5
352
100
AcDbEntity
  8
0
100
AcDbLine
 62
2
  6
CONTINUOUS
 10
1503.6120919475
 20
49.8726701364
 11
1622.8120919475
 21
49.8726701364
  0
LINE
  5
353
100
AcDbEntity
  8
0
100
AcDbLine
 62
2
  6
CONTINUOUS
 10
1503.6120919475
 20
49.8726701364
 11
1503.6120919475
 21
37.8414201364
  0
LINE
  5
354
100
AcDbEntity
  8
0
100
AcDbLine
 62
2
  6
CONTINUOUS
 10
1503.6120919475
 20
37.8414201364
 11
1622.8120919475
 21
37.8414201364
  0
LINE
  5
355
100
AcDbEntity
  8
0
100
AcDbLine
 62
2
  6
CONTINUOUS
 10
1622.8120919475
 20
49.8726701364
 11
1622.8120919475
 21
37.8414201364
  0
MTEXT
  5
356
100
AcDbEntity
  8
0
100
AcDbMText
 62
2
  6
CONTINUOUS
  7
TEXTSTYLE_3
 71
2
 72
1
 10
1578.1120919475
 20
46.3970451364
 30
0.0
 11
1.0
 21
0.0
 31
0.0
 73
2
 44
0.9
  1
FG-901507-2D.B.1 
 40
5.08
 41
69.088
  0
LINE
  5
357
100
AcDbEntity
  8
0
100
AcDbLine
 62
2
  6
CONTINUOUS
 10
1184.2328138795
 20
189.5198747814
 11
1317.7328138795
 21
189.5198747814
  0
LINE
  5
358
100
AcDbEntity
  8
0
100
AcDbLine
 62
2
  6
CONTINUOUS
 10
1184.2328138795
 20
189.5198747814
 11
1184.2328138795
 21
111.2698747814
  0
LINE
  5
359
100
AcDbEntity
  8
0
100
AcDbLine
 62
2
  6
CONTINUOUS
 10
1184.2328138795
 20
111.2698747814
 11
1317.7328138795
 21
111.2698747814
  0
LINE
  5
35A
100
AcDbEntity
  8
0
100
AcDbLine
 62
2
  6
CONTINUOUS
 10
1317.7328138795
 20
189.5198747814
 11
1317.7328138795
 21
111.2698747814
  0
MTEXT
  5
35B
100
AcDbEntity
  8
0
100
AcDbMText
 62
2
  6
CONTINUOUS
  7
TEXTSTYLE_3
 71
1
 72
1
 10
1197.8328138795
 20
134.0073747814
 30
0.0
 11
1.0
 21
0.0
 31
0.0
 73
2
 44
0.9
  1
.X\fgdt;{\W1.0;{\fgdt;`}}\ftxt;3.0 [.12]    \fgdt;{\W1.0;{\fgdt;`}}\ftxt;1\fgdt;{\W1.0;{\fgdt;~}}
 40
6.35
 41
100.33
  0
LINE
  5
35C
100
AcDbEntity
  8
0
100
AcDbLine
 62
2
  6
CONTINUOUS
 10
1124.703418268
 20
1083.8737463276
 11
1692.363418268
 21
1083.8737463276
  0
LINE
  5
35D
100
AcDbEntity
  8
0
100
AcDbLine
 62
2
  6
CONTINUOUS
 10
1124.703418268
 20
1083.8737463276
 11
1124.703418268
 21
983.2897463276
  0
LINE
  5
35E
100
AcDbEntity
  8
0
100
AcDbLine
 62
2
  6
CONTINUOUS
 10
1124.703418268
 20
1065.5857463276
 11
1692.363418268
 21
1065.5857463276
  0
LINE
  5
35F
100
AcDbEntity
  8
0
100
AcDbLine
 62
2
  6
CONTINUOUS
 10
1124.703418268
 20
1047.2977463276
 11
1692.363418268
 21
1047.2977463276
  0
LINE
  5
360
100
AcDbEntity
  8
0
100
AcDbLine
 62
2
  6
CONTINUOUS
 10
1124.703418268
 20
1029.0097463276
 11
1692.363418268
 21
1029.0097463276
  0
LINE
  5
361
100
AcDbEntity
  8
0
100
AcDbLine
 62
2
  6
CONTINUOUS
 10
1124.703418268
 20
983.2897463276
 11
1692.363418268
 21
983.2897463276
  0
LINE
  5
362
100
AcDbEntity
  8
0
100
AcDbLine
 62
2
  6
CONTINUOUS
 10
1164.207418268
 20
1065.5857463276
 11
1164.207418268
 21
983.2897463276
  0
LINE
  5
363
100
AcDbEntity
  8
0
100
AcDbLine
 62
2
  6
CONTINUOUS
 10
1578.247418268
 20
1065.5857463276
 11
1578.247418268
 21
983.2897463276
  0
LINE
  5
364
100
AcDbEntity
  8
0
100
AcDbLine
 62
2
  6
CONTINUOUS
 10
1614.823418268
 20
1065.5857463276
 11
1614.823418268
 21
983.2897463276
  0
LINE
  5
365
100
AcDbEntity
  8
0
100
AcDbLine
 62
2
  6
CONTINUOUS
 10
1692.363418268
 20
1083.8737463276
 11
1692.363418268
 21
983.2897463276
  0
MTEXT
  5
366
100
AcDbEntity
  8
0
100
AcDbMText
 62
2
  6
CONTINUOUS
  7
TEXTSTYLE_2
 71
2
 72
1
 10
1408.533418268
 20
1079.3017463276
 30
0.0
 11
1.0
 21
0.0
 31
0.0
 73
2
 44
0.9
  1
REVISION
 40
9.144
 41
56.1557174721
  0
MTEXT
  5
367
100
AcDbEntity
  8
0
100
AcDbMText
 62
2
  6
CONTINUOUS
  7
TEXTSTYLE_2
 71
2
 72
1
 10
1144.455418268
 20
1061.0137463276
 30
0.0
 11
1.0
 21
0.0
 31
0.0
 73
2
 44
0.9
  1
REV
 40
9.144
 41
23.5228550186
  0
MTEXT
  5
368
100
AcDbEntity
  8
0
100
AcDbMText
 62
2
  6
CONTINUOUS
  7
TEXTSTYLE_2
 71
1
 72
1
 10
1167.865018268
 20
1061.0137463276
 30
0.0
 11
1.0
 21
0.0
 31
0.0
 73
2
 44
0.9
  1
                        DESCRIPTION
 40
9.144
 41
164.8979330855
  0
MTEXT
  5
369
100
AcDbEntity
  8
0
100
AcDbMText
 62
2
  6
CONTINUOUS
  7
TEXTSTYLE_2
 71
2
 72
1
 10
1596.535418268
 20
1061.0137463276
 30
0.0
 11
1.0
 21
0.0
 31
0.0
 73
2
 44
0.9
  1
BY
 40
9.144
 41
14.8547509294
  0
MTEXT
  5
36A
100
AcDbEntity
  8
0
100
AcDbMText
 62
2
  6
CONTINUOUS
  7
TEXTSTYLE_2
 71
2
 72
1
 10
1653.593418268
 20
1061.0137463276
 30
0.0
 11
1.0
 21
0.0
 31
0.0
 73
2
 44
0.9
  1
DATE
 40
9.144
 41
31.1711821561
  0
MTEXT
  5
36B
100
AcDbEntity
  8
0
100
AcDbMText
 62
2
  6
CONTINUOUS
  7
STANDARD
 71
2
 72
1
 10
1144.455418268
 20
1042.7257463276
 30
0.0
 11
1.0
 21
0.0
 31
0.0
 73
2
 44
0.9
  1
A
 40
9.144
 41
9.4159405204
  0
MTEXT
  5
36C
100
AcDbEntity
  8
0
100
AcDbMText
 62
2
  6
CONTINUOUS
  7
STANDARD
 71
1
 72
1
 10
1167.865018268
 20
1042.7257463276
 30
0.0
 11
1.0
 21
0.0
 31
0.0
 73
2
 44
0.9
  1
INITIAL RELEASE
 40
9.144
 41
92.2558215613
  0
MTEXT
  5
36D
100
AcDbEntity
  8
0
100
AcDbMText
 62
2
  6
CONTINUOUS
  7
STANDARD
 71
2
 72
1
 10
1596.535418268
 20
1042.7257463276
 30
0.0
 11
1.0
 21
0.0
 31
0.0
 73
2
 44
0.9
  1
H.HE
 40
9.144
 41
27.7719256506
  0
MTEXT
  5
36E
100
AcDbEntity
  8
0
100
AcDbMText
 62
2
  6
CONTINUOUS
  7
STANDARD
 71
2
 72
1
 10
1653.593418268
 20
1042.7257463276
 30
0.0
 11
1.0
 21
0.0
 31
0.0
 73
2
 44
0.9
  1
15-MAR-22
 40
9.144
 41
65.6736356877
  0
MTEXT
  5
36F
100
AcDbEntity
  8
0
100
AcDbMText
 62
2
  6
CONTINUOUS
  7
STANDARD
 71
2
 72
1
 10
1144.455418268
 20
1010.7217463276
 30
0.0
 11
1.0
 21
0.0
 31
0.0
 73
2
 44
0.9
  1
B
 40
9.144
 41
7.308401487
  0
MTEXT
  5
370
100
AcDbEntity
  8
0
100
AcDbMText
 62
2
  6
CONTINUOUS
  7
STANDARD
 71
1
 72
1
 10
1167.865018268
 20
1024.4377463276
 30
0.0
 11
1.0
 21
0.0
 31
0.0
 73
2
 44
0.9
  1
DISPLAY DUAL DIMENSIONS, ADD CABLE PASS THRU CUT-OUT \P(SHEET 1 ZONE C6), ADD MISSING MOUNTING SCREW CUT-OUTS \P(SHEET 1 ZONE B2).
 40
9.144
 41
388.6369962825
  0
MTEXT
  5
371
100
AcDbEntity
  8
0
100
AcDbMText
 62
2
  6
CONTINUOUS
  7
STANDARD
 71
2
 72
1
 10
1596.535418268
 20
1010.7217463276
 30
0.0
 11
1.0
 21
0.0
 31
0.0
 73
2
 44
0.9
  1
SS
 40
9.144
 41
12.7132193309
  0
MTEXT
  5
372
100
AcDbEntity
  8
0
100
AcDbMText
 62
2
  6
CONTINUOUS
  7
STANDARD
 71
2
 72
1
 10
1653.593418268
 20
1010.7217463276
 30
0.0
 11
1.0
 21
0.0
 31
0.0
 73
2
 44
0.9
  1
8-JUN-22
 40
9.144
 41
53.640267658
  0
MTEXT
  5
373
100
AcDbEntity
  8
0
100
AcDbMText
 62
2
  6
CONTINUOUS
  7
STANDARD
 71
1
 72
1
 10
43.8152956764
 20
1013.6124207634
 30
0.0
 11
1.0
 21
0.0
 31
0.0
 73
2
 44
1.2
  3
NOTE: UNLESS OTHERWISE SPECIFIED.\P1. NET WEIGHT (WITH WALL MOUNTIGN BRACKET) APPROX  2.1KG [ 4.7LBS]. \P2. PARTS ARE SYMMETRICAL ABOUT CENTER LINES UNLESS OTHERWISE NOTED.\P3. SYMBOL     INDICATES CENTER OF GRAVITY.\P4. GRILLE NOT SHOWN FOR CLARITY.
 40
9.144
 41
465.5961635688
  0
MTEXT
  5
374
100
AcDbEntity
  8
0
100
AcDbMText
 62
2
  6
CONTINUOUS
  7
STANDARD
 71
2
 72
1
 10
1310.3474944515
 20
690.5999265557
 30
0.0
 11
1.0
 21
0.0
 31
0.0
 73
2
 44
0.9
  1
SPEAKER WITH \PWALL MOUNTING BRACKETS
 40
9.144
 41
170.9486096654
  0
MTEXT
  5
375
100
AcDbEntity
  8
0
100
AcDbMText
 62
2
  6
CONTINUOUS
  7
STANDARD
 71
2
 72
1
 10
464.3602028417
 20
262.704380827
 30
0.0
 11
1.0
 21
0.0
 31
0.0
 73
2
 44
0.9
  1
FRONT VIEW\PSPEAKER WITH WALL MOUNTING BRACKET
 40
9.144
 41
253.2106171004
  0
MTEXT
  5
376
100
AcDbEntity
  8
0
100
AcDbMText
 62
2
  6
CONTINUOUS
  7
TEXTSTYLE_4
 71
1
 72
1
 10
465.8230807463
 20
551.9921405123
 30
0.0
 11
1.0
 21
0.0
 31
0.0
 73
2
 44
0.9
  1
{\fgdt;q}
 40
9.144
 41
14.478
  0
LEADER
  5
377
100
AcDbEntity
  8
0
100
AcDbLeader
 62
2
  6
CONTINUOUS
  3
STANDARD
 71
1
 72
0
 73
0
 75
0
 40
9.144
 41
24.7465873606
 76
3
 10
467.9529782056
 20
647.5504275214
 30
0.0
 10
399.749198356
 20
706.7354402208
 30
0.0
 10
374.349198356
 20
706.7354402208
 30
0.0
340
378
1001
ACAD
1000
DSTYLE
1002
{
1070
77
1070
0
1002
}
  0
MTEXT
  5
378
102
{ACAD_REACTORS
330
377
102
}
100
AcDbEntity
  8
0
100
AcDbMText
 62
2
  6
CONTINUOUS
  7
STANDARD
 71
3
 72
1
 10
365.3751611813
 20
711.3074402208
 30
0.0
 11
1.0
 21
0.0
 31
0.0
 73
2
 44
0.9
  1
10,0{\ftxt;\W0.0001;\H0.0001;\~}{\ftxt;\W0.2081784387;\H9.144; } X 8,5\P[.39]{\ftxt;\W0.0001;\H0.0001;\~}{\ftxt;\W1.6208178439;\H9.144; }[.33]\PCABLE PASS THRU
 40
9.144
 41
106.8046394052
  0
LEADER
  5
379
100
AcDbEntity
  8
0
100
AcDbLeader
 62
2
  6
CONTINUOUS
  3
STANDARD
 71
1
 72
0
 73
0
 75
0
 40
9.144
 41
174.4838364312
 76
3
 10
1581.7453777956
 20
344.7948352971
 30
0.0
 10
1560.3184223124
 20
439.5633490651
 30
0.0
 10
1534.9184223124
 20
439.5633490651
 30
0.0
340
37A
1001
ACAD
1000
DSTYLE
1002
{
1070
77
1070
0
1070
341
1005
20D
1002
}
  0
MTEXT
  5
37A
102
{ACAD_REACTORS
330
379
102
}
100
AcDbEntity
  8
0
100
AcDbMText
 62
2
  6
CONTINUOUS
  7
STANDARD
 71
3
 72
1
 10
1534.9184223124
 20
444.1353490651
 30
0.0
 11
1.0
 21
0.0
 31
0.0
 73
2
 44
0.9
  1
LOCATION ADJUSTMENT NUT
 40
9.144
 41
174.4838364312
  0
LEADER
  5
37B
100
AcDbEntity
  8
0
100
AcDbLeader
 62
2
  6
CONTINUOUS
  3
STANDARD
 71
1
 72
0
 73
0
 75
0
 40
9.144
 41
176.5573828996
 76
3
 10
1127.3789425631
 20
381.0373658491
 30
0.0
 10
1063.6305266534
 20
442.9971940216
 30
0.0
 10
1038.2305266534
 20
442.9971940216
 30
0.0
340
37C
1001
ACAD
1000
DSTYLE
1002
{
1070
77
1070
0
1070
341
1005
20D
1002
}
  0
MTEXT
  5
37C
102
{ACAD_REACTORS
330
37B
102
}
100
AcDbEntity
  8
0
100
AcDbMText
 62
2
  6
CONTINUOUS
  7
STANDARD
 71
3
 72
1
 10
1038.2305266534
 20
447.5691940216
 30
0.0
 11
1.0
 21
0.0
 31
0.0
 73
2
 44
0.9
  1
SAFETY LOCKING SCREW, M4
 40
9.144
 41
176.5573828996
  0
LEADER
  5
37D
100
AcDbEntity
  8
0
100
AcDbLeader
 62
2
  6
CONTINUOUS
  3
STANDARD
 71
1
 72
0
 73
0
 75
0
 40
9.144
 41
60.0988550186
 76
3
 10
1349.4838769056
 20
340.3739482586
 30
0.0
 10
1368.2275780812
 20
286.844660484
 30
0.0
 10
1393.6275780812
 20
286.844660484
 30
0.0
340
37E
1001
ACAD
1000
DSTYLE
1002
{
1070
77
1070
0
1002
}
  0
MTEXT
  5
37E
102
{ACAD_REACTORS
330
37D
102
}
100
AcDbEntity
  8
0
100
AcDbMText
 62
2
  6
CONTINUOUS
  7
STANDARD
 71
1
 72
1
 10
1393.6275780812
 20
291.416660484
 30
0.0
 11
1.0
 21
0.0
 31
0.0
 73
2
 44
0.9
  1
32X28 TYP\PCABLE ROUTING CUTOUT
 40
9.144
 41
151.9807583643
  0
LEADER
  5
37F
100
AcDbEntity
  8
0
100
AcDbLeader
 62
2
  6
CONTINUOUS
  3
STANDARD
 71
1
 72
0
 73
0
 75
0
 40
9.144
 41
53.028401487
 76
3
 10
1327.4838769056
 20
326.3739482586
 30
0.0
 10
1356.9563734054
 20
246.9829993428
 30
0.0
 10
1382.3563734054
 20
246.9829993428
 30
0.0
340
380
1001
ACAD
1000
DSTYLE
1002
{
1070
77
1070
0
1002
}
  0
MTEXT
  5
380
102
{ACAD_REACTORS
330
37F
102
}
100
AcDbEntity
  8
0
100
AcDbMText
 62
2
  6
CONTINUOUS
  7
STANDARD
 71
1
 72
1
 10
1382.3563734054
 20
251.5549993428
 30
0.0
 11
1.0
 21
0.0
 31
0.0
 73
2
 44
0.9
  1
26X6 TYP\PMOUNTING SCREW CUTOUT
 40
9.144
 41
169.1130111524
  0
INSERT
  5
381
100
AcDbEntity
  8
0
100
AcDbBlockReference
 62
2
  6
CONTINUOUS
  2
CG_BL0
 10
117.2345836095
 20
953.8345962173
  0
INSERT
  5
382
100
AcDbEntity
  8
0
100
AcDbBlockReference
 62
2
  6
CONTINUOUS
  2
CG_BL1
 10
497.0182001209
 20
354.3732845302
  0
INSERT
  5
383
100
AcDbEntity
  8
0
100
AcDbBlockReference
 62
2
  6
CONTINUOUS
  2
CG_BL2
 10
497.0218051342
 20
601.788130564
  0
LWPOLYLINE
  5
384
100
AcDbEntity
  8
0
100
AcDbPolyline
 62
7
  6
CONTINUOUS
 90
2
 70
0
 43
0.9999999955
 10
29.5673818897
 20
564.4124556322
 10
29.5673818897
 20
557.0801072134
  0
LWPOLYLINE
  5
385
100
AcDbEntity
  8
0
100
AcDbPolyline
 62
7
  6
CONTINUOUS
 90
2
 70
0
 43
0.9999999955
 10
35.9173818897
 20
1083.986281423
 10
35.9173818897
 20
37.506281423
  0
LWPOLYLINE
  5
386
100
AcDbEntity
  8
0
100
AcDbPolyline
 62
7
  6
CONTINUOUS
 90
2
 70
0
 43
0.9999999955
 10
242.9273818897
 20
37.506281423
 10
242.9273818897
 20
24.806281423
  0
LWPOLYLINE
  5
387
100
AcDbEntity
  8
0
100
AcDbPolyline
 62
7
  6
CONTINUOUS
 90
2
 70
0
 43
0.9999999955
 10
242.9273818897
 20
1083.986281423
 10
242.9273818897
 20
1096.686281423
  0
LWPOLYLINE
  5
388
100
AcDbEntity
  8
0
100
AcDbPolyline
 62
7
  6
CONTINUOUS
 90
2
 70
0
 43
0.9999999955
 10
305.6590128877
 20
1027.5217537833
 10
305.6590128877
 20
1083.497463517
  0
LWPOLYLINE
  5
389
100
AcDbEntity
  8
0
100
AcDbPolyline
 62
7
  6
CONTINUOUS
 90
2
 70
0
 43
0.9999999955
 10
1298.2232785485
 20
49.5357253322
 10
1313.4632785489
 20
52.0757253322
  0
LWPOLYLINE
  5
38A
100
AcDbEntity
  8
0
100
AcDbPolyline
 62
7
  6
CONTINUOUS
 90
2
 70
0
 43
0.9999999955
 10
867.6235560989
 20
31.156281423
 10
860.2912076805
 20
31.156281423
  0
LWPOLYLINE
  5
38B
100
AcDbEntity
  8
0
100
AcDbPolyline
 62
7
  6
CONTINUOUS
 90
2
 70
0
 43
0.9999999955
 10
1691.9973818897
 20
37.506281423
 10
35.9173818897
 20
37.506281423
  0
LWPOLYLINE
  5
38C
100
AcDbEntity
  8
0
100
AcDbPolyline
 62
7
  6
CONTINUOUS
 90
2
 70
0
 43
0.3999999879
 10
1281.4795985485
 20
46.9957253322
 10
1294.6469585489
 20
46.9957253322
  0
LWPOLYLINE
  5
38D
100
AcDbEntity
  8
0
100
AcDbPolyline
 62
7
  6
CONTINUOUS
 90
2
 70
0
 43
0.3999999879
 10
1296.3317325813
 20
46.9957253322
 10
1315.0177925789
 20
46.9957253322
  0
LWPOLYLINE
  5
38E
100
AcDbEntity
  8
0
100
AcDbPolyline
 62
7
  6
CONTINUOUS
 90
2
 70
0
 43
0.9999999955
 10
1456.4529201489
 20
50.206281423
 10
1691.9973818897
 20
50.206281423
  0
LWPOLYLINE
  5
38F
100
AcDbEntity
  8
0
100
AcDbPolyline
 62
7
  6
CONTINUOUS
 90
2
 70
0
 43
0.9999999955
 10
1183.9973818897
 20
55.794281423
 10
1317.8034306173
 20
55.794281423
  0
LWPOLYLINE
  5
390
100
AcDbEntity
  8
0
100
AcDbPolyline
 62
7
  6
CONTINUOUS
 90
2
 70
0
 43
0.9999999955
 10
1317.6589096977
 20
64.506281423
 10
1456.3083992293
 20
64.506281423
  0
LWPOLYLINE
  5
391
100
AcDbEntity
  8
0
100
AcDbPolyline
 62
7
  6
CONTINUOUS
 90
2
 70
0
 43
0.9999999955
 10
1183.9973818897
 20
74.082281423
 10
1317.8034306173
 20
74.082281423
  0
LWPOLYLINE
  5
392
100
AcDbEntity
  8
0
100
AcDbPolyline
 62
7
  6
CONTINUOUS
 90
2
 70
0
 43
0.9999999955
 10
1456.4529201489
 20
76.006281423
 10
1691.9973818897
 20
76.006281423
  0
LWPOLYLINE
  5
393
100
AcDbEntity
  8
0
100
AcDbPolyline
 62
7
  6
CONTINUOUS
 90
2
 70
0
 43
0.9999999955
 10
29.5673818897
 20
557.0801072134
 10
35.9173818897
 20
560.746281423
  0
LWPOLYLINE
  5
394
100
AcDbEntity
  8
0
100
AcDbPolyline
 62
7
  6
CONTINUOUS
 90
2
 70
0
 43
0.9999999955
 10
1317.8034306173
 20
91.506281423
 10
1456.4529201489
 20
91.506281423
  0
LWPOLYLINE
  5
395
100
AcDbEntity
  8
0
100
AcDbPolyline
 62
7
  6
CONTINUOUS
 90
2
 70
0
 43
0.9999999955
 10
1183.9973818897
 20
92.370281423
 10
1317.8034306173
 20
92.370281423
  0
LWPOLYLINE
  5
396
100
AcDbEntity
  8
0
100
AcDbPolyline
 62
7
  6
CONTINUOUS
 90
2
 70
0
 43
0.9999999955
 10
1317.8034306173
 20
110.9267504118
 10
1183.9973818897
 20
110.9267504118
  0
LWPOLYLINE
  5
397
100
AcDbEntity
  8
0
100
AcDbPolyline
 62
7
  6
CONTINUOUS
 90
2
 70
0
 43
0.9999999955
 10
1317.8034306173
 20
118.506281423
 10
1456.4529201489
 20
118.506281423
  0
LWPOLYLINE
  5
398
100
AcDbEntity
  8
0
100
AcDbPolyline
 62
7
  6
CONTINUOUS
 90
2
 70
0
 43
0.9999999955
 10
1317.8034306173
 20
144.4054702258
 10
1456.4529201489
 20
144.4054702258
  0
LWPOLYLINE
  5
399
100
AcDbEntity
  8
0
100
AcDbPolyline
 62
7
  6
CONTINUOUS
 90
2
 70
0
 43
0.9999999955
 10
1298.2232785485
 20
44.4557253322
 10
1313.4632785489
 20
41.9157253322
  0
LWPOLYLINE
  5
39A
100
AcDbEntity
  8
0
100
AcDbPolyline
 62
7
  6
CONTINUOUS
 90
2
 70
0
 43
0.9999999955
 10
449.9373818897
 20
37.506281423
 10
449.9373818897
 20
24.806281423
  0
LWPOLYLINE
  5
39B
100
AcDbEntity
  8
0
100
AcDbPolyline
 62
7
  6
CONTINUOUS
 90
2
 70
0
 43
0.9999999955
 10
449.9373818897
 20
1083.986281423
 10
449.9373818897
 20
1096.686281423
  0
LINE
  5
39C
100
AcDbEntity
  8
DEFAULT_1
100
AcDbLine
 62
2
  6
CENTER
 10
472.9529782056
 20
562.0399134858
 11
472.9529782056
 21
631.3365181926
  0
LINE
  5
39D
100
AcDbEntity
  8
DEFAULT_1
100
AcDbLine
 62
2
  6
CENTER
 10
472.952978207
 20
631.3399401882
 11
472.9529782095
 21
662.7796683758
  0
LINE
  5
39E
100
AcDbEntity
  8
DEFAULT_1
100
AcDbLine
 62
2
  6
CENTER
 10
497.0527849473
 20
609.3848833977
 11
497.0527849473
 21
592.7982371593
  0
LINE
  5
39F
100
AcDbEntity
  8
DEFAULT_1
100
AcDbLine
 62
2
  6
CENTER
 10
497.119280229
 20
365.0039005307
 11
497.119280229
 21
343.1990395653
  0
LWPOLYLINE
  5
3A0
100
AcDbEntity
  8
0
100
AcDbPolyline
 62
7
  6
CONTINUOUS
 90
2
 70
0
 43
0.9999999955
 10
1456.4529201489
 20
151.806281423
 10
1691.9973818897
 20
151.806281423
  0
LWPOLYLINE
  5
3A1
100
AcDbEntity
  8
0
100
AcDbPolyline
 62
7
  6
CONTINUOUS
 90
2
 70
0
 43
0.9999999955
 10
1317.8034306173
 20
155.0734702258
 10
1456.4529201489
 20
155.0734702258
  0
LINE
  5
3A2
100
AcDbEntity
  8
0
100
AcDbLine
 62
7
  6
CONTINUOUS
 10
1481.1708626216
 20
159.9725264827
 11
1486.5907799627
 21
159.9725264827
  0
LINE
  5
3A3
100
AcDbEntity
  8
0
100
AcDbLine
 62
7
  6
CONTINUOUS
 10
1466.7609594869
 20
162.0694654241
 11
1480.82278534
 21
162.0694654241
  0
LINE
  5
3A4
100
AcDbEntity
  8
0
100
AcDbLine
 62
7
  6
CONTINUOUS
 10
1486.9388572443
 20
162.0694654241
 11
1489.7039384997
 21
162.0694654241
  0
LINE
  5
3A5
100
AcDbEntity
  8
0
100
AcDbLine
 62
7
  6
CONTINUOUS
 10
1497.3198871982
 20
162.0694654168
 11
1522.4736937602
 21
162.0694654168
  0
LINE
  5
3A6
100
AcDbEntity
  8
0
100
AcDbLine
 62
7
  6
CONTINUOUS
 10
1517.5815383922
 20
165.5941155192
 11
1497.3198871982
 21
165.5941155192
  0
LINE
  5
3A7
100
AcDbEntity
  8
0
100
AcDbLine
 62
7
  6
CONTINUOUS
 10
1558.2383447445
 20
165.672514428
 11
1537.3843230434
 21
165.672514428
  0
LINE
  5
3A8
100
AcDbEntity
  8
0
100
AcDbLine
 62
7
  6
CONTINUOUS
 10
1470.3490949989
 20
165.7983722379
 11
1480.7436206187
 21
165.7983722379
  0
LINE
  5
3A9
100
AcDbEntity
  8
0
100
AcDbLine
 62
7
  6
CONTINUOUS
 10
1486.8320713848
 20
165.7983722561
 11
1488.4306910456
 21
165.7983722561
  0
LINE
  5
3AA
100
AcDbEntity
  8
0
100
AcDbLine
 62
7
  6
CONTINUOUS
 10
1481.0916979042
 20
167.8898924411
 11
1486.4839941179
 21
167.8898924411
  0
LINE
  5
3AB
100
AcDbEntity
  8
0
100
AcDbLine
 62
7
  6
CONTINUOUS
 10
1500.1997501778
 20
169.2520358334
 11
1517.5815383957
 21
169.2520358334
  0
LINE
  5
3AC
100
AcDbEntity
  8
0
100
AcDbLine
 62
7
  6
CONTINUOUS
 10
1522.4736937602
 20
172.9102386974
 11
1505.3235932808
 21
172.9102386974
  0
LINE
  5
3AD
100
AcDbEntity
  8
0
100
AcDbLine
 62
7
  6
CONTINUOUS
 10
1505.3235932773
 20
176.43259314
 11
1525.6127466898
 21
176.43259314
  0
LINE
  5
3AE
100
AcDbEntity
  8
0
100
AcDbLine
 62
7
  6
CONTINUOUS
 10
1537.3843230472
 20
176.4687007489
 11
1558.2383447406
 21
176.4687007489
  0
LINE
  5
3AF
100
AcDbEntity
  8
0
100
AcDbLine
 62
7
  6
CONTINUOUS
 10
1470.3490950024
 20
176.6326241752
 11
1488.4306910382
 21
176.6326241752
  0
LINE
  5
3B0
100
AcDbEntity
  8
0
100
AcDbLine
 62
7
  6
CONTINUOUS
 10
1489.7039384997
 20
180.0681913409
 11
1466.7609594869
 21
180.0681913409
  0
LINE
  5
3B1
100
AcDbEntity
  8
0
100
AcDbLine
 62
7
  6
CONTINUOUS
 10
1558.2383447454
 20
180.0893264827
 11
1533.9084773083
 21
180.0893264827
  0
LINE
  5
3B2
100
AcDbEntity
  8
0
100
AcDbLine
 62
7
  6
CONTINUOUS
 10
1525.6127466898
 20
180.0893264792
 11
1500.1997501778
 21
180.0893264792
  0
LWPOLYLINE
  5
3B3
100
AcDbEntity
  8
0
100
AcDbPolyline
 62
7
  6
CONTINUOUS
 90
2
 70
0
 43
0.9999999955
 10
1183.9973818897
 20
189.906281423
 10
1691.9973818897
 20
189.906281423
  0
LINE
  5
3B4
100
AcDbEntity
  8
0
100
AcDbLine
 62
7
  6
CONTINUOUS
 10
1533.9084773083
 20
162.0694745534
 11
1558.240319996
 21
162.039270339
  0
LWPOLYLINE
  5
3B5
100
AcDbEntity
  8
0
100
AcDbPolyline
 62
7
  6
CONTINUOUS
 90
2
 70
0
 43
0.9999999955
 10
35.9173818897
 20
560.746281423
 10
29.5673818897
 20
564.4124556322
  0
LWPOLYLINE
  5
3B6
100
AcDbEntity
  8
0
100
AcDbPolyline
 62
7
  6
CONTINUOUS
 90
2
 70
0
 43
0.9999999955
 10
863.9573818897
 20
1083.986281423
 10
867.6235560989
 20
1090.336281423
  0
LWPOLYLINE
  5
3B7
100
AcDbEntity
  8
0
100
AcDbPolyline
 62
7
  6
CONTINUOUS
 90
2
 70
0
 43
0.9999999955
 10
35.9173818897
 20
299.126281423
 10
23.2173818897
 20
299.126281423
  0
LWPOLYLINE
  5
3B8
100
AcDbEntity
  8
0
100
AcDbPolyline
 62
7
  6
CONTINUOUS
 90
2
 70
0
 43
0.9999999955
 10
1691.9973818897
 20
299.126281423
 10
1704.6973818897
 20
299.126281423
  0
LWPOLYLINE
  5
3B9
100
AcDbEntity
  8
0
100
AcDbPolyline
 62
7
  6
CONTINUOUS
 90
2
 70
0
 43
0.9999999955
 10
863.9573818897
 20
37.506281423
 10
867.6235560989
 20
31.156281423
  0
LWPOLYLINE
  5
3BA
100
AcDbEntity
  8
0
100
AcDbPolyline
 62
7
  6
CONTINUOUS
 90
2
 70
0
 43
0.9999999955
 10
656.9473818897
 20
37.506281423
 10
656.9473818897
 20
24.806281423
  0
LWPOLYLINE
  5
3BB
100
AcDbEntity
  8
0
100
AcDbPolyline
 62
7
  6
CONTINUOUS
 90
2
 70
0
 43
0.9999999955
 10
656.9473818897
 20
1083.986281423
 10
656.9473818897
 20
1096.686281423
  0
LINE
  5
3BC
100
AcDbEntity
  8
DEFAULT_1
100
AcDbLine
 62
2
  6
CENTER
 10
1180.744511916
 20
329.2926726998
 11
1211.1112974279
 21
329.3739482586
  0
LINE
  5
3BD
100
AcDbEntity
  8
DEFAULT_1
100
AcDbLine
 62
2
  6
CENTER
 10
204.754686352
 20
354.3739482586
 11
741.1512700591
 21
354.3739482586
  0
LINE
  5
3BE
100
AcDbEntity
  8
DEFAULT_1
100
AcDbLine
 62
2
  6
CENTER
 10
1085.3341051473
 20
354.3739482586
 11
1613.6203000941
 21
354.3739482586
  0
LINE
  5
3BF
100
AcDbEntity
  8
DEFAULT_1
100
AcDbLine
 62
2
  6
CENTER
 10
1174.8985383782
 20
379.3739482586
 11
1211.1112974279
 21
379.3739482586
  0
LINE
  5
3C0
100
AcDbEntity
  8
DEFAULT_1
100
AcDbLine
 62
2
  6
CENTER
 10
1137.2036769594
 20
329.3719301564
 11
1167.194348316
 21
329.3038866283
  0
LWPOLYLINE
  5
3C1
100
AcDbEntity
  8
0
100
AcDbPolyline
 62
7
  6
CONTINUOUS
 90
2
 70
0
 43
0.9999999955
 10
863.9573818897
 20
37.506281423
 10
863.9573818897
 20
24.806281423
  0
LWPOLYLINE
  5
3C2
100
AcDbEntity
  8
0
100
AcDbPolyline
 62
7
  6
CONTINUOUS
 90
2
 70
0
 43
0.9999999955
 10
863.9573818897
 20
1083.986281423
 10
863.9573818897
 20
1096.686281423
  0
LWPOLYLINE
  5
3C3
100
AcDbEntity
  8
0
100
AcDbPolyline
 62
7
  6
CONTINUOUS
 90
2
 70
0
 43
0.9999999955
 10
35.9173818897
 20
560.746281423
 10
23.2173818897
 20
560.746281423
  0
LWPOLYLINE
  5
3C4
100
AcDbEntity
  8
0
100
AcDbPolyline
 62
7
  6
CONTINUOUS
 90
2
 70
0
 43
0.9999999955
 10
1691.9973818897
 20
560.746281423
 10
1704.6973818897
 20
560.746281423
  0
LINE
  5
3C5
100
AcDbEntity
  8
DEFAULT_1
100
AcDbLine
 62
2
  6
CENTER
 10
505.1866210834
 20
601.7295082107
 11
488.599974845
 21
601.7295082107
  0
LWPOLYLINE
  5
3C6
100
AcDbEntity
  8
0
100
AcDbPolyline
 62
7
  6
CONTINUOUS
 90
2
 70
0
 43
0.9999999955
 10
1070.9673818897
 20
37.506281423
 10
1070.9673818897
 20
24.806281423
  0
LWPOLYLINE
  5
3C7
100
AcDbEntity
  8
0
100
AcDbPolyline
 62
7
  6
CONTINUOUS
 90
2
 70
0
 43
0.9999999955
 10
1070.9673818897
 20
1083.986281423
 10
1070.9673818897
 20
1096.686281423
  0
LINE
  5
3C8
100
AcDbEntity
  8
DEFAULT_1
100
AcDbLine
 62
2
  6
CENTER
 10
1151.4782431297
 20
324.4063225121
 11
1151.4937580234
 21
333.4772276069
  0
LWPOLYLINE
  5
3C9
100
AcDbEntity
  8
0
100
AcDbPolyline
 62
7
  6
CONTINUOUS
 90
2
 70
0
 43
0.9999999955
 10
863.9573818897
 20
37.506281423
 10
860.2912076805
 20
31.156281423
  0
LWPOLYLINE
  5
3CA
100
AcDbEntity
  8
0
100
AcDbPolyline
 62
7
  6
CONTINUOUS
 90
2
 70
0
 43
0.9999999955
 10
35.9173818897
 20
822.366281423
 10
23.2173818897
 20
822.366281423
  0
LWPOLYLINE
  5
3CB
100
AcDbEntity
  8
0
100
AcDbPolyline
 62
7
  6
CONTINUOUS
 90
2
 70
0
 43
0.9999999955
 10
1691.9973818897
 20
822.366281423
 10
1704.6973818897
 20
822.366281423
  0
LWPOLYLINE
  5
3CC
100
AcDbEntity
  8
0
100
AcDbPolyline
 62
7
  6
CONTINUOUS
 90
2
 70
0
 43
0.9999999955
 10
863.9573818897
 20
1083.986281423
 10
860.2912076805
 20
1090.336281423
  0
LINE
  5
3CD
100
AcDbEntity
  8
DEFAULT_1
100
AcDbLine
 62
2
  6
CENTER
 10
1173.5446237587
 20
370.4544011968
 11
1173.5446237587
 21
337.6848101458
  0
LWPOLYLINE
  5
3CE
100
AcDbEntity
  8
0
100
AcDbPolyline
 62
7
  6
CONTINUOUS
 90
2
 70
0
 43
0.9999999955
 10
1183.9973818897
 20
37.506281423
 10
1183.9973818897
 20
189.906281423
  0
LINE
  5
3CF
100
AcDbEntity
  8
DEFAULT_1
100
AcDbLine
 62
2
  6
CENTER
 10
1195.4950753915
 20
324.9824094165
 11
1195.4950753915
 21
334.1178238062
  0
LINE
  5
3D0
100
AcDbEntity
  8
DEFAULT_1
100
AcDbLine
 62
2
  6
CENTER
 10
1217.4814049923
 20
370.8525335228
 11
1217.4778663749
 21
338.6134958568
  0
LWPOLYLINE
  5
3D1
100
AcDbEntity
  8
0
100
AcDbPolyline
 62
7
  6
CONTINUOUS
 90
2
 70
0
 43
0.9999999955
 10
1277.9773818897
 20
24.806281423
 10
1277.9773818897
 20
55.794281423
  0
LWPOLYLINE
  5
3D2
100
AcDbEntity
  8
0
100
AcDbPolyline
 62
7
  6
CONTINUOUS
 90
2
 70
0
 43
0.9999999955
 10
1277.9773818897
 20
1083.986281423
 10
1277.9773818897
 20
1096.686281423
  0
LWPOLYLINE
  5
3D3
100
AcDbEntity
  8
0
100
AcDbPolyline
 62
7
  6
CONTINUOUS
 90
2
 70
0
 43
0.3999999879
 10
1288.0632785485
 20
40.4120453322
 10
1288.0632785485
 20
53.5794053322
  0
LWPOLYLINE
  5
3D4
100
AcDbEntity
  8
0
100
AcDbPolyline
 62
7
  6
CONTINUOUS
 90
2
 70
0
 43
0.9999999955
 10
1691.9973818897
 20
560.746281423
 10
1698.3473818897
 20
564.4124556322
  0
LWPOLYLINE
  5
3D5
100
AcDbEntity
  8
0
100
AcDbPolyline
 62
7
  6
CONTINUOUS
 90
2
 70
0
 43
0.9999999955
 10
1698.3473818897
 20
557.0801072134
 10
1691.9973818897
 20
560.746281423
  0
LWPOLYLINE
  5
3D6
100
AcDbEntity
  8
0
100
AcDbPolyline
 62
7
  6
CONTINUOUS
 90
2
 70
0
 43
0.9999999955
 10
1298.2232785485
 20
49.5357253322
 10
1298.2232785485
 20
44.4557253322
  0
LWPOLYLINE
  5
3D7
100
AcDbEntity
  8
0
100
AcDbPolyline
 62
7
  6
CONTINUOUS
 90
2
 70
0
 43
0.9999999955
 10
1313.4632785489
 20
52.0757253322
 10
1313.4632785489
 20
41.9157253322
  0
LWPOLYLINE
  5
3D8
100
AcDbEntity
  8
0
100
AcDbPolyline
 62
7
  6
CONTINUOUS
 90
2
 70
0
 43
0.9999999955
 10
1317.8034306173
 20
189.906281423
 10
1317.8034306173
 20
37.506281423
  0
LWPOLYLINE
  5
3D9
100
AcDbEntity
  8
0
100
AcDbPolyline
 62
7
  6
CONTINUOUS
 90
2
 70
0
 43
0.9999999955
 10
35.9170902099
 20
1027.939804093
 10
306.1759456685
 20
1027.939804093
  0
LWPOLYLINE
  5
3DA
100
AcDbEntity
  8
0
100
AcDbPolyline
 62
7
  6
CONTINUOUS
 90
2
 70
0
 43
0.9999999955
 10
35.9173818897
 20
1083.586281423
 10
1691.9973818897
 20
1083.586281423
  0
LWPOLYLINE
  5
3DB
100
AcDbEntity
  8
0
100
AcDbPolyline
 62
7
  6
CONTINUOUS
 90
2
 70
0
 43
0.9999999955
 10
867.6235560989
 20
1090.336281423
 10
860.2912076805
 20
1090.336281423
  0
LWPOLYLINE
  5
3DC
100
AcDbEntity
  8
0
100
AcDbPolyline
 62
7
  6
CONTINUOUS
 90
2
 70
0
 43
0.9999999955
 10
1456.4529201489
 20
189.906281423
 10
1456.4529201489
 20
37.506281423
  0
LINE
  5
3DD
100
AcDbEntity
  8
0
100
AcDbLine
 62
7
  6
CONTINUOUS
 10
1469.4440940578
 20
166.703373179
 11
1469.4440940578
 21
175.7276232305
  0
LINE
  5
3DE
100
AcDbEntity
  8
0
100
AcDbLine
 62
7
  6
CONTINUOUS
 10
1528.796709739
 20
171.1108162625
 11
1528.7982981102
 21
170.9731128238
  0
LWPOLYLINE
  5
3DF
100
AcDbEntity
  8
0
100
AcDbPolyline
 62
7
  6
CONTINUOUS
 90
2
 70
0
 43
0.9999999955
 10
1474.8129424877
 20
75.606281423
 10
1474.8129424877
 20
50.206281423
  0
LINE
  5
3E0
100
AcDbEntity
  8
0
100
AcDbLine
 62
7
  6
CONTINUOUS
 10
1480.7436206187
 20
165.7983722379
 11
1480.7436206187
 21
167.541815156
  0
LINE
  5
3E1
100
AcDbEntity
  8
0
100
AcDbLine
 62
7
  6
CONTINUOUS
 10
1480.82278534
 20
162.0694654241
 11
1480.82278534
 21
160.3206037643
  0
LWPOLYLINE
  5
3E2
100
AcDbEntity
  8
0
100
AcDbPolyline
 62
7
  6
CONTINUOUS
 90
2
 70
0
 43
0.9999999955
 10
1484.9873818897
 20
37.506281423
 10
1484.9873818897
 20
24.806281423
  0
LWPOLYLINE
  5
3E3
100
AcDbEntity
  8
0
100
AcDbPolyline
 62
7
  6
CONTINUOUS
 90
2
 70
0
 43
0.9999999955
 10
1484.9873818897
 20
1083.986281423
 10
1484.9873818897
 20
1096.686281423
  0
LINE
  5
3E4
100
AcDbEntity
  8
0
100
AcDbLine
 62
7
  6
CONTINUOUS
 10
1486.8320713848
 20
165.7983722561
 11
1486.8320713848
 21
167.5418151669
  0
LINE
  5
3E5
100
AcDbEntity
  8
0
100
AcDbLine
 62
7
  6
CONTINUOUS
 10
1486.9388572443
 20
160.3206037643
 11
1486.9388572443
 21
162.0694654241
  0
LINE
  5
3E6
100
AcDbEntity
  8
0
100
AcDbLine
 62
7
  6
CONTINUOUS
 10
1489.3356919829
 20
166.7033731934
 11
1489.3356919829
 21
175.7276232453
  0
LINE
  5
3E7
100
AcDbEntity
  8
0
100
AcDbLine
 62
7
  6
CONTINUOUS
 10
1493.9701604552
 20
165.4373171038
 11
1493.9701604552
 21
176.7003396539
  0
LINE
  5
3E8
100
AcDbEntity
  8
0
100
AcDbLine
 62
7
  6
CONTINUOUS
 10
1496.4148862574
 20
164.6891145781
 11
1496.4148862574
 21
162.9744663576
  0
LWPOLYLINE
  5
3E9
100
AcDbEntity
  8
0
100
AcDbPolyline
 62
7
  6
CONTINUOUS
 90
2
 70
0
 43
0.9999999955
 10
1503.8277000141
 20
50.206281423
 10
1503.8277000141
 20
37.506281423
  0
LINE
  5
3EA
100
AcDbEntity
  8
0
100
AcDbLine
 62
7
  6
CONTINUOUS
 10
1504.41859234
 20
173.8152396382
 11
1504.41859234
 21
175.5275922027
  0
LINE
  5
3EB
100
AcDbEntity
  8
0
100
AcDbLine
 62
7
  6
CONTINUOUS
 10
1518.4865393294
 20
168.3470348926
 11
1518.4865393294
 21
166.4991164565
  0
LWPOLYLINE
  5
3EC
100
AcDbEntity
  8
0
100
AcDbPolyline
 62
7
  6
CONTINUOUS
 90
2
 70
0
 43
0.9999999955
 10
1523.0729424877
 20
75.606281423
 10
1523.0729424877
 20
50.206281423
  0
LINE
  5
3ED
100
AcDbEntity
  8
0
100
AcDbLine
 62
7
  6
CONTINUOUS
 10
1526.5177476306
 20
177.3375940811
 11
1526.5177476306
 21
179.1843255307
  0
LINE
  5
3EE
100
AcDbEntity
  8
0
100
AcDbLine
 62
7
  6
CONTINUOUS
 10
1536.4793221026
 20
166.5775153688
 11
1536.4793221026
 21
175.5636998043
  0
LINE
  5
3EF
100
AcDbEntity
  8
0
100
AcDbLine
 62
7
  6
CONTINUOUS
 10
1559.1433456818
 20
162.9442691195
 11
1559.1433456818
 21
164.7675134907
  0
LINE
  5
3F0
100
AcDbEntity
  8
0
100
AcDbLine
 62
7
  6
CONTINUOUS
 10
1559.1433456818
 20
177.3737016901
 11
1559.1433456818
 21
179.1843255541
  0
LWPOLYLINE
  5
3F1
100
AcDbEntity
  8
0
100
AcDbPolyline
 62
7
  6
CONTINUOUS
 90
2
 70
0
 43
0.9999999955
 10
1622.7721005401
 20
50.206281423
 10
1622.7721005401
 20
37.506281423
  0
LWPOLYLINE
  5
3F2
100
AcDbEntity
  8
0
100
AcDbPolyline
 62
7
  6
CONTINUOUS
 90
2
 70
0
 43
0.9999999955
 10
1649.8064105445
 20
75.606281423
 10
1649.8064105445
 20
50.206281423
  0
LWPOLYLINE
  5
3F3
100
AcDbEntity
  8
0
100
AcDbPolyline
 62
7
  6
CONTINUOUS
 90
2
 70
0
 43
0.9999999955
 10
1691.9973818897
 20
37.506281423
 10
1691.9973818897
 20
1083.986281423
  0
LWPOLYLINE
  5
3F4
100
AcDbEntity
  8
0
100
AcDbPolyline
 62
7
  6
CONTINUOUS
 90
2
 70
0
 43
0.9999999955
 10
1698.3473818897
 20
564.4124556322
 10
1698.3473818897
 20
557.0801072134
  0
LINE
  5
3F5
100
AcDbEntity
  8
0
100
AcDbLine
 62
7
  6
CONTINUOUS
 10
1159.260389051
 20
872.5629893741
 11
1159.6128514534
 21
802.3141125751
  0
LINE
  5
3F6
100
AcDbEntity
  8
0
100
AcDbLine
 62
7
  6
CONTINUOUS
 10
1160.2629200658
 20
872.220077906
 11
1160.6153824701
 21
801.9712007219
  0
LINE
  5
3F7
100
AcDbEntity
  8
0
100
AcDbLine
 62
7
  6
CONTINUOUS
 10
1161.2835451968
 20
798.371713695
 11
1160.9364100694
 21
867.5588174407
  0
LINE
  5
3F8
100
AcDbEntity
  8
0
100
AcDbLine
 62
7
  6
CONTINUOUS
 10
1162.9414721026
 20
866.8729937588
 11
1162.9861037618
 21
857.9775089914
  0
LINE
  5
3F9
100
AcDbEntity
  8
0
100
AcDbLine
 62
7
  6
CONTINUOUS
 10
1163.9271568645
 20
872.4816603259
 11
1163.9507767555
 21
867.7740069537
  0
LINE
  5
3FA
100
AcDbEntity
  8
0
100
AcDbLine
 62
7
  6
CONTINUOUS
 10
1164.5474802198
 20
810.0822799357
 11
1164.5772346593
 21
804.1519567575
  0
LINE
  5
3FB
100
AcDbEntity
  8
0
100
AcDbLine
 62
7
  6
CONTINUOUS
 10
1164.3155609021
 20
866.9710871662
 11
1164.3601925614
 21
858.0756023989
  0
LINE
  5
3FC
100
AcDbEntity
  8
0
100
AcDbLine
 62
7
  6
CONTINUOUS
 10
1164.8191739031
 20
857.9186096134
 11
1164.7909472583
 21
863.5444297814
  0
LINE
  5
3FD
100
AcDbEntity
  8
0
100
AcDbLine
 62
7
  6
CONTINUOUS
 10
1165.924424245
 20
809.6113015792
 11
1165.9513234588
 21
804.250050165
  0
LINE
  5
3FE
100
AcDbEntity
  8
0
100
AcDbLine
 62
7
  6
CONTINUOUS
 10
1170.9843132015
 20
884.1788433957
 11
1160.4458997654
 21
876.6611861359
  0
LINE
  5
3FF
100
AcDbEntity
  8
0
100
AcDbLine
 62
9
  6
CONTINUOUS
 10
1161.2281507397
 20
876.7872840298
 11
1173.1013304621
 21
884.5543572084
  0
LINE
  5
400
100
AcDbEntity
  8
06___PRT_ALL_SURFS
100
AcDbLine
 62
7
  6
CONTINUOUS
 10
1170.5607078289
 20
864.2668637674
 11
1170.6053394882
 21
855.3713790001
  0
LINE
  5
401
100
AcDbEntity
  8
06___PRT_ALL_SURFS
100
AcDbLine
 62
7
  6
CONTINUOUS
 10
1171.9881893091
 20
843.0580890136
 11
1172.1270433601
 21
815.3832475154
  0
LINE
  5
402
100
AcDbEntity
  8
0
100
AcDbLine
 62
7
  6
CONTINUOUS
 10
1172.8630472703
 20
801.8859218765
 11
1172.8381016169
 21
806.857811421
  0
LINE
  5
403
100
AcDbEntity
  8
0
100
AcDbLine
 62
7
  6
CONTINUOUS
 10
1172.5424607057
 20
865.781662027
 11
1172.5306390754
 21
868.1378175957
  0
LINE
  5
404
100
AcDbEntity
  8
0
100
AcDbLine
 62
7
  6
CONTINUOUS
 10
1173.3651333343
 20
842.5871106571
 11
1173.5011321596
 21
815.4813409228
  0
LINE
  5
405
100
AcDbEntity
  8
0
100
AcDbLine
 62
7
  6
CONTINUOUS
 10
1175.0035572321
 20
800.5856736115
 11
1174.9738027926
 21
806.5159967897
  0
LINE
  5
406
100
AcDbEntity
  8
0
100
AcDbLine
 62
7
  6
CONTINUOUS
 10
1177.9278646417
 20
815.2299630994
 11
1177.8891838704
 21
822.939383231
  0
LINE
  5
407
100
AcDbEntity
  8
06___PRT_ALL_SURFS
100
AcDbLine
 62
7
  6
CONTINUOUS
 10
1181.9440724498
 20
853.4663913531
 11
1181.9738268893
 21
847.5360681749
  0
LINE
  5
408
100
AcDbEntity
  8
06___PRT_ALL_SURFS
100
AcDbLine
 62
7
  6
CONTINUOUS
 10
1182.1920261123
 20
804.0470315348
 11
1182.2217805518
 21
798.1167083566
  0
LINE
  5
409
100
AcDbEntity
  8
0
100
AcDbLine
 62
7
  6
CONTINUOUS
 10
1182.5642713838
 20
812.3813293473
 11
1182.4282725586
 21
839.4870990816
  0
LINE
  5
40A
100
AcDbEntity
  8
0
100
AcDbLine
 62
7
  6
CONTINUOUS
 10
1183.321016475
 20
852.9954129966
 11
1183.3479156888
 21
847.6341615824
  0
LINE
  5
40B
100
AcDbEntity
  8
0
100
AcDbLine
 62
7
  6
CONTINUOUS
 10
1183.5689701375
 20
803.5760531782
 11
1183.5958693513
 21
798.214801764
  0
LINE
  5
40C
100
AcDbEntity
  8
06___PRT_ALL_SURFS
100
AcDbLine
 62
7
  6
CONTINUOUS
 10
1184.9594403728
 20
810.993975951
 11
1184.8205863218
 21
838.6688174493
  0
LINE
  5
40D
100
AcDbEntity
  8
06___PRT_ALL_SURFS
100
AcDbLine
 62
7
  6
CONTINUOUS
 10
1189.6327352016
 20
837.0228406127
 11
1189.7715892526
 21
809.3479991144
  0
LINE
  5
40E
100
AcDbEntity
  8
0
100
AcDbLine
 62
7
  6
CONTINUOUS
 10
1191.0096792268
 20
836.5518622561
 11
1191.1456780521
 21
809.4460925218
  0
LINE
  5
40F
100
AcDbEntity
  8
06___PRT_ALL_SURFS
100
AcDbLine
 62
7
  6
CONTINUOUS
 10
1192.6481031246
 20
794.5504252105
 11
1192.6183486851
 21
800.4807483887
  0
LINE
  5
410
100
AcDbEntity
  8
06___PRT_ALL_SURFS
100
AcDbLine
 62
7
  6
CONTINUOUS
 10
1192.4001494621
 20
843.9697850289
 11
1192.3703950226
 21
849.9001082071
  0
LINE
  5
411
100
AcDbEntity
  8
0
100
AcDbLine
 62
9
  6
CONTINUOUS
 10
1425.6535432293
 20
734.320491064
 11
1426.8386575672
 21
734.5432104606
  0
LINE
  5
412
100
AcDbEntity
  8
06___PRT_ALL_SURFS
100
AcDbLine
 62
7
  6
CONTINUOUS
 10
1199.5886183423
 20
847.4311429522
 11
1199.6183727818
 21
841.500819774
  0
LINE
  5
413
100
AcDbEntity
  8
06___PRT_ALL_SURFS
100
AcDbLine
 62
7
  6
CONTINUOUS
 10
1199.8365720048
 20
798.0117831338
 11
1199.8663264443
 21
792.0814599556
  0
LINE
  5
414
100
AcDbEntity
  8
0
100
AcDbLine
 62
7
  6
CONTINUOUS
 10
1200.9655623675
 20
846.9601645956
 11
1200.9924615813
 21
841.5989131814
  0
LINE
  5
415
100
AcDbEntity
  8
0
100
AcDbLine
 62
7
  6
CONTINUOUS
 10
1201.21351603
 20
797.5408047773
 11
1201.2404152438
 21
792.1795533631
  0
LINE
  5
416
100
AcDbEntity
  8
06___PRT_ALL_SURFS
100
AcDbLine
 62
7
  6
CONTINUOUS
 10
1202.6039862653
 20
804.95872755
 11
1202.4651322143
 21
832.6335690483
  0
LINE
  5
417
100
AcDbEntity
  8
06___PRT_ALL_SURFS
100
AcDbLine
 62
7
  6
CONTINUOUS
 10
1207.2772810941
 20
830.9875922117
 11
1207.4161351451
 21
803.3127507134
  0
LINE
  5
418
100
AcDbEntity
  8
0
100
AcDbLine
 62
7
  6
CONTINUOUS
 10
1208.6542251193
 20
830.5166138552
 11
1208.7902239446
 21
803.4108441209
  0
LINE
  5
419
100
AcDbEntity
  8
06___PRT_ALL_SURFS
100
AcDbLine
 62
7
  6
CONTINUOUS
 10
1210.2926490171
 20
788.5151768096
 11
1210.2628945776
 21
794.4454999878
  0
LINE
  5
41A
100
AcDbEntity
  8
06___PRT_ALL_SURFS
100
AcDbLine
 62
7
  6
CONTINUOUS
 10
1210.0446953546
 20
837.9345366279
 11
1210.0149409151
 21
843.8648598061
  0
LINE
  5
41B
100
AcDbEntity
  8
06___PRT_ALL_SURFS
100
AcDbLine
 62
7
  6
CONTINUOUS
 10
1217.2331642348
 20
841.3958945512
 11
1217.2629186743
 21
835.465571373
  0
LINE
  5
41C
100
AcDbEntity
  8
06___PRT_ALL_SURFS
100
AcDbLine
 62
7
  6
CONTINUOUS
 10
1217.4811178973
 20
791.9765347328
 11
1217.5108723368
 21
786.0462115546
  0
LINE
  5
41D
100
AcDbEntity
  8
0
100
AcDbLine
 62
7
  6
CONTINUOUS
 10
1218.61010826
 20
840.9249161947
 11
1218.6370074738
 21
835.5636647805
  0
LINE
  5
41E
100
AcDbEntity
  8
0
100
AcDbLine
 62
7
  6
CONTINUOUS
 10
1218.8580619225
 20
791.5055563763
 11
1218.8849611363
 21
786.1443049621
  0
LWPOLYLINE
  5
41F
100
AcDbEntity
  8
0
100
AcDbPolyline
 62
7
  6
CONTINUOUS
 90
4
 70
0
 10
1368.2407438931
 20
724.1509187715
 10
1385.909002286
 20
723.8780597024
 10
1404.3487422541
 20
723.8368349275
 10
1420.6339437535
 20
724.0068945754
  0
LINE
  5
420
100
AcDbEntity
  8
06___PRT_ALL_SURFS
100
AcDbLine
 62
7
  6
CONTINUOUS
 10
1220.2485321578
 20
798.9234791491
 11
1220.1096781068
 21
826.5983206474
  0
LINE
  5
421
100
AcDbEntity
  8
06___PRT_ALL_SURFS
100
AcDbLine
 62
7
  6
CONTINUOUS
 10
1224.9218269866
 20
824.9523438107
 11
1225.0606810376
 21
797.2775023124
  0
LINE
  5
422
100
AcDbEntity
  8
0
100
AcDbLine
 62
7
  6
CONTINUOUS
 10
1226.2987710118
 20
824.4813654542
 11
1226.4347698371
 21
797.3755957199
  0
LINE
  5
423
100
AcDbEntity
  8
06___PRT_ALL_SURFS
100
AcDbLine
 62
7
  6
CONTINUOUS
 10
1227.9371949096
 20
782.4799284086
 11
1227.9074404701
 21
788.4102515868
  0
LINE
  5
424
100
AcDbEntity
  8
06___PRT_ALL_SURFS
100
AcDbLine
 62
7
  6
CONTINUOUS
 10
1227.6892412471
 20
831.899288227
 11
1227.6594868076
 21
837.8296114052
  0
LINE
  5
425
100
AcDbEntity
  8
06___PRT_ALL_SURFS
100
AcDbLine
 62
7
  6
CONTINUOUS
 10
1337.1675867525
 20
738.2112603162
 11
1348.1602971486
 21
738.9960075759
  0
LINE
  5
426
100
AcDbEntity
  8
06___PRT_ALL_SURFS
100
AcDbLine
 62
7
  6
CONTINUOUS
 10
1348.1206245626
 20
746.9031051468
 11
1356.2302737552
 21
747.4820365251
  0
LINE
  5
427
100
AcDbEntity
  8
0
100
AcDbLine
 62
9
  6
CONTINUOUS
 10
1357.7144272841
 20
734.5542378457
 11
1372.3474078927
 21
734.4397545402
  0
LINE
  5
428
100
AcDbEntity
  8
0
100
AcDbLine
 62
7
  6
CONTINUOUS
 10
1355.734267894
 20
732.8009112099
 11
1355.9002287661
 21
732.7782885256
  0
LINE
  5
429
100
AcDbEntity
  8
0
100
AcDbLine
 62
7
  6
CONTINUOUS
 10
1367.6892551878
 20
724.2630294879
 11
1368.2407125147
 21
724.1509194592
  0
LINE
  5
42A
100
AcDbEntity
  8
0
100
AcDbLine
 62
9
  6
CONTINUOUS
 10
1161.6298410445
 20
796.726849175
 11
1173.5724305439
 21
790.6599353853
  0
LINE
  5
42B
100
AcDbEntity
  8
0
100
AcDbLine
 62
7
  6
CONTINUOUS
 10
1161.6251377446
 20
796.7176454239
 11
1173.0920185061
 21
790.8564365938
  0
LINE
  5
42C
100
AcDbEntity
  8
06___PRT_ALL_SURFS
100
AcDbLine
 62
7
  6
CONTINUOUS
 10
1234.8777101273
 20
835.3606461502
 11
1234.9074645668
 21
829.430322972
  0
LINE
  5
42D
100
AcDbEntity
  8
06___PRT_ALL_SURFS
100
AcDbLine
 62
7
  6
CONTINUOUS
 10
1235.1256637898
 20
785.9412863319
 11
1235.1554182293
 21
780.0109631537
  0
LINE
  5
42E
100
AcDbEntity
  8
0
100
AcDbLine
 62
7
  6
CONTINUOUS
 10
1236.2546541525
 20
834.8896677937
 11
1236.2815533663
 21
829.5284163795
  0
LINE
  5
42F
100
AcDbEntity
  8
0
100
AcDbLine
 62
7
  6
CONTINUOUS
 10
1236.502607815
 20
785.4703079753
 11
1236.5295070288
 21
780.1090565611
  0
LINE
  5
430
100
AcDbEntity
  8
06___PRT_ALL_SURFS
100
AcDbLine
 62
7
  6
CONTINUOUS
 10
1237.8930780503
 20
792.8882307481
 11
1237.7542239993
 21
820.5630722464
  0
LINE
  5
431
100
AcDbEntity
  8
0
100
AcDbLine
 62
7
  6
CONTINUOUS
 10
1323.3781476918
 20
749.8347211488
 11
1324.7522364913
 21
749.9328145563
  0
LINE
  5
432
100
AcDbEntity
  8
06___PRT_ALL_SURFS
100
AcDbLine
 62
7
  6
CONTINUOUS
 10
1353.3985048268
 20
755.2886861327
 11
1353.2103875875
 21
755.2752568252
  0
LINE
  5
433
100
AcDbEntity
  8
0
100
AcDbLine
 62
7
  6
CONTINUOUS
 10
1353.3972575202
 20
755.537285386
 11
1353.192724252
 21
755.5226841715
  0
LINE
  5
434
100
AcDbEntity
  8
0
100
AcDbLine
 62
7
  6
CONTINUOUS
 10
1316.1464840782
 20
754.982455947
 11
1312.0383532712
 21
754.6891848358
  0
LINE
  5
435
100
AcDbEntity
  8
0
100
AcDbLine
 62
7
  6
CONTINUOUS
 10
1305.7336017993
 20
755.8699695498
 11
1307.1076905988
 21
755.9680629572
  0
LINE
  5
436
100
AcDbEntity
  8
0
100
AcDbLine
 62
7
  6
CONTINUOUS
 10
1173.5724305439
 20
790.6599353853
 11
1367.6892550919
 21
724.2630293853
  0
LINE
  5
437
100
AcDbEntity
  8
0
100
AcDbLine
 62
7
  6
CONTINUOUS
 10
1161.6298410654
 20
796.7268492187
 11
1355.7466655809
 21
730.3299432177
  0
LINE
  5
438
100
AcDbEntity
  8
0
100
AcDbLine
 62
7
  6
CONTINUOUS
 10
1173.0919835116
 20
790.8564367673
 11
1173.5724305978
 21
790.6599355094
  0
LINE
  5
439
100
AcDbEntity
  8
0
100
AcDbLine
 62
7
  6
CONTINUOUS
 10
1161.4931948475
 20
796.7851755297
 11
1161.6298410654
 21
796.7268492187
  0
LINE
  5
43A
100
AcDbEntity
  8
06___PRT_ALL_SURFS
100
AcDbLine
 62
7
  6
CONTINUOUS
 10
1242.5663728791
 20
818.9170954098
 11
1242.7052269301
 21
791.2422539115
  0
LINE
  5
43B
100
AcDbEntity
  8
0
100
AcDbLine
 62
7
  6
CONTINUOUS
 10
1243.9433169043
 20
818.4461170532
 11
1244.0793157296
 21
791.3403473189
  0
LINE
  5
43C
100
AcDbEntity
  8
06___PRT_ALL_SURFS
100
AcDbLine
 62
7
  6
CONTINUOUS
 10
1245.5817408021
 20
776.4446800076
 11
1245.5519863626
 21
782.3750031858
  0
LINE
  5
43D
100
AcDbEntity
  8
06___PRT_ALL_SURFS
100
AcDbLine
 62
7
  6
CONTINUOUS
 10
1245.3337871396
 20
825.864039826
 11
1245.3040327001
 21
831.7943630042
  0
LINE
  5
43E
100
AcDbEntity
  8
06___PRT_ALL_SURFS
100
AcDbLine
 62
7
  6
CONTINUOUS
 10
1353.1717068161
 20
762.9846769569
 11
1355.3449534553
 21
763.1398206187
  0
LINE
  5
43F
100
AcDbEntity
  8
0
100
AcDbLine
 62
7
  6
CONTINUOUS
 10
1288.0890559068
 20
761.9052179508
 11
1289.4631447063
 21
762.0033113582
  0
LINE
  5
440
100
AcDbEntity
  8
0
100
AcDbLine
 62
7
  6
CONTINUOUS
 10
1313.2834105001
 20
767.1012603076
 11
1314.6574992996
 21
767.1993537151
  0
LINE
  5
441
100
AcDbEntity
  8
06___PRT_ALL_SURFS
100
AcDbLine
 62
7
  6
CONTINUOUS
 10
1161.2835451968
 20
798.371713695
 11
1337.1675867525
 21
738.2112603162
  0
LINE
  5
442
100
AcDbEntity
  8
0
100
AcDbLine
 62
7
  6
CONTINUOUS
 10
1339.4419809345
 20
738.3736246957
 11
1355.734267894
 21
732.8009112099
  0
LINE
  5
443
100
AcDbEntity
  8
0
100
AcDbLine
 62
7
  6
CONTINUOUS
 10
1343.1062177332
 20
738.6352071155
 11
1356.6351191402
 21
734.0076989268
  0
LINE
  5
444
100
AcDbEntity
  8
0
100
AcDbLine
 62
7
  6
CONTINUOUS
 10
1164.5772346593
 20
804.1519567575
 11
1175.0035572321
 21
800.5856736115
  0
LINE
  5
445
100
AcDbEntity
  8
06___PRT_ALL_SURFS
100
AcDbLine
 62
7
  6
CONTINUOUS
 10
1182.2217805518
 20
798.1167083566
 11
1192.6481031246
 21
794.5504252105
  0
LINE
  5
446
100
AcDbEntity
  8
06___PRT_ALL_SURFS
100
AcDbLine
 62
7
  6
CONTINUOUS
 10
1199.8663264443
 20
792.0814599556
 11
1210.2926490171
 21
788.5151768096
  0
LINE
  5
447
100
AcDbEntity
  8
06___PRT_ALL_SURFS
100
AcDbLine
 62
7
  6
CONTINUOUS
 10
1217.5108723368
 20
786.0462115546
 11
1227.9371949096
 21
782.4799284086
  0
LINE
  5
448
100
AcDbEntity
  8
06___PRT_ALL_SURFS
100
AcDbLine
 62
7
  6
CONTINUOUS
 10
1235.1554182293
 20
780.0109631537
 11
1245.5817408021
 21
776.4446800076
  0
LINE
  5
449
100
AcDbEntity
  8
06___PRT_ALL_SURFS
100
AcDbLine
 62
7
  6
CONTINUOUS
 10
1252.7999641218
 20
773.9757147527
 11
1263.2262866946
 21
770.4094316067
  0
LINE
  5
44A
100
AcDbEntity
  8
06___PRT_ALL_SURFS
100
AcDbLine
 62
7
  6
CONTINUOUS
 10
1270.4445100143
 20
767.9404663517
 11
1280.8708325871
 21
764.3741832057
  0
LINE
  5
44B
100
AcDbEntity
  8
06___PRT_ALL_SURFS
100
AcDbLine
 62
7
  6
CONTINUOUS
 10
1288.0890559068
 20
761.9052179508
 11
1298.5153784796
 21
758.3389348047
  0
LINE
  5
44C
100
AcDbEntity
  8
06___PRT_ALL_SURFS
100
AcDbLine
 62
7
  6
CONTINUOUS
 10
1305.7336017993
 20
755.8699695498
 11
1316.1599243721
 21
752.3036864038
  0
LINE
  5
44D
100
AcDbEntity
  8
0
100
AcDbLine
 62
7
  6
CONTINUOUS
 10
1323.3781476918
 20
749.8347211488
 11
1333.8044702646
 21
746.2684380028
  0
LINE
  5
44E
100
AcDbEntity
  8
0
100
AcDbLine
 62
7
  6
CONTINUOUS
 10
1165.9513234588
 20
804.250050165
 11
1175.0007020064
 21
801.1547453755
  0
LINE
  5
44F
100
AcDbEntity
  8
0
100
AcDbLine
 62
7
  6
CONTINUOUS
 10
1183.5958693513
 20
798.214801764
 11
1192.6452478989
 21
795.1194969746
  0
LINE
  5
450
100
AcDbEntity
  8
0
100
AcDbLine
 62
7
  6
CONTINUOUS
 10
1201.2404152438
 20
792.1795533631
 11
1210.2897937914
 21
789.0842485736
  0
LINE
  5
451
100
AcDbEntity
  8
0
100
AcDbLine
 62
7
  6
CONTINUOUS
 10
1218.8849611363
 20
786.1443049621
 11
1227.9343396839
 21
783.0490001726
  0
LINE
  5
452
100
AcDbEntity
  8
0
100
AcDbLine
 62
7
  6
CONTINUOUS
 10
1236.5295070288
 20
780.1090565611
 11
1245.5788855764
 21
777.0137517716
  0
LINE
  5
453
100
AcDbEntity
  8
0
100
AcDbLine
 62
7
  6
CONTINUOUS
 10
1254.1740529213
 20
774.0738081602
 11
1263.2234314689
 21
770.9785033707
  0
LINE
  5
454
100
AcDbEntity
  8
0
100
AcDbLine
 62
7
  6
CONTINUOUS
 10
1271.8185988138
 20
768.0385597592
 11
1280.8679773614
 21
764.9432549697
  0
LINE
  5
455
100
AcDbEntity
  8
0
100
AcDbLine
 62
7
  6
CONTINUOUS
 10
1289.4631447063
 20
762.0033113582
 11
1298.5125232539
 21
758.9080065687
  0
LINE
  5
456
100
AcDbEntity
  8
0
100
AcDbLine
 62
7
  6
CONTINUOUS
 10
1307.1076905988
 20
755.9680629572
 11
1316.1570691464
 21
752.8727581678
  0
LINE
  5
457
100
AcDbEntity
  8
0
100
AcDbLine
 62
7
  6
CONTINUOUS
 10
1324.7522364913
 20
749.9328145563
 11
1333.8016150389
 21
746.8375097668
  0
LINE
  5
458
100
AcDbEntity
  8
0
100
AcDbLine
 62
7
  6
CONTINUOUS
 10
1312.0383532712
 20
754.6891848358
 11
1316.155020383
 21
753.281094837
  0
LINE
  5
459
100
AcDbEntity
  8
0
100
AcDbLine
 62
7
  6
CONTINUOUS
 10
1324.7501877279
 20
750.3411512255
 11
1331.2869487903
 21
748.1052774893
  0
LINE
  5
45A
100
AcDbEntity
  8
0
100
AcDbLine
 62
9
  6
CONTINUOUS
 10
1252.0949062521
 20
838.5371693816
 11
1252.1008962724
 21
837.3433053103
  0
LINE
  5
45B
100
AcDbEntity
  8
06___PRT_ALL_SURFS
100
AcDbLine
 62
7
  6
CONTINUOUS
 10
1252.5222560198
 20
829.3253977493
 11
1252.5520104593
 21
823.3950745711
  0
LINE
  5
45C
100
AcDbEntity
  8
06___PRT_ALL_SURFS
100
AcDbLine
 62
7
  6
CONTINUOUS
 10
1252.7702096823
 20
779.9060379309
 11
1252.7999641218
 21
773.9757147527
  0
LINE
  5
45D
100
AcDbEntity
  8
0
100
AcDbLine
 62
7
  6
CONTINUOUS
 10
1253.899200045
 20
828.8544193927
 11
1253.9260992588
 21
823.4931679785
  0
LINE
  5
45E
100
AcDbEntity
  8
0
100
AcDbLine
 62
7
  6
CONTINUOUS
 10
1254.1471537075
 20
779.4350595743
 11
1254.1740529213
 21
774.0738081602
  0
LINE
  5
45F
100
AcDbEntity
  8
06___PRT_ALL_SURFS
100
AcDbLine
 62
7
  6
CONTINUOUS
 10
1255.5376239428
 20
786.8529823471
 11
1255.3987698918
 21
814.5278238454
  0
LINE
  5
460
100
AcDbEntity
  8
0
100
AcDbLine
 62
7
  6
CONTINUOUS
 10
1256.9574586203
 20
837.4011852934
 11
1256.9500200104
 21
838.8837660879
  0
LINE
  5
461
100
AcDbEntity
  8
06___PRT_ALL_SURFS
100
AcDbLine
 62
7
  6
CONTINUOUS
 10
1260.2109187716
 20
812.8818470088
 11
1260.3497728226
 21
785.2070055105
  0
LINE
  5
462
100
AcDbEntity
  8
0
100
AcDbLine
 62
7
  6
CONTINUOUS
 10
1261.5878627968
 20
812.4108686522
 11
1261.7238616221
 21
785.305098918
  0
LINE
  5
463
100
AcDbEntity
  8
0
100
AcDbLine
 62
7
  6
CONTINUOUS
 10
1270.4445100143
 20
767.9404663517
 11
1271.8185988138
 21
768.0385597592
  0
LINE
  5
464
100
AcDbEntity
  8
0
100
AcDbLine
 62
7
  6
CONTINUOUS
 10
1295.6388646076
 20
773.1365087086
 11
1297.0129534071
 21
773.234602116
  0
LINE
  5
465
100
AcDbEntity
  8
0
100
AcDbLine
 62
7
  6
CONTINUOUS
 10
1252.7999641218
 20
773.9757147527
 11
1254.1740529213
 21
774.0738081602
  0
LINE
  5
466
100
AcDbEntity
  8
0
100
AcDbLine
 62
7
  6
CONTINUOUS
 10
1356.2526649681
 20
743.0192695997
 11
1348.1261646963
 21
745.7989074589
  0
LINE
  5
467
100
AcDbEntity
  8
0
100
AcDbLine
 62
7
  6
CONTINUOUS
 10
1172.8436417506
 20
805.753613733
 11
1174.9812964866
 21
805.022437232
  0
LINE
  5
468
100
AcDbEntity
  8
0
100
AcDbLine
 62
7
  6
CONTINUOUS
 10
1333.7747158251
 20
752.198761181
 11
1323.3483932523
 21
755.765044327
  0
LINE
  5
469
100
AcDbEntity
  8
06___PRT_ALL_SURFS
100
AcDbLine
 62
7
  6
CONTINUOUS
 10
1316.1301699326
 20
758.234009582
 11
1305.7038473598
 21
761.800292728
  0
LINE
  5
46A
100
AcDbEntity
  8
06___PRT_ALL_SURFS
100
AcDbLine
 62
7
  6
CONTINUOUS
 10
1298.4856240401
 20
764.2692579829
 11
1288.0593014673
 21
767.835541129
  0
LINE
  5
46B
100
AcDbEntity
  8
06___PRT_ALL_SURFS
100
AcDbLine
 62
7
  6
CONTINUOUS
 10
1280.8410781476
 20
770.3045063839
 11
1270.4147555748
 21
773.8707895299
  0
LINE
  5
46C
100
AcDbEntity
  8
06___PRT_ALL_SURFS
100
AcDbLine
 62
7
  6
CONTINUOUS
 10
1263.1965322551
 20
776.3397547849
 11
1252.7702096823
 21
779.9060379309
  0
LINE
  5
46D
100
AcDbEntity
  8
06___PRT_ALL_SURFS
100
AcDbLine
 62
7
  6
CONTINUOUS
 10
1245.5519863626
 20
782.3750031858
 11
1235.1256637898
 21
785.9412863319
  0
LINE
  5
46E
100
AcDbEntity
  8
06___PRT_ALL_SURFS
100
AcDbLine
 62
7
  6
CONTINUOUS
 10
1227.9074404701
 20
788.4102515868
 11
1217.4811178973
 21
791.9765347328
  0
LINE
  5
46F
100
AcDbEntity
  8
06___PRT_ALL_SURFS
100
AcDbLine
 62
7
  6
CONTINUOUS
 10
1210.2628945776
 20
794.4454999878
 11
1199.8365720048
 21
798.0117831338
  0
LINE
  5
470
100
AcDbEntity
  8
06___PRT_ALL_SURFS
100
AcDbLine
 62
7
  6
CONTINUOUS
 10
1192.6183486851
 20
800.4807483887
 11
1182.1920261123
 21
804.0470315348
  0
LINE
  5
471
100
AcDbEntity
  8
0
100
AcDbLine
 62
7
  6
CONTINUOUS
 10
1174.9738027926
 20
806.5159967897
 11
1164.5474802198
 21
810.0822799357
  0
LINE
  5
472
100
AcDbEntity
  8
06___PRT_ALL_SURFS
100
AcDbLine
 62
7
  6
CONTINUOUS
 10
1172.1270433601
 20
815.3832475154
 11
1184.9594403728
 21
810.993975951
  0
LINE
  5
473
100
AcDbEntity
  8
06___PRT_ALL_SURFS
100
AcDbLine
 62
7
  6
CONTINUOUS
 10
1189.7715892526
 20
809.3479991144
 11
1202.6039862653
 21
804.95872755
  0
LINE
  5
474
100
AcDbEntity
  8
06___PRT_ALL_SURFS
100
AcDbLine
 62
7
  6
CONTINUOUS
 10
1207.4161351451
 20
803.3127507134
 11
1220.2485321578
 21
798.9234791491
  0
LINE
  5
475
100
AcDbEntity
  8
06___PRT_ALL_SURFS
100
AcDbLine
 62
7
  6
CONTINUOUS
 10
1225.0606810376
 20
797.2775023125
 11
1237.8930780503
 21
792.8882307481
  0
LINE
  5
476
100
AcDbEntity
  8
06___PRT_ALL_SURFS
100
AcDbLine
 62
7
  6
CONTINUOUS
 10
1242.7052269301
 20
791.2422539115
 11
1255.5376239428
 21
786.8529823471
  0
LINE
  5
477
100
AcDbEntity
  8
06___PRT_ALL_SURFS
100
AcDbLine
 62
7
  6
CONTINUOUS
 10
1260.3497728226
 20
785.2070055105
 11
1273.1821698353
 21
780.8177339462
  0
LINE
  5
478
100
AcDbEntity
  8
06___PRT_ALL_SURFS
100
AcDbLine
 62
7
  6
CONTINUOUS
 10
1277.9943187151
 20
779.1717571095
 11
1290.8267157278
 21
774.7824855452
  0
LINE
  5
479
100
AcDbEntity
  8
06___PRT_ALL_SURFS
100
AcDbLine
 62
7
  6
CONTINUOUS
 10
1295.6388646076
 20
773.1365087086
 11
1308.4712616203
 21
768.7472371442
  0
LINE
  5
47A
100
AcDbEntity
  8
06___PRT_ALL_SURFS
100
AcDbLine
 62
7
  6
CONTINUOUS
 10
1313.2834105001
 20
767.1012603076
 11
1326.1158075128
 21
762.7119887433
  0
LINE
  5
47B
100
AcDbEntity
  8
0
100
AcDbLine
 62
7
  6
CONTINUOUS
 10
1173.5011321596
 20
815.4813409228
 11
1184.9565851471
 21
811.563047715
  0
LINE
  5
47C
100
AcDbEntity
  8
0
100
AcDbLine
 62
7
  6
CONTINUOUS
 10
1191.1456780521
 20
809.4460925218
 11
1202.6011310396
 21
805.5277993141
  0
LINE
  5
47D
100
AcDbEntity
  8
0
100
AcDbLine
 62
7
  6
CONTINUOUS
 10
1208.7902239446
 20
803.4108441209
 11
1220.2456769321
 21
799.4925509131
  0
LINE
  5
47E
100
AcDbEntity
  8
0
100
AcDbLine
 62
7
  6
CONTINUOUS
 10
1226.4347698371
 20
797.3755957199
 11
1237.8902228246
 21
793.4573025121
  0
LINE
  5
47F
100
AcDbEntity
  8
0
100
AcDbLine
 62
7
  6
CONTINUOUS
 10
1244.0793157296
 20
791.3403473189
 11
1255.5347687171
 21
787.4220541112
  0
LINE
  5
480
100
AcDbEntity
  8
0
100
AcDbLine
 62
7
  6
CONTINUOUS
 10
1261.7238616221
 20
785.305098918
 11
1273.1793146096
 21
781.3868057102
  0
LINE
  5
481
100
AcDbEntity
  8
0
100
AcDbLine
 62
7
  6
CONTINUOUS
 10
1279.3684075146
 20
779.269850517
 11
1290.8238605021
 21
775.3515573092
  0
LINE
  5
482
100
AcDbEntity
  8
0
100
AcDbLine
 62
7
  6
CONTINUOUS
 10
1297.0129534071
 20
773.234602116
 11
1308.4684063946
 21
769.3163089082
  0
LINE
  5
483
100
AcDbEntity
  8
0
100
AcDbLine
 62
7
  6
CONTINUOUS
 10
1314.6574992996
 20
767.1993537151
 11
1326.1129522871
 21
763.2810605073
  0
LINE
  5
484
100
AcDbEntity
  8
0
100
AcDbLine
 62
7
  6
CONTINUOUS
 10
1355.0060570379
 20
754.0419310878
 11
1353.4020074113
 21
754.5905900333
  0
LINE
  5
485
100
AcDbEntity
  8
0
100
AcDbLine
 62
9
  6
CONTINUOUS
 10
1355.7466655665
 20
730.3299431875
 11
1367.6892550919
 21
724.2630293853
  0
LINE
  5
486
100
AcDbEntity
  8
06___PRT_ALL_SURFS
100
AcDbLine
 62
7
  6
CONTINUOUS
 10
1263.2262866946
 20
770.4094316067
 11
1263.1965322551
 21
776.3397547849
  0
LINE
  5
487
100
AcDbEntity
  8
06___PRT_ALL_SURFS
100
AcDbLine
 62
7
  6
CONTINUOUS
 10
1262.9783330321
 20
819.828791425
 11
1262.9485785926
 21
825.7591146032
  0
LINE
  5
488
100
AcDbEntity
  8
06___PRT_ALL_SURFS
100
AcDbLine
 62
7
  6
CONTINUOUS
 10
1270.1668019123
 20
823.2901493483
 11
1270.1965563518
 21
817.3598261701
  0
LINE
  5
489
100
AcDbEntity
  8
06___PRT_ALL_SURFS
100
AcDbLine
 62
7
  6
CONTINUOUS
 10
1270.4147555748
 20
773.8707895299
 11
1270.4445100143
 21
767.9404663517
  0
LINE
  5
48A
100
AcDbEntity
  8
0
100
AcDbLine
 62
7
  6
CONTINUOUS
 10
1271.5437459375
 20
822.8191709917
 11
1271.5706451513
 21
817.4579195776
  0
LINE
  5
48B
100
AcDbEntity
  8
0
100
AcDbLine
 62
7
  6
CONTINUOUS
 10
1271.7916996
 20
773.3998111734
 11
1271.8185988138
 21
768.0385597592
  0
LINE
  5
48C
100
AcDbEntity
  8
06___PRT_ALL_SURFS
100
AcDbLine
 62
7
  6
CONTINUOUS
 10
1273.1821698353
 20
780.8177339462
 11
1273.0433157843
 21
808.4925754445
  0
LINE
  5
48D
100
AcDbEntity
  8
02___PRT_ALL_AXES
100
AcDbLine
 62
7
  6
CONTINUOUS
 10
1290.8094317781
 20
778.2273297147
 11
1288.2954684012
 21
778.0478629772
  0
LINE
  5
48E
100
AcDbEntity
  8
0
100
AcDbLine
 62
7
  6
CONTINUOUS
 10
1277.9943187151
 20
779.1717571095
 11
1279.3684075146
 21
779.269850517
  0
LINE
  5
48F
100
AcDbEntity
  8
06___PRT_ALL_SURFS
100
AcDbLine
 62
7
  6
CONTINUOUS
 10
1356.0413330644
 20
785.1395887067
 11
1353.06161539
 21
784.9268727162
  0
LINE
  5
490
100
AcDbEntity
  8
0
100
AcDbLine
 62
7
  6
CONTINUOUS
 10
1355.7540723244
 20
785.3677700421
 11
1353.0439520545
 21
785.1743000625
  0
LINE
  5
491
100
AcDbEntity
  8
0
100
AcDbLine
 62
7
  6
CONTINUOUS
 10
1235.1554182293
 20
780.0109631537
 11
1236.5295070288
 21
780.1090565611
  0
LINE
  5
492
100
AcDbEntity
  8
0
100
AcDbLine
 62
7
  6
CONTINUOUS
 10
1260.3497728226
 20
785.2070055105
 11
1261.7238616221
 21
785.305098918
  0
LINE
  5
493
100
AcDbEntity
  8
02___PRT_ALL_AXES
100
AcDbLine
 62
7
  6
CONTINUOUS
 10
1177.9210200741
 20
816.5941460214
 11
1182.5510801855
 21
815.0104519408
  0
LINE
  5
494
100
AcDbEntity
  8
0
100
AcDbLine
 62
7
  6
CONTINUOUS
 10
1353.1982311785
 20
757.698136742
 11
1353.3867393075
 21
757.6336582685
  0
LINE
  5
495
100
AcDbEntity
  8
0
100
AcDbLine
 62
7
  6
CONTINUOUS
 10
1354.9786649281
 20
759.501421037
 11
1353.3746153015
 21
760.0500799826
  0
LINE
  5
496
100
AcDbEntity
  8
0
100
AcDbLine
 62
7
  6
CONTINUOUS
 10
1354.4666481628
 20
763.0771201885
 11
1355.154854807
 21
762.8417217785
  0
LINE
  5
497
100
AcDbEntity
  8
02___PRT_ALL_AXES
100
AcDbLine
 62
7
  6
CONTINUOUS
 10
1181.7404700835
 20
823.2143187286
 11
1182.5112413756
 21
822.9506794013
  0
LINE
  5
498
100
AcDbEntity
  8
06___PRT_ALL_SURFS
100
AcDbLine
 62
7
  6
CONTINUOUS
 10
1277.8554646641
 20
806.8465986078
 11
1277.9943187151
 21
779.1717571095
  0
LINE
  5
499
100
AcDbEntity
  8
0
100
AcDbLine
 62
7
  6
CONTINUOUS
 10
1279.2324086893
 20
806.3756202513
 11
1279.3684075146
 21
779.269850517
  0
LINE
  5
49A
100
AcDbEntity
  8
06___PRT_ALL_SURFS
100
AcDbLine
 62
7
  6
CONTINUOUS
 10
1280.8708325871
 20
764.3741832057
 11
1280.8410781476
 21
770.3045063839
  0
LINE
  5
49B
100
AcDbEntity
  8
06___PRT_ALL_SURFS
100
AcDbLine
 62
7
  6
CONTINUOUS
 10
1280.6228789246
 20
813.7935430241
 11
1280.5931244851
 21
819.7238662023
  0
LINE
  5
49C
100
AcDbEntity
  8
06___PRT_ALL_SURFS
100
AcDbLine
 62
7
  6
CONTINUOUS
 10
1353.0229346186
 20
792.6362928479
 11
1356.0026522931
 21
792.8490088383
  0
LINE
  5
49D
100
AcDbEntity
  8
0
100
AcDbLine
 62
7
  6
CONTINUOUS
 10
1217.5108723368
 20
786.0462115546
 11
1218.8849611363
 21
786.1443049621
  0
LINE
  5
49E
100
AcDbEntity
  8
0
100
AcDbLine
 62
7
  6
CONTINUOUS
 10
1242.7052269301
 20
791.2422539115
 11
1244.0793157296
 21
791.3403473189
  0
LINE
  5
49F
100
AcDbEntity
  8
06___PRT_ALL_SURFS
100
AcDbLine
 62
7
  6
CONTINUOUS
 10
1354.7329184149
 20
800.7671689544
 11
1347.8528346072
 21
800.2760137506
  0
LINE
  5
4A0
100
AcDbEntity
  8
0
100
AcDbLine
 62
7
  6
CONTINUOUS
 10
1354.1313998049
 20
800.972916059
 11
1347.8351712716
 21
800.523441097
  0
LINE
  5
4A1
100
AcDbEntity
  8
06___PRT_ALL_SURFS
100
AcDbLine
 62
7
  6
CONTINUOUS
 10
1287.8113478048
 20
817.2549009473
 11
1287.8411022443
 21
811.3245777691
  0
LINE
  5
4A2
100
AcDbEntity
  8
06___PRT_ALL_SURFS
100
AcDbLine
 62
7
  6
CONTINUOUS
 10
1288.0593014673
 20
767.835541129
 11
1288.0890559068
 21
761.9052179508
  0
LINE
  5
4A3
100
AcDbEntity
  8
0
100
AcDbLine
 62
7
  6
CONTINUOUS
 10
1289.18829183
 20
816.7839225908
 11
1289.2151910438
 21
811.4226711766
  0
LINE
  5
4A4
100
AcDbEntity
  8
0
100
AcDbLine
 62
7
  6
CONTINUOUS
 10
1289.4362454925
 20
767.3645627724
 11
1289.4631447063
 21
762.0033113582
  0
LINE
  5
4A5
100
AcDbEntity
  8
06___PRT_ALL_SURFS
100
AcDbLine
 62
7
  6
CONTINUOUS
 10
1290.8267157278
 20
774.7824855452
 11
1290.6878616768
 21
802.4573270435
  0
LINE
  5
4A6
100
AcDbEntity
  8
0
100
AcDbLine
 62
7
  6
CONTINUOUS
 10
1199.8663264443
 20
792.0814599556
 11
1201.2404152438
 21
792.1795533631
  0
LINE
  5
4A7
100
AcDbEntity
  8
0
100
AcDbLine
 62
7
  6
CONTINUOUS
 10
1327.2407855248
 20
801.7948329679
 11
1328.6148743243
 21
801.8929263753
  0
LINE
  5
4A8
100
AcDbEntity
  8
0
100
AcDbLine
 62
7
  6
CONTINUOUS
 10
1225.0606810376
 20
797.2775023124
 11
1226.4347698371
 21
797.3755957199
  0
LINE
  5
4A9
100
AcDbEntity
  8
02___PRT_ALL_AXES
100
AcDbLine
 62
7
  6
CONTINUOUS
 10
1231.8078442027
 20
798.8841558549
 11
1228.143607404
 21
798.622573435
  0
LINE
  5
4AA
100
AcDbEntity
  8
0
100
AcDbLine
 62
7
  6
CONTINUOUS
 10
1347.8131620212
 20
808.1831113216
 11
1336.8204516251
 21
807.3983640619
  0
LINE
  5
4AB
100
AcDbEntity
  8
0
100
AcDbLine
 62
7
  6
CONTINUOUS
 10
1305.4856481368
 20
805.2893293682
 11
1306.8597369363
 21
805.3874227756
  0
LINE
  5
4AC
100
AcDbEntity
  8
0
100
AcDbLine
 62
7
  6
CONTINUOUS
 10
1337.5930218146
 20
807.702204574
 11
1347.2116434112
 21
808.3888584262
  0
LINE
  5
4AD
100
AcDbEntity
  8
0
100
AcDbLine
 62
7
  6
CONTINUOUS
 10
1334.8153895918
 20
808.0841877439
 11
1336.1894783913
 21
808.1822811513
  0
LINE
  5
4AE
100
AcDbEntity
  8
06___PRT_ALL_SURFS
100
AcDbLine
 62
7
  6
CONTINUOUS
 10
1338.886772835
 20
808.8842360516
 11
1330.642240038
 21
808.2956756069
  0
LINE
  5
4AF
100
AcDbEntity
  8
0
100
AcDbLine
 62
7
  6
CONTINUOUS
 10
1182.2217805518
 20
798.1167083566
 11
1183.5958693513
 21
798.214801764
  0
LINE
  5
4B0
100
AcDbEntity
  8
0
100
AcDbLine
 62
7
  6
CONTINUOUS
 10
1337.2802436718
 20
809.9270885953
 11
1328.5776812749
 21
809.3058303481
  0
LINE
  5
4B1
100
AcDbEntity
  8
06___PRT_ALL_SURFS
100
AcDbLine
 62
7
  6
CONTINUOUS
 10
1337.2728050619
 20
811.4096693899
 11
1327.1961538655
 21
810.6903177352
  0
LINE
  5
4B2
100
AcDbEntity
  8
0
100
AcDbLine
 62
9
  6
CONTINUOUS
 10
1357.3619648817
 20
804.8031146448
 11
1371.9949454903
 21
804.6886313393
  0
LINE
  5
4B3
100
AcDbEntity
  8
06___PRT_ALL_SURFS
100
AcDbLine
 62
7
  6
CONTINUOUS
 10
1325.9769534618
 20
790.3868302416
 11
1313.1445564491
 21
794.7761018059
  0
LINE
  5
4B4
100
AcDbEntity
  8
06___PRT_ALL_SURFS
100
AcDbLine
 62
7
  6
CONTINUOUS
 10
1308.3324075693
 20
796.4220786425
 11
1295.5000105566
 21
800.8113502069
  0
LINE
  5
4B5
100
AcDbEntity
  8
06___PRT_ALL_SURFS
100
AcDbLine
 62
7
  6
CONTINUOUS
 10
1290.6878616768
 20
802.4573270435
 11
1277.8554646641
 21
806.8465986078
  0
LINE
  5
4B6
100
AcDbEntity
  8
06___PRT_ALL_SURFS
100
AcDbLine
 62
7
  6
CONTINUOUS
 10
1273.0433157843
 20
808.4925754445
 11
1260.2109187716
 21
812.8818470088
  0
LINE
  5
4B7
100
AcDbEntity
  8
06___PRT_ALL_SURFS
100
AcDbLine
 62
7
  6
CONTINUOUS
 10
1255.3987698918
 20
814.5278238454
 11
1242.5663728791
 21
818.9170954098
  0
LINE
  5
4B8
100
AcDbEntity
  8
06___PRT_ALL_SURFS
100
AcDbLine
 62
7
  6
CONTINUOUS
 10
1237.7542239993
 20
820.5630722464
 11
1224.9218269866
 21
824.9523438107
  0
LINE
  5
4B9
100
AcDbEntity
  8
06___PRT_ALL_SURFS
100
AcDbLine
 62
7
  6
CONTINUOUS
 10
1220.1096781068
 20
826.5983206474
 11
1207.2772810941
 21
830.9875922117
  0
LINE
  5
4BA
100
AcDbEntity
  8
06___PRT_ALL_SURFS
100
AcDbLine
 62
7
  6
CONTINUOUS
 10
1202.4651322143
 20
832.6335690483
 11
1189.6327352016
 21
837.0228406127
  0
LINE
  5
4BB
100
AcDbEntity
  8
06___PRT_ALL_SURFS
100
AcDbLine
 62
7
  6
CONTINUOUS
 10
1184.8205863218
 20
838.6688174493
 11
1171.9881893091
 21
843.0580890136
  0
LINE
  5
4BC
100
AcDbEntity
  8
02___PRT_ALL_AXES
100
AcDbLine
 62
7
  6
CONTINUOUS
 10
1353.0547708223
 20
786.2910556382
 11
1356.0406800665
 21
785.2697369769
  0
LINE
  5
4BD
100
AcDbEntity
  8
06___PRT_ALL_SURFS
100
AcDbLine
 62
7
  6
CONTINUOUS
 10
1295.5000105566
 20
800.8113502069
 11
1295.6388646076
 21
773.1365087086
  0
LINE
  5
4BE
100
AcDbEntity
  8
0
100
AcDbLine
 62
7
  6
CONTINUOUS
 10
1296.8769545818
 20
800.3403718503
 11
1297.0129534071
 21
773.234602116
  0
LINE
  5
4BF
100
AcDbEntity
  8
06___PRT_ALL_SURFS
100
AcDbLine
 62
7
  6
CONTINUOUS
 10
1298.5153784796
 20
758.3389348047
 11
1298.4856240401
 21
764.2692579829
  0
LINE
  5
4C0
100
AcDbEntity
  8
06___PRT_ALL_SURFS
100
AcDbLine
 62
7
  6
CONTINUOUS
 10
1298.2674248171
 20
807.7582946231
 11
1298.2376703776
 21
813.6886178013
  0
LINE
  5
4C1
100
AcDbEntity
  8
0
100
AcDbLine
 62
7
  6
CONTINUOUS
 10
1207.4161351451
 20
803.3127507134
 11
1208.7902239446
 21
803.4108441209
  0
LINE
  5
4C2
100
AcDbEntity
  8
0
100
AcDbLine
 62
9
  6
CONTINUOUS
 10
1160.6153824701
 20
801.9712007341
 11
1161.2652525826
 21
802.017593641
  0
LINE
  5
4C3
100
AcDbEntity
  8
0
100
AcDbLine
 62
7
  6
CONTINUOUS
 10
1287.8411022443
 20
811.3245777691
 11
1289.2151910438
 21
811.4226711766
  0
LINE
  5
4C4
100
AcDbEntity
  8
0
100
AcDbLine
 62
7
  6
CONTINUOUS
 10
1164.5772346593
 20
804.1519567575
 11
1165.9513234588
 21
804.250050165
  0
LINE
  5
4C5
100
AcDbEntity
  8
0
100
AcDbLine
 62
7
  6
CONTINUOUS
 10
1172.8381016169
 20
806.857811421
 11
1173.7782603421
 21
806.9249274421
  0
LINE
  5
4C6
100
AcDbEntity
  8
0
100
AcDbLine
 62
7
  6
CONTINUOUS
 10
1189.7715892526
 20
809.3479991144
 11
1191.1456780521
 21
809.4460925218
  0
LINE
  5
4C7
100
AcDbEntity
  8
0
100
AcDbLine
 62
7
  6
CONTINUOUS
 10
1270.1965563518
 20
817.3598261701
 11
1271.5706451513
 21
817.4579195776
  0
LINE
  5
4C8
100
AcDbEntity
  8
06___PRT_ALL_SURFS
100
AcDbLine
 62
7
  6
CONTINUOUS
 10
1181.9738268893
 20
847.5360681749
 11
1192.4001494621
 21
843.9697850289
  0
LINE
  5
4C9
100
AcDbEntity
  8
06___PRT_ALL_SURFS
100
AcDbLine
 62
7
  6
CONTINUOUS
 10
1199.6183727818
 20
841.500819774
 11
1210.0446953546
 21
837.9345366279
  0
LINE
  5
4CA
100
AcDbEntity
  8
06___PRT_ALL_SURFS
100
AcDbLine
 62
7
  6
CONTINUOUS
 10
1217.2629186743
 20
835.465571373
 11
1227.6892412471
 21
831.899288227
  0
LINE
  5
4CB
100
AcDbEntity
  8
06___PRT_ALL_SURFS
100
AcDbLine
 62
7
  6
CONTINUOUS
 10
1234.9074645668
 20
829.430322972
 11
1245.3337871396
 21
825.864039826
  0
LINE
  5
4CC
100
AcDbEntity
  8
06___PRT_ALL_SURFS
100
AcDbLine
 62
7
  6
CONTINUOUS
 10
1252.5520104593
 20
823.3950745711
 11
1262.9783330321
 21
819.828791425
  0
LINE
  5
4CD
100
AcDbEntity
  8
06___PRT_ALL_SURFS
100
AcDbLine
 62
7
  6
CONTINUOUS
 10
1270.1965563518
 20
817.3598261701
 11
1280.6228789246
 21
813.7935430241
  0
LINE
  5
4CE
100
AcDbEntity
  8
06___PRT_ALL_SURFS
100
AcDbLine
 62
7
  6
CONTINUOUS
 10
1287.8411022443
 20
811.3245777691
 11
1298.2674248171
 21
807.7582946231
  0
LINE
  5
4CF
100
AcDbEntity
  8
06___PRT_ALL_SURFS
100
AcDbLine
 62
7
  6
CONTINUOUS
 10
1305.4856481368
 20
805.2893293682
 11
1315.9119707096
 21
801.7230462221
  0
LINE
  5
4D0
100
AcDbEntity
  8
0
100
AcDbLine
 62
7
  6
CONTINUOUS
 10
1183.3479156888
 20
847.6341615824
 11
1192.3972942364
 21
844.5388567929
  0
LINE
  5
4D1
100
AcDbEntity
  8
0
100
AcDbLine
 62
7
  6
CONTINUOUS
 10
1200.9924615813
 20
841.5989131814
 11
1210.0418401289
 21
838.503608392
  0
LINE
  5
4D2
100
AcDbEntity
  8
0
100
AcDbLine
 62
7
  6
CONTINUOUS
 10
1218.6370074738
 20
835.5636647805
 11
1227.6863860214
 21
832.468359991
  0
LINE
  5
4D3
100
AcDbEntity
  8
0
100
AcDbLine
 62
7
  6
CONTINUOUS
 10
1236.2815533663
 20
829.5284163795
 11
1245.3309319139
 21
826.43311159
  0
LINE
  5
4D4
100
AcDbEntity
  8
0
100
AcDbLine
 62
7
  6
CONTINUOUS
 10
1253.9260992588
 20
823.4931679785
 11
1262.9754778064
 21
820.397863189
  0
LINE
  5
4D5
100
AcDbEntity
  8
0
100
AcDbLine
 62
7
  6
CONTINUOUS
 10
1271.5706451513
 20
817.4579195776
 11
1280.6200236989
 21
814.3626147881
  0
LINE
  5
4D6
100
AcDbEntity
  8
0
100
AcDbLine
 62
7
  6
CONTINUOUS
 10
1289.2151910438
 20
811.4226711766
 11
1298.2645695914
 21
808.3273663871
  0
LINE
  5
4D7
100
AcDbEntity
  8
0
100
AcDbLine
 62
7
  6
CONTINUOUS
 10
1306.8597369363
 20
805.3874227756
 11
1315.9091154839
 21
802.2921179861
  0
LINE
  5
4D8
100
AcDbEntity
  8
06___PRT_ALL_SURFS
100
AcDbLine
 62
7
  6
CONTINUOUS
 10
1162.9861037618
 20
857.9775089915
 11
1170.6053394882
 21
855.3713790001
  0
LINE
  5
4D9
100
AcDbEntity
  8
06___PRT_ALL_SURFS
100
AcDbLine
 62
7
  6
CONTINUOUS
 10
1327.2407855248
 20
801.7948329679
 11
1334.8600212511
 21
799.1887029766
  0
LINE
  5
4DA
100
AcDbEntity
  8
0
100
AcDbLine
 62
7
  6
CONTINUOUS
 10
1164.3601925614
 20
858.0756023989
 11
1170.6024842624
 21
855.9404507641
  0
LINE
  5
4DB
100
AcDbEntity
  8
0
100
AcDbLine
 62
7
  6
CONTINUOUS
 10
1328.6148743243
 20
801.8929263753
 11
1334.8571660253
 21
799.7577747406
  0
LINE
  5
4DC
100
AcDbEntity
  8
06___PRT_ALL_SURFS
100
AcDbLine
 62
7
  6
CONTINUOUS
 10
1315.8822162701
 20
807.6533694003
 11
1305.4558936973
 21
811.2196525464
  0
LINE
  5
4DD
100
AcDbEntity
  8
06___PRT_ALL_SURFS
100
AcDbLine
 62
7
  6
CONTINUOUS
 10
1298.2376703776
 20
813.6886178013
 11
1287.8113478048
 21
817.2549009473
  0
LINE
  5
4DE
100
AcDbEntity
  8
06___PRT_ALL_SURFS
100
AcDbLine
 62
7
  6
CONTINUOUS
 10
1280.5931244851
 20
819.7238662023
 11
1270.1668019123
 21
823.2901493483
  0
LINE
  5
4DF
100
AcDbEntity
  8
06___PRT_ALL_SURFS
100
AcDbLine
 62
7
  6
CONTINUOUS
 10
1262.9485785926
 20
825.7591146032
 11
1252.5222560198
 21
829.3253977493
  0
LINE
  5
4E0
100
AcDbEntity
  8
06___PRT_ALL_SURFS
100
AcDbLine
 62
7
  6
CONTINUOUS
 10
1245.3040327001
 20
831.7943630042
 11
1234.8777101273
 21
835.3606461502
  0
LINE
  5
4E1
100
AcDbEntity
  8
06___PRT_ALL_SURFS
100
AcDbLine
 62
7
  6
CONTINUOUS
 10
1227.6594868076
 20
837.8296114052
 11
1217.2331642348
 21
841.3958945512
  0
LINE
  5
4E2
100
AcDbEntity
  8
06___PRT_ALL_SURFS
100
AcDbLine
 62
7
  6
CONTINUOUS
 10
1210.0149409151
 20
843.8648598061
 11
1199.5886183423
 21
847.4311429522
  0
LINE
  5
4E3
100
AcDbEntity
  8
06___PRT_ALL_SURFS
100
AcDbLine
 62
7
  6
CONTINUOUS
 10
1192.3703950226
 20
849.9001082071
 11
1181.9440724498
 21
853.4663913531
  0
LINE
  5
4E4
100
AcDbEntity
  8
0
100
AcDbLine
 62
7
  6
CONTINUOUS
 10
1334.8289393806
 20
805.3835949086
 11
1330.6496786478
 21
806.8130948123
  0
LINE
  5
4E5
100
AcDbEntity
  8
0
100
AcDbLine
 62
7
  6
CONTINUOUS
 10
1164.7909472583
 20
863.5444297814
 11
1170.5742576176
 21
861.5662709322
  0
LINE
  5
4E6
100
AcDbEntity
  8
06___PRT_ALL_SURFS
100
AcDbLine
 62
7
  6
CONTINUOUS
 10
1305.4558936973
 20
811.2196525464
 11
1305.4856481368
 21
805.2893293682
  0
LINE
  5
4E7
100
AcDbEntity
  8
06___PRT_ALL_SURFS
100
AcDbLine
 62
7
  6
CONTINUOUS
 10
1305.7038473598
 20
761.800292728
 11
1305.7336017993
 21
755.8699695498
  0
LINE
  5
4E8
100
AcDbEntity
  8
0
100
AcDbLine
 62
7
  6
CONTINUOUS
 10
1306.8328377225
 20
810.7486741898
 11
1306.8597369363
 21
805.3874227756
  0
LINE
  5
4E9
100
AcDbEntity
  8
0
100
AcDbLine
 62
7
  6
CONTINUOUS
 10
1307.080791385
 20
761.3293143714
 11
1307.1076905988
 21
755.9680629572
  0
LINE
  5
4EA
100
AcDbEntity
  8
06___PRT_ALL_SURFS
100
AcDbLine
 62
7
  6
CONTINUOUS
 10
1308.4712616203
 20
768.7472371442
 11
1308.3324075693
 21
796.4220786425
  0
LINE
  5
4EB
100
AcDbEntity
  8
0
100
AcDbLine
 62
7
  6
CONTINUOUS
 10
1311.7655491583
 20
809.0614593991
 11
1311.7924483721
 21
803.7002079849
  0
LINE
  5
4EC
100
AcDbEntity
  8
0
100
AcDbLine
 62
7
  6
CONTINUOUS
 10
1312.0135028208
 20
759.6420995807
 11
1312.0383532712
 21
754.6891848358
  0
LINE
  5
4ED
100
AcDbEntity
  8
06___PRT_ALL_SURFS
100
AcDbLine
 62
7
  6
CONTINUOUS
 10
1313.1445564491
 20
794.7761018059
 11
1313.2834105001
 21
767.1012603076
  0
LINE
  5
4EE
100
AcDbEntity
  8
0
100
AcDbLine
 62
7
  6
CONTINUOUS
 10
1314.5215004743
 20
794.3051234493
 11
1314.6574992996
 21
767.1993537151
  0
LINE
  5
4EF
100
AcDbEntity
  8
06___PRT_ALL_SURFS
100
AcDbLine
 62
7
  6
CONTINUOUS
 10
1316.1599243721
 20
752.3036864038
 11
1316.1301699326
 21
758.234009582
  0
LINE
  5
4F0
100
AcDbEntity
  8
06___PRT_ALL_SURFS
100
AcDbLine
 62
7
  6
CONTINUOUS
 10
1315.9119707096
 20
801.7230462221
 11
1315.8822162701
 21
807.6533694003
  0
LINE
  5
4F1
100
AcDbEntity
  8
0
100
AcDbLine
 62
7
  6
CONTINUOUS
 10
1181.2218401861
 20
815.4651133206
 11
1177.9278646417
 21
815.2299630994
  0
LINE
  5
4F2
100
AcDbEntity
  8
06___PRT_ALL_SURFS
100
AcDbLine
 62
7
  6
CONTINUOUS
 10
1180.6203215761
 20
815.6708604252
 11
1177.9102013062
 21
815.4773904457
  0
LINE
  5
4F3
100
AcDbEntity
  8
0
100
AcDbLine
 62
7
  6
CONTINUOUS
 10
1172.1270433601
 20
815.3832475154
 11
1173.5011321596
 21
815.4813409228
  0
LINE
  5
4F4
100
AcDbEntity
  8
0
100
AcDbLine
 62
7
  6
CONTINUOUS
 10
1252.5520104593
 20
823.3950745711
 11
1253.9260992588
 21
823.4931679785
  0
LINE
  5
4F5
100
AcDbEntity
  8
06___PRT_ALL_SURFS
100
AcDbLine
 62
7
  6
CONTINUOUS
 10
1334.8215007707
 20
806.8661757031
 11
1330.642240038
 21
808.2956756069
  0
LINE
  5
4F6
100
AcDbEntity
  8
06___PRT_ALL_SURFS
100
AcDbLine
 62
7
  6
CONTINUOUS
 10
1164.3245273067
 20
865.1840033615
 11
1170.5668190078
 21
863.0488517267
  0
LINE
  5
4F7
100
AcDbEntity
  8
0
100
AcDbLine
 62
7
  6
CONTINUOUS
 10
1347.8385384479
 20
803.1253648482
 11
1355.9650387196
 21
800.345726989
  0
LINE
  5
4F8
100
AcDbEntity
  8
0
100
AcDbLine
 62
7
  6
CONTINUOUS
 10
1336.8204516251
 20
807.3983640619
 11
1334.8153895918
 21
808.0841877439
  0
LINE
  5
4F9
100
AcDbEntity
  8
0
100
AcDbLine
 62
7
  6
CONTINUOUS
 10
1162.9414721026
 20
866.8729937588
 11
1160.9364100694
 21
867.5588174407
  0
LINE
  5
4FA
100
AcDbEntity
  8
06___PRT_ALL_SURFS
100
AcDbLine
 62
7
  6
CONTINUOUS
 10
1170.5607078289
 20
864.2668637674
 11
1327.1961538655
 21
810.6903177352
  0
LINE
  5
4FB
100
AcDbEntity
  8
0
100
AcDbLine
 62
7
  6
CONTINUOUS
 10
1337.5930218146
 20
807.702204574
 11
1336.1894783913
 21
808.1822811513
  0
LINE
  5
4FC
100
AcDbEntity
  8
0
100
AcDbLine
 62
7
  6
CONTINUOUS
 10
1164.3155609021
 20
866.9710871662
 11
1162.9120174788
 21
867.4511637436
  0
LINE
  5
4FD
100
AcDbEntity
  8
0
100
AcDbLine
 62
7
  6
CONTINUOUS
 10
1250.4467565144
 20
837.8889762892
 11
1251.8904011784
 21
837.3951832382
  0
LINE
  5
4FE
100
AcDbEntity
  8
06___PRT_ALL_SURFS
100
AcDbLine
 62
7
  6
CONTINUOUS
 10
1341.522436563
 20
807.9827175089
 11
1338.886772835
 21
808.8842360516
  0
LINE
  5
4FF
100
AcDbEntity
  8
06___PRT_ALL_SURFS
100
AcDbLine
 62
7
  6
CONTINUOUS
 10
1172.4265228355
 20
865.8213181253
 11
1175.8642113768
 21
864.6454701098
  0
LINE
  5
500
100
AcDbEntity
  8
0
100
AcDbLine
 62
7
  6
CONTINUOUS
 10
1180.6373590253
 20
864.9862154221
 11
1256.9500200104
 21
838.8837660879
  0
LINE
  5
501
100
AcDbEntity
  8
0
100
AcDbLine
 62
7
  6
CONTINUOUS
 10
1260.9601440769
 20
837.512118724
 11
1337.2728050619
 21
811.4096693899
  0
LINE
  5
502
100
AcDbEntity
  8
0
100
AcDbLine
 62
7
  6
CONTINUOUS
 10
1347.8131620212
 20
808.1831113216
 11
1347.2116434112
 21
808.3888584262
  0
LINE
  5
503
100
AcDbEntity
  8
0
100
AcDbLine
 62
7
  6
CONTINUOUS
 10
1171.9291204655
 20
868.3435647003
 11
1172.5306390754
 21
868.1378175957
  0
LINE
  5
504
100
AcDbEntity
  8
0
100
AcDbLine
 62
7
  6
CONTINUOUS
 10
1355.3573729505
 20
807.9194100108
 11
1161.2405484411
 21
874.3163160097
  0
LINE
  5
505
100
AcDbEntity
  8
0
100
AcDbLine
 62
7
  6
CONTINUOUS
 10
1355.3449752698
 20
810.3903780009
 11
1161.2281507543
 21
876.7872840019
  0
LINE
  5
506
100
AcDbEntity
  8
0
100
AcDbLine
 62
7
  6
CONTINUOUS
 10
1356.2144081273
 20
750.6441966151
 11
1353.4020074113
 21
754.5905900333
  0
LINE
  5
507
100
AcDbEntity
  8
0
100
AcDbLine
 62
7
  6
CONTINUOUS
 10
1356.2058072499
 20
752.3584276265
 11
1355.0060570379
 21
754.0419310878
  0
LINE
  5
508
100
AcDbEntity
  8
0
100
AcDbLine
 62
7
  6
CONTINUOUS
 10
1323.3483932523
 20
755.765044327
 11
1323.3781476918
 21
749.8347211488
  0
LINE
  5
509
100
AcDbEntity
  8
0
100
AcDbLine
 62
7
  6
CONTINUOUS
 10
1324.7253372775
 20
755.2940659705
 11
1324.7522364913
 21
749.9328145563
  0
LINE
  5
50A
100
AcDbEntity
  8
06___PRT_ALL_SURFS
100
AcDbLine
 62
7
  6
CONTINUOUS
 10
1326.1158075128
 20
762.7119887433
 11
1325.9769534618
 21
790.3868302416
  0
LINE
  5
50B
100
AcDbEntity
  8
0
100
AcDbLine
 62
9
  6
CONTINUOUS
 10
1355.3449752487
 20
810.3903780414
 11
1367.2181549543
 21
818.1574512046
  0
LINE
  5
50C
100
AcDbEntity
  8
0
100
AcDbLine
 62
7
  6
CONTINUOUS
 10
1177.8891838704
 20
822.939383231
 11
1182.5096431073
 21
823.2692284279
  0
LINE
  5
50D
100
AcDbEntity
  8
0
100
AcDbLine
 62
7
  6
CONTINUOUS
 10
1234.9074645668
 20
829.430322972
 11
1236.2815533663
 21
829.5284163795
  0
LINE
  5
50E
100
AcDbEntity
  8
0
100
AcDbLine
 62
7
  6
CONTINUOUS
 10
1256.1050303186
 20
837.1655220177
 11
1260.9601440769
 21
837.512118724
  0
LINE
  5
50F
100
AcDbEntity
  8
0
100
AcDbLine
 62
7
  6
CONTINUOUS
 10
1256.9574586203
 20
837.4011852934
 11
1253.5270642021
 21
837.1562964059
  0
LINE
  5
510
100
AcDbEntity
  8
0
100
AcDbLine
 62
7
  6
CONTINUOUS
 10
1217.2629186743
 20
835.465571373
 11
1218.6370074738
 21
835.5636647805
  0
LINE
  5
511
100
AcDbEntity
  8
06___PRT_ALL_SURFS
100
AcDbLine
 62
7
  6
CONTINUOUS
 10
1327.1961538655
 20
810.6903177352
 11
1327.2407855248
 21
801.7948329679
  0
LINE
  5
512
100
AcDbEntity
  8
0
100
AcDbLine
 62
7
  6
CONTINUOUS
 10
1328.5776812749
 20
809.3058303481
 11
1328.6148743243
 21
801.8929263753
  0
LINE
  5
513
100
AcDbEntity
  8
0
100
AcDbLine
 62
7
  6
CONTINUOUS
 10
1330.642240038
 20
808.2956756069
 11
1330.6496786478
 21
806.8130948123
  0
LINE
  5
514
100
AcDbEntity
  8
0
100
AcDbLine
 62
7
  6
CONTINUOUS
 10
1331.2869487903
 20
748.1052774893
 11
1331.2620983399
 21
753.0581922342
  0
LINE
  5
515
100
AcDbEntity
  8
0
100
AcDbLine
 62
7
  6
CONTINUOUS
 10
1331.0212075982
 20
801.0698494239
 11
1330.9929809534
 21
806.6956695919
  0
LINE
  5
516
100
AcDbEntity
  8
0
100
AcDbLine
 62
7
  6
CONTINUOUS
 10
1330.9849445543
 20
808.2973950715
 11
1330.9790247856
 21
809.4772573822
  0
LINE
  5
517
100
AcDbEntity
  8
0
100
AcDbLine
 62
7
  6
CONTINUOUS
 10
1333.8044702646
 20
746.2684380028
 11
1333.7747158251
 21
752.198761181
  0
LINE
  5
518
100
AcDbEntity
  8
0
100
AcDbLine
 62
7
  6
CONTINUOUS
 10
1334.8153895918
 20
808.0841877439
 11
1334.8600212511
 21
799.1887029766
  0
LINE
  5
519
100
AcDbEntity
  8
0
100
AcDbLine
 62
7
  6
CONTINUOUS
 10
1336.8204516251
 20
807.3983640619
 11
1337.1675867525
 21
738.2112603162
  0
LINE
  5
51A
100
AcDbEntity
  8
0
100
AcDbLine
 62
7
  6
CONTINUOUS
 10
1337.2728050619
 20
811.4096693899
 11
1337.2802436718
 21
809.9270885953
  0
LINE
  5
51B
100
AcDbEntity
  8
0
100
AcDbLine
 62
7
  6
CONTINUOUS
 10
1256.9500200104
 20
838.8837660879
 11
1252.0949062521
 21
838.5371693816
  0
LINE
  5
51C
100
AcDbEntity
  8
0
100
AcDbLine
 62
7
  6
CONTINUOUS
 10
1199.6183727818
 20
841.500819774
 11
1200.9924615813
 21
841.5989131814
  0
LINE
  5
51D
100
AcDbEntity
  8
0
100
AcDbLine
 62
7
  6
CONTINUOUS
 10
1367.2181549543
 20
818.1574512046
 11
1173.1013304621
 21
884.5543572084
  0
LINE
  5
51E
100
AcDbEntity
  8
06___PRT_ALL_SURFS
100
AcDbLine
 62
7
  6
CONTINUOUS
 10
1348.1602971486
 20
738.9960075759
 11
1348.1206245626
 21
746.9031051468
  0
LINE
  5
51F
100
AcDbEntity
  8
06___PRT_ALL_SURFS
100
AcDbLine
 62
7
  6
CONTINUOUS
 10
1347.8528346072
 20
800.2760137506
 11
1347.8131620212
 21
808.1831113216
  0
LINE
  5
520
100
AcDbEntity
  8
0
100
AcDbLine
 62
7
  6
CONTINUOUS
 10
1181.9738268893
 20
847.5360681749
 11
1183.3479156888
 21
847.6341615824
  0
LINE
  5
521
100
AcDbEntity
  8
0
100
AcDbLine
 62
7
  6
CONTINUOUS
 10
1161.2405484411
 20
874.3163160097
 11
1161.0745875686
 21
874.3389386941
  0
LINE
  5
522
100
AcDbEntity
  8
06___PRT_ALL_SURFS
100
AcDbLine
 62
7
  6
CONTINUOUS
 10
1353.2103875875
 20
755.2752568252
 11
1353.1717068161
 21
762.9846769569
  0
LINE
  5
523
100
AcDbEntity
  8
06___PRT_ALL_SURFS
100
AcDbLine
 62
7
  6
CONTINUOUS
 10
1353.06161539
 20
784.9268727162
 11
1353.0229346186
 21
792.6362928479
  0
LINE
  5
524
100
AcDbEntity
  8
0
100
AcDbLine
 62
7
  6
CONTINUOUS
 10
1353.4020074113
 20
754.5905900333
 11
1353.3746153015
 21
760.0500799826
  0
LINE
  5
525
100
AcDbEntity
  8
0
100
AcDbLine
 62
7
  6
CONTINUOUS
 10
1355.0060570379
 20
754.0419310878
 11
1354.9786649281
 21
759.501421037
  0
LINE
  5
526
100
AcDbEntity
  8
0
100
AcDbLine
 62
7
  6
CONTINUOUS
 10
1356.2526649681
 20
743.0192695997
 11
1355.9650387196
 21
800.345726989
  0
LINE
  5
527
100
AcDbEntity
  8
0
100
AcDbLine
 62
7
  6
CONTINUOUS
 10
1356.7118962676
 20
734.8971496744
 11
1356.359433865
 21
805.146026498
  0
LINE
  5
528
100
AcDbEntity
  8
0
100
AcDbLine
 62
7
  6
CONTINUOUS
 10
1357.7144272841
 20
734.5542378457
 11
1357.3619648817
 21
804.8031146448
  0
LINE
  5
529
100
AcDbEntity
  8
0
100
AcDbLine
 62
9
  6
CONTINUOUS
 10
1425.2698641044
 20
810.7911382148
 11
1426.4530504064
 21
811.398132223
  0
LINE
  5
52A
100
AcDbEntity
  8
0
100
AcDbLine
 62
7
  6
CONTINUOUS
 10
1162.9861037618
 20
857.9775089914
 11
1164.3601925614
 21
858.0756023989
  0
LINE
  5
52B
100
AcDbEntity
  8
06___PRT_ALL_SURFS
100
AcDbLine
 62
7
  6
CONTINUOUS
 10
1180.6373590253
 20
864.9862154221
 11
1170.5607078289
 21
864.2668637674
  0
LINE
  5
52C
100
AcDbEntity
  8
0
100
AcDbLine
 62
7
  6
CONTINUOUS
 10
1419.4466746518
 20
824.1772973442
 11
1221.5053935044
 21
891.8823438651
  0
LINE
  5
52D
100
AcDbEntity
  8
06___PRT_ALL_SURFS
100
AcDbLine
 62
7
  6
CONTINUOUS
 10
1172.4265228355
 20
865.8213181253
 11
1164.324231742
 21
865.2429120267
  0
LINE
  5
52E
100
AcDbEntity
  8
0
100
AcDbLine
 62
7
  6
CONTINUOUS
 10
1162.9414721026
 20
866.8729937588
 11
1164.3155609021
 21
866.9710871662
  0
LINE
  5
52F
100
AcDbEntity
  8
0
100
AcDbLine
 62
7
  6
CONTINUOUS
 10
1172.5306390754
 20
868.1378175957
 11
1162.9120174788
 21
867.4511637436
  0
LINE
  5
530
100
AcDbEntity
  8
0
100
AcDbLine
 62
7
  6
CONTINUOUS
 10
1160.9364100694
 20
867.5588174407
 11
1171.9291204655
 21
868.3435647003
  0
LINE
  5
531
100
AcDbEntity
  8
0
100
AcDbLine
 62
9
  6
CONTINUOUS
 10
1160.2629200658
 20
872.220077906
 11
1163.9271568645
 21
872.4816603259
  0
LINE
  5
532
100
AcDbEntity
  8
0
100
AcDbLine
 62
7
  6
CONTINUOUS
 10
1221.5053935136
 20
891.8823437021
 11
1220.5869855203
 21
891.9796986075
  0
LINE
  5
533
100
AcDbEntity
  8
0
100
AcDbLine
 62
7
  6
CONTINUOUS
 10
1372.3474078927
 20
734.4397545402
 11
1371.9949454903
 21
804.6886313393
  0
LINE
  5
534
100
AcDbEntity
  8
0
100
AcDbLine
 62
7
  6
CONTINUOUS
 10
1353.3746153015
 20
760.0500799826
 11
1356.1454154558
 21
764.3950467666
  0
LINE
  5
535
100
AcDbEntity
  8
0
100
AcDbLine
 62
7
  6
CONTINUOUS
 10
1354.9786649281
 20
759.501421037
 11
1356.1606686353
 21
761.3549530712
  0
LINE
  5
536
100
AcDbEntity
  8
0
100
AcDbLine
 62
7
  6
CONTINUOUS
 10
1188.3653002466
 20
887.324352434
 11
1172.0186756698
 21
884.6239794862
  0
LWPOLYLINE
  5
537
100
AcDbEntity
  8
0
100
AcDbPolyline
 62
7
  6
CONTINUOUS
 90
3
 70
0
 10
1220.5870406613
 20
891.979705818
 10
1205.4536315987
 20
889.9033781367
 10
1188.3653002466
 20
887.324352434
  0
LINE
  5
538
100
AcDbEntity
  8
0
100
AcDbLine
 62
9
  6
CONTINUOUS
 10
1221.5053935071
 20
891.8823438688
 11
1220.616575459
 21
891.7618477215
  0
LINE
  5
539
100
AcDbEntity
  8
0
100
AcDbLine
 62
9
  6
CONTINUOUS
 10
1221.5053935071
 20
891.8823438688
 11
1220.6164196949
 21
891.7657745506
  0
LINE
  5
53A
100
AcDbEntity
  8
0
100
AcDbLine
 62
7
  6
CONTINUOUS
 10
1422.2809780484
 20
822.0162035757
 11
1420.4562140989
 21
823.5641380868
  0
LINE
  5
53B
100
AcDbEntity
  8
0
100
AcDbLine
 62
9
  6
CONTINUOUS
 10
226.151036582
 20
404.9897860626
 11
226.151036581
 21
403.2355627406
  0
LINE
  5
53C
100
AcDbEntity
  8
0
100
AcDbLine
 62
9
  6
CONTINUOUS
 10
226.1510365817
 20
303.7581104586
 11
226.1510365816
 21
305.5123337589
  0
LINE
  5
53D
100
AcDbEntity
  8
0
100
AcDbLine
 62
9
  6
CONTINUOUS
 10
731.8478799246
 20
315.6893885208
 11
729.8554905284
 21
315.4949937455
  0
LINE
  5
53E
100
AcDbEntity
  8
0
100
AcDbLine
 62
9
  6
CONTINUOUS
 10
214.0580764871
 20
315.689388453
 11
216.0504658832
 21
315.4949936802
  0
LINE
  5
53F
100
AcDbEntity
  8
0
100
AcDbLine
 62
7
  6
CONTINUOUS
 10
719.7549198291
 20
303.7581104546
 11
226.1510365817
 21
303.7581104586
  0
LINE
  5
540
100
AcDbEntity
  8
0
100
AcDbLine
 62
7
  6
CONTINUOUS
 10
719.7549198302
 20
305.5123337766
 11
226.1510365816
 21
305.5123337589
  0
LINE
  5
541
100
AcDbEntity
  8
0
100
AcDbLine
 62
7
  6
CONTINUOUS
 10
719.7549198459
 20
310.5123338397
 11
226.151036582
 21
310.5123338029
  0
LINE
  5
542
100
AcDbEntity
  8
0
100
AcDbLine
 62
7
  6
CONTINUOUS
 10
488.9529782056
 20
311.3739482586
 11
456.9529782056
 21
311.3739482586
  0
LINE
  5
543
100
AcDbEntity
  8
0
100
AcDbLine
 62
7
  6
CONTINUOUS
 10
488.9529782056
 20
317.3739482586
 11
456.9529782056
 21
317.3739482586
  0
LINE
  5
544
100
AcDbEntity
  8
0
100
AcDbLine
 62
7
  6
CONTINUOUS
 10
719.7549198291
 20
398.2355627143
 11
226.1510365653
 21
398.2355626774
  0
LINE
  5
545
100
AcDbEntity
  8
0
100
AcDbLine
 62
7
  6
CONTINUOUS
 10
226.151036581
 20
403.2355627406
 11
719.7549198295
 21
403.2355627583
  0
LINE
  5
546
100
AcDbEntity
  8
0
100
AcDbLine
 62
7
  6
CONTINUOUS
 10
226.151036582
 20
404.9897860626
 11
719.7549198295
 21
404.9897860586
  0
LINE
  5
547
100
AcDbEntity
  8
0
100
AcDbLine
 62
9
  6
CONTINUOUS
 10
214.0580764865
 20
393.058507996
 11
216.0504658827
 21
393.2529027714
  0
LINE
  5
548
100
AcDbEntity
  8
0
100
AcDbLine
 62
9
  6
CONTINUOUS
 10
731.8478799241
 20
393.0585080641
 11
729.8554905279
 21
393.252902837
  0
LINE
  5
549
100
AcDbEntity
  8
0
100
AcDbLine
 62
9
  6
CONTINUOUS
 10
719.7549198295
 20
404.9897860586
 11
719.7549198295
 21
403.2355627583
  0
LINE
  5
54A
100
AcDbEntity
  8
0
100
AcDbLine
 62
9
  6
CONTINUOUS
 10
719.7549198291
 20
303.7581104546
 11
719.7549198302
 21
305.5123337766
  0
LINE
  5
54B
100
AcDbEntity
  8
0
100
AcDbLine
 62
9
  6
CONTINUOUS
 10
226.151036582
 20
576.3961669392
 11
226.151036581
 21
574.3345123174
  0
LINE
  5
54C
100
AcDbEntity
  8
0
100
AcDbLine
 62
7
  6
CONTINUOUS
 10
215.8855809349
 20
571.3389741049
 11
216.0504658828
 21
573.2329242956
  0
LINE
  5
54D
100
AcDbEntity
  8
0
100
AcDbLine
 62
7
  6
CONTINUOUS
 10
220.8856092735
 20
571.3389741048
 11
221.0502852079
 21
573.2287755095
  0
LINE
  5
54E
100
AcDbEntity
  8
0
100
AcDbLine
 62
7
  6
CONTINUOUS
 10
213.8931915387
 20
573.5131224518
 11
218.9598796974
 21
631.4256331074
  0
LINE
  5
54F
100
AcDbEntity
  8
0
100
AcDbLine
 62
7
  6
CONTINUOUS
 10
218.9598796974
 20
631.4256331074
 11
218.9629614968
 21
631.4354858681
  0
LINE
  5
550
100
AcDbEntity
  8
0
100
AcDbLine
 62
9
  6
CONTINUOUS
 10
230.9195382202
 20
644.3389741276
 11
230.9195382162
 21
631.339940215
  0
LINE
  5
551
100
AcDbEntity
  8
0
100
AcDbLine
 62
9
  6
CONTINUOUS
 10
230.9195382163
 20
631.339940207
 11
226.151036582
 21
576.3961669399
  0
LINE
  5
552
100
AcDbEntity
  8
0
100
AcDbLine
 62
7
  6
CONTINUOUS
 10
225.9511740886
 20
644.3389741048
 11
218.9598796974
 21
631.4256331074
  0
LINE
  5
553
100
AcDbEntity
  8
02___PRT_ALL_AXES
100
AcDbLine
 62
7
  6
CONTINUOUS
 10
252.1529782056
 20
650.8889741048
 11
252.1529782056
 21
644.3889741048
  0
LINE
  5
554
100
AcDbEntity
  8
0
100
AcDbLine
 62
7
  6
CONTINUOUS
 10
253.6529782056
 20
644.3389741048
 11
253.6529782056
 21
654.6389741048
  0
LINE
  5
555
100
AcDbEntity
  8
0
100
AcDbLine
 62
7
  6
CONTINUOUS
 10
255.1529782056
 20
653.1389741048
 11
255.1529782056
 21
644.3389741048
  0
LINE
  5
556
100
AcDbEntity
  8
06___PRT_ALL_SURFS
100
AcDbLine
 62
7
  6
CONTINUOUS
 10
257.1529782056
 20
644.3389741048
 11
257.1529782056
 21
652.6389741048
  0
LINE
  5
557
100
AcDbEntity
  8
0
100
AcDbLine
 62
7
  6
CONTINUOUS
 10
258.6529782056
 20
654.6389741048
 11
258.6529782056
 21
653.1389741048
  0
LINE
  5
558
100
AcDbEntity
  8
0
100
AcDbLine
 62
9
  6
CONTINUOUS
 10
214.0580764865
 20
575.3977660284
 11
216.0504658827
 21
573.2329242939
  0
LINE
  5
559
100
AcDbEntity
  8
0
100
AcDbLine
 62
7
  6
CONTINUOUS
 10
213.8931782855
 20
573.512970967
 11
215.8852779762
 21
571.3389741049
  0
LINE
  5
55A
100
AcDbEntity
  8
06___PRT_ALL_SURFS
100
AcDbLine
 62
7
  6
CONTINUOUS
 10
273.6529782056
 20
644.3389741048
 11
273.6529782056
 21
652.6389741048
  0
LINE
  5
55B
100
AcDbEntity
  8
06___PRT_ALL_SURFS
100
AcDbLine
 62
7
  6
CONTINUOUS
 10
277.6529782056
 20
644.3389741048
 11
277.6529782056
 21
654.6389741048
  0
LINE
  5
55C
100
AcDbEntity
  8
02___PRT_ALL_AXES
100
AcDbLine
 62
7
  6
CONTINUOUS
 10
730.0206784332
 20
571.3389741048
 11
725.0203658065
 21
571.3389741048
  0
LINE
  5
55D
100
AcDbEntity
  8
02___PRT_ALL_AXES
100
AcDbLine
 62
7
  6
CONTINUOUS
 10
220.8855906046
 20
571.3389741048
 11
215.8852779764
 21
571.3389741048
  0
LINE
  5
55E
100
AcDbEntity
  8
0
100
AcDbLine
 62
7
  6
CONTINUOUS
 10
719.7549198291
 20
573.7510482602
 11
226.1510365653
 21
573.7510482562
  0
LINE
  5
55F
100
AcDbEntity
  8
0
100
AcDbLine
 62
7
  6
CONTINUOUS
 10
226.151036581
 20
574.3345123174
 11
719.7549198295
 21
574.3345123383
  0
LINE
  5
560
100
AcDbEntity
  8
0
100
AcDbLine
 62
7
  6
CONTINUOUS
 10
226.151036582
 20
576.3961669392
 11
719.7549198295
 21
576.3961669345
  0
LINE
  5
561
100
AcDbEntity
  8
0
100
AcDbLine
 62
7
  6
CONTINUOUS
 10
467.9529782056
 20
648.9389741048
 11
467.9529782056
 21
644.3389741048
  0
LINE
  5
562
100
AcDbEntity
  8
0
100
AcDbLine
 62
7
  6
CONTINUOUS
 10
477.9529782056
 20
644.3389741048
 11
477.9529782056
 21
648.9389741048
  0
LINE
  5
563
100
AcDbEntity
  8
0
100
AcDbLine
 62
7
  6
CONTINUOUS
 10
230.9195382162
 20
631.339940215
 11
714.9864181978
 21
631.3399401847
  0
LINE
  5
564
100
AcDbEntity
  8
0
100
AcDbLine
 62
7
  6
CONTINUOUS
 10
225.9511740886
 20
644.3389741048
 11
719.9547823225
 21
644.3389741048
  0
LINE
  5
565
100
AcDbEntity
  8
02___PRT_ALL_AXES
100
AcDbLine
 62
7
  6
CONTINUOUS
 10
253.6529782056
 20
644.3889741048
 11
252.1529782056
 21
644.3889741048
  0
LINE
  5
566
100
AcDbEntity
  8
02___PRT_ALL_AXES
100
AcDbLine
 62
7
  6
CONTINUOUS
 10
692.2529782056
 20
644.3889741048
 11
693.7529782056
 21
644.3889741048
  0
LINE
  5
567
100
AcDbEntity
  8
0
100
AcDbLine
 62
7
  6
CONTINUOUS
 10
696.2529782056
 20
644.3889741048
 11
697.2529782056
 21
644.3889741048
  0
LINE
  5
568
100
AcDbEntity
  8
02___PRT_ALL_AXES
100
AcDbLine
 62
7
  6
CONTINUOUS
 10
693.7529782056
 20
645.6389741048
 11
696.2529782056
 21
645.6389741048
  0
LINE
  5
569
100
AcDbEntity
  8
02___PRT_ALL_AXES
100
AcDbLine
 62
7
  6
CONTINUOUS
 10
693.7529782056
 20
649.6389741048
 11
696.2529782056
 21
649.6389741048
  0
LINE
  5
56A
100
AcDbEntity
  8
02___PRT_ALL_AXES
100
AcDbLine
 62
7
  6
CONTINUOUS
 10
253.6529782056
 20
650.8889741048
 11
252.1529782056
 21
650.8889741048
  0
LINE
  5
56B
100
AcDbEntity
  8
02___PRT_ALL_AXES
100
AcDbLine
 62
7
  6
CONTINUOUS
 10
692.2529782056
 20
650.8889741048
 11
693.7529782056
 21
650.8889741048
  0
LINE
  5
56C
100
AcDbEntity
  8
0
100
AcDbLine
 62
7
  6
CONTINUOUS
 10
696.2529782056
 20
650.8889741048
 11
697.2529782056
 21
650.8889741048
  0
LINE
  5
56D
100
AcDbEntity
  8
0
100
AcDbLine
 62
7
  6
CONTINUOUS
 10
474.7529782056
 20
652.1389741048
 11
471.1529782056
 21
652.1389741048
  0
LINE
  5
56E
100
AcDbEntity
  8
0
100
AcDbLine
 62
7
  6
CONTINUOUS
 10
690.7529782056
 20
652.6389741048
 11
688.7529782056
 21
652.6389741048
  0
LINE
  5
56F
100
AcDbEntity
  8
06___PRT_ALL_SURFS
100
AcDbLine
 62
7
  6
CONTINUOUS
 10
688.7529782056
 20
652.6389741048
 11
672.2529782056
 21
652.6389741048
  0
LINE
  5
570
100
AcDbEntity
  8
0
100
AcDbLine
 62
7
  6
CONTINUOUS
 10
255.1529782056
 20
652.6389741048
 11
257.1529782056
 21
652.6389741048
  0
LINE
  5
571
100
AcDbEntity
  8
06___PRT_ALL_SURFS
100
AcDbLine
 62
7
  6
CONTINUOUS
 10
257.1529782056
 20
652.6389741048
 11
273.6529782056
 21
652.6389741048
  0
LINE
  5
572
100
AcDbEntity
  8
0
100
AcDbLine
 62
7
  6
CONTINUOUS
 10
255.1529782056
 20
653.1389741048
 11
277.6529782056
 21
653.1389741048
  0
LINE
  5
573
100
AcDbEntity
  8
0
100
AcDbLine
 62
7
  6
CONTINUOUS
 10
668.2529782056
 20
653.1389741048
 11
690.7529782056
 21
653.1389741048
  0
LINE
  5
574
100
AcDbEntity
  8
06___PRT_ALL_SURFS
100
AcDbLine
 62
7
  6
CONTINUOUS
 10
687.2529782056
 20
654.6389741048
 11
258.6529782056
 21
654.6389741048
  0
LINE
  5
575
100
AcDbEntity
  8
0
100
AcDbLine
 62
7
  6
CONTINUOUS
 10
253.6529782056
 20
654.6389741048
 11
258.6529782056
 21
654.6389741048
  0
LINE
  5
576
100
AcDbEntity
  8
0
100
AcDbLine
 62
7
  6
CONTINUOUS
 10
687.2529782056
 20
654.6389741048
 11
692.2529782056
 21
654.6389741048
  0
LINE
  5
577
100
AcDbEntity
  8
06___PRT_ALL_SURFS
100
AcDbLine
 62
7
  6
CONTINUOUS
 10
668.2529782056
 20
644.3389741048
 11
668.2529782056
 21
654.6389741048
  0
LINE
  5
578
100
AcDbEntity
  8
06___PRT_ALL_SURFS
100
AcDbLine
 62
7
  6
CONTINUOUS
 10
672.2529782056
 20
644.3389741048
 11
672.2529782056
 21
652.6389741048
  0
LINE
  5
579
100
AcDbEntity
  8
0
100
AcDbLine
 62
7
  6
CONTINUOUS
 10
687.2529782056
 20
654.6389741048
 11
687.2529782056
 21
653.1389741048
  0
LINE
  5
57A
100
AcDbEntity
  8
06___PRT_ALL_SURFS
100
AcDbLine
 62
7
  6
CONTINUOUS
 10
688.7529782056
 20
644.3389741048
 11
688.7529782056
 21
652.6389741048
  0
LINE
  5
57B
100
AcDbEntity
  8
0
100
AcDbLine
 62
7
  6
CONTINUOUS
 10
690.7529782056
 20
644.3389741048
 11
690.7529782056
 21
653.1389741048
  0
LINE
  5
57C
100
AcDbEntity
  8
0
100
AcDbLine
 62
7
  6
CONTINUOUS
 10
692.2529782056
 20
654.6389741048
 11
692.2529782056
 21
644.3389741048
  0
LINE
  5
57D
100
AcDbEntity
  8
02___PRT_ALL_AXES
100
AcDbLine
 62
7
  6
CONTINUOUS
 10
693.7529782056
 20
650.8889741048
 11
693.7529782056
 21
644.3889741048
  0
LINE
  5
57E
100
AcDbEntity
  8
02___PRT_ALL_AXES
100
AcDbLine
 62
7
  6
CONTINUOUS
 10
696.2529782056
 20
650.8889741048
 11
696.2529782056
 21
644.3889741048
  0
LINE
  5
57F
100
AcDbEntity
  8
0
100
AcDbLine
 62
9
  6
CONTINUOUS
 10
697.2529782056
 20
650.8889741048
 11
697.2529782056
 21
644.3889741048
  0
LINE
  5
580
100
AcDbEntity
  8
0
100
AcDbLine
 62
7
  6
CONTINUOUS
 10
698.2529782056
 20
649.8889741048
 11
698.2529782056
 21
645.3889741048
  0
LINE
  5
581
100
AcDbEntity
  8
0
100
AcDbLine
 62
7
  6
CONTINUOUS
 10
730.0206784334
 20
571.3389741049
 11
732.0127781254
 21
573.5129709684
  0
LINE
  5
582
100
AcDbEntity
  8
0
100
AcDbLine
 62
9
  6
CONTINUOUS
 10
731.8478799241
 20
575.3977660348
 11
729.8554905279
 21
573.2329243003
  0
LINE
  5
583
100
AcDbEntity
  8
0
100
AcDbLine
 62
7
  6
CONTINUOUS
 10
726.9460767137
 20
631.4256331074
 11
732.0127648722
 21
573.5131224532
  0
LINE
  5
584
100
AcDbEntity
  8
0
100
AcDbLine
 62
7
  6
CONTINUOUS
 10
724.8556712028
 20
573.2287755139
 11
725.0203627877
 21
571.3389561027
  0
LINE
  5
585
100
AcDbEntity
  8
0
100
AcDbLine
 62
7
  6
CONTINUOUS
 10
729.8554905279
 20
573.2329243
 11
730.0203754759
 21
571.3389741048
  0
LINE
  5
586
100
AcDbEntity
  8
0
100
AcDbLine
 62
9
  6
CONTINUOUS
 10
719.7549198295
 20
576.3961669315
 11
714.9864181978
 21
631.3399401694
  0
LINE
  5
587
100
AcDbEntity
  8
0
100
AcDbLine
 62
9
  6
CONTINUOUS
 10
714.9864181907
 20
644.3389741205
 11
714.9864181978
 21
631.3399401847
  0
LINE
  5
588
100
AcDbEntity
  8
0
100
AcDbLine
 62
9
  6
CONTINUOUS
 10
719.7549198295
 20
576.3961669345
 11
719.7549198295
 21
574.3345123383
  0
LINE
  5
589
100
AcDbEntity
  8
0
100
AcDbLine
 62
7
  6
CONTINUOUS
 10
719.9547823225
 20
644.3389741048
 11
726.9429931452
 21
631.4355116905
  0
LINE
  5
58A
100
AcDbEntity
  8
0
100
AcDbLine
 62
7
  6
CONTINUOUS
 10
726.9429955201
 20
631.4354847279
 11
726.9460767137
 21
631.4256331074
  0
LINE
  5
58B
100
AcDbEntity
  8
0
100
AcDbLine
 62
7
  6
CONTINUOUS
 10
831.1016053018
 20
404.9897860586
 11
829.0399507056
 21
403.2355627583
  0
LINE
  5
58C
100
AcDbEntity
  8
0
100
AcDbLine
 62
7
  6
CONTINUOUS
 10
831.1016053065
 20
303.7581104546
 11
829.0399506848
 21
305.5123337766
  0
LINE
  5
58D
100
AcDbEntity
  8
0
100
AcDbLine
 62
9
  6
CONTINUOUS
 10
830.1032043957
 20
315.6893885208
 11
827.9383626612
 21
315.4949937455
  0
LINE
  5
58E
100
AcDbEntity
  8
0
100
AcDbLine
 62
9
  6
CONTINUOUS
 10
899.044412472
 20
318.8368242326
 11
886.1310714746
 21
318.8368242326
  0
LINE
  5
58F
100
AcDbEntity
  8
06___PRT_ALL_SURFS
100
AcDbLine
 62
7
  6
CONTINUOUS
 10
909.344412472
 20
319.3739482586
 11
899.044412472
 21
319.3739482586
  0
LINE
  5
590
100
AcDbEntity
  8
0
100
AcDbLine
 62
7
  6
CONTINUOUS
 10
886.1310714746
 20
389.911072318
 11
886.1310714746
 21
318.8368242326
  0
LINE
  5
591
100
AcDbEntity
  8
0
100
AcDbLine
 62
7
  6
CONTINUOUS
 10
899.044412472
 20
394.8744905028
 11
899.044412472
 21
313.8734060316
  0
LINE
  5
592
100
AcDbEntity
  8
0
100
AcDbLine
 62
7
  6
CONTINUOUS
 10
909.344412472
 20
389.3739482586
 11
899.044412472
 21
389.3739482586
  0
LINE
  5
593
100
AcDbEntity
  8
0
100
AcDbLine
 62
9
  6
CONTINUOUS
 10
899.044412472
 20
389.911072318
 11
886.1310714746
 21
389.911072318
  0
LINE
  5
594
100
AcDbEntity
  8
0
100
AcDbLine
 62
9
  6
CONTINUOUS
 10
830.1032044021
 20
393.0585080641
 11
827.9383626676
 21
393.252902837
  0
LINE
  5
595
100
AcDbEntity
  8
0
100
AcDbLine
 62
7
  6
CONTINUOUS
 10
909.344412472
 20
319.3739482586
 11
909.344412472
 21
389.3739482586
  0
LINE
  5
596
100
AcDbEntity
  8
0
100
AcDbLine
 62
7
  6
CONTINUOUS
 10
899.044412495
 20
313.8734059889
 11
886.0590711559
 21
306.8793171845
  0
LINE
  5
597
100
AcDbEntity
  8
0
100
AcDbLine
 62
7
  6
CONTINUOUS
 10
886.0590301359
 20
306.879314068
 11
886.0453785213
 21
306.8751431798
  0
LINE
  5
598
100
AcDbEntity
  8
0
100
AcDbLine
 62
7
  6
CONTINUOUS
 10
886.04537845
 20
401.8727533774
 11
886.0590309354
 21
401.8685820393
  0
LINE
  5
599
100
AcDbEntity
  8
0
100
AcDbLine
 62
7
  6
CONTINUOUS
 10
899.0444124878
 20
394.8744905322
 11
886.045378552
 21
401.8727534748
  0
LINE
  5
59A
100
AcDbEntity
  8
0
100
AcDbLine
 62
7
  6
CONTINUOUS
 10
1095.4907783974
 20
389.911072318
 11
1095.4907783974
 21
318.8368242326
  0
LINE
  5
59B
100
AcDbEntity
  8
0
100
AcDbLine
 62
7
  6
CONTINUOUS
 10
1102.4820727886
 20
389.911072318
 11
1102.4820727886
 21
318.8368242326
  0
LINE
  5
59C
100
AcDbEntity
  8
0
100
AcDbLine
 62
7
  6
CONTINUOUS
 10
1104.9820727886
 20
389.9110726952
 11
1104.9820727886
 21
318.8368242202
  0
LINE
  5
59D
100
AcDbEntity
  8
0
100
AcDbLine
 62
9
  6
CONTINUOUS
 10
1107.4504369202
 20
313.8734059889
 11
1107.4504369163
 21
306.8751430588
  0
LINE
  5
59E
100
AcDbEntity
  8
0
100
AcDbLine
 62
9
  6
CONTINUOUS
 10
1107.4504369204
 20
394.8744905322
 11
1107.4504369133
 21
401.8727534748
  0
LINE
  5
59F
100
AcDbEntity
  8
0
100
AcDbLine
 62
7
  6
CONTINUOUS
 10
1115.1838769056
 20
383.3739482586
 11
1115.1838769056
 21
325.3739482586
  0
LINE
  5
5A0
100
AcDbEntity
  8
0
100
AcDbLine
 62
7
  6
CONTINUOUS
 10
1124.1838769056
 20
378.6243054773
 11
1124.1838769056
 21
383.1235910399
  0
LINE
  5
5A1
100
AcDbEntity
  8
0
100
AcDbLine
 62
9
  6
CONTINUOUS
 10
1125.1838769056
 20
377.6239482586
 11
1125.1838769056
 21
384.1239482586
  0
LINE
  5
5A2
100
AcDbEntity
  8
02___PRT_ALL_AXES
100
AcDbLine
 62
7
  6
CONTINUOUS
 10
1126.1838769056
 20
377.6244516098
 11
1126.1838769056
 21
384.1234449074
  0
LINE
  5
5A3
100
AcDbEntity
  8
02___PRT_ALL_AXES
100
AcDbLine
 62
7
  6
CONTINUOUS
 10
1128.6838769056
 20
377.6244516098
 11
1128.6838769056
 21
384.1234449074
  0
LINE
  5
5A4
100
AcDbEntity
  8
0
100
AcDbLine
 62
7
  6
CONTINUOUS
 10
1130.1838769056
 20
319.3739482586
 11
1130.1838769056
 21
389.3739482586
  0
LINE
  5
5A5
100
AcDbEntity
  8
0
100
AcDbLine
 62
7
  6
CONTINUOUS
 10
1135.1838769056
 20
389.3739482586
 11
1135.1838769056
 21
380.3739482586
  0
LINE
  5
5A6
100
AcDbEntity
  8
0
100
AcDbLine
 62
7
  6
CONTINUOUS
 10
1138.4838769056
 20
332.3739482586
 11
1138.4838769056
 21
326.3739482586
  0
LINE
  5
5A7
100
AcDbEntity
  8
0
100
AcDbLine
 62
7
  6
CONTINUOUS
 10
1150.1838769056
 20
387.3739482586
 11
1150.1838769056
 21
385.8739482586
  0
LINE
  5
5A8
100
AcDbEntity
  8
0
100
AcDbLine
 62
7
  6
CONTINUOUS
 10
1150.7838769056
 20
326.3739482586
 11
1150.7838769056
 21
332.3739482586
  0
LINE
  5
5A9
100
AcDbEntity
  8
0
100
AcDbLine
 62
7
  6
CONTINUOUS
 10
1150.7838769056
 20
380.3739482586
 11
1150.7838769056
 21
383.3739482586
  0
LINE
  5
5AA
100
AcDbEntity
  8
06___PRT_ALL_SURFS
100
AcDbLine
 62
7
  6
CONTINUOUS
 10
1154.1838769056
 20
389.3739482586
 11
1154.1838769056
 21
380.3739482586
  0
LINE
  5
5AB
100
AcDbEntity
  8
06___PRT_ALL_SURFS
100
AcDbLine
 62
7
  6
CONTINUOUS
 10
1157.4838769056
 20
368.3739482586
 11
1157.4838769056
 21
340.3739482586
  0
LINE
  5
5AC
100
AcDbEntity
  8
0
100
AcDbLine
 62
7
  6
CONTINUOUS
 10
1164.4838769056
 20
326.3739482586
 11
1164.4838769056
 21
332.3739482586
  0
LINE
  5
5AD
100
AcDbEntity
  8
06___PRT_ALL_SURFS
100
AcDbLine
 62
7
  6
CONTINUOUS
 10
1182.4838769056
 20
382.3739482586
 11
1182.4838769056
 21
376.3739482586
  0
LINE
  5
5AE
100
AcDbEntity
  8
06___PRT_ALL_SURFS
100
AcDbLine
 62
7
  6
CONTINUOUS
 10
1182.4838769056
 20
332.3739482586
 11
1182.4838769056
 21
326.3739482586
  0
LINE
  5
5AF
100
AcDbEntity
  8
06___PRT_ALL_SURFS
100
AcDbLine
 62
7
  6
CONTINUOUS
 10
1189.4838769056
 20
340.3739482586
 11
1189.4838769056
 21
368.3739482586
  0
LINE
  5
5B0
100
AcDbEntity
  8
06___PRT_ALL_SURFS
100
AcDbLine
 62
7
  6
CONTINUOUS
 10
1201.4838769056
 20
368.3739482586
 11
1201.4838769056
 21
340.3739482586
  0
LINE
  5
5B1
100
AcDbEntity
  8
06___PRT_ALL_SURFS
100
AcDbLine
 62
7
  6
CONTINUOUS
 10
1208.4838769056
 20
326.3739482586
 11
1208.4838769056
 21
332.3739482586
  0
LINE
  5
5B2
100
AcDbEntity
  8
06___PRT_ALL_SURFS
100
AcDbLine
 62
7
  6
CONTINUOUS
 10
1208.4838769056
 20
376.3739482586
 11
1208.4838769056
 21
382.3739482586
  0
LINE
  5
5B3
100
AcDbEntity
  8
06___PRT_ALL_SURFS
100
AcDbLine
 62
7
  6
CONTINUOUS
 10
1226.4838769056
 20
382.3739482586
 11
1226.4838769056
 21
376.3739482586
  0
LINE
  5
5B4
100
AcDbEntity
  8
06___PRT_ALL_SURFS
100
AcDbLine
 62
7
  6
CONTINUOUS
 10
1226.4838769056
 20
332.3739482586
 11
1226.4838769056
 21
326.3739482586
  0
LINE
  5
5B5
100
AcDbEntity
  8
06___PRT_ALL_SURFS
100
AcDbLine
 62
7
  6
CONTINUOUS
 10
1233.4838769056
 20
340.3739482586
 11
1233.4838769056
 21
368.3739482586
  0
LINE
  5
5B6
100
AcDbEntity
  8
06___PRT_ALL_SURFS
100
AcDbLine
 62
7
  6
CONTINUOUS
 10
1245.4838769056
 20
368.3739482586
 11
1245.4838769056
 21
340.3739482586
  0
LINE
  5
5B7
100
AcDbEntity
  8
06___PRT_ALL_SURFS
100
AcDbLine
 62
7
  6
CONTINUOUS
 10
1252.4838769056
 20
326.3739482586
 11
1252.4838769056
 21
332.3739482586
  0
LINE
  5
5B8
100
AcDbEntity
  8
06___PRT_ALL_SURFS
100
AcDbLine
 62
7
  6
CONTINUOUS
 10
1252.4838769056
 20
376.3739482586
 11
1252.4838769056
 21
382.3739482586
  0
LINE
  5
5B9
100
AcDbEntity
  8
06___PRT_ALL_SURFS
100
AcDbLine
 62
7
  6
CONTINUOUS
 10
1270.4838769056
 20
382.3739482586
 11
1270.4838769056
 21
376.3739482586
  0
LINE
  5
5BA
100
AcDbEntity
  8
06___PRT_ALL_SURFS
100
AcDbLine
 62
7
  6
CONTINUOUS
 10
1270.4838769056
 20
332.3739482586
 11
1270.4838769056
 21
326.3739482586
  0
LINE
  5
5BB
100
AcDbEntity
  8
06___PRT_ALL_SURFS
100
AcDbLine
 62
7
  6
CONTINUOUS
 10
1277.4838769056
 20
340.3739482586
 11
1277.4838769056
 21
368.3739482586
  0
LINE
  5
5BC
100
AcDbEntity
  8
06___PRT_ALL_SURFS
100
AcDbLine
 62
7
  6
CONTINUOUS
 10
1289.4838769056
 20
368.3739482586
 11
1289.4838769056
 21
340.3739482586
  0
LINE
  5
5BD
100
AcDbEntity
  8
06___PRT_ALL_SURFS
100
AcDbLine
 62
7
  6
CONTINUOUS
 10
1296.4838769056
 20
326.3739482586
 11
1296.4838769056
 21
332.3739482586
  0
LINE
  5
5BE
100
AcDbEntity
  8
06___PRT_ALL_SURFS
100
AcDbLine
 62
7
  6
CONTINUOUS
 10
1296.4838769056
 20
376.3739482586
 11
1296.4838769056
 21
382.3739482586
  0
LINE
  5
5BF
100
AcDbEntity
  8
06___PRT_ALL_SURFS
100
AcDbLine
 62
7
  6
CONTINUOUS
 10
1314.4838769056
 20
382.3739482586
 11
1314.4838769056
 21
376.3739482586
  0
LINE
  5
5C0
100
AcDbEntity
  8
06___PRT_ALL_SURFS
100
AcDbLine
 62
7
  6
CONTINUOUS
 10
1314.4838769056
 20
332.3739482586
 11
1314.4838769056
 21
326.3739482586
  0
LINE
  5
5C1
100
AcDbEntity
  8
0
100
AcDbLine
 62
7
  6
CONTINUOUS
 10
1102.681935282
 20
303.7581104546
 11
1596.2858185295
 21
303.7581104586
  0
LINE
  5
5C2
100
AcDbEntity
  8
0
100
AcDbLine
 62
7
  6
CONTINUOUS
 10
1107.4504369163
 20
306.8751430588
 11
1591.5173168978
 21
306.8751430423
  0
LINE
  5
5C3
100
AcDbEntity
  8
0
100
AcDbLine
 62
7
  6
CONTINUOUS
 10
1107.4504369202
 20
313.8734060316
 11
1591.5173168907
 21
313.8734060146
  0
LINE
  5
5C4
100
AcDbEntity
  8
0
100
AcDbLine
 62
7
  6
CONTINUOUS
 10
1107.4504369261
 20
316.3734060316
 11
1591.5173168814
 21
316.3734060146
  0
LINE
  5
5C5
100
AcDbEntity
  8
06___PRT_ALL_SURFS
100
AcDbLine
 62
7
  6
CONTINUOUS
 10
1321.4838769056
 20
340.3739482586
 11
1321.4838769056
 21
368.3739482586
  0
LINE
  5
5C6
100
AcDbEntity
  8
06___PRT_ALL_SURFS
100
AcDbLine
 62
7
  6
CONTINUOUS
 10
1333.4838769056
 20
368.3739482586
 11
1333.4838769056
 21
340.3739482586
  0
LINE
  5
5C7
100
AcDbEntity
  8
0
100
AcDbLine
 62
9
  6
CONTINUOUS
 10
1102.4820727886
 20
318.8368242326
 11
1095.4907783974
 21
318.8368242326
  0
LINE
  5
5C8
100
AcDbEntity
  8
0
100
AcDbLine
 62
9
  6
CONTINUOUS
 10
1596.4856810225
 20
318.8368241998
 11
1603.4769754137
 21
318.8368241998
  0
LINE
  5
5C9
100
AcDbEntity
  8
06___PRT_ALL_SURFS
100
AcDbLine
 62
7
  6
CONTINUOUS
 10
1130.1838769056
 20
319.3739482586
 11
1568.7838769056
 21
319.3739482586
  0
LINE
  5
5CA
100
AcDbEntity
  8
0
100
AcDbLine
 62
7
  6
CONTINUOUS
 10
1583.7838769056
 20
325.3739482586
 11
1568.7838769056
 21
325.3739482586
  0
LINE
  5
5CB
100
AcDbEntity
  8
0
100
AcDbLine
 62
7
  6
CONTINUOUS
 10
1115.1838769056
 20
325.3739482586
 11
1130.1838769056
 21
325.3739482586
  0
LINE
  5
5CC
100
AcDbEntity
  8
0
100
AcDbLine
 62
7
  6
CONTINUOUS
 10
1138.4838769056
 20
326.3739482586
 11
1164.4838769056
 21
326.3739482586
  0
LINE
  5
5CD
100
AcDbEntity
  8
06___PRT_ALL_SURFS
100
AcDbLine
 62
7
  6
CONTINUOUS
 10
1182.4838769056
 20
326.3739482586
 11
1208.4838769056
 21
326.3739482586
  0
LINE
  5
5CE
100
AcDbEntity
  8
06___PRT_ALL_SURFS
100
AcDbLine
 62
7
  6
CONTINUOUS
 10
1226.4838769056
 20
326.3739482586
 11
1252.4838769056
 21
326.3739482586
  0
LINE
  5
5CF
100
AcDbEntity
  8
06___PRT_ALL_SURFS
100
AcDbLine
 62
7
  6
CONTINUOUS
 10
1270.4838769056
 20
326.3739482586
 11
1296.4838769056
 21
326.3739482586
  0
LINE
  5
5D0
100
AcDbEntity
  8
06___PRT_ALL_SURFS
100
AcDbLine
 62
7
  6
CONTINUOUS
 10
1314.4838769056
 20
326.3739482586
 11
1340.4838769056
 21
326.3739482586
  0
LINE
  5
5D1
100
AcDbEntity
  8
06___PRT_ALL_SURFS
100
AcDbLine
 62
7
  6
CONTINUOUS
 10
1358.4838769056
 20
326.3739482586
 11
1384.4838769056
 21
326.3739482586
  0
LINE
  5
5D2
100
AcDbEntity
  8
06___PRT_ALL_SURFS
100
AcDbLine
 62
7
  6
CONTINUOUS
 10
1402.4838769056
 20
326.3739482586
 11
1428.4838769056
 21
326.3739482586
  0
LINE
  5
5D3
100
AcDbEntity
  8
06___PRT_ALL_SURFS
100
AcDbLine
 62
7
  6
CONTINUOUS
 10
1446.4838769056
 20
326.3739482586
 11
1472.4838769056
 21
326.3739482586
  0
LINE
  5
5D4
100
AcDbEntity
  8
06___PRT_ALL_SURFS
100
AcDbLine
 62
7
  6
CONTINUOUS
 10
1490.4838769056
 20
326.3739482586
 11
1516.4838769056
 21
326.3739482586
  0
LINE
  5
5D5
100
AcDbEntity
  8
0
100
AcDbLine
 62
7
  6
CONTINUOUS
 10
1534.4838769056
 20
326.3739482586
 11
1560.4838769056
 21
326.3739482586
  0
LINE
  5
5D6
100
AcDbEntity
  8
0
100
AcDbLine
 62
7
  6
CONTINUOUS
 10
1583.7838769056
 20
330.4365193526
 11
1579.7838769056
 21
330.4365193526
  0
LINE
  5
5D7
100
AcDbEntity
  8
0
100
AcDbLine
 62
7
  6
CONTINUOUS
 10
1583.7838769056
 20
332.1434163876
 11
1579.7838769056
 21
332.1434163876
  0
LINE
  5
5D8
100
AcDbEntity
  8
0
100
AcDbLine
 62
7
  6
CONTINUOUS
 10
1560.4838769056
 20
332.3739482586
 11
1534.4838769056
 21
332.3739482586
  0
LINE
  5
5D9
100
AcDbEntity
  8
06___PRT_ALL_SURFS
100
AcDbLine
 62
7
  6
CONTINUOUS
 10
1516.4838769056
 20
332.3739482586
 11
1490.4838769056
 21
332.3739482586
  0
LINE
  5
5DA
100
AcDbEntity
  8
06___PRT_ALL_SURFS
100
AcDbLine
 62
7
  6
CONTINUOUS
 10
1472.4838769056
 20
332.3739482586
 11
1446.4838769056
 21
332.3739482586
  0
LINE
  5
5DB
100
AcDbEntity
  8
06___PRT_ALL_SURFS
100
AcDbLine
 62
7
  6
CONTINUOUS
 10
1428.4838769056
 20
332.3739482586
 11
1402.4838769056
 21
332.3739482586
  0
LINE
  5
5DC
100
AcDbEntity
  8
06___PRT_ALL_SURFS
100
AcDbLine
 62
7
  6
CONTINUOUS
 10
1384.4838769056
 20
332.3739482586
 11
1358.4838769056
 21
332.3739482586
  0
LINE
  5
5DD
100
AcDbEntity
  8
06___PRT_ALL_SURFS
100
AcDbLine
 62
7
  6
CONTINUOUS
 10
1340.4838769056
 20
332.3739482586
 11
1314.4838769056
 21
332.3739482586
  0
LINE
  5
5DE
100
AcDbEntity
  8
06___PRT_ALL_SURFS
100
AcDbLine
 62
7
  6
CONTINUOUS
 10
1296.4838769056
 20
332.3739482586
 11
1270.4838769056
 21
332.3739482586
  0
LINE
  5
5DF
100
AcDbEntity
  8
06___PRT_ALL_SURFS
100
AcDbLine
 62
7
  6
CONTINUOUS
 10
1252.4838769056
 20
332.3739482586
 11
1226.4838769056
 21
332.3739482586
  0
LINE
  5
5E0
100
AcDbEntity
  8
06___PRT_ALL_SURFS
100
AcDbLine
 62
7
  6
CONTINUOUS
 10
1208.4838769056
 20
332.3739482586
 11
1182.4838769056
 21
332.3739482586
  0
LINE
  5
5E1
100
AcDbEntity
  8
0
100
AcDbLine
 62
7
  6
CONTINUOUS
 10
1164.4838769056
 20
332.3739482586
 11
1138.4838769056
 21
332.3739482586
  0
LINE
  5
5E2
100
AcDbEntity
  8
02___PRT_ALL_AXES
100
AcDbLine
 62
7
  6
CONTINUOUS
 10
1115.1838769056
 20
335.6239482586
 11
1130.1838769056
 21
335.6239482586
  0
LINE
  5
5E3
100
AcDbEntity
  8
06___PRT_ALL_SURFS
100
AcDbLine
 62
7
  6
CONTINUOUS
 10
1340.4838769056
 20
326.3739482586
 11
1340.4838769056
 21
332.3739482586
  0
LINE
  5
5E4
100
AcDbEntity
  8
06___PRT_ALL_SURFS
100
AcDbLine
 62
7
  6
CONTINUOUS
 10
1340.4838769056
 20
376.3739482586
 11
1340.4838769056
 21
382.3739482586
  0
LINE
  5
5E5
100
AcDbEntity
  8
0
100
AcDbLine
 62
7
  6
CONTINUOUS
 10
1498.3463769056
 20
378.7760759105
 11
1498.1213769592
 21
378.7186291088
  0
LINE
  5
5E6
100
AcDbEntity
  8
0
100
AcDbLine
 62
7
  6
CONTINUOUS
 10
1498.1213769592
 20
378.3739482586
 11
1498.4026268519
 21
378.4313950653
  0
LINE
  5
5E7
100
AcDbEntity
  8
0
100
AcDbLine
 62
7
  6
CONTINUOUS
 10
1568.7838769056
 20
336.6239482586
 11
1583.7838769056
 21
336.6121308406
  0
LINE
  5
5E8
100
AcDbEntity
  8
06___PRT_ALL_SURFS
100
AcDbLine
 62
7
  6
CONTINUOUS
 10
1157.4838769056
 20
340.3739482586
 11
1189.4838769056
 21
340.3739482586
  0
LINE
  5
5E9
100
AcDbEntity
  8
06___PRT_ALL_SURFS
100
AcDbLine
 62
7
  6
CONTINUOUS
 10
1201.4838769056
 20
340.3739482586
 11
1233.4838769056
 21
340.3739482586
  0
LINE
  5
5EA
100
AcDbEntity
  8
06___PRT_ALL_SURFS
100
AcDbLine
 62
7
  6
CONTINUOUS
 10
1245.4838769056
 20
340.3739482586
 11
1277.4838769056
 21
340.3739482586
  0
LINE
  5
5EB
100
AcDbEntity
  8
06___PRT_ALL_SURFS
100
AcDbLine
 62
7
  6
CONTINUOUS
 10
1289.4838769056
 20
340.3739482586
 11
1321.4838769056
 21
340.3739482586
  0
LINE
  5
5EC
100
AcDbEntity
  8
06___PRT_ALL_SURFS
100
AcDbLine
 62
7
  6
CONTINUOUS
 10
1333.4838769056
 20
340.3739482586
 11
1365.4838769056
 21
340.3739482586
  0
LINE
  5
5ED
100
AcDbEntity
  8
06___PRT_ALL_SURFS
100
AcDbLine
 62
7
  6
CONTINUOUS
 10
1377.4838769056
 20
340.3739482586
 11
1409.4838769056
 21
340.3739482586
  0
LINE
  5
5EE
100
AcDbEntity
  8
06___PRT_ALL_SURFS
100
AcDbLine
 62
7
  6
CONTINUOUS
 10
1421.4838769056
 20
340.3739482586
 11
1453.4838769056
 21
340.3739482586
  0
LINE
  5
5EF
100
AcDbEntity
  8
06___PRT_ALL_SURFS
100
AcDbLine
 62
7
  6
CONTINUOUS
 10
1465.4838769056
 20
340.3739482586
 11
1497.4838769056
 21
340.3739482586
  0
LINE
  5
5F0
100
AcDbEntity
  8
06___PRT_ALL_SURFS
100
AcDbLine
 62
7
  6
CONTINUOUS
 10
1509.4838769056
 20
340.3739482586
 11
1541.4838769056
 21
340.3739482586
  0
LINE
  5
5F1
100
AcDbEntity
  8
0
100
AcDbLine
 62
7
  6
CONTINUOUS
 10
1583.7838769056
 20
342.1357656766
 11
1568.7838769056
 21
342.1239482586
  0
LINE
  5
5F2
100
AcDbEntity
  8
02___PRT_ALL_AXES
100
AcDbLine
 62
7
  6
CONTINUOUS
 10
1115.1838769056
 20
343.1239482586
 11
1130.1838769056
 21
343.1239482586
  0
LINE
  5
5F3
100
AcDbEntity
  8
0
100
AcDbLine
 62
7
  6
CONTINUOUS
 10
1489.3338769056
 20
345.7739482586
 11
1497.4838769056
 21
345.7739482586
  0
LINE
  5
5F4
100
AcDbEntity
  8
0
100
AcDbLine
 62
7
  6
CONTINUOUS
 10
1583.7838769056
 20
346.6044801296
 11
1579.7838769056
 21
346.6044801296
  0
LINE
  5
5F5
100
AcDbEntity
  8
0
100
AcDbLine
 62
7
  6
CONTINUOUS
 10
1583.7838769056
 20
348.3113771646
 11
1579.7838769056
 21
348.3113771646
  0
LINE
  5
5F6
100
AcDbEntity
  8
0
100
AcDbLine
 62
7
  6
CONTINUOUS
 10
1491.4838769056
 20
350.7739482586
 11
1497.4838769056
 21
350.7739482586
  0
LINE
  5
5F7
100
AcDbEntity
  8
06___PRT_ALL_SURFS
100
AcDbLine
 62
7
  6
CONTINUOUS
 10
1358.4838769056
 20
382.3739482586
 11
1358.4838769056
 21
376.3739482586
  0
LINE
  5
5F8
100
AcDbEntity
  8
06___PRT_ALL_SURFS
100
AcDbLine
 62
7
  6
CONTINUOUS
 10
1358.4838769056
 20
332.3739482586
 11
1358.4838769056
 21
326.3739482586
  0
LINE
  5
5F9
100
AcDbEntity
  8
06___PRT_ALL_SURFS
100
AcDbLine
 62
7
  6
CONTINUOUS
 10
1365.4838769056
 20
340.3739482586
 11
1365.4838769056
 21
368.3739482586
  0
LINE
  5
5FA
100
AcDbEntity
  8
0
100
AcDbLine
 62
7
  6
CONTINUOUS
 10
1494.3338769056
 20
357.5739482586
 11
1491.4838769056
 21
357.5739482586
  0
LINE
  5
5FB
100
AcDbEntity
  8
0
100
AcDbLine
 62
7
  6
CONTINUOUS
 10
1495.4838769056
 20
359.2739482586
 11
1494.3338769056
 21
359.2739482586
  0
LINE
  5
5FC
100
AcDbEntity
  8
0
100
AcDbLine
 62
7
  6
CONTINUOUS
 10
1497.4838769056
 20
362.3739482586
 11
1495.4838769056
 21
362.3739482586
  0
LINE
  5
5FD
100
AcDbEntity
  8
0
100
AcDbLine
 62
7
  6
CONTINUOUS
 10
1497.4838769056
 20
362.9739482586
 11
1489.3338769056
 21
362.9739482586
  0
LINE
  5
5FE
100
AcDbEntity
  8
0
100
AcDbLine
 62
7
  6
CONTINUOUS
 10
1489.3838769056
 20
363.9901380516
 11
1491.4088769056
 21
363.9901380516
  0
LINE
  5
5FF
100
AcDbEntity
  8
0
100
AcDbLine
 62
7
  6
CONTINUOUS
 10
1491.8588769592
 20
363.9901380516
 11
1492.1963767983
 21
363.9901380516
  0
LINE
  5
600
100
AcDbEntity
  8
0
100
AcDbLine
 62
7
  6
CONTINUOUS
 10
1493.7713769056
 20
363.9901380516
 11
1494.1088769056
 21
363.9901380516
  0
LINE
  5
601
100
AcDbEntity
  8
0
100
AcDbLine
 62
7
  6
CONTINUOUS
 10
1494.5588767983
 20
363.9901380516
 11
1494.8963771201
 21
363.9901380516
  0
LINE
  5
602
100
AcDbEntity
  8
0
100
AcDbLine
 62
7
  6
CONTINUOUS
 10
1496.3026269056
 20
363.9901380516
 11
1496.8088769056
 21
363.9901380516
  0
LINE
  5
603
100
AcDbEntity
  8
0
100
AcDbLine
 62
7
  6
CONTINUOUS
 10
1491.4088769056
 20
364.3348189018
 11
1489.7213769056
 21
364.3348189018
  0
LINE
  5
604
100
AcDbEntity
  8
0
100
AcDbLine
 62
7
  6
CONTINUOUS
 10
1492.4213769056
 20
364.679499752
 11
1493.5463767983
 21
364.679499752
  0
LINE
  5
605
100
AcDbEntity
  8
0
100
AcDbLine
 62
7
  6
CONTINUOUS
 10
1493.4901270128
 20
364.9092869587
 11
1492.4776270128
 21
364.9092869587
  0
LINE
  5
606
100
AcDbEntity
  8
02___PRT_ALL_AXES
100
AcDbLine
 62
7
  6
CONTINUOUS
 10
1115.1838769056
 20
365.6239482586
 11
1130.1838769056
 21
365.6239482586
  0
LINE
  5
607
100
AcDbEntity
  8
02___PRT_ALL_AXES
100
AcDbLine
 62
7
  6
CONTINUOUS
 10
1568.7838769056
 20
365.6239482586
 11
1583.7838769056
 21
365.6239482586
  0
LINE
  5
608
100
AcDbEntity
  8
0
100
AcDbLine
 62
7
  6
CONTINUOUS
 10
1496.8088769056
 20
366.6901380516
 11
1496.4713769056
 21
366.6901380516
  0
LINE
  5
609
100
AcDbEntity
  8
0
100
AcDbLine
 62
7
  6
CONTINUOUS
 10
1495.0651271201
 20
366.6901380516
 11
1494.5588767983
 21
366.6901380516
  0
LINE
  5
60A
100
AcDbEntity
  8
0
100
AcDbLine
 62
7
  6
CONTINUOUS
 10
1493.2088767983
 20
366.6901380516
 11
1492.7588769056
 21
366.6901380516
  0
LINE
  5
60B
100
AcDbEntity
  8
0
100
AcDbLine
 62
7
  6
CONTINUOUS
 10
1489.7213769056
 20
366.6901380516
 11
1489.3838769056
 21
366.6901380516
  0
LINE
  5
60C
100
AcDbEntity
  8
06___PRT_ALL_SURFS
100
AcDbLine
 62
7
  6
CONTINUOUS
 10
1541.4838769056
 20
368.3739482586
 11
1509.4838769056
 21
368.3739482586
  0
LINE
  5
60D
100
AcDbEntity
  8
06___PRT_ALL_SURFS
100
AcDbLine
 62
7
  6
CONTINUOUS
 10
1497.4838769056
 20
368.3739482586
 11
1465.4838769056
 21
368.3739482586
  0
LINE
  5
60E
100
AcDbEntity
  8
06___PRT_ALL_SURFS
100
AcDbLine
 62
7
  6
CONTINUOUS
 10
1453.4838769056
 20
368.3739482586
 11
1421.4838769056
 21
368.3739482586
  0
LINE
  5
60F
100
AcDbEntity
  8
06___PRT_ALL_SURFS
100
AcDbLine
 62
7
  6
CONTINUOUS
 10
1409.4838769056
 20
368.3739482586
 11
1377.4838769056
 21
368.3739482586
  0
LINE
  5
610
100
AcDbEntity
  8
06___PRT_ALL_SURFS
100
AcDbLine
 62
7
  6
CONTINUOUS
 10
1365.4838769056
 20
368.3739482586
 11
1333.4838769056
 21
368.3739482586
  0
LINE
  5
611
100
AcDbEntity
  8
06___PRT_ALL_SURFS
100
AcDbLine
 62
7
  6
CONTINUOUS
 10
1321.4838769056
 20
368.3739482586
 11
1289.4838769056
 21
368.3739482586
  0
LINE
  5
612
100
AcDbEntity
  8
06___PRT_ALL_SURFS
100
AcDbLine
 62
7
  6
CONTINUOUS
 10
1277.4838769056
 20
368.3739482586
 11
1245.4838769056
 21
368.3739482586
  0
LINE
  5
613
100
AcDbEntity
  8
06___PRT_ALL_SURFS
100
AcDbLine
 62
7
  6
CONTINUOUS
 10
1233.4838769056
 20
368.3739482586
 11
1201.4838769056
 21
368.3739482586
  0
LINE
  5
614
100
AcDbEntity
  8
06___PRT_ALL_SURFS
100
AcDbLine
 62
7
  6
CONTINUOUS
 10
1189.4838769056
 20
368.3739482586
 11
1157.4838769056
 21
368.3739482586
  0
LINE
  5
615
100
AcDbEntity
  8
06___PRT_ALL_SURFS
100
AcDbLine
 62
7
  6
CONTINUOUS
 10
1377.4838769056
 20
368.3739482586
 11
1377.4838769056
 21
340.3739482586
  0
LINE
  5
616
100
AcDbEntity
  8
06___PRT_ALL_SURFS
100
AcDbLine
 62
7
  6
CONTINUOUS
 10
1384.4838769056
 20
326.3739482586
 11
1384.4838769056
 21
332.3739482586
  0
LINE
  5
617
100
AcDbEntity
  8
06___PRT_ALL_SURFS
100
AcDbLine
 62
7
  6
CONTINUOUS
 10
1384.4838769056
 20
376.3739482586
 11
1384.4838769056
 21
382.3739482586
  0
LINE
  5
618
100
AcDbEntity
  8
02___PRT_ALL_AXES
100
AcDbLine
 62
7
  6
CONTINUOUS
 10
1115.1838769056
 20
373.1239482586
 11
1130.1838769056
 21
373.1239482586
  0
LINE
  5
619
100
AcDbEntity
  8
02___PRT_ALL_AXES
100
AcDbLine
 62
7
  6
CONTINUOUS
 10
1568.7838769056
 20
373.1239482586
 11
1583.7838769056
 21
373.1239482586
  0
LINE
  5
61A
100
AcDbEntity
  8
06___PRT_ALL_SURFS
100
AcDbLine
 62
7
  6
CONTINUOUS
 10
1182.4838769056
 20
376.3739482586
 11
1208.4838769056
 21
376.3739482586
  0
LINE
  5
61B
100
AcDbEntity
  8
06___PRT_ALL_SURFS
100
AcDbLine
 62
7
  6
CONTINUOUS
 10
1226.4838769056
 20
376.3739482586
 11
1252.4838769056
 21
376.3739482586
  0
LINE
  5
61C
100
AcDbEntity
  8
06___PRT_ALL_SURFS
100
AcDbLine
 62
7
  6
CONTINUOUS
 10
1270.4838769056
 20
376.3739482586
 11
1296.4838769056
 21
376.3739482586
  0
LINE
  5
61D
100
AcDbEntity
  8
06___PRT_ALL_SURFS
100
AcDbLine
 62
7
  6
CONTINUOUS
 10
1314.4838769056
 20
376.3739482586
 11
1340.4838769056
 21
376.3739482586
  0
LINE
  5
61E
100
AcDbEntity
  8
06___PRT_ALL_SURFS
100
AcDbLine
 62
7
  6
CONTINUOUS
 10
1358.4838769056
 20
376.3739482586
 11
1384.4838769056
 21
376.3739482586
  0
LINE
  5
61F
100
AcDbEntity
  8
06___PRT_ALL_SURFS
100
AcDbLine
 62
7
  6
CONTINUOUS
 10
1402.4838769056
 20
376.3739482586
 11
1428.4838769056
 21
376.3739482586
  0
LINE
  5
620
100
AcDbEntity
  8
06___PRT_ALL_SURFS
100
AcDbLine
 62
7
  6
CONTINUOUS
 10
1446.4838769056
 20
376.3739482586
 11
1472.4838769056
 21
376.3739482586
  0
LINE
  5
621
100
AcDbEntity
  8
06___PRT_ALL_SURFS
100
AcDbLine
 62
7
  6
CONTINUOUS
 10
1490.4838769056
 20
376.3739482586
 11
1516.4838769056
 21
376.3739482586
  0
LINE
  5
622
100
AcDbEntity
  8
02___PRT_ALL_AXES
100
AcDbLine
 62
7
  6
CONTINUOUS
 10
1570.2838769056
 20
377.6239482586
 11
1568.7838769056
 21
377.6239482586
  0
LINE
  5
623
100
AcDbEntity
  8
02___PRT_ALL_AXES
100
AcDbLine
 62
7
  6
CONTINUOUS
 10
1130.1838769056
 20
377.6239482586
 11
1128.6838769056
 21
377.6239482586
  0
LINE
  5
624
100
AcDbEntity
  8
02___PRT_ALL_AXES
100
AcDbLine
 62
7
  6
CONTINUOUS
 10
1126.1838769056
 20
377.6239482586
 11
1125.1838769056
 21
377.6239482586
  0
LINE
  5
625
100
AcDbEntity
  8
0
100
AcDbLine
 62
7
  6
CONTINUOUS
 10
1496.7713768787
 20
378.3739482586
 11
1498.1213769592
 21
378.3739482586
  0
LINE
  5
626
100
AcDbEntity
  8
0
100
AcDbLine
 62
7
  6
CONTINUOUS
 10
1495.9838769056
 20
378.3739482586
 11
1496.3213769056
 21
378.3739482586
  0
LINE
  5
627
100
AcDbEntity
  8
0
100
AcDbLine
 62
7
  6
CONTINUOUS
 10
1498.1213769592
 20
378.7186291088
 11
1497.1088768787
 21
378.7186291088
  0
LINE
  5
628
100
AcDbEntity
  8
02___PRT_ALL_AXES
100
AcDbLine
 62
7
  6
CONTINUOUS
 10
1128.6838769056
 20
378.8739482586
 11
1126.1838769056
 21
378.8739482586
  0
LINE
  5
629
100
AcDbEntity
  8
06___PRT_ALL_SURFS
100
AcDbLine
 62
7
  6
CONTINUOUS
 10
1135.1838769056
 20
380.3739482586
 11
1154.1838769056
 21
380.3739482586
  0
LINE
  5
62A
100
AcDbEntity
  8
06___PRT_ALL_SURFS
100
AcDbLine
 62
7
  6
CONTINUOUS
 10
1544.7838769056
 20
380.3739482586
 11
1563.7838769056
 21
380.3739482586
  0
LINE
  5
62B
100
AcDbEntity
  8
0
100
AcDbLine
 62
7
  6
CONTINUOUS
 10
1497.1088768787
 20
380.7292674486
 11
1498.1213769592
 21
380.7292674486
  0
LINE
  5
62C
100
AcDbEntity
  8
0
100
AcDbLine
 62
7
  6
CONTINUOUS
 10
1498.1213769592
 20
381.0739482586
 11
1496.7713768787
 21
381.0739482586
  0
LINE
  5
62D
100
AcDbEntity
  8
0
100
AcDbLine
 62
7
  6
CONTINUOUS
 10
1496.3213769056
 20
381.0739482586
 11
1495.9838769056
 21
381.0739482586
  0
LINE
  5
62E
100
AcDbEntity
  8
06___PRT_ALL_SURFS
100
AcDbLine
 62
7
  6
CONTINUOUS
 10
1516.4838769056
 20
382.3739482586
 11
1490.4838769056
 21
382.3739482586
  0
LINE
  5
62F
100
AcDbEntity
  8
06___PRT_ALL_SURFS
100
AcDbLine
 62
7
  6
CONTINUOUS
 10
1472.4838769056
 20
382.3739482586
 11
1446.4838769056
 21
382.3739482586
  0
LINE
  5
630
100
AcDbEntity
  8
06___PRT_ALL_SURFS
100
AcDbLine
 62
7
  6
CONTINUOUS
 10
1428.4838769056
 20
382.3739482586
 11
1402.4838769056
 21
382.3739482586
  0
LINE
  5
631
100
AcDbEntity
  8
06___PRT_ALL_SURFS
100
AcDbLine
 62
7
  6
CONTINUOUS
 10
1384.4838769056
 20
382.3739482586
 11
1358.4838769056
 21
382.3739482586
  0
LINE
  5
632
100
AcDbEntity
  8
06___PRT_ALL_SURFS
100
AcDbLine
 62
7
  6
CONTINUOUS
 10
1340.4838769056
 20
382.3739482586
 11
1314.4838769056
 21
382.3739482586
  0
LINE
  5
633
100
AcDbEntity
  8
06___PRT_ALL_SURFS
100
AcDbLine
 62
7
  6
CONTINUOUS
 10
1296.4838769056
 20
382.3739482586
 11
1270.4838769056
 21
382.3739482586
  0
LINE
  5
634
100
AcDbEntity
  8
06___PRT_ALL_SURFS
100
AcDbLine
 62
7
  6
CONTINUOUS
 10
1252.4838769056
 20
382.3739482586
 11
1226.4838769056
 21
382.3739482586
  0
LINE
  5
635
100
AcDbEntity
  8
06___PRT_ALL_SURFS
100
AcDbLine
 62
7
  6
CONTINUOUS
 10
1208.4838769056
 20
382.3739482586
 11
1182.4838769056
 21
382.3739482586
  0
LINE
  5
636
100
AcDbEntity
  8
02___PRT_ALL_AXES
100
AcDbLine
 62
7
  6
CONTINUOUS
 10
1128.6838769056
 20
382.8739482586
 11
1126.1838769056
 21
382.8739482586
  0
LINE
  5
637
100
AcDbEntity
  8
0
100
AcDbLine
 62
7
  6
CONTINUOUS
 10
1150.7838769056
 20
383.3739482586
 11
1135.1838769056
 21
383.3739482586
  0
LINE
  5
638
100
AcDbEntity
  8
0
100
AcDbLine
 62
7
  6
CONTINUOUS
 10
1128.6838769056
 20
383.3739482586
 11
1126.1838769056
 21
383.3739482586
  0
LINE
  5
639
100
AcDbEntity
  8
0
100
AcDbLine
 62
7
  6
CONTINUOUS
 10
1124.2234730156
 20
383.3739482586
 11
1115.1838769056
 21
383.3739482586
  0
LINE
  5
63A
100
AcDbEntity
  8
0
100
AcDbLine
 62
7
  6
CONTINUOUS
 10
1548.1838769056
 20
383.3739482586
 11
1563.7838769056
 21
383.3739482586
  0
LINE
  5
63B
100
AcDbEntity
  8
0
100
AcDbLine
 62
7
  6
CONTINUOUS
 10
1570.2838769056
 20
383.3739482586
 11
1583.7838769056
 21
383.3739482586
  0
LINE
  5
63C
100
AcDbEntity
  8
02___PRT_ALL_AXES
100
AcDbLine
 62
7
  6
CONTINUOUS
 10
1570.2838769056
 20
384.1239482586
 11
1568.7838769056
 21
384.1239482586
  0
LINE
  5
63D
100
AcDbEntity
  8
02___PRT_ALL_AXES
100
AcDbLine
 62
7
  6
CONTINUOUS
 10
1130.1838769056
 20
384.1239482586
 11
1128.6838769056
 21
384.1239482586
  0
LINE
  5
63E
100
AcDbEntity
  8
02___PRT_ALL_AXES
100
AcDbLine
 62
7
  6
CONTINUOUS
 10
1126.1838769056
 20
384.1239482586
 11
1125.1838769056
 21
384.1239482586
  0
LINE
  5
63F
100
AcDbEntity
  8
0
100
AcDbLine
 62
7
  6
CONTINUOUS
 10
1563.7838769056
 20
385.8739482586
 11
1548.7838769056
 21
385.8739482586
  0
LINE
  5
640
100
AcDbEntity
  8
0
100
AcDbLine
 62
7
  6
CONTINUOUS
 10
1135.1838769056
 20
385.8739482586
 11
1150.1838769056
 21
385.8739482586
  0
LINE
  5
641
100
AcDbEntity
  8
06___PRT_ALL_SURFS
100
AcDbLine
 62
7
  6
CONTINUOUS
 10
1563.7838769056
 20
387.3739482586
 11
1548.7838769056
 21
387.3739482586
  0
LINE
  5
642
100
AcDbEntity
  8
06___PRT_ALL_SURFS
100
AcDbLine
 62
7
  6
CONTINUOUS
 10
1135.1838769056
 20
387.3739482586
 11
1150.1838769056
 21
387.3739482586
  0
LINE
  5
643
100
AcDbEntity
  8
06___PRT_ALL_SURFS
100
AcDbLine
 62
7
  6
CONTINUOUS
 10
1402.4838769056
 20
382.3739482586
 11
1402.4838769056
 21
376.3739482586
  0
LINE
  5
644
100
AcDbEntity
  8
06___PRT_ALL_SURFS
100
AcDbLine
 62
7
  6
CONTINUOUS
 10
1402.4838769056
 20
332.3739482586
 11
1402.4838769056
 21
326.3739482586
  0
LINE
  5
645
100
AcDbEntity
  8
0
100
AcDbLine
 62
7
  6
CONTINUOUS
 10
1498.4026268519
 20
378.4313950653
 11
1498.6276269592
 21
378.5462886837
  0
LINE
  5
646
100
AcDbEntity
  8
0
100
AcDbLine
 62
7
  6
CONTINUOUS
 10
1568.7838769056
 20
389.3739482586
 11
1563.7838769056
 21
389.3739482586
  0
LINE
  5
647
100
AcDbEntity
  8
0
100
AcDbLine
 62
7
  6
CONTINUOUS
 10
1135.1838769056
 20
389.3739482586
 11
1130.1838769056
 21
389.3739482586
  0
LINE
  5
648
100
AcDbEntity
  8
06___PRT_ALL_SURFS
100
AcDbLine
 62
7
  6
CONTINUOUS
 10
1154.1838769056
 20
389.3739482586
 11
1544.7838769056
 21
389.3739482586
  0
LINE
  5
649
100
AcDbEntity
  8
0
100
AcDbLine
 62
9
  6
CONTINUOUS
 10
1102.4820727886
 20
389.911072318
 11
1095.4907783974
 21
389.911072318
  0
LINE
  5
64A
100
AcDbEntity
  8
0
100
AcDbLine
 62
9
  6
CONTINUOUS
 10
1596.4856810225
 20
389.9110722852
 11
1603.4769754137
 21
389.9110722852
  0
LINE
  5
64B
100
AcDbEntity
  8
0
100
AcDbLine
 62
7
  6
CONTINUOUS
 10
1591.517316885
 20
392.3744904858
 11
1107.4504369297
 21
392.3744905028
  0
LINE
  5
64C
100
AcDbEntity
  8
0
100
AcDbLine
 62
7
  6
CONTINUOUS
 10
1591.517316891
 20
394.8744904858
 11
1107.4504369204
 21
394.8744905028
  0
LINE
  5
64D
100
AcDbEntity
  8
0
100
AcDbLine
 62
7
  6
CONTINUOUS
 10
1591.5173168949
 20
401.8727534585
 11
1107.4504369133
 21
401.8727534748
  0
LINE
  5
64E
100
AcDbEntity
  8
0
100
AcDbLine
 62
7
  6
CONTINUOUS
 10
1596.2858185291
 20
404.9897860626
 11
1102.6819352816
 21
404.9897860586
  0
LINE
  5
64F
100
AcDbEntity
  8
06___PRT_ALL_SURFS
100
AcDbLine
 62
7
  6
CONTINUOUS
 10
1409.4838769056
 20
340.3739482586
 11
1409.4838769056
 21
368.3739482586
  0
LINE
  5
650
100
AcDbEntity
  8
06___PRT_ALL_SURFS
100
AcDbLine
 62
7
  6
CONTINUOUS
 10
1421.4838769056
 20
368.3739482586
 11
1421.4838769056
 21
340.3739482586
  0
LINE
  5
651
100
AcDbEntity
  8
0
100
AcDbLine
 62
7
  6
CONTINUOUS
 10
1498.5151269056
 20
378.890969554
 11
1498.3463769056
 21
378.7760759105
  0
LINE
  5
652
100
AcDbEntity
  8
0
100
AcDbLine
 62
7
  6
CONTINUOUS
 10
1498.4026268519
 20
381.0165014569
 11
1498.1213769592
 21
381.0739482586
  0
LINE
  5
653
100
AcDbEntity
  8
0
100
AcDbLine
 62
7
  6
CONTINUOUS
 10
1498.1213769592
 20
380.7292674486
 11
1498.3463769056
 21
380.671820647
  0
LINE
  5
654
100
AcDbEntity
  8
06___PRT_ALL_SURFS
100
AcDbLine
 62
7
  6
CONTINUOUS
 10
1428.4838769056
 20
326.3739482586
 11
1428.4838769056
 21
332.3739482586
  0
LINE
  5
655
100
AcDbEntity
  8
06___PRT_ALL_SURFS
100
AcDbLine
 62
7
  6
CONTINUOUS
 10
1428.4838769056
 20
376.3739482586
 11
1428.4838769056
 21
382.3739482586
  0
LINE
  5
656
100
AcDbEntity
  8
0
100
AcDbLine
 62
7
  6
CONTINUOUS
 10
1498.6276269592
 20
378.5462886837
 11
1498.8526269056
 21
378.7760759105
  0
LINE
  5
657
100
AcDbEntity
  8
06___PRT_ALL_SURFS
100
AcDbLine
 62
7
  6
CONTINUOUS
 10
1446.4838769056
 20
382.3739482586
 11
1446.4838769056
 21
376.3739482586
  0
LINE
  5
658
100
AcDbEntity
  8
06___PRT_ALL_SURFS
100
AcDbLine
 62
7
  6
CONTINUOUS
 10
1446.4838769056
 20
332.3739482586
 11
1446.4838769056
 21
326.3739482586
  0
LINE
  5
659
100
AcDbEntity
  8
06___PRT_ALL_SURFS
100
AcDbLine
 62
7
  6
CONTINUOUS
 10
1453.4838769056
 20
340.3739482586
 11
1453.4838769056
 21
368.3739482586
  0
LINE
  5
65A
100
AcDbEntity
  8
0
100
AcDbLine
 62
7
  6
CONTINUOUS
 10
1498.6276269592
 20
380.9016078536
 11
1498.4026268519
 21
381.0165014569
  0
LINE
  5
65B
100
AcDbEntity
  8
0
100
AcDbLine
 62
7
  6
CONTINUOUS
 10
1497.2588771201
 20
364.679499752
 11
1497.4276271201
 21
364.5646061487
  0
LINE
  5
65C
100
AcDbEntity
  8
0
100
AcDbLine
 62
7
  6
CONTINUOUS
 10
1498.3463769056
 20
380.671820647
 11
1498.5151269056
 21
380.5569270436
  0
LINE
  5
65D
100
AcDbEntity
  8
06___PRT_ALL_SURFS
100
AcDbLine
 62
7
  6
CONTINUOUS
 10
1465.4838769056
 20
368.3739482586
 11
1465.4838769056
 21
340.3739482586
  0
LINE
  5
65E
100
AcDbEntity
  8
06___PRT_ALL_SURFS
100
AcDbLine
 62
7
  6
CONTINUOUS
 10
1472.4838769056
 20
326.3739482586
 11
1472.4838769056
 21
332.3739482586
  0
LINE
  5
65F
100
AcDbEntity
  8
06___PRT_ALL_SURFS
100
AcDbLine
 62
7
  6
CONTINUOUS
 10
1472.4838769056
 20
376.3739482586
 11
1472.4838769056
 21
382.3739482586
  0
LINE
  5
660
100
AcDbEntity
  8
0
100
AcDbLine
 62
7
  6
CONTINUOUS
 10
1473.4838769056
 20
368.3739482586
 11
1473.4838769056
 21
340.3739482586
  0
LINE
  5
661
100
AcDbEntity
  8
0
100
AcDbLine
 62
7
  6
CONTINUOUS
 10
1498.8526269056
 20
378.7760759105
 11
1498.9651267983
 21
379.0058631574
  0
LINE
  5
662
100
AcDbEntity
  8
0
100
AcDbLine
 62
7
  6
CONTINUOUS
 10
1497.4838769056
 20
365.1213980089
 11
1497.2588771201
 21
364.679499752
  0
LINE
  5
663
100
AcDbEntity
  8
0
100
AcDbLine
 62
7
  6
CONTINUOUS
 10
1498.6276269592
 20
379.063309959
 11
1498.5151269056
 21
378.890969554
  0
LINE
  5
664
100
AcDbEntity
  8
0
100
AcDbLine
 62
7
  6
CONTINUOUS
 10
1489.3338769056
 20
362.9739482586
 11
1489.3338769056
 21
345.7739482586
  0
LINE
  5
665
100
AcDbEntity
  8
0
100
AcDbLine
 62
7
  6
CONTINUOUS
 10
1489.3838769056
 20
366.6901380516
 11
1489.3838769056
 21
363.9901380516
  0
LINE
  5
666
100
AcDbEntity
  8
0
100
AcDbLine
 62
7
  6
CONTINUOUS
 10
1489.7213769056
 20
364.3348189018
 11
1489.7213769056
 21
366.6901380516
  0
LINE
  5
667
100
AcDbEntity
  8
06___PRT_ALL_SURFS
100
AcDbLine
 62
7
  6
CONTINUOUS
 10
1490.4838769056
 20
382.3739482586
 11
1490.4838769056
 21
376.3739482586
  0
LINE
  5
668
100
AcDbEntity
  8
06___PRT_ALL_SURFS
100
AcDbLine
 62
7
  6
CONTINUOUS
 10
1490.4838769056
 20
332.3739482586
 11
1490.4838769056
 21
326.3739482586
  0
LINE
  5
669
100
AcDbEntity
  8
0
100
AcDbLine
 62
7
  6
CONTINUOUS
 10
1491.4088769056
 20
363.9901380516
 11
1491.4088769056
 21
364.3348189018
  0
LINE
  5
66A
100
AcDbEntity
  8
0
100
AcDbLine
 62
7
  6
CONTINUOUS
 10
1491.4838769056
 20
357.5739482586
 11
1491.4838769056
 21
350.7739482586
  0
LINE
  5
66B
100
AcDbEntity
  8
0
100
AcDbLine
 62
7
  6
CONTINUOUS
 10
1498.9651267983
 20
379.0058631574
 11
1499.0213769056
 21
379.2930971657
  0
LINE
  5
66C
100
AcDbEntity
  8
0
100
AcDbLine
 62
7
  6
CONTINUOUS
 10
1498.6838769056
 20
379.2930971657
 11
1498.6276269592
 21
379.063309959
  0
LINE
  5
66D
100
AcDbEntity
  8
0
100
AcDbLine
 62
7
  6
CONTINUOUS
 10
1492.4776270128
 20
364.9092869587
 11
1492.9838770128
 21
366.4603508449
  0
LINE
  5
66E
100
AcDbEntity
  8
0
100
AcDbLine
 62
7
  6
CONTINUOUS
 10
1492.1963767983
 20
363.9901380516
 11
1492.4213769056
 21
364.679499752
  0
LINE
  5
66F
100
AcDbEntity
  8
0
100
AcDbLine
 62
7
  6
CONTINUOUS
 10
1492.7588769056
 20
366.6901380516
 11
1491.8588769592
 21
363.9901380516
  0
LINE
  5
670
100
AcDbEntity
  8
0
100
AcDbLine
 62
7
  6
CONTINUOUS
 10
1498.8526269056
 20
380.671820647
 11
1498.6276269592
 21
380.9016078536
  0
LINE
  5
671
100
AcDbEntity
  8
0
100
AcDbLine
 62
7
  6
CONTINUOUS
 10
1498.5151269056
 20
380.5569270436
 11
1498.6276269592
 21
380.3845864777
  0
LINE
  5
672
100
AcDbEntity
  8
0
100
AcDbLine
 62
7
  6
CONTINUOUS
 10
1496.4713769056
 20
364.3922657035
 11
1495.0651271201
 21
366.6901380516
  0
LINE
  5
673
100
AcDbEntity
  8
0
100
AcDbLine
 62
7
  6
CONTINUOUS
 10
1494.8963771201
 20
366.3454572416
 11
1496.3026269056
 21
363.9901380516
  0
LINE
  5
674
100
AcDbEntity
  8
0
100
AcDbLine
 62
7
  6
CONTINUOUS
 10
1494.1088769056
 20
363.9901380516
 11
1493.2088767983
 21
366.6901380516
  0
LINE
  5
675
100
AcDbEntity
  8
0
100
AcDbLine
 62
7
  6
CONTINUOUS
 10
1493.5463767983
 20
364.679499752
 11
1493.7713769056
 21
363.9901380516
  0
LINE
  5
676
100
AcDbEntity
  8
0
100
AcDbLine
 62
7
  6
CONTINUOUS
 10
1492.9838770128
 20
366.4603508449
 11
1493.4901270128
 21
364.9092869587
  0
LINE
  5
677
100
AcDbEntity
  8
0
100
AcDbLine
 62
7
  6
CONTINUOUS
 10
1494.3338769056
 20
359.2739482586
 11
1494.3338769056
 21
357.5739482586
  0
LINE
  5
678
100
AcDbEntity
  8
0
100
AcDbLine
 62
7
  6
CONTINUOUS
 10
1494.5588767983
 20
366.6901380516
 11
1494.5588767983
 21
363.9901380516
  0
LINE
  5
679
100
AcDbEntity
  8
0
100
AcDbLine
 62
7
  6
CONTINUOUS
 10
1494.8963771201
 20
363.9901380516
 11
1494.8963771201
 21
366.3454572416
  0
LINE
  5
67A
100
AcDbEntity
  8
0
100
AcDbLine
 62
7
  6
CONTINUOUS
 10
1495.4838769056
 20
362.3739482586
 11
1495.4838769056
 21
359.2739482586
  0
LINE
  5
67B
100
AcDbEntity
  8
0
100
AcDbLine
 62
7
  6
CONTINUOUS
 10
1495.9838769056
 20
381.0739482586
 11
1495.9838769056
 21
378.3739482586
  0
LINE
  5
67C
100
AcDbEntity
  8
0
100
AcDbLine
 62
7
  6
CONTINUOUS
 10
1496.3213769056
 20
378.3739482586
 11
1496.3213769056
 21
381.0739482586
  0
LINE
  5
67D
100
AcDbEntity
  8
0
100
AcDbLine
 62
7
  6
CONTINUOUS
 10
1496.4713769056
 20
366.6901380516
 11
1496.4713769056
 21
364.3922657035
  0
LINE
  5
67E
100
AcDbEntity
  8
0
100
AcDbLine
 62
7
  6
CONTINUOUS
 10
1496.7713768787
 20
381.0739482586
 11
1496.7713768787
 21
378.3739482586
  0
LINE
  5
67F
100
AcDbEntity
  8
0
100
AcDbLine
 62
7
  6
CONTINUOUS
 10
1496.8088769056
 20
363.9901380516
 11
1496.8088769056
 21
366.6901380516
  0
LINE
  5
680
100
AcDbEntity
  8
0
100
AcDbLine
 62
7
  6
CONTINUOUS
 10
1497.1088768787
 20
378.7186291088
 11
1497.1088768787
 21
380.7292674486
  0
LINE
  5
681
100
AcDbEntity
  8
06___PRT_ALL_SURFS
100
AcDbLine
 62
7
  6
CONTINUOUS
 10
1497.4838769056
 20
340.3739482586
 11
1497.4838769056
 21
368.3739482586
  0
LINE
  5
682
100
AcDbEntity
  8
0
100
AcDbLine
 62
7
  6
CONTINUOUS
 10
1498.6838769056
 20
380.1547992711
 11
1498.6838769056
 21
379.2930971657
  0
LINE
  5
683
100
AcDbEntity
  8
0
100
AcDbLine
 62
7
  6
CONTINUOUS
 10
1499.0213769056
 20
379.2930971657
 11
1499.0213769056
 21
380.1547992711
  0
LINE
  5
684
100
AcDbEntity
  8
06___PRT_ALL_SURFS
100
AcDbLine
 62
7
  6
CONTINUOUS
 10
1509.4838769056
 20
368.3739482586
 11
1509.4838769056
 21
340.3739482586
  0
LINE
  5
685
100
AcDbEntity
  8
0
100
AcDbLine
 62
7
  6
CONTINUOUS
 10
1498.9651267983
 20
380.4420334403
 11
1498.8526269056
 21
380.671820647
  0
LINE
  5
686
100
AcDbEntity
  8
0
100
AcDbLine
 62
7
  6
CONTINUOUS
 10
1498.6276269592
 20
380.3845864777
 11
1498.6838769056
 21
380.1547992711
  0
LINE
  5
687
100
AcDbEntity
  8
0
100
AcDbLine
 62
7
  6
CONTINUOUS
 10
1499.0213769056
 20
380.1547992711
 11
1498.9651267983
 21
380.4420334403
  0
LINE
  5
688
100
AcDbEntity
  8
06___PRT_ALL_SURFS
100
AcDbLine
 62
7
  6
CONTINUOUS
 10
1516.4838769056
 20
326.3739482586
 11
1516.4838769056
 21
332.3739482586
  0
LINE
  5
689
100
AcDbEntity
  8
06___PRT_ALL_SURFS
100
AcDbLine
 62
7
  6
CONTINUOUS
 10
1516.4838769056
 20
376.3739482586
 11
1516.4838769056
 21
382.3739482586
  0
LINE
  5
68A
100
AcDbEntity
  8
0
100
AcDbLine
 62
7
  6
CONTINUOUS
 10
1521.4838769056
 20
340.3739482586
 11
1521.4838769056
 21
368.3739482586
  0
LINE
  5
68B
100
AcDbEntity
  8
0
100
AcDbLine
 62
7
  6
CONTINUOUS
 10
1534.4838769056
 20
332.3739482586
 11
1534.4838769056
 21
326.3739482586
  0
LINE
  5
68C
100
AcDbEntity
  8
06___PRT_ALL_SURFS
100
AcDbLine
 62
7
  6
CONTINUOUS
 10
1541.4838769056
 20
340.3739482586
 11
1541.4838769056
 21
368.3739482586
  0
LINE
  5
68D
100
AcDbEntity
  8
06___PRT_ALL_SURFS
100
AcDbLine
 62
7
  6
CONTINUOUS
 10
1544.7838769056
 20
389.3739482586
 11
1544.7838769056
 21
380.3739482586
  0
LINE
  5
68E
100
AcDbEntity
  8
0
100
AcDbLine
 62
7
  6
CONTINUOUS
 10
1548.1838769056
 20
326.3739482586
 11
1548.1838769056
 21
332.3739482586
  0
LINE
  5
68F
100
AcDbEntity
  8
0
100
AcDbLine
 62
7
  6
CONTINUOUS
 10
1548.1838769056
 20
380.3739482586
 11
1548.1838769056
 21
383.3739482586
  0
LINE
  5
690
100
AcDbEntity
  8
0
100
AcDbLine
 62
7
  6
CONTINUOUS
 10
1548.7838769056
 20
387.3739482586
 11
1548.7838769056
 21
385.8739482586
  0
LINE
  5
691
100
AcDbEntity
  8
0
100
AcDbLine
 62
7
  6
CONTINUOUS
 10
1560.4838769056
 20
326.3739482586
 11
1560.4838769056
 21
332.3739482586
  0
LINE
  5
692
100
AcDbEntity
  8
0
100
AcDbLine
 62
7
  6
CONTINUOUS
 10
1563.7838769056
 20
389.3739482586
 11
1563.7838769056
 21
380.3739482586
  0
LINE
  5
693
100
AcDbEntity
  8
0
100
AcDbLine
 62
7
  6
CONTINUOUS
 10
1568.7838769056
 20
389.3739482586
 11
1568.7838769056
 21
319.3739482586
  0
LINE
  5
694
100
AcDbEntity
  8
02___PRT_ALL_AXES
100
AcDbLine
 62
7
  6
CONTINUOUS
 10
1570.2838769056
 20
377.6244516098
 11
1570.2838769056
 21
384.1234449074
  0
LINE
  5
695
100
AcDbEntity
  8
0
100
AcDbLine
 62
7
  6
CONTINUOUS
 10
1579.7838769056
 20
330.4365193526
 11
1579.7838769056
 21
348.3113771646
  0
LINE
  5
696
100
AcDbEntity
  8
0
100
AcDbLine
 62
7
  6
CONTINUOUS
 10
1583.7838769056
 20
325.3739482586
 11
1583.7838769056
 21
383.3739482586
  0
LINE
  5
697
100
AcDbEntity
  8
0
100
AcDbLine
 62
9
  6
CONTINUOUS
 10
1591.5173168907
 20
313.8734059851
 11
1591.5173168978
 21
306.8751430423
  0
LINE
  5
698
100
AcDbEntity
  8
0
100
AcDbLine
 62
9
  6
CONTINUOUS
 10
1591.517316891
 20
394.8744905283
 11
1591.5173168949
 21
401.8727534585
  0
LINE
  5
699
100
AcDbEntity
  8
0
100
AcDbLine
 62
7
  6
CONTINUOUS
 10
1593.9856810225
 20
318.8368241874
 11
1593.9856810225
 21
389.9110722976
  0
LINE
  5
69A
100
AcDbEntity
  8
0
100
AcDbLine
 62
7
  6
CONTINUOUS
 10
1596.4856810225
 20
318.8368241998
 11
1596.4856810225
 21
389.9110722852
  0
LINE
  5
69B
100
AcDbEntity
  8
0
100
AcDbLine
 62
7
  6
CONTINUOUS
 10
1603.4769754137
 20
318.8368241998
 11
1603.4769754137
 21
389.9110722852
  0
LWPOLYLINE
  5
69C
100
AcDbEntity
  8
0
100
AcDbPolyline
 62
7
  6
CONTINUOUS
 90
2
 70
1
 43
1.0
 10
1282.9832785485
 20
46.9957253322
 42
1.0
 10
1293.1432785485
 20
46.9957253322
 42
1.0
  0
LWPOLYLINE
  5
69D
100
AcDbEntity
  8
0
100
AcDbPolyline
 62
7
  6
CONTINUOUS
 90
2
 70
1
 43
1.0
 10
1285.5232785485
 20
46.9957253322
 42
1.0
 10
1290.6032785485
 20
46.9957253322
 42
1.0
  0
ARC
  5
69E
100
AcDbEntity
  8
0
100
AcDbCircle
 62
7
  6
CONTINUOUS
 10
1537.3843230472
 20
175.5636998043
 40
0.9050009446
100
AcDbArc
 50
90.0
 51
180.0
  0
ARC
  5
69F
100
AcDbEntity
  8
0
100
AcDbCircle
 62
7
  6
CONTINUOUS
 10
1470.3490950024
 20
175.7276232305
 40
0.9050009446
100
AcDbArc
 50
90.0
 51
180.0
  0
ARC
  5
6A0
100
AcDbEntity
  8
0
100
AcDbCircle
 62
7
  6
CONTINUOUS
 10
1558.2383447406
 20
177.3737016901
 40
0.9050009409
100
AcDbArc
 50
270.0
 51
360.0
  0
ARC
  5
6A1
100
AcDbEntity
  8
0
100
AcDbCircle
 62
7
  6
CONTINUOUS
 10
1517.5815383886
 20
168.3470348926
 40
0.9050009409
100
AcDbArc
 50
0.0
 51
89.9999995368
  0
ARC
  5
6A2
100
AcDbEntity
  8
0
100
AcDbCircle
 62
7
  6
CONTINUOUS
 10
1497.3198871982
 20
164.6891145781
 40
0.9050009409
100
AcDbArc
 50
90.0
 51
180.0
  0
ARC
  5
6A3
100
AcDbEntity
  8
0
100
AcDbCircle
 62
7
  6
CONTINUOUS
 10
1497.3198871982
 20
162.9744663576
 40
0.9050009409
100
AcDbArc
 50
180.0
 51
270.0
  0
ARC
  5
6A4
100
AcDbEntity
  8
0
100
AcDbCircle
 62
7
  6
CONTINUOUS
 10
1525.6127466898
 20
177.3375940811
 40
0.9050009409
100
AcDbArc
 50
270.0
 51
360.0
  0
ARC
  5
6A5
100
AcDbEntity
  8
0
100
AcDbCircle
 62
7
  6
CONTINUOUS
 10
1525.6127466898
 20
179.1843255381
 40
0.9050009409
100
AcDbArc
 50
359.9999995369
 51
90.0
  0
ARC
  5
6A6
100
AcDbEntity
  8
0
100
AcDbCircle
 62
7
  6
CONTINUOUS
 10
1470.3490949989
 20
166.703373179
 40
0.9050009409
100
AcDbArc
 50
180.0
 51
270.0
  0
ARC
  5
6A7
100
AcDbEntity
  8
0
100
AcDbCircle
 62
7
  6
CONTINUOUS
 10
1505.3235932808
 20
173.8152396382
 40
0.9050009409
100
AcDbArc
 50
180.0
 51
270.0
  0
ARC
  5
6A8
100
AcDbEntity
  8
0
100
AcDbCircle
 62
7
  6
CONTINUOUS
 10
1537.3843230434
 20
166.5775153688
 40
0.9050009409
100
AcDbArc
 50
180.0
 51
270.0
  0
ARC
  5
6A9
100
AcDbEntity
  8
0
100
AcDbCircle
 62
7
  6
CONTINUOUS
 10
1558.2383447445
 20
179.1843255454
 40
0.9050009373
100
AcDbArc
 50
0.000000539
 51
89.9999999245
  0
ARC
  5
6AA
100
AcDbEntity
  8
0
100
AcDbCircle
 62
7
  6
CONTINUOUS
 10
1558.2383447454
 20
162.9442691195
 40
0.9050009361
100
AcDbArc
 50
270.1250535673
 51
360.0
  0
ARC
  5
6AB
100
AcDbEntity
  8
0
100
AcDbCircle
 62
7
  6
CONTINUOUS
 10
1558.2383447445
 20
164.7675134907
 40
0.9050009373
100
AcDbArc
 50
0.0
 51
90.0
  0
ARC
  5
6AC
100
AcDbEntity
  8
0
100
AcDbCircle
 62
7
  6
CONTINUOUS
 10
1505.3235932773
 20
175.5275922027
 40
0.9050009373
100
AcDbArc
 50
90.0
 51
180.0
  0
ARC
  5
6AD
100
AcDbEntity
  8
0
100
AcDbCircle
 62
7
  6
CONTINUOUS
 10
1488.4306910456
 20
166.7033731934
 40
0.9050009373
100
AcDbArc
 50
270.0
 51
360.0
  0
ARC
  5
6AE
100
AcDbEntity
  8
0
100
AcDbCircle
 62
7
  6
CONTINUOUS
 10
1488.4306910456
 20
175.7276232379
 40
0.9050009373
100
AcDbArc
 50
0.0000004631
 51
90.0000004631
  0
ARC
  5
6AF
100
AcDbEntity
  8
0
100
AcDbCircle
 62
7
  6
CONTINUOUS
 10
1517.5815383922
 20
166.4991164565
 40
0.9050009373
100
AcDbArc
 50
270.0
 51
360.0
  0
ARC
  5
6B0
100
AcDbEntity
  8
0
100
AcDbCircle
 62
7
  6
CONTINUOUS
 10
1481.0916979042
 20
167.541815156
 40
0.3480772853
100
AcDbArc
 50
90.0000000001
 51
180.0
  0
ARC
  5
6B1
100
AcDbEntity
  8
0
100
AcDbCircle
 62
7
  6
CONTINUOUS
 10
1481.1708626216
 20
160.3206037643
 40
0.3480772816
100
AcDbArc
 50
180.0
 51
270.0
  0
ARC
  5
6B2
100
AcDbEntity
  8
0
100
AcDbCircle
 62
7
  6
CONTINUOUS
 10
1486.5907799627
 20
160.3206037643
 40
0.3480772816
100
AcDbArc
 50
270.0
 51
360.0
  0
ARC
  5
6B3
100
AcDbEntity
  8
0
100
AcDbCircle
 62
7
  6
CONTINUOUS
 10
1486.4839941106
 20
167.5418151669
 40
0.3480772743
100
AcDbArc
 50
0.0
 51
89.9999987958
  0
ARC
  5
6B4
100
AcDbEntity
  8
0
100
AcDbCircle
 62
9
  6
CONTINUOUS
 10
1552.6848505969
 20
-561.3832123781
 40
1391.9519882629
100
AcDbArc
 50
95.4927836151
 51
97.656985037
  0
ARC
  5
6B5
100
AcDbEntity
  8
0
100
AcDbCircle
 62
9
  6
CONTINUOUS
 10
1555.8170958794
 20
-564.4833290233
 40
1381.4566370382
100
AcDbArc
 50
95.4225249405
 51
97.6466854408
  0
ARC
  5
6B6
100
AcDbEntity
  8
0
100
AcDbCircle
 62
9
  6
CONTINUOUS
 10
1402.0359441436
 20
2091.11655095
 40
1357.0015987837
100
AcDbArc
 50
268.7463805813
 51
270.9972405896
  0
ARC
  5
6B7
100
AcDbEntity
  8
0
100
AcDbCircle
 62
9
  6
CONTINUOUS
 10
1378.5086626626
 20
-308.70671098
 40
1210.8113597524
100
AcDbArc
 50
97.4928239242
 51
99.7671427175
  0
ARC
  5
6B8
100
AcDbEntity
  8
0
100
AcDbCircle
 62
7
  6
CONTINUOUS
 10
1016.6968994867
 20
770.9138186537
 40
411.7512390531
100
AcDbArc
 50
354.932372732
 51
5.6425670917
  0
ARC
  5
6B9
100
AcDbEntity
  8
0
100
AcDbCircle
 62
7
  6
CONTINUOUS
 10
1017.6390324498
 20
770.5096302357
 40
409.6162775094
100
AcDbArc
 50
354.9313735534
 51
5.6435662703
  0
ARC
  5
6BA
100
AcDbEntity
  8
02___PRT_ALL_AXES
100
AcDbCircle
 62
7
  6
CONTINUOUS
 10
1281.2430749049
 20
813.166080971
 40
12.967516663
100
AcDbArc
 50
0.2814484438
 51
8.7011062218
  0
ARC
  5
6BB
100
AcDbEntity
  8
02___PRT_ALL_AXES
100
AcDbCircle
 62
7
  6
CONTINUOUS
 10
1239.1422074748
 20
835.029635656
 40
12.9185395168
100
AcDbArc
 50
180.2670622303
 51
189.5117519858
  0
ARC
  5
6BC
100
AcDbEntity
  8
02___PRT_ALL_AXES
100
AcDbCircle
 62
7
  6
CONTINUOUS
 10
1231.2977713322
 20
795.6165017679
 40
4.7040321406
100
AcDbArc
 50
158.0256474471
 51
159.6732291655
  0
ARC
  5
6BD
100
AcDbEntity
  8
02___PRT_ALL_AXES
100
AcDbCircle
 62
7
  6
CONTINUOUS
 10
1231.9422001955
 20
834.5154965424
 40
4.3349420371
100
AcDbArc
 50
180.2550109174
 51
189.9718773197
  0
ARC
  5
6BE
100
AcDbEntity
  8
0
100
AcDbCircle
 62
7
  6
CONTINUOUS
 10
1342.7034462232
 20
799.8707106893
 40
1.5494598772
100
AcDbArc
 50
35.4712044616
 51
44.8160560566
  0
ARC
  5
6BF
100
AcDbEntity
  8
0
100
AcDbCircle
 62
7
  6
CONTINUOUS
 10
4797.960207129
 20
354.3739482586
 40
4582.0746883952
100
AcDbArc
 50
179.5138388419
 51
180.4861611586
  0
ARC
  5
6C0
100
AcDbEntity
  8
0
100
AcDbCircle
 62
7
  6
CONTINUOUS
 10
-3852.0541541451
 20
354.3739482586
 40
4582.0745918259
100
AcDbArc
 50
359.5138388317
 51
0.4861611689
  0
ARC
  5
6C1
100
AcDbEntity
  8
0
100
AcDbCircle
 62
7
  6
CONTINUOUS
 10
-3852.9826430281
 20
354.3739482585
 40
4578.0030472923
100
AcDbArc
 50
359.513938438
 51
0.4860615625
  0
ARC
  5
6C2
100
AcDbEntity
  8
0
100
AcDbCircle
 62
7
  6
CONTINUOUS
 10
4798.8885957222
 20
354.3739482586
 40
4578.0030435755
100
AcDbArc
 50
179.5139384377
 51
180.4860615629
  0
ARC
  5
6C3
100
AcDbEntity
  8
0
100
AcDbCircle
 62
7
  6
CONTINUOUS
 10
4750.2627422828
 20
354.3739482586
 40
4536.3696129343
100
AcDbArc
 50
179.5113958826
 51
180.488604118
  0
ARC
  5
6C4
100
AcDbEntity
  8
0
100
AcDbCircle
 62
7
  6
CONTINUOUS
 10
-3804.3566902743
 20
354.3739482586
 40
4536.3695173405
100
AcDbArc
 50
359.5113958723
 51
0.4886041283
  0
CIRCLE
  5
6C5
100
AcDbEntity
  8
02___PRT_ALL_AXES
100
AcDbCircle
 62
7
  6
CONTINUOUS
 10
528.9491715755
 20
354.3739481983
 40
15.0022500985
  0
CIRCLE
  5
6C6
100
AcDbEntity
  8
02___PRT_ALL_AXES
100
AcDbCircle
 62
7
  6
CONTINUOUS
 10
455.854614107
 20
354.3739473965
 40
8.9998575935
  0
ARC
  5
6C7
100
AcDbEntity
  8
0
100
AcDbCircle
 62
7
  6
CONTINUOUS
 10
456.9529782056
 20
314.3739482586
 40
3.0
100
AcDbArc
 50
90.0
 51
270.0
  0
ARC
  5
6C8
100
AcDbEntity
  8
0
100
AcDbCircle
 62
7
  6
CONTINUOUS
 10
488.9529782056
 20
314.3739482586
 40
3.0
100
AcDbArc
 50
270.0
 51
90.0
  0
ARC
  5
6C9
100
AcDbEntity
  8
0
100
AcDbCircle
 62
7
  6
CONTINUOUS
 10
471.1529782056
 20
648.9389741048
 40
3.2
100
AcDbArc
 50
90.0
 51
180.0
  0
ARC
  5
6CA
100
AcDbEntity
  8
0
100
AcDbCircle
 62
7
  6
CONTINUOUS
 10
474.7529782056
 20
648.9389741048
 40
3.2
100
AcDbArc
 50
0.0
 51
90.0
  0
ARC
  5
6CB
100
AcDbEntity
  8
0
100
AcDbCircle
 62
7
  6
CONTINUOUS
 10
697.2529782056
 20
649.8889741048
 40
1.0
100
AcDbArc
 50
0.0
 51
90.0
  0
ARC
  5
6CC
100
AcDbEntity
  8
0
100
AcDbCircle
 62
7
  6
CONTINUOUS
 10
697.2529782056
 20
645.3889741048
 40
1.0
100
AcDbArc
 50
270.0
 51
360.0
  0
ARC
  5
6CD
100
AcDbEntity
  8
0
100
AcDbCircle
 62
7
  6
CONTINUOUS
 10
773.6274225809
 20
1802.6566121294
 40
1500.0000000002
100
AcDbArc
 50
272.1958895979
 51
274.2980796096
  0
ARC
  5
6CE
100
AcDbEntity
  8
0
100
AcDbCircle
 62
7
  6
CONTINUOUS
 10
773.6274225809
 20
-1093.908715612
 40
1500.0
100
AcDbArc
 50
85.7019203918
 51
87.8041104024
  0
ARC
  5
6CF
100
AcDbEntity
  8
0
100
AcDbCircle
 62
9
  6
CONTINUOUS
 10
774.6657708836
 20
1802.7905320519
 40
1488.1341069227
100
AcDbArc
 50
272.1349326576
 51
274.295633168
  0
ARC
  5
6D0
100
AcDbEntity
  8
0
100
AcDbCircle
 62
9
  6
CONTINUOUS
 10
774.6657750693
 20
-1094.0425556407
 40
1488.1340269728
100
AcDbArc
 50
85.7043667624
 51
87.8650673887
  0
ARC
  5
6D1
100
AcDbEntity
  8
0
100
AcDbCircle
 62
7
  6
CONTINUOUS
 10
1226.044412472
 20
354.3739482586
 40
400.0
100
AcDbArc
 50
172.9835655203
 51
187.0164344744
  0
ARC
  5
6D2
100
AcDbEntity
  8
0
100
AcDbCircle
 62
7
  6
CONTINUOUS
 10
1226.2686054778
 20
354.3739482586
 40
398.049645367
100
AcDbArc
 50
174.4228916676
 51
185.5771083259
  0
CIRCLE
  5
6D3
100
AcDbEntity
  8
0
100
AcDbCircle
 62
7
  6
CONTINUOUS
 10
902.344412472
 20
380.8739482586
 40
3.25
  0
CIRCLE
  5
6D4
100
AcDbEntity
  8
0
100
AcDbCircle
 62
9
  6
CONTINUOUS
 10
902.344412472
 20
380.8739482586
 40
2.25
  0
ARC
  5
6D5
100
AcDbEntity
  8
0
100
AcDbCircle
 62
7
  6
CONTINUOUS
 10
-2927.8258871779
 20
354.3739482586
 40
4536.3696129406
100
AcDbArc
 50
359.511395882
 51
0.4886041174
  0
ARC
  5
6D6
100
AcDbEntity
  8
0
100
AcDbCircle
 62
7
  6
CONTINUOUS
 10
5626.7935453818
 20
354.3739482586
 40
4536.3695173369
100
AcDbArc
 50
179.5113958717
 51
180.4886041277
  0
ARC
  5
6D7
100
AcDbEntity
  8
0
100
AcDbCircle
 62
7
  6
CONTINUOUS
 10
1107.4995788429
 20
389.8641072516
 40
12.0088441224
100
AcDbArc
 50
90.2344652194
 51
179.7759238
  0
ARC
  5
6D8
100
AcDbEntity
  8
0
100
AcDbCircle
 62
7
  6
CONTINUOUS
 10
1591.4681743141
 20
318.8837865927
 40
12.0088423021
100
AcDbArc
 50
270.2344683923
 51
359.7759365674
  0
ARC
  5
6D9
100
AcDbEntity
  8
0
100
AcDbCircle
 62
7
  6
CONTINUOUS
 10
1107.499573116
 20
318.8837850835
 40
12.0088383206
100
AcDbArc
 50
180.2240561947
 51
269.7655620511
  0
ARC
  5
6DA
100
AcDbEntity
  8
0
100
AcDbCircle
 62
7
  6
CONTINUOUS
 10
1591.4681805898
 20
389.8641115391
 40
12.0088383214
100
AcDbArc
 50
0.2240556926
 51
89.7655615466
  0
ARC
  5
6DB
100
AcDbEntity
  8
02___PRT_ALL_AXES
100
AcDbCircle
 62
7
  6
CONTINUOUS
 10
1424.4838769056
 20
333.7239482586
 40
5.2
100
AcDbArc
 50
195.0833185227
 51
320.5453195247
  0
ARC
  5
6DC
100
AcDbEntity
  8
02___PRT_ALL_AXES
100
AcDbCircle
 62
7
  6
CONTINUOUS
 10
1424.4838769056
 20
375.0239482586
 40
5.2
100
AcDbArc
 50
39.4546804753
 51
164.9166814773
  0
ARC
  5
6DD
100
AcDbEntity
  8
02___PRT_ALL_AXES
100
AcDbCircle
 62
7
  6
CONTINUOUS
 10
1274.4838769056
 20
333.7239482586
 40
5.2
100
AcDbArc
 50
219.4546804753
 51
344.9166814773
  0
ARC
  5
6DE
100
AcDbEntity
  8
02___PRT_ALL_AXES
100
AcDbCircle
 62
7
  6
CONTINUOUS
 10
1274.4838769056
 20
375.0239482586
 40
5.2
100
AcDbArc
 50
15.0833185227
 51
140.5453195247
  0
ARC
  5
6DF
100
AcDbEntity
  8
02___PRT_ALL_AXES
100
AcDbCircle
 62
7
  6
CONTINUOUS
 10
1497.4838769056
 20
374.3739482586
 40
2.75
100
AcDbArc
 50
46.9434484742
 51
133.0565515258
  0
ARC
  5
6E0
100
AcDbEntity
  8
02___PRT_ALL_AXES
100
AcDbCircle
 62
7
  6
CONTINUOUS
 10
1424.4838769056
 20
333.7239482586
 40
1.75
100
AcDbArc
 50
230.9693679613
 51
309.0306320387
  0
ARC
  5
6E1
100
AcDbEntity
  8
02___PRT_ALL_AXES
100
AcDbCircle
 62
7
  6
CONTINUOUS
 10
1424.4838769056
 20
375.0239482586
 40
1.75
100
AcDbArc
 50
50.9693679613
 51
129.0306320387
  0
ARC
  5
6E2
100
AcDbEntity
  8
02___PRT_ALL_AXES
100
AcDbCircle
 62
7
  6
CONTINUOUS
 10
1274.4838769056
 20
333.7239482586
 40
1.75
100
AcDbArc
 50
230.9693679613
 51
309.0306320387
  0
ARC
  5
6E3
100
AcDbEntity
  8
02___PRT_ALL_AXES
100
AcDbCircle
 62
7
  6
CONTINUOUS
 10
1274.4838769056
 20
375.0239482586
 40
1.75
100
AcDbArc
 50
50.9693679613
 51
129.0306320387
  0
ARC
  5
6E4
100
AcDbEntity
  8
0
100
AcDbCircle
 62
7
  6
CONTINUOUS
 10
1125.1838769056
 20
383.1239482586
 40
1.0
100
AcDbArc
 50
90.0
 51
180.0
  0
ARC
  5
6E5
100
AcDbEntity
  8
0
100
AcDbCircle
 62
7
  6
CONTINUOUS
 10
1125.1838769056
 20
378.6239482586
 40
1.0
100
AcDbArc
 50
180.0
 51
270.0
  0
SPLINE
  5
6E6
100
AcDbEntity
  8
0
100
AcDbSpline
 62
7
  6
CONTINUOUS
 70
0
 71
3
 72
13
 73
9
 74
0
 42
0.0000001
 43
0.0000001
 44
0.0000000001
 40
0.0
 40
0.0
 40
0.0
 40
0.0
 40
0.1317357684
 40
0.2713541552
 40
0.4178991716
 40
0.5930152361
 40
0.7698067128
 40
1.0
 40
1.0
 40
1.0
 40
1.0
 10
1533.9084773085
 20
180.0893264827
 30
0.0
 10
1533.3970413476
 20
180.0512343929
 30
0.0
 10
1532.3435668793
 20
179.9727709213
 30
0.0
 10
1530.9158991705
 20
179.0881066387
 30
0.0
 10
1529.8910041279
 20
177.602914633
 30
0.0
 10
1529.2245644191
 20
175.7868517422
 30
0.0
 10
1528.8491848799
 20
173.5668679255
 30
0.0
 10
1528.8146225789
 20
171.9981883762
 30
0.0
 10
1528.796709739
 20
171.1108162626
 30
0.0
  0
SPLINE
  5
6E7
100
AcDbEntity
  8
0
100
AcDbSpline
 62
7
  6
CONTINUOUS
 70
0
 71
3
 72
13
 73
9
 74
0
 42
0.0000001
 43
0.0000001
 44
0.0000000001
 40
0.0
 40
0.0
 40
0.0
 40
0.0
 40
0.2249509061
 40
0.4029463322
 40
0.5792549365
 40
0.726797924
 40
0.8673671114
 40
1.0
 40
1.0
 40
1.0
 40
1.0
 10
1528.7982981103
 20
170.9731128237
 30
0.0
 10
1528.8158579187
 20
170.1118263914
 30
0.0
 10
1528.853539026
 20
168.5695042611
 30
0.0
 10
1529.2245641119
 20
166.3752540745
 30
0.0
 10
1529.8910118015
 20
164.5593942975
 30
0.0
 10
1530.9158748767
 20
163.0735719849
 30
0.0
 10
1532.3436515455
 20
162.191022417
 30
0.0
 10
1533.3968691771
 20
162.1075794521
 30
0.0
 10
1533.9084773085
 20
162.0694745534
 30
0.0
  0
SPLINE
  5
6E8
100
AcDbEntity
  8
0
100
AcDbSpline
 62
7
  6
CONTINUOUS
 70
0
 71
3
 72
13
 73
9
 74
0
 42
0.0000001
 43
0.0000001
 44
0.0000000001
 40
0.0
 40
0.0
 40
0.0
 40
0.0
 40
0.1604571392
 40
0.3334692485
 40
0.4767982758
 40
0.6242014838
 40
0.7505998515
 40
1.0
 40
1.0
 40
1.0
 40
1.0
 10
1522.4736937602
 20
162.0694654167
 30
0.0
 10
1522.8977900808
 20
162.0898848977
 30
0.0
 10
1523.7791661225
 20
162.132321558
 30
0.0
 10
1524.9643672406
 20
162.6468815335
 30
0.0
 10
1525.8574553344
 20
163.5118139053
 30
0.0
 10
1526.3607456006
 20
164.5034254536
 30
0.0
 10
1526.7466107402
 20
165.8336825035
 30
0.0
 10
1526.7622691599
 20
166.8291837704
 30
0.0
 10
1526.7726609281
 20
167.489852057
 30
0.0
  0
SPLINE
  5
6E9
100
AcDbEntity
  8
0
100
AcDbSpline
 62
7
  6
CONTINUOUS
 70
0
 71
3
 72
13
 73
9
 74
0
 42
0.0000001
 43
0.0000001
 44
0.0000000001
 40
0.0
 40
0.0
 40
0.0
 40
0.0
 40
0.2494001485
 40
0.3757985162
 40
0.5232017242
 40
0.6665307515
 40
0.8395428608
 40
1.0
 40
1.0
 40
1.0
 40
1.0
 10
1526.7726609281
 20
167.489852057
 30
0.0
 10
1526.7622691599
 20
168.1505203509
 30
0.0
 10
1526.7466107402
 20
169.1460216105
 30
0.0
 10
1526.3607456006
 20
170.4762786751
 30
0.0
 10
1525.8574553344
 20
171.4678902234
 30
0.0
 10
1524.9643672406
 20
172.3328225806
 30
0.0
 10
1523.7791661225
 20
172.8473825561
 30
0.0
 10
1522.8977900808
 20
172.889819231
 30
0.0
 10
1522.4736937602
 20
172.9102386974
 30
0.0
  0
SPLINE
  5
6EA
100
AcDbEntity
  8
0
100
AcDbSpline
 62
7
  6
CONTINUOUS
 70
0
 71
3
 72
13
 73
9
 74
0
 42
0.0000001
 43
0.0000001
 44
0.0000000001
 40
0.0
 40
0.0
 40
0.0
 40
0.0
 40
0.1133740464
 40
0.2392044088
 40
0.3655787964
 40
0.4912154373
 40
0.7445390876
 40
1.0
 40
1.0
 40
1.0
 40
1.0
 10
1500.1997501779
 20
180.089326479
 30
0.0
 10
1499.9094372414
 20
180.0750272089
 30
0.0
 10
1499.2969149239
 20
180.0448576123
 30
0.0
 10
1498.3870736102
 20
179.7730242098
 30
0.0
 10
1497.5731318839
 20
179.2241079
 30
0.0
 10
1496.7416831576
 20
178.2129831289
 30
0.0
 10
1496.2184828775
 20
176.6256517654
 30
0.0
 10
1496.161741724
 20
175.32416043
 30
0.0
 10
1496.13325199
 20
174.6706811562
 30
0.0
  0
SPLINE
  5
6EB
100
AcDbEntity
  8
0
100
AcDbSpline
 62
7
  6
CONTINUOUS
 70
0
 71
3
 72
13
 73
9
 74
0
 42
0.0000001
 43
0.0000001
 44
0.0000000001
 40
0.0
 40
0.0
 40
0.0
 40
0.0
 40
0.2554609124
 40
0.5087845627
 40
0.6344212036
 40
0.7607955912
 40
0.8866259536
 40
1.0
 40
1.0
 40
1.0
 40
1.0
 10
1496.13325199
 20
174.6706811562
 30
0.0
 10
1496.161741724
 20
174.0172018751
 30
0.0
 10
1496.2184828775
 20
172.7157105325
 30
0.0
 10
1496.7416831576
 20
171.1283791763
 30
0.0
 10
1497.5731318839
 20
170.1172544051
 30
0.0
 10
1498.3870736102
 20
169.5683381027
 30
0.0
 10
1499.2969149239
 20
169.2965046928
 30
0.0
 10
1499.9094372414
 20
169.2663350963
 30
0.0
 10
1500.1997501779
 20
169.2520358334
 30
0.0
  0
SPLINE
  5
6EC
100
AcDbEntity
  8
0
100
AcDbSpline
 62
7
  6
CONTINUOUS
 70
0
 71
3
 72
12
 73
8
 74
0
 42
0.0000001
 43
0.0000001
 44
0.0000000001
 40
0.0
 40
0.0
 40
0.0
 40
0.0
 40
0.2415790084
 40
0.4893269843
 40
0.7378634303
 40
0.8656387112
 40
1.0
 40
1.0
 40
1.0
 40
1.0
 10
1489.7039384998
 20
162.069465424
 30
0.0
 10
1490.1997448043
 20
162.0848794794
 30
0.0
 10
1491.204018364
 20
162.1161012212
 30
0.0
 10
1492.6736679178
 20
162.6402173351
 30
0.0
 10
1493.5662150234
 20
163.6296098613
 30
0.0
 10
1493.9594416535
 20
164.6181960185
 30
0.0
 10
1493.9665281731
 20
165.159741423
 30
0.0
 10
1493.9701604551
 20
165.4373171039
 30
0.0
  0
SPLINE
  5
6ED
100
AcDbEntity
  8
0
100
AcDbSpline
 62
7
  6
CONTINUOUS
 70
0
 71
3
 72
12
 73
8
 74
0
 42
0.0000001
 43
0.0000001
 44
0.0000000001
 40
0.0
 40
0.0
 40
0.0
 40
0.0
 40
0.1343612888
 40
0.2621365697
 40
0.5106730157
 40
0.7584209916
 40
1.0
 40
1.0
 40
1.0
 40
1.0
 10
1493.9701604551
 20
176.7003396538
 30
0.0
 10
1493.9665281731
 20
176.9779153494
 30
0.0
 10
1493.9594416535
 20
177.5194607539
 30
0.0
 10
1493.5662150234
 20
178.508046911
 30
0.0
 10
1492.6736679178
 20
179.4974394373
 30
0.0
 10
1491.204018364
 20
180.0215555438
 30
0.0
 10
1490.1997448043
 20
180.0527772783
 30
0.0
 10
1489.7039384998
 20
180.068191341
 30
0.0
  0
SPLINE
  5
6EE
100
AcDbEntity
  8
0
100
AcDbSpline
 62
7
  6
CONTINUOUS
 70
0
 71
3
 72
12
 73
8
 74
0
 42
0.0000001
 43
0.0000001
 44
0.0000000001
 40
0.0
 40
0.0
 40
0.0
 40
0.0
 40
0.1341799809
 40
0.290831959
 40
0.5815217441
 40
0.760783857
 40
1.0
 40
1.0
 40
1.0
 40
1.0
 10
1466.7609594869
 20
180.068191341
 30
0.0
 10
1466.2605323827
 20
179.9826635954
 30
0.0
 10
1465.1758683888
 20
179.797284211
 30
0.0
 10
1463.3500106281
 20
178.4331901183
 30
0.0
 10
1462.4851917369
 20
176.1382387933
 30
0.0
 10
1461.9791939324
 20
173.5366999602
 30
0.0
 10
1461.9412102611
 20
171.9631706893
 30
0.0
 10
1461.9194975186
 20
171.0636888254
 30
0.0
  0
SPLINE
  5
6EF
100
AcDbEntity
  8
0
100
AcDbSpline
 62
7
  6
CONTINUOUS
 70
0
 71
3
 72
12
 73
8
 74
0
 42
0.0000001
 43
0.0000001
 44
0.0000000001
 40
0.0
 40
0.0
 40
0.0
 40
0.0
 40
0.2392679579
 40
0.4185688994
 40
0.7093216488
 40
0.8660075581
 40
1.0
 40
1.0
 40
1.0
 40
1.0
 10
1461.9194975186
 20
171.0636888254
 30
0.0
 10
1461.9412189369
 20
170.1642420159
 30
0.0
 10
1461.9792177653
 20
168.5907740756
 30
0.0
 10
1462.4851063832
 20
165.9887937702
 30
0.0
 10
1463.3504536658
 20
163.6959790104
 30
0.0
 10
1465.1744104475
 20
162.3274554324
 30
0.0
 10
1466.2603703584
 20
162.1508666214
 30
0.0
 10
1466.7609594869
 20
162.069465424
 30
0.0
  0
SPLINE
  5
6F0
100
AcDbEntity
  8
02___PRT_ALL_AXES
100
AcDbSpline
 62
7
  6
CONTINUOUS
 70
0
 71
3
 72
10
 73
6
 74
0
 42
0.0000001
 43
0.0000001
 44
0.0000000001
 40
0.0
 40
0.0
 40
0.0
 40
0.0
 40
0.1926673591
 40
0.5406272193
 40
1.0
 40
1.0
 40
1.0
 40
1.0
 10
1288.2954702219
 20
778.0478422434
 30
0.0
 10
1288.1697219286
 20
778.0388254164
 30
0.0
 10
1287.820756978
 20
777.9244942539
 30
0.0
 10
1287.3598737178
 20
777.426055045
 30
0.0
 10
1287.136791436
 20
776.9435300851
 30
0.0
 10
1287.0331900176
 20
776.6613592226
 30
0.0
  0
SPLINE
  5
6F1
100
AcDbEntity
  8
02___PRT_ALL_AXES
100
AcDbSpline
 62
7
  6
CONTINUOUS
 70
0
 71
3
 72
9
 73
5
 74
0
 42
0.0000001
 43
0.0000001
 44
0.0000000001
 40
0.0
 40
0.0
 40
0.0
 40
0.0
 40
0.1986137864
 40
1.0
 40
1.0
 40
1.0
 40
1.0
 10
1228.1436092247
 20
798.6225527013
 30
0.0
 10
1228.0252167109
 20
798.614063323
 30
0.0
 10
1227.4359463691
 20
798.4263013741
 30
0.0
 10
1227.1147921782
 20
797.8208046269
 30
0.0
 10
1226.9354803165
 20
797.3767106971
 30
0.0
  0
SPLINE
  5
6F2
100
AcDbEntity
  8
02___PRT_ALL_AXES
100
AcDbSpline
 62
7
  6
CONTINUOUS
 70
0
 71
3
 72
9
 73
5
 74
0
 42
0.0000001
 43
0.0000001
 44
0.0000000001
 40
0.0
 40
0.0
 40
0.0
 40
0.0
 40
0.2167752064
 40
1.0
 40
1.0
 40
1.0
 40
1.0
 10
1226.7148026964
 20
838.1572605881
 30
0.0
 10
1226.6292951326
 20
837.9396072804
 30
0.0
 10
1226.3103152273
 20
836.9063029607
 30
0.0
 10
1226.2195691601
 20
835.8143175478
 30
0.0
 10
1226.2238082918
 20
834.9694210728
 30
0.0
  0
SPLINE
  5
6F3
100
AcDbEntity
  8
0
100
AcDbSpline
 62
7
  6
CONTINUOUS
 70
0
 71
3
 72
9
 73
5
 74
0
 42
0.0000001
 43
0.0000001
 44
0.0000000001
 40
0.0
 40
0.0
 40
0.0
 40
0.0
 40
0.7189987778
 40
1.0
 40
1.0
 40
1.0
 40
1.0
 10
1355.9002310576
 20
732.7782564262
 30
0.0
 10
1355.9911422773
 20
732.7847463949
 30
0.0
 10
1356.114922615
 20
732.8439332982
 30
0.0
 10
1356.2057840639
 20
732.9316892502
 30
0.0
 10
1356.2299010558
 20
732.9579037241
 30
0.0
  0
SPLINE
  5
6F4
100
AcDbEntity
  8
0
100
AcDbSpline
 62
7
  6
CONTINUOUS
 70
0
 71
3
 72
9
 73
5
 74
0
 42
0.0000001
 43
0.0000001
 44
0.0000000001
 40
0.0
 40
0.0
 40
0.0
 40
0.0
 40
0.4166860182
 40
1.0
 40
1.0
 40
1.0
 40
1.0
 10
1356.2299010558
 20
732.9579037241
 30
0.0
 10
1356.4203093366
 20
733.1648720278
 30
0.0
 10
1356.656105527
 20
733.8345100713
 30
0.0
 10
1356.7138715322
 20
734.5034617871
 30
0.0
 10
1356.7118962676
 20
734.8971496744
 30
0.0
  0
SPLINE
  5
6F5
100
AcDbEntity
  8
0
100
AcDbSpline
 62
7
  6
CONTINUOUS
 70
0
 71
3
 72
10
 73
6
 74
0
 42
0.0000001
 43
0.0000001
 44
0.0000000001
 40
0.0
 40
0.0
 40
0.0
 40
0.0
 40
0.1728366258
 40
0.4027548813
 40
1.0
 40
1.0
 40
1.0
 40
1.0
 10
1160.4458997715
 20
876.6611861402
 30
0.0
 10
1160.2407610609
 20
876.5149995499
 30
0.0
 10
1159.8744254523
 20
876.0290947771
 30
0.0
 10
1159.36415076
 20
874.6591123745
 30
0.0
 10
1159.2560217932
 20
873.4334225259
 30
0.0
 10
1159.260389051
 20
872.5629893741
 30
0.0
  0
SPLINE
  5
6F6
100
AcDbEntity
  8
0
100
AcDbSpline
 62
7
  6
CONTINUOUS
 70
0
 71
3
 72
9
 73
5
 74
0
 42
0.0000001
 43
0.0000001
 44
0.0000000001
 40
0.0
 40
0.0
 40
0.0
 40
0.0
 40
0.2747019877
 40
1.0
 40
1.0
 40
1.0
 40
1.0
 10
1420.4562264216
 20
823.5641276259
 30
0.0
 10
1420.373540195
 20
823.6343210517
 30
0.0
 10
1420.0644085073
 20
823.8793541674
 30
0.0
 10
1419.7163366791
 20
824.0808977674
 30
0.0
 10
1419.4466746498
 20
824.177297103
 30
0.0
  0
SPLINE
  5
6F7
100
AcDbEntity
  8
0
100
AcDbSpline
 62
7
  6
CONTINUOUS
 70
0
 71
3
 72
10
 73
6
 74
0
 42
0.0000001
 43
0.0000001
 44
0.0000000001
 40
0.0
 40
0.0
 40
0.0
 40
0.0
 40
0.198265535
 40
0.4373394289
 40
1.0
 40
1.0
 40
1.0
 40
1.0
 10
1424.2571547798
 20
726.9141695194
 30
0.0
 10
1424.6160447879
 20
727.3163307241
 30
0.0
 10
1425.2686759647
 20
728.3263378704
 30
0.0
 10
1426.3055198998
 20
730.8468356968
 30
0.0
 10
1426.7038419593
 20
733.0194885696
 30
0.0
 10
1426.8386575675
 20
734.5432104634
 30
0.0
  0
SPLINE
  5
6F8
100
AcDbEntity
  8
0
100
AcDbSpline
 62
7
  6
CONTINUOUS
 70
0
 71
3
 72
9
 73
5
 74
0
 42
0.0000001
 43
0.0000001
 44
0.0000000001
 40
0.0
 40
0.0
 40
0.0
 40
0.0
 40
0.2202503108
 40
1.0
 40
1.0
 40
1.0
 40
1.0
 10
1420.6339541236
 20
724.0069054304
 30
0.0
 10
1420.8079370887
 20
724.0097350985
 30
0.0
 10
1421.5989880906
 20
724.1340471741
 30
0.0
 10
1422.2611515853
 20
724.674819545
 30
0.0
 10
1422.6708929748
 20
725.1348267881
 30
0.0
  0
SPLINE
  5
6F9
100
AcDbEntity
  8
0
100
AcDbSpline
 62
7
  6
CONTINUOUS
 70
0
 71
3
 72
9
 73
5
 74
0
 42
0.0000001
 43
0.0000001
 44
0.0000000001
 40
0.0
 40
0.0
 40
0.0
 40
0.0
 40
0.7384282028
 40
1.0
 40
1.0
 40
1.0
 40
1.0
 10
1172.0186918146
 20
884.6239909132
 30
0.0
 10
1171.7442292035
 20
884.5767293061
 30
0.0
 10
1171.3816123877
 20
884.4403816103
 30
0.0
 10
1171.0645586572
 20
884.2360978875
 30
0.0
 10
1170.984251137
 20
884.178799119
 30
0.0
  0
SPLINE
  5
6FA
100
AcDbEntity
  8
02___PRT_ALL_AXES
100
AcDbSpline
 62
7
  6
CONTINUOUS
 70
0
 71
3
 72
9
 73
5
 74
0
 42
0.0000001
 43
0.0000001
 44
0.0000000001
 40
0.0
 40
0.0
 40
0.0
 40
0.0
 40
0.4865571729
 40
1.0
 40
1.0
 40
1.0
 40
1.0
 10
1344.9283499091
 20
802.32415645
 30
0.0
 10
1345.4843052081
 20
802.1341290434
 30
0.0
 10
1346.5114518124
 20
801.324491808
 30
0.0
 10
1346.8506184446
 20
800.0816227155
 30
0.0
 10
1346.8537291543
 20
799.4616307392
 30
0.0
  0
SPLINE
  5
6FB
100
AcDbEntity
  8
0
100
AcDbSpline
 62
7
  6
CONTINUOUS
 70
0
 71
3
 72
8
 73
4
 74
0
 42
0.0000001
 43
0.0000001
 44
0.0000000001
 40
0.0
 40
0.0
 40
0.0
 40
0.0
 40
1.0
 40
1.0
 40
1.0
 40
1.0
 10
1343.9653376016
 20
800.7698525358
 30
0.0
 10
1344.0658906387
 20
800.6288079257
 30
0.0
 10
1344.1437892867
 20
800.4692615381
 30
0.0
 10
1344.1954600329
 20
800.3039296618
 30
0.0
  0
SPLINE
  5
6FC
100
AcDbEntity
  8
0
100
AcDbSpline
 62
7
  6
CONTINUOUS
 70
0
 71
3
 72
8
 73
4
 74
0
 42
0.0000001
 43
0.0000001
 44
0.0000000001
 40
0.0
 40
0.0
 40
0.0
 40
0.0
 40
1.0
 40
1.0
 40
1.0
 40
1.0
 10
1344.1954600329
 20
800.3039296618
 30
0.0
 10
1344.2486652482
 20
800.1336879151
 30
0.0
 10
1344.275708243
 20
799.9533914198
 30
0.0
 10
1344.2766031349
 20
799.7750315409
 30
0.0
  0
SPLINE
  5
6FD
100
AcDbEntity
  8
02___PRT_ALL_AXES
100
AcDbSpline
 62
7
  6
CONTINUOUS
 70
0
 71
3
 72
10
 73
6
 74
0
 42
0.0000001
 43
0.0000001
 44
0.0000000001
 40
0.0
 40
0.0
 40
0.0
 40
0.0
 40
0.2399033382
 40
0.4895600638
 40
1.0
 40
1.0
 40
1.0
 40
1.0
 10
1344.4428838681
 20
800.9048563361
 30
0.0
 10
1344.2016132009
 20
800.9873531463
 30
0.0
 10
1343.6527987914
 20
801.0174476762
 30
0.0
 10
1342.6655851345
 20
800.5383966174
 30
0.0
 10
1342.2707111402
 20
799.6771745404
 30
0.0
 10
1342.273433156
 20
799.1346527143
 30
0.0
  0
SPLINE
  5
6FE
100
AcDbEntity
  8
0
100
AcDbSpline
 62
7
  6
CONTINUOUS
 70
0
 71
3
 72
9
 73
5
 74
0
 42
0.0000001
 43
0.0000001
 44
0.0000000001
 40
0.0
 40
0.0
 40
0.0
 40
0.0
 40
0.5067829022
 40
1.0
 40
1.0
 40
1.0
 40
1.0
 10
1344.2766031349
 20
799.7750315409
 30
0.0
 10
1344.2784115166
 20
799.4146050535
 30
0.0
 10
1344.0723394921
 20
798.6885641375
 30
0.0
 10
1343.5002454114
 20
798.1875044593
 30
0.0
 10
1343.1771403757
 20
798.0509331081
 30
0.0
  0
SPLINE
  5
6FF
100
AcDbEntity
  8
0
100
AcDbSpline
 62
7
  6
CONTINUOUS
 70
0
 71
3
 72
8
 73
4
 74
0
 42
0.0000001
 43
0.0000001
 44
0.0000000001
 40
0.0
 40
0.0
 40
0.0
 40
0.0
 40
1.0
 40
1.0
 40
1.0
 40
1.0
 10
1343.1771403757
 20
798.0509331081
 30
0.0
 10
1343.0481114769
 20
797.9963946481
 30
0.0
 10
1342.9106674418
 20
797.9583795918
 30
0.0
 10
1342.7717925526
 20
797.9400311449
 30
0.0
  0
SPLINE
  5
700
100
AcDbEntity
  8
02___PRT_ALL_AXES
100
AcDbSpline
 62
7
  6
CONTINUOUS
 70
0
 71
3
 72
9
 73
5
 74
0
 42
0.0000001
 43
0.0000001
 44
0.0000000001
 40
0.0
 40
0.0
 40
0.0
 40
0.0
 40
0.5134828184
 40
1.0
 40
1.0
 40
1.0
 40
1.0
 10
1342.273433156
 20
799.1346527143
 30
0.0
 10
1342.275108277
 20
798.8007862656
 30
0.0
 10
1342.4577173113
 20
798.1315048721
 30
0.0
 10
1343.0108662159
 20
797.695680291
 30
0.0
 10
1343.3101896427
 20
797.5933337099
 30
0.0
  0
SPLINE
  5
701
100
AcDbEntity
  8
02___PRT_ALL_AXES
100
AcDbSpline
 62
7
  6
CONTINUOUS
 70
0
 71
3
 72
11
 73
7
 74
0
 42
0.0000001
 43
0.0000001
 44
0.0000000001
 40
0.0
 40
0.0
 40
0.0
 40
0.0
 40
0.2595756196
 40
0.5165692433
 40
0.7630997643
 40
1.0
 40
1.0
 40
1.0
 40
1.0
 10
1346.8537291543
 20
799.4616307392
 30
0.0
 10
1346.8563325097
 20
798.9427589712
 30
0.0
 10
1346.6249274694
 20
797.8961664293
 30
0.0
 10
1345.6689262659
 20
796.6456593419
 30
0.0
 10
1344.2914651081
 20
795.9613126071
 30
0.0
 10
1343.2728222677
 20
796.0208719524
 30
0.0
 10
1342.8247236016
 20
796.1740335961
 30
0.0
  0
SPLINE
  5
702
100
AcDbEntity
  8
0
100
AcDbSpline
 62
7
  6
CONTINUOUS
 70
0
 71
3
 72
9
 73
5
 74
0
 42
0.0000001
 43
0.0000001
 44
0.0000000001
 40
0.0
 40
0.0
 40
0.0
 40
0.0
 40
0.371183297
 40
1.0
 40
1.0
 40
1.0
 40
1.0
 10
1250.4467565144
 20
837.8889762892
 30
0.0
 10
1250.4073303796
 20
837.9024618455
 30
0.0
 10
1250.3104583317
 20
837.940259908
 30
0.0
 10
1250.1785440313
 20
838.0115974868
 30
0.0
 10
1250.1781901378
 20
838.0821869875
 30
0.0
  0
SPLINE
  5
703
100
AcDbEntity
  8
0
100
AcDbSpline
 62
7
  6
CONTINUOUS
 70
0
 71
3
 72
10
 73
6
 74
0
 42
0.0000001
 43
0.0000001
 44
0.0000000001
 40
0.0
 40
0.0
 40
0.0
 40
0.0
 40
0.5781894881
 40
0.8275662978
 40
1.0
 40
1.0
 40
1.0
 40
1.0
 10
1256.1050303186
 20
837.1655220177
 30
0.0
 10
1255.2908574525
 20
837.1073998711
 30
0.0
 10
1254.1172822684
 20
837.0965461313
 30
0.0
 10
1252.7124990611
 20
837.2167952451
 30
0.0
 10
1252.1207291535
 20
837.3164004488
 30
0.0
 10
1251.8904011784
 20
837.3951832382
 30
0.0
  0
SPLINE
  5
704
100
AcDbEntity
  8
0
100
AcDbSpline
 62
7
  6
CONTINUOUS
 70
0
 71
3
 72
10
 73
6
 74
0
 42
0.0000001
 43
0.0000001
 44
0.0000000001
 40
0.0
 40
0.0
 40
0.0
 40
0.0
 40
0.5675018713
 40
0.8113982201
 40
1.0
 40
1.0
 40
1.0
 40
1.0
 10
1426.4530504047
 20
811.3981322404
 30
0.0
 10
1426.2359209885
 20
813.5802191962
 30
0.0
 10
1425.5258436546
 20
816.6928280891
 30
0.0
 10
1423.863069771
 20
820.1857367661
 30
0.0
 10
1422.8369314535
 20
821.5450111259
 30
0.0
 10
1422.2809790738
 20
822.0162027066
 30
0.0
  0
SPLINE
  5
705
100
AcDbEntity
  8
0
100
AcDbSpline
 62
7
  6
CONTINUOUS
 70
0
 71
3
 72
10
 73
6
 74
0
 42
0.0000001
 43
0.0000001
 44
0.0000000001
 40
0.0
 40
0.0
 40
0.0
 40
0.0
 40
0.5806712985
 40
0.8203702163
 40
1.0
 40
1.0
 40
1.0
 40
1.0
 10
1159.6128514534
 20
802.3141125751
 30
0.0
 10
1159.6184537344
 20
801.1975283929
 30
0.0
 10
1159.8232180992
 20
799.5992558293
 30
0.0
 10
1160.5251203112
 20
797.8070374453
 30
0.0
 10
1161.0095619664
 20
797.1310605797
 30
0.0
 10
1161.282851795
 20
796.9198113386
 30
0.0
  0
SPLINE
  5
706
100
AcDbEntity
  8
0
100
AcDbSpline
 62
7
  6
CONTINUOUS
 70
0
 71
3
 72
8
 73
4
 74
0
 42
0.0000001
 43
0.0000001
 44
0.0000000001
 40
0.0
 40
0.0
 40
0.0
 40
0.0
 40
1.0
 40
1.0
 40
1.0
 40
1.0
 10
1161.282851795
 20
796.9198113386
 30
0.0
 10
1161.3487300656
 20
796.8688883506
 30
0.0
 10
1161.4190175536
 20
796.8229029753
 30
0.0
 10
1161.4931924758
 20
796.7850720599
 30
0.0
  0
SPLINE
  5
707
100
AcDbEntity
  8
0
100
AcDbSpline
 62
7
  6
CONTINUOUS
 70
0
 71
3
 72
10
 73
6
 74
0
 42
0.0000001
 43
0.0000001
 44
0.0000000001
 40
0.0
 40
0.0
 40
0.0
 40
0.0
 40
0.604294986
 40
0.8378285818
 40
1.0
 40
1.0
 40
1.0
 40
1.0
 10
1356.359433865
 20
805.146026498
 30
0.0
 10
1356.3563470297
 20
805.7612598621
 30
0.0
 10
1356.2346539462
 20
806.6314955223
 30
0.0
 10
1355.8167694445
 20
807.5578084572
 30
0.0
 10
1355.5135959416
 20
807.865974543
 30
0.0
 10
1355.3573729505
 20
807.9194100108
 30
0.0
  0
SPLINE
  5
708
100
AcDbEntity
  8
0
100
AcDbSpline
 62
7
  6
CONTINUOUS
 70
0
 71
3
 72
10
 73
6
 74
0
 42
0.0000001
 43
0.0000001
 44
0.0000000001
 40
0.0
 40
0.0
 40
0.0
 40
0.0
 40
0.3611628433
 40
0.6540346081
 40
1.0
 40
1.0
 40
1.0
 40
1.0
 10
1161.0745852771
 20
874.3389707936
 30
0.0
 10
1160.7895400826
 20
874.3186219918
 30
0.0
 10
1160.4504131573
 20
873.7454311734
 30
0.0
 10
1160.298032409
 20
873.010166409
 30
0.0
 10
1160.2615466259
 20
872.4938200574
 30
0.0
 10
1160.2629200658
 20
872.220077906
 30
0.0
  0
SPLINE
  5
709
100
AcDbEntity
  8
0
100
AcDbSpline
 62
7
  6
CONTINUOUS
 70
0
 71
3
 72
9
 73
5
 74
0
 42
0.0000001
 43
0.0000001
 44
0.0000000001
 40
0.0
 40
0.0
 40
0.0
 40
0.0
 40
0.2368308571
 40
1.0
 40
1.0
 40
1.0
 40
1.0
 10
1163.9961203203
 20
873.3816533304
 30
0.0
 10
1163.9841267406
 20
873.3113609796
 30
0.0
 10
1163.941084016
 20
873.0132763498
 30
0.0
 10
1163.9260039833
 20
872.7114426258
 30
0.0
 10
1163.9271568645
 20
872.4816603259
 30
0.0
  0
SPLINE
  5
70A
100
AcDbEntity
  8
0
100
AcDbSpline
 62
7
  6
CONTINUOUS
 70
0
 71
3
 72
9
 73
5
 74
0
 42
0.0000001
 43
0.0000001
 44
0.0000000001
 40
0.0
 40
0.0
 40
0.0
 40
0.0
 40
0.2250269234
 40
1.0
 40
1.0
 40
1.0
 40
1.0
 10
1422.6708929748
 20
725.1348267881
 30
0.0
 10
1422.7870144961
 20
725.2651937518
 30
0.0
 10
1423.275226356
 20
725.8693454037
 30
0.0
 10
1423.6606732167
 20
726.5510776006
 30
0.0
 10
1423.91912936
 20
727.0939464486
 30
0.0
  0
SPLINE
  5
70B
100
AcDbEntity
  8
0
100
AcDbSpline
 62
7
  6
CONTINUOUS
 70
0
 71
3
 72
9
 73
5
 74
0
 42
0.0000001
 43
0.0000001
 44
0.0000000001
 40
0.0
 40
0.0
 40
0.0
 40
0.0
 40
0.4647737266
 40
1.0
 40
1.0
 40
1.0
 40
1.0
 10
1423.91912936
 20
727.0939464486
 30
0.0
 10
1424.4159690991
 20
728.1375231783
 30
0.0
 10
1425.1822186304
 20
730.5254906853
 30
0.0
 10
1425.5489287231
 20
732.9935929698
 30
0.0
 10
1425.6535432296
 20
734.3204910667
 30
0.0
  0
SPLINE
  5
70C
100
AcDbEntity
  8
0
100
AcDbSpline
 62
7
  6
CONTINUOUS
 70
0
 71
3
 72
13
 73
9
 74
0
 42
0.0000001
 43
0.0000001
 44
0.0000000001
 40
0.0
 40
0.0
 40
0.0
 40
0.0
 40
0.06634103
 40
0.1444003973
 40
0.241412078
 40
0.3594269196
 40
0.6526907492
 40
1.0
 40
1.0
 40
1.0
 40
1.0
 10
1368.2406402595
 20
724.150969853
 30
0.0
 10
1368.5006557195
 20
724.1452092633
 30
0.0
 10
1369.0746705746
 20
724.2924517338
 30
0.0
 10
1369.8177061698
 20
724.9076385366
 30
0.0
 10
1370.4839972417
 20
725.8535093755
 30
0.0
 10
1371.3282211916
 20
727.6664128675
 30
0.0
 10
1372.0519706944
 20
730.5735870988
 30
0.0
 10
1372.2974005385
 20
733.0791035046
 30
0.0
 10
1372.3474078927
 20
734.4397545402
 30
0.0
  0
SPLINE
  5
70D
100
AcDbEntity
  8
0
100
AcDbSpline
 62
7
  6
CONTINUOUS
 70
0
 71
3
 72
11
 73
7
 74
0
 42
0.0000001
 43
0.0000001
 44
0.0000000001
 40
0.0
 40
0.0
 40
0.0
 40
0.0
 40
0.0957431637
 40
0.2992894127
 40
0.6081573553
 40
1.0
 40
1.0
 40
1.0
 40
1.0
 10
1250.1781901378
 20
838.0821869875
 30
0.0
 10
1250.1778684044
 20
838.1463616722
 30
0.0
 10
1250.3911348797
 20
838.2779693715
 30
0.0
 10
1250.7561546686
 20
838.3691812917
 30
0.0
 10
1251.3693709954
 20
838.4772700009
 30
0.0
 10
1251.8329255499
 20
838.5184671115
 30
0.0
 10
1252.0949062521
 20
838.5371693816
 30
0.0
  0
SPLINE
  5
70E
100
AcDbEntity
  8
02___PRT_ALL_AXES
100
AcDbSpline
 62
7
  6
CONTINUOUS
 70
0
 71
3
 72
11
 73
7
 74
0
 42
0.0000001
 43
0.0000001
 44
0.0000000001
 40
0.0
 40
0.0
 40
0.0
 40
0.0
 40
0.2595681555
 40
0.5165723271
 40
0.7631021931
 40
1.0
 40
1.0
 40
1.0
 40
1.0
 10
1340.2978257465
 20
799.2423064115
 30
0.0
 10
1340.2952224702
 20
799.7611624202
 30
0.0
 10
1340.5266193075
 20
800.8077444974
 30
0.0
 10
1341.4825985032
 20
802.0583282167
 30
0.0
 10
1342.8600843629
 20
802.7424974454
 30
0.0
 10
1343.8787805329
 20
802.6831894005
 30
0.0
 10
1344.3268275656
 20
802.5298941407
 30
0.0
  0
SPLINE
  5
70F
100
AcDbEntity
  8
02___PRT_ALL_AXES
100
AcDbSpline
 62
7
  6
CONTINUOUS
 70
0
 71
3
 72
9
 73
5
 74
0
 42
0.0000001
 43
0.0000001
 44
0.0000000001
 40
0.0
 40
0.0
 40
0.0
 40
0.0
 40
0.4865596861
 40
1.0
 40
1.0
 40
1.0
 40
1.0
 10
1342.2232087252
 20
796.3797901146
 30
0.0
 10
1341.6673106987
 20
796.5699856212
 30
0.0
 10
1340.640104721
 20
797.3793843416
 30
0.0
 10
1340.3009364259
 20
798.6223204595
 30
0.0
 10
1340.2978257465
 20
799.2423064115
 30
0.0
  0
SPLINE
  5
710
100
AcDbEntity
  8
02___PRT_ALL_AXES
100
AcDbSpline
 62
7
  6
CONTINUOUS
 70
0
 71
3
 72
9
 73
5
 74
0
 42
0.0000001
 43
0.0000001
 44
0.0000000001
 40
0.0
 40
0.0
 40
0.0
 40
0.0
 40
0.4865571729
 40
1.0
 40
1.0
 40
1.0
 40
1.0
 10
1342.8247236016
 20
796.1740335961
 30
0.0
 10
1342.2687683026
 20
796.3640610027
 30
0.0
 10
1341.2416216984
 20
797.1736982381
 30
0.0
 10
1340.9024550661
 20
798.4165673305
 30
0.0
 10
1340.8993443564
 20
799.0365593069
 30
0.0
  0
SPLINE
  5
711
100
AcDbEntity
  8
02___PRT_ALL_AXES
100
AcDbSpline
 62
7
  6
CONTINUOUS
 70
0
 71
3
 72
9
 73
5
 74
0
 42
0.0000001
 43
0.0000001
 44
0.0000000001
 40
0.0
 40
0.0
 40
0.0
 40
0.0
 40
0.5134828184
 40
1.0
 40
1.0
 40
1.0
 40
1.0
 10
1345.4796403548
 20
799.3635373317
 30
0.0
 10
1345.4779652338
 20
799.6974037805
 30
0.0
 10
1345.2953561995
 20
800.366685174
 30
0.0
 10
1344.7422072948
 20
800.802509755
 30
0.0
 10
1344.4428838681
 20
800.9048563361
 30
0.0
  0
SPLINE
  5
712
100
AcDbEntity
  8
02___PRT_ALL_AXES
100
AcDbSpline
 62
7
  6
CONTINUOUS
 70
0
 71
3
 72
11
 73
7
 74
0
 42
0.0000001
 43
0.0000001
 44
0.0000000001
 40
0.0
 40
0.0
 40
0.0
 40
0.0
 40
0.2595756196
 40
0.5165692433
 40
0.7630997643
 40
1.0
 40
1.0
 40
1.0
 40
1.0
 10
1340.8993443564
 20
799.0365593069
 30
0.0
 10
1340.8967410011
 20
799.5554310749
 30
0.0
 10
1341.1281460413
 20
800.6020236168
 30
0.0
 10
1342.0841472449
 20
801.8525307042
 30
0.0
 10
1343.4616084027
 20
802.536877439
 30
0.0
 10
1344.480251243
 20
802.4773180937
 30
0.0
 10
1344.9283499091
 20
802.32415645
 30
0.0
  0
SPLINE
  5
713
100
AcDbEntity
  8
02___PRT_ALL_AXES
100
AcDbSpline
 62
7
  6
CONTINUOUS
 70
0
 71
3
 72
10
 73
6
 74
0
 42
0.0000001
 43
0.0000001
 44
0.0000000001
 40
0.0
 40
0.0
 40
0.0
 40
0.0
 40
0.2399033382
 40
0.4895600638
 40
1.0
 40
1.0
 40
1.0
 40
1.0
 10
1343.3101896427
 20
797.5933337099
 30
0.0
 10
1343.5514603098
 20
797.5108368998
 30
0.0
 10
1344.1002747194
 20
797.4807423698
 30
0.0
 10
1345.0874883763
 20
797.9597934286
 30
0.0
 10
1345.4823623705
 20
798.8210155056
 30
0.0
 10
1345.4796403548
 20
799.3635373317
 30
0.0
  0
SPLINE
  5
714
100
AcDbEntity
  8
0
100
AcDbSpline
 62
7
  6
CONTINUOUS
 70
0
 71
3
 72
9
 73
5
 74
0
 42
0.0000001
 43
0.0000001
 44
0.0000000001
 40
0.0
 40
0.0
 40
0.0
 40
0.0
 40
0.4914806865
 40
1.0
 40
1.0
 40
1.0
 40
1.0
 10
1161.2281507543
 20
876.7872840019
 30
0.0
 10
1161.1014320984
 20
876.8306276251
 30
0.0
 10
1160.8168884348
 20
876.8617197191
 30
0.0
 10
1160.5587469836
 20
876.7416036739
 30
0.0
 10
1160.4458997715
 20
876.6611861402
 30
0.0
  0
SPLINE
  5
715
100
AcDbEntity
  8
0
100
AcDbSpline
 62
7
  6
CONTINUOUS
 70
0
 71
3
 72
10
 73
6
 74
0
 42
0.0000001
 43
0.0000001
 44
0.0000000001
 40
0.0
 40
0.0
 40
0.0
 40
0.0
 40
0.6045611941
 40
0.8384684639
 40
1.0
 40
1.0
 40
1.0
 40
1.0
 10
1357.3619648817
 20
804.8031146448
 30
0.0
 10
1357.3557449449
 20
806.0428031231
 30
0.0
 10
1357.1091791961
 20
807.7967079343
 30
0.0
 10
1356.2680460411
 20
809.6623719491
 30
0.0
 10
1355.658382756
 20
810.283178186
 30
0.0
 10
1355.3449752698
 20
810.3903780009
 30
0.0
  0
SPLINE
  5
716
100
AcDbEntity
  8
0
100
AcDbSpline
 62
7
  6
CONTINUOUS
 70
0
 71
3
 72
13
 73
9
 74
0
 42
0.0000001
 43
0.0000001
 44
0.0000000001
 40
0.0
 40
0.0
 40
0.0
 40
0.0
 40
0.0752502234
 40
0.1526210085
 40
0.24475443
 40
0.3578440283
 40
0.6472647751
 40
1.0
 40
1.0
 40
1.0
 40
1.0
 10
1355.7466655809
 20
730.3299432177
 30
0.0
 10
1355.8700135035
 20
730.2877525407
 30
0.0
 10
1356.1456596148
 20
730.2557981355
 30
0.0
 10
1356.5479430853
 20
730.433069322
 30
0.0
 10
1356.8910220973
 20
730.7934134823
 30
0.0
 10
1357.3129232038
 20
731.5454497457
 30
0.0
 10
1357.6412150939
 20
732.8298676651
 30
0.0
 10
1357.7174932445
 20
733.943164796
 30
0.0
 10
1357.7144272841
 20
734.5542378457
 30
0.0
  0
SPLINE
  5
717
100
AcDbEntity
  8
0
100
AcDbSpline
 62
7
  6
CONTINUOUS
 70
0
 71
3
 72
9
 73
5
 74
0
 42
0.0000001
 43
0.0000001
 44
0.0000000001
 40
0.0
 40
0.0
 40
0.0
 40
0.0
 40
0.5607154798
 40
1.0
 40
1.0
 40
1.0
 40
1.0
 10
1160.6153824701
 20
801.9712007219
 30
0.0
 10
1160.6178421048
 20
801.4809739526
 30
0.0
 10
1160.7234498758
 20
800.6122806348
 30
0.0
 10
1161.0336819567
 20
799.7608206474
 30
0.0
 10
1161.2754780563
 20
799.4624227164
 30
0.0
  0
SPLINE
  5
718
100
AcDbEntity
  8
0
100
AcDbSpline
 62
7
  6
CONTINUOUS
 70
0
 71
3
 72
9
 73
5
 74
0
 42
0.0000001
 43
0.0000001
 44
0.0000000001
 40
0.0
 40
0.0
 40
0.0
 40
0.0
 40
0.2585925323
 40
1.0
 40
1.0
 40
1.0
 40
1.0
 10
1173.1013305531
 20
884.5543571197
 30
0.0
 10
1173.0111044672
 20
884.5806007207
 30
0.0
 10
1172.6574666516
 20
884.6646325478
 30
0.0
 10
1172.2841909971
 20
884.6697090458
 30
0.0
 10
1172.0186918146
 20
884.6239909132
 30
0.0
  0
SPLINE
  5
719
100
AcDbEntity
  8
0
100
AcDbSpline
 62
7
  6
CONTINUOUS
 70
0
 71
3
 72
11
 73
7
 74
0
 42
0.0000001
 43
0.0000001
 44
0.0000000001
 40
0.0
 40
0.0
 40
0.0
 40
0.0
 40
0.3173154191
 40
0.6113695293
 40
0.8453903519
 40
1.0
 40
1.0
 40
1.0
 40
1.0
 10
1371.9949454903
 20
804.6886313393
 30
0.0
 10
1371.9219697124
 20
806.2418374197
 30
0.0
 10
1371.5830784217
 20
809.224581227
 30
0.0
 10
1370.5608161015
 20
813.2711154591
 30
0.0
 10
1369.2380750328
 20
816.3164432212
 30
0.0
 10
1367.9199857652
 20
817.87209753
 30
0.0
 10
1367.2181550126
 20
818.157451089
 30
0.0
  0
SPLINE
  5
71A
100
AcDbEntity
  8
0
100
AcDbSpline
 62
7
  6
CONTINUOUS
 70
0
 71
3
 72
9
 73
5
 74
0
 42
0.0000001
 43
0.0000001
 44
0.0000000001
 40
0.0
 40
0.0
 40
0.0
 40
0.0
 40
0.5364000438
 40
1.0
 40
1.0
 40
1.0
 40
1.0
 10
1425.2698641026
 20
810.7911382349
 30
0.0
 10
1425.0854252947
 20
812.8479332438
 30
0.0
 10
1424.3521321758
 20
816.6462682592
 30
0.0
 10
1422.9047534794
 20
820.2734043123
 30
0.0
 10
1421.9441540808
 20
821.7776280866
 30
0.0
  0
SPLINE
  5
71B
100
AcDbEntity
  8
0
100
AcDbSpline
 62
7
  6
CONTINUOUS
 70
0
 71
3
 72
9
 73
5
 74
0
 42
0.0000001
 43
0.0000001
 44
0.0000000001
 40
0.0
 40
0.0
 40
0.0
 40
0.0
 40
0.279840361
 40
1.0
 40
1.0
 40
1.0
 40
1.0
 10
1421.9441540808
 20
821.7776280866
 30
0.0
 10
1421.8272120578
 20
821.9607501783
 30
0.0
 10
1421.3921194585
 20
822.6029190802
 30
0.0
 10
1420.8824963926
 20
823.2022614382
 30
0.0
 10
1420.4562264216
 20
823.5641276259
 30
0.0
  0
SPLINE
  5
71C
100
AcDbEntity
  8
02___PRT_ALL_AXES
100
AcDbSpline
 62
7
  6
CONTINUOUS
 70
0
 71
3
 72
10
 73
6
 74
0
 42
0.0000001
 43
0.0000001
 44
0.0000000001
 40
0.0
 40
0.0
 40
0.0
 40
0.0
 40
0.3450450352
 40
0.6383279897
 40
1.0
 40
1.0
 40
1.0
 40
1.0
 10
1234.1333936381
 20
794.7531220693
 30
0.0
 10
1234.0528001394
 20
795.3177088649
 30
0.0
 10
1233.8198251142
 20
796.3725206951
 30
0.0
 10
1233.2792608396
 20
797.8457121429
 30
0.0
 10
1232.4041297224
 20
798.9265690684
 30
0.0
 10
1231.8078456231
 20
798.8841352481
 30
0.0
  0
SPLINE
  5
71D
100
AcDbEntity
  8
02___PRT_ALL_AXES
100
AcDbSpline
 62
7
  6
CONTINUOUS
 70
0
 71
3
 72
9
 73
5
 74
0
 42
0.0000001
 43
0.0000001
 44
0.0000000001
 40
0.0
 40
0.0
 40
0.0
 40
0.0
 40
0.7638516579
 40
1.0
 40
1.0
 40
1.0
 40
1.0
 10
1227.6073010948
 20
834.4962027322
 30
0.0
 10
1227.6064169449
 20
834.6724216193
 30
0.0
 10
1227.6191230946
 20
834.9038063088
 30
0.0
 10
1227.6554724327
 20
835.1317088399
 30
0.0
 10
1227.6656200892
 20
835.1852350047
 30
0.0
  0
SPLINE
  5
71E
100
AcDbEntity
  8
02___PRT_ALL_AXES
100
AcDbSpline
 62
7
  6
CONTINUOUS
 70
0
 71
3
 72
10
 73
6
 74
0
 42
0.0000001
 43
0.0000001
 44
0.0000000001
 40
0.0
 40
0.0
 40
0.0
 40
0.0
 40
0.3415027003
 40
0.6236463785
 40
1.0
 40
1.0
 40
1.0
 40
1.0
 10
1230.1138488195
 20
796.1303988365
 30
0.0
 10
1230.0046061989
 20
796.4926544665
 30
0.0
 10
1229.757101372
 20
797.1488972015
 30
0.0
 10
1229.2378985604
 20
798.0949100051
 30
0.0
 10
1228.5595235271
 20
798.6523759875
 30
0.0
 10
1228.1436092247
 20
798.6225527013
 30
0.0
  0
SPLINE
  5
71F
100
AcDbEntity
  8
02___PRT_ALL_AXES
100
AcDbSpline
 62
7
  6
CONTINUOUS
 70
0
 71
3
 72
9
 73
5
 74
0
 42
0.0000001
 43
0.0000001
 44
0.0000000001
 40
0.0
 40
0.0
 40
0.0
 40
0.0
 40
0.2577447975
 40
1.0
 40
1.0
 40
1.0
 40
1.0
 10
1290.5461983181
 20
812.9681973565
 30
0.0
 10
1290.544654677
 20
813.2758587033
 30
0.0
 10
1290.4946474559
 20
814.468275368
 30
0.0
 10
1290.2897107562
 20
815.6590238271
 30
0.0
 10
1290.0214718322
 20
816.503460258
 30
0.0
  0
SPLINE
  5
720
100
AcDbEntity
  8
02___PRT_ALL_AXES
100
AcDbSpline
 62
7
  6
CONTINUOUS
 70
0
 71
3
 72
10
 73
6
 74
0
 42
0.0000001
 43
0.0000001
 44
0.0000000001
 40
0.0
 40
0.0
 40
0.0
 40
0.0
 40
0.3415027003
 40
0.6236463785
 40
1.0
 40
1.0
 40
1.0
 40
1.0
 10
1290.2657098167
 20
775.5556883786
 30
0.0
 10
1290.156467196
 20
775.9179440087
 30
0.0
 10
1289.9089623692
 20
776.5741867437
 30
0.0
 10
1289.3897595576
 20
777.5201995472
 30
0.0
 10
1288.7113845243
 20
778.0776655296
 30
0.0
 10
1288.2954702219
 20
778.0478422434
 30
0.0
  0
SPLINE
  5
721
100
AcDbEntity
  8
02___PRT_ALL_AXES
100
AcDbSpline
 62
7
  6
CONTINUOUS
 70
0
 71
3
 72
9
 73
5
 74
0
 42
0.0000001
 43
0.0000001
 44
0.0000000001
 40
0.0
 40
0.0
 40
0.0
 40
0.0
 40
0.2370710018
 40
1.0
 40
1.0
 40
1.0
 40
1.0
 10
1290.3889743376
 20
811.0081044137
 30
0.0
 10
1290.4163309235
 20
811.1611923783
 30
0.0
 10
1290.5142360081
 20
811.8100237287
 30
0.0
 10
1290.548709282
 20
812.4677400308
 30
0.0
 10
1290.5461983181
 20
812.9681973565
 30
0.0
  0
SPLINE
  5
722
100
AcDbEntity
  8
02___PRT_ALL_AXES
100
AcDbSpline
 62
7
  6
CONTINUOUS
 70
0
 71
3
 72
9
 73
5
 74
0
 42
0.0000001
 43
0.0000001
 44
0.0000000001
 40
0.0
 40
0.0
 40
0.0
 40
0.0
 40
0.4537702052
 40
1.0
 40
1.0
 40
1.0
 40
1.0
 10
1293.6535804224
 20
809.8833974935
 30
0.0
 10
1293.860881158
 20
810.3555252714
 30
0.0
 10
1294.1382974559
 20
811.4717867795
 30
0.0
 10
1294.2135493329
 20
812.6090889379
 30
0.0
 10
1294.2104351168
 20
813.2297797764
 30
0.0
  0
SPLINE
  5
723
100
AcDbEntity
  8
0
100
AcDbSpline
 62
7
  6
CONTINUOUS
 70
0
 71
3
 72
11
 73
7
 74
0
 42
0.0000001
 43
0.0000001
 44
0.0000000001
 40
0.0
 40
0.0
 40
0.0
 40
0.0
 40
0.2487292016
 40
0.4988113385
 40
0.7496668827
 40
1.0
 40
1.0
 40
1.0
 40
1.0
 10
731.8478799245
 20
315.6893885005
 30
0.0
 10
731.8359925004
 20
314.1370730286
 30
0.0
 10
731.1861628694
 20
310.9951162709
 30
0.0
 10
728.4852497802
 20
307.0322205424
 30
0.0
 10
724.4781084481
 20
304.3810549958
 30
0.0
 10
721.3172908869
 20
303.7589716889
 30
0.0
 10
719.7549198281
 20
303.7581106984
 30
0.0
  0
SPLINE
  5
724
100
AcDbEntity
  8
0
100
AcDbSpline
 62
7
  6
CONTINUOUS
 70
0
 71
3
 72
11
 73
7
 74
0
 42
0.0000001
 43
0.0000001
 44
0.0000000001
 40
0.0
 40
0.0
 40
0.0
 40
0.0
 40
0.2504752631
 40
0.5013296766
 40
0.7514148741
 40
1.0
 40
1.0
 40
1.0
 40
1.0
 10
226.1510365817
 20
303.7581106242
 30
0.0
 10
224.5877783221
 20
303.7589721056
 30
0.0
 10
221.4260234846
 20
304.3816028978
 30
0.0
 10
217.4187245428
 20
307.0341695272
 30
0.0
 10
214.7192177766
 20
310.9969494596
 30
0.0
 10
214.0699570253
 20
314.1379721141
 30
0.0
 10
214.058076487
 20
315.6893884558
 30
0.0
  0
SPLINE
  5
725
100
AcDbEntity
  8
0
100
AcDbSpline
 62
7
  6
CONTINUOUS
 70
0
 71
3
 72
11
 73
7
 74
0
 42
0.0000001
 43
0.0000001
 44
0.0000000001
 40
0.0
 40
0.0
 40
0.0
 40
0.0
 40
0.2487292016
 40
0.4988113385
 40
0.7496668827
 40
1.0
 40
1.0
 40
1.0
 40
1.0
 10
214.0580764866
 20
393.0585080164
 30
0.0
 10
214.0699639107
 20
394.6108234883
 30
0.0
 10
214.7197935417
 20
397.752780246
 30
0.0
 10
217.4207066309
 20
401.7156759745
 30
0.0
 10
221.427847963
 20
404.3668415212
 30
0.0
 10
224.5886655242
 20
404.9889248281
 30
0.0
 10
226.151036583
 20
404.9897858187
 30
0.0
  0
SPLINE
  5
726
100
AcDbEntity
  8
0
100
AcDbSpline
 62
7
  6
CONTINUOUS
 70
0
 71
3
 72
11
 73
7
 74
0
 42
0.0000001
 43
0.0000001
 44
0.0000000001
 40
0.0
 40
0.0
 40
0.0
 40
0.0
 40
0.2504752631
 40
0.5013296766
 40
0.7514148741
 40
1.0
 40
1.0
 40
1.0
 40
1.0
 10
719.7549198294
 20
404.9897858931
 30
0.0
 10
721.318178089
 20
404.9889244117
 30
0.0
 10
724.4799329266
 20
404.3662936194
 30
0.0
 10
728.4872318683
 20
401.7137269899
 30
0.0
 10
731.1867386345
 20
397.7509470575
 30
0.0
 10
731.8359993858
 20
394.609924403
 30
0.0
 10
731.8478799241
 20
393.0585080613
 30
0.0
  0
SPLINE
  5
727
100
AcDbEntity
  8
0
100
AcDbSpline
 62
7
  6
CONTINUOUS
 70
0
 71
3
 72
16
 73
12
 74
0
 42
0.0000001
 43
0.0000001
 44
0.0000000001
 40
0.0
 40
0.0
 40
0.0
 40
0.0
 40
0.1110038151
 40
0.2222412831
 40
0.3336216133
 40
0.4450728074
 40
0.5564761469
 40
0.6677421179
 40
0.7787752979
 40
0.8895283191
 40
1.0
 40
1.0
 40
1.0
 40
1.0
 10
719.7549198291
 20
398.2355627143
 30
0.0
 10
720.046417494
 20
398.2355627143
 30
0.0
 10
720.6379999334
 20
398.1843013863
 30
0.0
 10
721.4951055243
 20
397.955969967
 30
0.0
 10
722.3053330829
 20
397.5813775078
 30
0.0
 10
723.0380195742
 20
397.0730010923
 30
0.0
 10
723.6714884559
 20
396.4464787598
 30
0.0
 10
724.1849382077
 20
395.7233412154
 30
0.0
 10
724.5640089311
 20
394.9251004801
 30
0.0
 10
724.7974909877
 20
394.0812936995
 30
0.0
 10
724.8532259507
 20
393.4980265459
 30
0.0
 10
724.8556712028
 20
393.2103973491
 30
0.0
  0
SPLINE
  5
728
100
AcDbEntity
  8
0
100
AcDbSpline
 62
7
  6
CONTINUOUS
 70
0
 71
3
 72
16
 73
12
 74
0
 42
0.0000001
 43
0.0000001
 44
0.0000000001
 40
0.0
 40
0.0
 40
0.0
 40
0.0
 40
0.110558449
 40
0.2213655113
 40
0.3324046906
 40
0.4436670602
 40
0.5550696998
 40
0.6665233746
 40
0.7778970984
 40
0.8890807733
 40
1.0
 40
1.0
 40
1.0
 40
1.0
 10
724.8556712032
 20
315.5374992128
 30
0.0
 10
724.8532240523
 20
315.2496466659
 30
0.0
 10
724.7974130393
 20
314.6660010184
 30
0.0
 10
724.5636744811
 20
313.8218592795
 30
0.0
 10
724.1843574816
 20
313.0235645769
 30
0.0
 10
723.6707392251
 20
312.3005375459
 30
0.0
 10
723.0371325598
 20
311.6741582914
 30
0.0
 10
722.3043417168
 20
311.1659528359
 30
0.0
 10
721.49417371
 20
310.791604876
 30
0.0
 10
720.6374042393
 20
310.5635236329
 30
0.0
 10
720.0461975905
 20
310.5123338397
 30
0.0
 10
719.7549198459
 20
310.5123338397
 30
0.0
  0
SPLINE
  5
729
100
AcDbEntity
  8
0
100
AcDbSpline
 62
7
  6
CONTINUOUS
 70
0
 71
3
 72
16
 73
12
 74
0
 42
0.0000001
 43
0.0000001
 44
0.0000000001
 40
0.0
 40
0.0
 40
0.0
 40
0.0
 40
0.1110038151
 40
0.2222412831
 40
0.3336216133
 40
0.4450728074
 40
0.5564761469
 40
0.6677421179
 40
0.7787752979
 40
0.8895283191
 40
1.0
 40
1.0
 40
1.0
 40
1.0
 10
226.151036582
 20
310.5123338029
 30
0.0
 10
225.8595389172
 20
310.5123338029
 30
0.0
 10
225.2679564777
 20
310.5635951309
 30
0.0
 10
224.4108508867
 20
310.7919265502
 30
0.0
 10
223.6006233282
 20
311.1665190094
 30
0.0
 10
222.8679368369
 20
311.6748954249
 30
0.0
 10
222.2344679552
 20
312.3014177573
 30
0.0
 10
221.7210182034
 20
313.0245553017
 30
0.0
 10
221.34194748
 20
313.822796037
 30
0.0
 10
221.1084654234
 20
314.6666028176
 30
0.0
 10
221.0527304604
 20
315.2498699712
 30
0.0
 10
221.0502852083
 20
315.5374991679
 30
0.0
  0
SPLINE
  5
72A
100
AcDbEntity
  8
0
100
AcDbSpline
 62
7
  6
CONTINUOUS
 70
0
 71
3
 72
16
 73
12
 74
0
 42
0.0000001
 43
0.0000001
 44
0.0000000001
 40
0.0
 40
0.0
 40
0.0
 40
0.0
 40
0.110558449
 40
0.2213655113
 40
0.3324046906
 40
0.4436670602
 40
0.5550696998
 40
0.6665233746
 40
0.7778970984
 40
0.8890807733
 40
1.0
 40
1.0
 40
1.0
 40
1.0
 10
221.0502852079
 20
393.2103973041
 30
0.0
 10
221.0527323588
 20
393.498249851
 30
0.0
 10
221.1085433718
 20
394.0818954985
 30
0.0
 10
221.34228193
 20
394.9260372374
 30
0.0
 10
221.7215989295
 20
395.7243319401
 30
0.0
 10
222.235217186
 20
396.447358971
 30
0.0
 10
222.8688238513
 20
397.0737382256
 30
0.0
 10
223.6016146944
 20
397.5819436811
 30
0.0
 10
224.411782701
 20
397.9562916409
 30
0.0
 10
225.2685521721
 20
398.1843728842
 30
0.0
 10
225.859758821
 20
398.2355626774
 30
0.0
 10
226.1510365653
 20
398.2355626774
 30
0.0
  0
SPLINE
  5
72B
100
AcDbEntity
  8
0
100
AcDbSpline
 62
7
  6
CONTINUOUS
 70
0
 71
3
 72
11
 73
7
 74
0
 42
0.0000001
 43
0.0000001
 44
0.0000000001
 40
0.0
 40
0.0
 40
0.0
 40
0.0
 40
0.2498742326
 40
0.4997996495
 40
0.7498430601
 40
1.0
 40
1.0
 40
1.0
 40
1.0
 10
435.8529782056
 20
354.3739482586
 30
0.0
 10
435.8529851266
 20
351.8159477742
 30
0.0
 10
436.9363913387
 20
346.6391174595
 30
0.0
 10
441.4855900723
 20
340.2091221055
 30
0.0
 10
448.125843605
 20
335.9959769571
 30
0.0
 10
453.2984288143
 20
335.0253238027
 30
0.0
 10
455.8593233491
 20
335.025907047
 30
0.0
  0
SPLINE
  5
72C
100
AcDbEntity
  8
0
100
AcDbSpline
 62
7
  6
CONTINUOUS
 70
0
 71
3
 72
15
 73
11
 74
0
 42
0.0000001
 43
0.0000001
 44
0.0000000001
 40
0.0
 40
0.0
 40
0.0
 40
0.0
 40
0.1250786794
 40
0.2500978669
 40
0.3750553623
 40
0.4999883168
 40
0.6249228808
 40
0.74988719
 40
0.8749162287
 40
1.0
 40
1.0
 40
1.0
 40
1.0
 10
455.8593233491
 20
335.025907047
 30
0.0
 10
458.4663713106
 20
335.0268841047
 30
0.0
 10
463.7334262263
 20
336.0377351162
 30
0.0
 10
470.4514435213
 20
340.4025448466
 30
0.0
 10
474.9634027155
 20
347.0518447006
 30
0.0
 10
476.4055853982
 20
354.9684105718
 30
0.0
 10
474.4781520597
 20
362.7797736112
 30
0.0
 10
469.57936249
 20
369.1464124125
 30
0.0
 10
462.6243303119
 20
373.1194008765
 30
0.0
 10
457.309171794
 20
373.8345814754
 30
0.0
 10
454.7060308203
 20
373.6899768509
 30
0.0
  0
SPLINE
  5
72D
100
AcDbEntity
  8
0
100
AcDbSpline
 62
7
  6
CONTINUOUS
 70
0
 71
3
 72
13
 73
9
 74
0
 42
0.0000001
 43
0.0000001
 44
0.0000000001
 40
0.0
 40
0.0
 40
0.0
 40
0.0
 40
0.1252806811
 40
0.250526153
 40
0.3757382695
 40
0.5009365254
 40
0.7503264189
 40
1.0
 40
1.0
 40
1.0
 40
1.0
 10
488.9529782056
 20
354.3739482586
 30
0.0
 10
488.9529805534
 20
351.8501424536
 30
0.0
 10
489.512038768
 20
346.7859272538
 30
0.0
 10
491.9673142772
 20
339.567307914
 30
0.0
 10
495.8809358703
 20
333.0244877074
 30
0.0
 10
502.7185925378
 20
325.5546851678
 30
0.0
 10
513.7722582188
 20
318.9288281824
 30
0.0
 10
523.912957844
 20
317.1300435477
 30
0.0
 10
528.9426847012
 20
317.1285706582
 30
0.0
  0
SPLINE
  5
72E
100
AcDbEntity
  8
0
100
AcDbSpline
 62
7
  6
CONTINUOUS
 70
0
 71
3
 72
15
 73
11
 74
0
 42
0.0000001
 43
0.0000001
 44
0.0000000001
 40
0.0
 40
0.0
 40
0.0
 40
0.0
 40
0.1251820548
 40
0.250221869
 40
0.3751295617
 40
0.5000001131
 40
0.6248706596
 40
0.7497782981
 40
0.874817644
 40
1.0
 40
1.0
 40
1.0
 40
1.0
 10
528.9426847012
 20
317.1285706582
 30
0.0
 10
533.9736608135
 20
317.1276141823
 30
0.0
 10
544.1226895203
 20
318.9299011804
 30
0.0
 10
557.354929984
 20
326.8348519463
 30
0.0
 10
566.6734940205
 20
339.2018165314
 30
0.0
 10
570.0913667294
 20
354.3683662576
 30
0.0
 10
566.6782286069
 20
369.5360187414
 30
0.0
 10
557.3632019658
 20
381.9056829503
 30
0.0
 10
544.1330550713
 20
389.8142028408
 30
0.0
 10
533.9844647161
 20
391.618980226
 30
0.0
 10
528.9534764201
 20
391.6192949897
 30
0.0
  0
SPLINE
  5
72F
100
AcDbEntity
  8
0
100
AcDbSpline
 62
7
  6
CONTINUOUS
 70
0
 71
3
 72
11
 73
7
 74
0
 42
0.0000001
 43
0.0000001
 44
0.0000000001
 40
0.0
 40
0.0
 40
0.0
 40
0.0
 40
0.249095136
 40
0.4993458179
 40
0.7500619022
 40
1.0
 40
1.0
 40
1.0
 40
1.0
 10
216.0504658828
 20
393.2529027891
 30
0.0
 10
216.0615133694
 20
394.5523924215
 30
0.0
 10
216.6056678315
 20
397.18101571
 30
0.0
 10
218.8615666518
 20
400.4970328623
 30
0.0
 10
222.207415025
 20
402.7155643772
 30
0.0
 10
224.8471022336
 20
403.2355626794
 30
0.0
 10
226.151036581
 20
403.2355626774
 30
0.0
  0
SPLINE
  5
730
100
AcDbEntity
  8
0
100
AcDbSpline
 62
7
  6
CONTINUOUS
 70
0
 71
3
 72
11
 73
7
 74
0
 42
0.0000001
 43
0.0000001
 44
0.0000000001
 40
0.0
 40
0.0
 40
0.0
 40
0.0
 40
0.2500800733
 40
0.5007952093
 40
0.7510491184
 40
1.0
 40
1.0
 40
1.0
 40
1.0
 10
226.1510365816
 20
305.5123338029
 30
0.0
 10
224.8463615264
 20
305.5123338029
 30
0.0
 10
222.2058906535
 20
306.0327910058
 30
0.0
 10
218.8599115772
 20
308.2524946674
 30
0.0
 10
216.6051868386
 20
311.5684138082
 30
0.0
 10
216.0615069722
 20
314.196256585
 30
0.0
 10
216.0504658832
 20
315.4949936829
 30
0.0
  0
SPLINE
  5
731
100
AcDbEntity
  8
0
100
AcDbSpline
 62
7
  6
CONTINUOUS
 70
0
 71
3
 72
11
 73
7
 74
0
 42
0.0000001
 43
0.0000001
 44
0.0000000001
 40
0.0
 40
0.0
 40
0.0
 40
0.0
 40
0.249095136
 40
0.4993458179
 40
0.7500619022
 40
1.0
 40
1.0
 40
1.0
 40
1.0
 10
729.8554905283
 20
315.4949937278
 30
0.0
 10
729.8444430417
 20
314.1955040954
 30
0.0
 10
729.3002885796
 20
311.5668808069
 30
0.0
 10
727.0443897593
 20
308.2508636546
 30
0.0
 10
723.6985413861
 20
306.0323321398
 30
0.0
 10
721.0588541775
 20
305.5123338377
 30
0.0
 10
719.7549198302
 20
305.5123338397
 30
0.0
  0
SPLINE
  5
732
100
AcDbEntity
  8
0
100
AcDbSpline
 62
7
  6
CONTINUOUS
 70
0
 71
3
 72
11
 73
7
 74
0
 42
0.0000001
 43
0.0000001
 44
0.0000000001
 40
0.0
 40
0.0
 40
0.0
 40
0.0
 40
0.2500800733
 40
0.5007952093
 40
0.7510491184
 40
1.0
 40
1.0
 40
1.0
 40
1.0
 10
719.7549198295
 20
403.2355627143
 30
0.0
 10
721.0595948847
 20
403.2355627143
 30
0.0
 10
723.7000657577
 20
402.7151055114
 30
0.0
 10
727.0460448339
 20
400.4954018497
 30
0.0
 10
729.3007695725
 20
397.1794827088
 30
0.0
 10
729.8444494389
 20
394.551639932
 30
0.0
 10
729.8554905279
 20
393.2529028341
 30
0.0
  0
SPLINE
  5
733
100
AcDbEntity
  8
0
100
AcDbSpline
 62
7
  6
CONTINUOUS
 70
0
 71
3
 72
11
 73
7
 74
0
 42
0.0000001
 43
0.0000001
 44
0.0000000001
 40
0.0
 40
0.0
 40
0.0
 40
0.0
 40
0.2501470838
 40
0.5001818369
 40
0.7501152756
 40
1.0
 40
1.0
 40
1.0
 40
1.0
 10
454.7060308203
 20
373.6899768509
 30
0.0
 10
452.2433484401
 20
373.5531747089
 30
0.0
 10
447.3223990564
 20
372.3779913994
 30
0.0
 10
441.0866007315
 20
368.1001350753
 30
0.0
 10
436.8521596277
 20
361.8208839659
 30
0.0
 10
435.8529781061
 20
356.8378405013
 30
0.0
 10
435.8529782056
 20
354.3739482586
 30
0.0
  0
SPLINE
  5
734
100
AcDbEntity
  8
0
100
AcDbSpline
 62
7
  6
CONTINUOUS
 70
0
 71
3
 72
13
 73
9
 74
0
 42
0.0000001
 43
0.0000001
 44
0.0000000001
 40
0.0
 40
0.0
 40
0.0
 40
0.0
 40
0.2496743584
 40
0.4990635604
 40
0.6242618356
 40
0.7494741082
 40
0.8747221147
 40
1.0
 40
1.0
 40
1.0
 40
1.0
 10
528.9534764201
 20
391.6192949897
 30
0.0
 10
523.9225166006
 20
391.6196097516
 30
0.0
 10
513.7786379968
 20
389.8235697507
 30
0.0
 10
502.7208007601
 20
383.1986012673
 30
0.0
 10
495.8798278268
 20
375.7282477136
 30
0.0
 10
491.965338112
 20
369.1841426733
 30
0.0
 10
489.5050204426
 20
361.964603055
 30
0.0
 10
488.9529781916
 20
356.8983084399
 30
0.0
 10
488.9529782056
 20
354.3739482586
 30
0.0
  0
SPLINE
  5
735
100
AcDbEntity
  8
0
100
AcDbSpline
 62
7
  6
CONTINUOUS
 70
0
 71
3
 72
13
 73
9
 74
0
 42
0.0000001
 43
0.0000001
 44
0.0000000001
 40
0.0
 40
0.0
 40
0.0
 40
0.0
 40
0.375086625
 40
0.6944322118
 40
0.8182125484
 40
0.9117964668
 40
0.972173079
 40
1.0
 40
1.0
 40
1.0
 40
1.0
 10
719.7549198291
 20
573.7510482602
 30
0.0
 10
720.401508114
 20
573.7510482603
 30
0.0
 10
721.5972586349
 20
573.7266061435
 30
0.0
 10
723.0101325568
 20
573.6341607841
 30
0.0
 10
723.9222532882
 20
573.5254322991
 30
0.0
 10
724.4063072006
 20
573.4372084684
 30
0.0
 10
724.684803965
 20
573.3625823269
 30
0.0
 10
724.8515066063
 20
573.2765634724
 30
0.0
 10
724.8556712028
 20
573.2287755139
 30
0.0
  0
SPLINE
  5
736
100
AcDbEntity
  8
0
100
AcDbSpline
 62
7
  6
CONTINUOUS
 70
0
 71
3
 72
13
 73
9
 74
0
 42
0.0000001
 43
0.0000001
 44
0.0000000001
 40
0.0
 40
0.0
 40
0.0
 40
0.0
 40
0.0278268572
 40
0.0882035471
 40
0.1817873854
 40
0.3055676812
 40
0.62491365
 40
1.0
 40
1.0
 40
1.0
 40
1.0
 10
221.0502852079
 20
573.2287755095
 30
0.0
 10
221.0544497949
 20
573.2765633585
 30
0.0
 10
221.2211522284
 20
573.362582459
 30
0.0
 10
221.4996490841
 20
573.4372082047
 30
0.0
 10
221.9837027802
 20
573.5254323643
 30
0.0
 10
222.8958240339
 20
573.634160715
 30
0.0
 10
224.3086980275
 20
573.7266062299
 30
0.0
 10
225.5044487529
 20
573.7510482562
 30
0.0
 10
226.1510365653
 20
573.7510482562
 30
0.0
  0
SPLINE
  5
737
100
AcDbEntity
  8
0
100
AcDbSpline
 62
7
  6
CONTINUOUS
 70
0
 71
3
 72
14
 73
10
 74
0
 42
0.0000001
 43
0.0000001
 44
0.0000000001
 40
0.0
 40
0.0
 40
0.0
 40
0.0
 40
0.0262651679
 40
0.0856495542
 40
0.1787990317
 40
0.3027863793
 40
0.453057585
 40
0.6238546927
 40
1.0
 40
1.0
 40
1.0
 40
1.0
 10
214.0580764866
 20
575.3977660302
 30
0.0
 10
214.067404795
 20
575.5043890828
 30
0.0
 10
214.4699417392
 20
575.6799284163
 30
0.0
 10
215.1112077977
 20
575.8372859834
 30
0.0
 10
216.2607477293
 20
576.0173610914
 30
0.0
 10
217.7360816237
 20
576.1665126879
 30
0.0
 10
219.5509516461
 20
576.2906266651
 30
0.0
 10
222.3878064507
 20
576.4056607256
 30
0.0
 10
224.6184059371
 20
576.4181937792
 30
0.0
 10
226.151036583
 20
576.3961669423
 30
0.0
  0
SPLINE
  5
738
100
AcDbEntity
  8
0
100
AcDbSpline
 62
7
  6
CONTINUOUS
 70
0
 71
3
 72
14
 73
10
 74
0
 42
0.0000001
 43
0.0000001
 44
0.0000000001
 40
0.0
 40
0.0
 40
0.0
 40
0.0
 40
0.3763502425
 40
0.5471274145
 40
0.6973698949
 40
0.8213271449
 40
0.9144385876
 40
0.9737662519
 40
1.0
 40
1.0
 40
1.0
 40
1.0
 10
719.7549198294
 20
576.3961669254
 30
0.0
 10
721.2883873426
 20
576.4182057893
 30
0.0
 10
723.5197446236
 20
576.4056471598
 30
0.0
 10
726.3572374806
 20
576.2905072876
 30
0.0
 10
728.1717797261
 20
576.1663489299
 30
0.0
 10
729.6467333098
 20
576.0171810773
 30
0.0
 10
730.7957079786
 20
575.8370733506
 30
0.0
 10
731.4365873827
 20
575.679781645
 30
0.0
 10
731.8385627635
 20
575.5042616672
 30
0.0
 10
731.8478799241
 20
575.3977660346
 30
0.0
  0
SPLINE
  5
739
100
AcDbEntity
  8
0
100
AcDbSpline
 62
7
  6
CONTINUOUS
 70
0
 71
3
 72
17
 73
13
 74
0
 42
0.0000001
 43
0.0000001
 44
0.0000000001
 40
0.0
 40
0.0
 40
0.0
 40
0.0
 40
0.1923824481
 40
0.3773717685
 40
0.548123843
 40
0.6983465577
 40
0.822502054
 40
0.9160385355
 40
0.9502266769
 40
0.9756254712
 40
0.9921071707
 40
1.0
 40
1.0
 40
1.0
 40
1.0
 10
714.9864182048
 20
631.3399400828
 30
0.0
 10
715.7537431653
 20
631.3787282927
 30
0.0
 10
717.2592187917
 20
631.44858992
 30
0.0
 10
719.4467260077
 20
631.5313437069
 30
0.0
 10
721.4664683208
 20
631.5883141071
 30
0.0
 10
723.2443389144
 20
631.6180584342
 30
0.0
 10
724.7126801753
 20
631.6190141549
 30
0.0
 10
725.7208240919
 20
631.5976071414
 30
0.0
 10
726.3282056398
 20
631.5600949056
 30
0.0
 10
726.6360975562
 20
631.5306294139
 30
0.0
 10
726.821181872
 20
631.4939059104
 30
0.0
 10
726.9279432089
 20
631.4632356766
 30
0.0
 10
726.9429814926
 20
631.4355332039
 30
0.0
  0
SPLINE
  5
73A
100
AcDbEntity
  8
0
100
AcDbSpline
 62
7
  6
CONTINUOUS
 70
0
 71
3
 72
17
 73
13
 74
0
 42
0.0000001
 43
0.0000001
 44
0.0000000001
 40
0.0
 40
0.0
 40
0.0
 40
0.0
 40
0.0078983105
 40
0.0243951718
 40
0.04981581
 40
0.0840229769
 40
0.1775869026
 40
0.3017683756
 40
0.4520198892
 40
0.6227896581
 40
0.8077169071
 40
1.0
 40
1.0
 40
1.0
 40
1.0
 10
218.9629752521
 20
631.4355343356
 30
0.0
 10
218.9780239797
 20
631.4632560397
 30
0.0
 10
219.0848878688
 20
631.4939315566
 30
0.0
 10
219.2701270963
 20
631.5306682829
 30
0.0
 10
219.5782509685
 20
631.5601334077
 30
0.0
 10
220.1859033519
 20
631.5976382023
 30
0.0
 10
221.1943383044
 20
631.6190224769
 30
0.0
 10
222.663007057
 20
631.6180465098
 30
0.0
 10
224.441166561
 20
631.5882761029
 30
0.0
 10
226.4608457486
 20
631.5312884402
 30
0.0
 10
228.6477784649
 20
631.4485435207
 30
0.0
 10
230.1526096641
 20
631.3787083263
 30
0.0
 10
230.9195382123
 20
631.3399401537
 30
0.0
  0
SPLINE
  5
73B
100
AcDbEntity
  8
0
100
AcDbSpline
 62
7
  6
CONTINUOUS
 70
0
 71
3
 72
14
 73
10
 74
0
 42
0.0000001
 43
0.0000001
 44
0.0000000001
 40
0.0
 40
0.0
 40
0.0
 40
0.0
 40
0.027799042
 40
0.0879223265
 40
0.1813840946
 40
0.3053526913
 40
0.4553173476
 40
0.6255555347
 40
1.0
 40
1.0
 40
1.0
 40
1.0
 10
216.0504658828
 20
573.2329242956
 30
0.0
 10
216.0587043096
 20
573.3275631387
 30
0.0
 10
216.3839471363
 20
573.5014403958
 30
0.0
 10
216.9341537278
 20
573.6573318485
 30
0.0
 10
217.8904425735
 20
573.8431927506
 30
0.0
 10
219.1259092968
 20
574.0034794389
 30
0.0
 10
220.6409895936
 20
574.145264689
 30
0.0
 10
223.0089926098
 20
574.2922790223
 30
0.0
 10
224.8714598676
 20
574.3345123714
 30
0.0
 10
226.151036581
 20
574.3345123712
 30
0.0
  0
SPLINE
  5
73C
100
AcDbEntity
  8
0
100
AcDbSpline
 62
7
  6
CONTINUOUS
 70
0
 71
3
 72
14
 73
10
 74
0
 42
0.0000001
 43
0.0000001
 44
0.0000000001
 40
0.0
 40
0.0
 40
0.0
 40
0.0
 40
0.3746485934
 40
0.5448671018
 40
0.6948033346
 40
0.8187421768
 40
0.9121663329
 40
0.9722331048
 40
1.0
 40
1.0
 40
1.0
 40
1.0
 10
719.7549198295
 20
574.3345123757
 30
0.0
 10
721.0351957293
 20
574.3345123757
 30
0.0
 10
722.8982964576
 20
574.2922446095
 30
0.0
 10
725.2668314065
 20
574.1451214461
 30
0.0
 10
726.7816386868
 20
574.0033001681
 30
0.0
 10
728.0167886232
 20
573.8430000224
 30
0.0
 10
728.9726075015
 20
573.6571246437
 30
0.0
 10
729.5224799711
 20
573.5012843002
 30
0.0
 10
729.8472616176
 20
573.3274538229
 30
0.0
 10
729.8554905279
 20
573.2329243
 30
0.0
  0
SPLINE
  5
73D
100
AcDbEntity
  8
0
100
AcDbSpline
 62
7
  6
CONTINUOUS
 70
0
 71
3
 72
18
 73
14
 74
0
 42
0.0000001
 43
0.0000001
 44
0.0000000001
 40
0.0
 40
0.0
 40
0.0
 40
0.0
 40
0.1947722419
 40
0.382274238
 40
0.555262498
 40
0.7070108422
 40
0.8315398895
 40
0.8820234621
 40
0.9239662829
 40
0.9569735951
 40
0.9807477515
 40
0.9950893802
 40
1.0
 40
1.0
 40
1.0
 40
1.0
 10
830.1032043975
 20
315.6893885005
 30
0.0
 10
830.1710014263
 20
314.9148292006
 30
0.0
 10
830.3050742132
 20
313.3946992427
 30
0.0
 10
830.5023113422
 20
311.1869611101
 30
0.0
 10
830.6855803931
 20
309.1502029896
 30
0.0
 10
830.8450371372
 20
307.3643394243
 30
0.0
 10
830.9588950697
 20
306.0637304799
 30
0.0
 10
831.0287026506
 20
305.2023242015
 30
0.0
 10
831.0693319793
 20
304.6992412466
 30
0.0
 10
831.0904345439
 20
304.3161009759
 30
0.0
 10
831.1192784745
 20
304.0096013177
 30
0.0
 10
831.0998437427
 20
303.8785492977
 30
0.0
 10
831.1211938561
 20
303.7588618053
 30
0.0
 10
831.1016053097
 20
303.7581106984
 30
0.0
  0
SPLINE
  5
73E
100
AcDbEntity
  8
0
100
AcDbSpline
 62
7
  6
CONTINUOUS
 70
0
 71
3
 72
16
 73
12
 74
0
 42
0.0000001
 43
0.0000001
 44
0.0000000001
 40
0.0
 40
0.0
 40
0.0
 40
0.0
 40
0.3754512248
 40
0.5455208465
 40
0.6953791846
 40
0.8195527622
 40
0.9135407573
 40
0.9481315977
 40
0.9740619876
 40
0.9912267822
 40
1.0
 40
1.0
 40
1.0
 40
1.0
 10
886.1310714746
 20
318.8368242326
 30
0.0
 10
886.1962561244
 20
317.3381608836
 30
0.0
 10
886.271179231
 20
315.1596152881
 30
0.0
 10
886.3197149976
 20
312.3817791783
 30
0.0
 10
886.3269146462
 20
310.6070814911
 30
0.0
 10
886.3058385232
 20
309.1375003719
 30
0.0
 10
886.2654914328
 20
308.1265909347
 30
0.0
 10
886.2135948304
 20
307.5134971479
 30
0.0
 10
886.1741758921
 20
307.2015837219
 30
0.0
 10
886.130028985
 20
307.0065758307
 30
0.0
 10
886.0910410362
 20
306.8987787785
 30
0.0
 10
886.0611308405
 20
306.880501388
 30
0.0
  0
SPLINE
  5
73F
100
AcDbEntity
  8
0
100
AcDbSpline
 62
7
  6
CONTINUOUS
 70
0
 71
3
 72
18
 73
14
 74
0
 42
0.0000001
 43
0.0000001
 44
0.0000000001
 40
0.0
 40
0.0
 40
0.0
 40
0.0
 40
0.0049182206
 40
0.0192809149
 40
0.0430844223
 40
0.0761195023
 40
0.1180840515
 40
0.1685857596
 40
0.2931474971
 40
0.4449276015
 40
0.6179381237
 40
0.8053765411
 40
1.0
 40
1.0
 40
1.0
 40
1.0
 10
831.1016052926
 20
404.9897858931
 30
0.0
 10
831.1212241572
 20
404.9890336219
 30
0.0
 10
831.0998115151
 20
404.8691614829
 30
0.0
 10
831.119282531
 20
404.7379393737
 30
0.0
 10
831.090385057
 20
404.4311013135
 30
0.0
 10
831.0692607983
 20
404.0476548794
 30
0.0
 10
831.0286008688
 20
403.5443022337
 30
0.0
 10
830.9587621577
 20
402.682608063
 30
0.0
 10
830.8448700413
 20
401.3816713608
 30
0.0
 10
830.6853798095
 20
399.5954633335
 30
0.0
 10
830.5021146203
 20
397.5587433869
 30
0.0
 10
830.3049471223
 20
395.3517610583
 30
0.0
 10
830.170949634
 20
393.8324756271
 30
0.0
 10
830.1032044018
 20
393.0585080613
 30
0.0
  0
SPLINE
  5
740
100
AcDbEntity
  8
0
100
AcDbSpline
 62
7
  6
CONTINUOUS
 70
0
 71
3
 72
16
 73
12
 74
0
 42
0.0000001
 43
0.0000001
 44
0.0000000001
 40
0.0
 40
0.0
 40
0.0
 40
0.0
 40
0.0087798067
 40
0.02596129
 40
0.0519148219
 40
0.0865264515
 40
0.1805407756
 40
0.3047331952
 40
0.4546088081
 40
0.6246932792
 40
1.0
 40
1.0
 40
1.0
 40
1.0
 10
886.0611303621
 20
401.8673956926
 30
0.0
 10
886.0910636417
 20
401.8491055953
 30
0.0
 10
886.1300642343
 20
401.7411961642
 30
0.0
 10
886.1742278973
 20
401.5460159929
 30
0.0
 10
886.2136516996
 20
401.2338526834
 30
0.0
 10
886.2655400355
 20
400.6204792207
 30
0.0
 10
886.3058656954
 20
399.6093041005
 30
0.0
 10
886.326920069
 20
398.1394737744
 30
0.0
 10
886.3196982904
 20
396.3645725191
 30
0.0
 10
886.2711419075
 20
393.5871860632
 30
0.0
 10
886.1962310182
 20
391.4091587706
 30
0.0
 10
886.1310714746
 20
389.911072318
 30
0.0
  0
SPLINE
  5
741
100
AcDbEntity
  8
0
100
AcDbSpline
 62
7
  6
CONTINUOUS
 70
0
 71
3
 72
11
 73
7
 74
0
 42
0.0000001
 43
0.0000001
 44
0.0000000001
 40
0.0
 40
0.0
 40
0.0
 40
0.0
 40
0.2487292016
 40
0.4988113385
 40
0.7496668827
 40
1.0
 40
1.0
 40
1.0
 40
1.0
 10
1090.5889751866
 20
315.6893885005
 30
0.0
 10
1090.6008626107
 20
314.1370730286
 30
0.0
 10
1091.2506922418
 20
310.9951162709
 30
0.0
 10
1093.9516053309
 20
307.0322205424
 30
0.0
 10
1097.9587466631
 20
304.3810549958
 30
0.0
 10
1101.1195642242
 20
303.7589716889
 30
0.0
 10
1102.681935283
 20
303.7581106984
 30
0.0
  0
SPLINE
  5
742
100
AcDbEntity
  8
0
100
AcDbSpline
 62
7
  6
CONTINUOUS
 70
0
 71
3
 72
11
 73
7
 74
0
 42
0.0000001
 43
0.0000001
 44
0.0000000001
 40
0.0
 40
0.0
 40
0.0
 40
0.0
 40
0.2504752631
 40
0.5013296766
 40
0.7514148741
 40
1.0
 40
1.0
 40
1.0
 40
1.0
 10
1596.2858185294
 20
303.7581106242
 30
0.0
 10
1597.849076789
 20
303.7589721056
 30
0.0
 10
1601.0108316265
 20
304.3816028978
 30
0.0
 10
1605.0181305683
 20
307.0341695272
 30
0.0
 10
1607.7176373345
 20
310.9969494596
 30
0.0
 10
1608.3668980858
 20
314.1379721141
 30
0.0
 10
1608.3787786241
 20
315.6893884558
 30
0.0
  0
SPLINE
  5
743
100
AcDbEntity
  8
0
100
AcDbSpline
 62
7
  6
CONTINUOUS
 70
0
 71
3
 72
11
 73
7
 74
0
 42
0.0000001
 43
0.0000001
 44
0.0000000001
 40
0.0
 40
0.0
 40
0.0
 40
0.0
 40
0.2487292016
 40
0.4988113385
 40
0.7496668827
 40
1.0
 40
1.0
 40
1.0
 40
1.0
 10
1608.3787786245
 20
393.0585080164
 30
0.0
 10
1608.3668912004
 20
394.6108234883
 30
0.0
 10
1607.7170615694
 20
397.752780246
 30
0.0
 10
1605.0161484802
 20
401.7156759745
 30
0.0
 10
1601.0090071481
 20
404.3668415212
 30
0.0
 10
1597.848189587
 20
404.9889248281
 30
0.0
 10
1596.2858185281
 20
404.9897858187
 30
0.0
  0
SPLINE
  5
744
100
AcDbEntity
  8
0
100
AcDbSpline
 62
7
  6
CONTINUOUS
 70
0
 71
3
 72
11
 73
7
 74
0
 42
0.0000001
 43
0.0000001
 44
0.0000000001
 40
0.0
 40
0.0
 40
0.0
 40
0.0
 40
0.2504752631
 40
0.5013296766
 40
0.7514148741
 40
1.0
 40
1.0
 40
1.0
 40
1.0
 10
1102.6819352817
 20
404.9897858931
 30
0.0
 10
1101.1186770221
 20
404.9889244117
 30
0.0
 10
1097.9569221846
 20
404.3662936194
 30
0.0
 10
1093.9496232428
 20
401.7137269899
 30
0.0
 10
1091.2501164766
 20
397.7509470575
 30
0.0
 10
1090.6008557253
 20
394.609924403
 30
0.0
 10
1090.588975187
 20
393.0585080613
 30
0.0
  0
SPLINE
  5
745
100
AcDbEntity
  8
0
100
AcDbSpline
 62
7
  6
CONTINUOUS
 70
0
 71
3
 72
16
 73
12
 74
0
 42
0.0000001
 43
0.0000001
 44
0.0000000001
 40
0.0
 40
0.0
 40
0.0
 40
0.0
 40
0.1111111082
 40
0.2222222196
 40
0.3333333311
 40
0.4444444425
 40
0.5555555539
 40
0.6666666653
 40
0.7777777767
 40
0.8888888881
 40
1.0
 40
1.0
 40
1.0
 40
1.0
 10
1593.9856810225
 20
389.9110722976
 30
0.0
 10
1593.9856810218
 20
390.0544217851
 30
0.0
 10
1593.9603834864
 20
390.3449179271
 30
0.0
 10
1593.8486921566
 20
390.7612203382
 30
0.0
 10
1593.6665583143
 20
391.1521703386
 30
0.0
 10
1593.4198057572
 20
391.5043426966
 30
0.0
 10
1593.1155313464
 20
391.8082906376
 30
0.0
 10
1592.7626508074
 20
392.0550395215
 30
0.0
 10
1592.3703099933
 20
392.2373967271
 30
0.0
 10
1591.9527860057
 20
392.3491435746
 30
0.0
 10
1591.6611636517
 20
392.3744904857
 30
0.0
 10
1591.517316885
 20
392.3744904858
 30
0.0
  0
SPLINE
  5
746
100
AcDbEntity
  8
0
100
AcDbSpline
 62
7
  6
CONTINUOUS
 70
0
 71
3
 72
16
 73
12
 74
0
 42
0.0000001
 43
0.0000001
 44
0.0000000001
 40
0.0
 40
0.0
 40
0.0
 40
0.0
 40
0.1111111119
 40
0.2222222233
 40
0.3333333347
 40
0.4444444461
 40
0.5555555575
 40
0.6666666689
 40
0.7777777804
 40
0.8888888918
 40
1.0
 40
1.0
 40
1.0
 40
1.0
 10
1591.5173168814
 20
316.3734060146
 30
0.0
 10
1591.6612504592
 20
316.373406015
 30
0.0
 10
1591.9529648554
 20
316.3987668831
 30
0.0
 10
1592.3708044666
 20
316.5106706542
 30
0.0
 10
1592.7630047921
 20
316.6930704927
 30
0.0
 10
1593.1158440054
 20
316.9398616789
 30
0.0
 10
1593.4200829887
 20
317.2438939536
 30
0.0
 10
1593.6667239501
 20
317.5960001964
 30
0.0
 10
1593.8488634216
 20
317.9871645754
 30
0.0
 10
1593.9603873149
 20
318.4031012433
 30
0.0
 10
1593.9856810218
 20
318.6935618796
 30
0.0
 10
1593.9856810225
 20
318.8368241874
 30
0.0
  0
SPLINE
  5
747
100
AcDbEntity
  8
0
100
AcDbSpline
 62
7
  6
CONTINUOUS
 70
0
 71
3
 72
16
 73
12
 74
0
 42
0.0000001
 43
0.0000001
 44
0.0000000001
 40
0.0
 40
0.0
 40
0.0
 40
0.0
 40
0.1111111082
 40
0.2222222196
 40
0.3333333311
 40
0.4444444425
 40
0.5555555539
 40
0.6666666653
 40
0.7777777767
 40
0.8888888881
 40
1.0
 40
1.0
 40
1.0
 40
1.0
 10
1104.9820727886
 20
318.8368242202
 30
0.0
 10
1104.9820727894
 20
318.6934747327
 30
0.0
 10
1105.0073703247
 20
318.4029785906
 30
0.0
 10
1105.1190616546
 20
317.9866761795
 30
0.0
 10
1105.3011954968
 20
317.5957261791
 30
0.0
 10
1105.5479480539
 20
317.2435538211
 30
0.0
 10
1105.8522224646
 20
316.9396058802
 30
0.0
 10
1106.2051030039
 20
316.6928569962
 30
0.0
 10
1106.5974438173
 20
316.5104997908
 30
0.0
 10
1107.0149678061
 20
316.398752943
 30
0.0
 10
1107.3065901606
 20
316.3734060318
 30
0.0
 10
1107.4504369261
 20
316.3734060316
 30
0.0
  0
SPLINE
  5
748
100
AcDbEntity
  8
0
100
AcDbSpline
 62
7
  6
CONTINUOUS
 70
0
 71
3
 72
16
 73
12
 74
0
 42
0.0000001
 43
0.0000001
 44
0.0000000001
 40
0.0
 40
0.0
 40
0.0
 40
0.0
 40
0.1111111223
 40
0.2222222442
 40
0.3333333661
 40
0.444444488
 40
0.5555556099
 40
0.6666667318
 40
0.7777778537
 40
0.8888889756
 40
1.0
 40
1.0
 40
1.0
 40
1.0
 10
1107.4504369297
 20
392.3744905028
 30
0.0
 10
1107.3065033507
 20
392.3744905025
 30
0.0
 10
1107.014788955
 20
392.3491296345
 30
0.0
 10
1106.596949345
 20
392.2372258637
 30
0.0
 10
1106.2047490189
 20
392.054826025
 30
0.0
 10
1105.8519098058
 20
391.8080348389
 30
0.0
 10
1105.5476708224
 20
391.5040025642
 30
0.0
 10
1105.301029861
 20
391.1518963214
 30
0.0
 10
1105.1188903895
 20
390.7607319423
 30
0.0
 10
1105.0073665277
 20
390.3447953922
 30
0.0
 10
1104.9820728108
 20
390.0543348847
 30
0.0
 10
1104.9820727886
 20
389.9110726952
 30
0.0
  0
SPLINE
  5
749
100
AcDbEntity
  8
0
100
AcDbSpline
 62
9
  6
CONTINUOUS
 70
0
 71
3
 72
9
 73
5
 74
0
 42
0.0000001
 43
0.0000001
 44
0.0000000001
 40
0.0
 40
0.0
 40
0.0
 40
0.0
 40
0.2329870532
 40
1.0
 40
1.0
 40
1.0
 40
1.0
 10
1090.588975187
 20
393.0585080613
 30
0.0
 10
1091.0061366149
 20
392.8807639294
 30
0.0
 10
1092.7611132735
 20
392.034243958
 30
0.0
 10
1094.3581650856
 20
390.8835035616
 30
0.0
 10
1095.4907783974
 20
389.911072318
 30
0.0
  0
SPLINE
  5
74A
100
AcDbEntity
  8
0
100
AcDbSpline
 62
9
  6
CONTINUOUS
 70
0
 71
3
 72
9
 73
5
 74
0
 42
0.0000001
 43
0.0000001
 44
0.0000000001
 40
0.0
 40
0.0
 40
0.0
 40
0.0
 40
0.2691923131
 40
1.0
 40
1.0
 40
1.0
 40
1.0
 10
1095.4907783974
 20
318.8368242326
 30
0.0
 10
1095.0933586481
 20
318.4956102806
 30
0.0
 10
1093.5800946794
 20
317.2737145888
 30
0.0
 10
1091.8972027481
 20
316.2467983413
 30
0.0
 10
1090.5889751866
 20
315.6893885005
 30
0.0
  0
SPLINE
  5
74B
100
AcDbEntity
  8
0
100
AcDbSpline
 62
9
  6
CONTINUOUS
 70
0
 71
3
 72
9
 73
5
 74
0
 42
0.0000001
 43
0.0000001
 44
0.0000000001
 40
0.0
 40
0.0
 40
0.0
 40
0.0
 40
0.2329870534
 40
1.0
 40
1.0
 40
1.0
 40
1.0
 10
1608.3787786241
 20
315.6893884558
 30
0.0
 10
1607.9616171961
 20
315.8671325883
 30
0.0
 10
1606.2066405368
 20
316.7136525585
 30
0.0
 10
1604.6095887257
 20
317.8643929568
 30
0.0
 10
1603.4769754137
 20
318.8368241998
 30
0.0
  0
SPLINE
  5
74C
100
AcDbEntity
  8
0
100
AcDbSpline
 62
9
  6
CONTINUOUS
 70
0
 71
3
 72
9
 73
5
 74
0
 42
0.0000001
 43
0.0000001
 44
0.0000000001
 40
0.0
 40
0.0
 40
0.0
 40
0.0
 40
0.2691923132
 40
1.0
 40
1.0
 40
1.0
 40
1.0
 10
1603.4769754137
 20
389.9110722852
 30
0.0
 10
1603.8743951632
 20
390.252286237
 30
0.0
 10
1605.3876591326
 20
391.4741819274
 30
0.0
 10
1607.0705510626
 20
392.5010981769
 30
0.0
 10
1608.3787786245
 20
393.0585080164
 30
0.0
  0
SPLINE
  5
74D
100
AcDbEntity
  8
0
100
AcDbSpline
 62
9
  6
CONTINUOUS
 70
0
 71
3
 72
9
 73
5
 74
0
 42
0.0000001
 43
0.0000001
 44
0.0000000001
 40
0.0
 40
0.0
 40
0.0
 40
0.0
 40
0.2689189909
 40
1.0
 40
1.0
 40
1.0
 40
1.0
 10
1107.4504369163
 20
306.8751430736
 30
0.0
 10
1107.0636369129
 20
306.5401849664
 30
0.0
 10
1105.5898602292
 20
305.3379372906
 30
0.0
 10
1103.9543194781
 20
304.3202646971
 30
0.0
 10
1102.681935282
 20
303.7581104554
 30
0.0
  0
SPLINE
  5
74E
100
AcDbEntity
  8
0
100
AcDbSpline
 62
9
  6
CONTINUOUS
 70
0
 71
3
 72
9
 73
5
 74
0
 42
0.0000001
 43
0.0000001
 44
0.0000000001
 40
0.0
 40
0.0
 40
0.0
 40
0.0
 40
0.2331336419
 40
1.0
 40
1.0
 40
1.0
 40
1.0
 10
1596.2858185295
 20
303.7581104551
 30
0.0
 10
1595.879989129
 20
303.9374105973
 30
0.0
 10
1594.1739620719
 20
304.7853232965
 30
0.0
 10
1592.6205581199
 20
305.9197667794
 30
0.0
 10
1591.5173168978
 20
306.8751430707
 30
0.0
  0
SPLINE
  5
74F
100
AcDbEntity
  8
0
100
AcDbSpline
 62
7
  6
CONTINUOUS
 70
0
 71
3
 72
11
 73
7
 74
0
 42
0.0000001
 43
0.0000001
 44
0.0000000001
 40
0.0
 40
0.0
 40
0.0
 40
0.0
 40
0.2501710864
 40
0.4998665797
 40
0.7496779213
 40
1.0
 40
1.0
 40
1.0
 40
1.0
 10
1102.4820727886
 20
318.8368242326
 30
0.0
 10
1102.4820727886
 20
318.1903298016
 30
0.0
 10
1102.7395232045
 20
316.8842700325
 30
0.0
 10
1103.8446181839
 20
315.2336264879
 30
0.0
 10
1105.4968480288
 20
314.130310964
 30
0.0
 10
1106.8035522935
 20
313.8734060327
 30
0.0
 10
1107.4504369202
 20
313.8734060316
 30
0.0
  0
SPLINE
  5
750
100
AcDbEntity
  8
0
100
AcDbSpline
 62
7
  6
CONTINUOUS
 70
0
 71
3
 72
11
 73
7
 74
0
 42
0.0000001
 43
0.0000001
 44
0.0000000001
 40
0.0
 40
0.0
 40
0.0
 40
0.0
 40
0.2504335103
 40
0.5002370255
 40
0.7499299274
 40
1.0
 40
1.0
 40
1.0
 40
1.0
 10
1591.5173168907
 20
313.8734060146
 30
0.0
 10
1592.1644894284
 20
313.8734060166
 30
0.0
 10
1593.4714811094
 20
314.1304842746
 30
0.0
 10
1595.1237336822
 20
315.2342330287
 30
0.0
 10
1596.2283917016
 20
316.8848170792
 30
0.0
 10
1596.4856810225
 20
318.1905908611
 30
0.0
 10
1596.4856810225
 20
318.8368241998
 30
0.0
  0
SPLINE
  5
751
100
AcDbEntity
  8
0
100
AcDbSpline
 62
7
  6
CONTINUOUS
 70
0
 71
3
 72
11
 73
7
 74
0
 42
0.0000001
 43
0.0000001
 44
0.0000000001
 40
0.0
 40
0.0
 40
0.0
 40
0.0
 40
0.2501710864
 40
0.4998665797
 40
0.7496779213
 40
1.0
 40
1.0
 40
1.0
 40
1.0
 10
1596.4856810225
 20
389.9110722852
 30
0.0
 10
1596.4856810225
 20
390.5575667161
 30
0.0
 10
1596.2282306067
 20
391.8636264853
 30
0.0
 10
1595.1231356272
 20
393.5142700298
 30
0.0
 10
1593.4709057823
 20
394.6175855538
 30
0.0
 10
1592.1642015176
 20
394.8744904848
 30
0.0
 10
1591.517316891
 20
394.8744904858
 30
0.0
  0
SPLINE
  5
752
100
AcDbEntity
  8
0
100
AcDbSpline
 62
7
  6
CONTINUOUS
 70
0
 71
3
 72
11
 73
7
 74
0
 42
0.0000001
 43
0.0000001
 44
0.0000000001
 40
0.0
 40
0.0
 40
0.0
 40
0.0
 40
0.2504335103
 40
0.5002370255
 40
0.7499299274
 40
1.0
 40
1.0
 40
1.0
 40
1.0
 10
1107.4504369204
 20
394.8744905028
 30
0.0
 10
1106.8032643828
 20
394.8744905009
 30
0.0
 10
1105.4962727016
 20
394.6174122433
 30
0.0
 10
1103.8440201289
 20
393.5136634891
 30
0.0
 10
1102.7393621096
 20
391.8630794386
 30
0.0
 10
1102.4820727886
 20
390.5573056566
 30
0.0
 10
1102.4820727886
 20
389.911072318
 30
0.0
  0
SPLINE
  5
753
100
AcDbEntity
  8
0
100
AcDbSpline
 62
9
  6
CONTINUOUS
 70
0
 71
3
 72
9
 73
5
 74
0
 42
0.0000001
 43
0.0000001
 44
0.0000000001
 40
0.0
 40
0.0
 40
0.0
 40
0.0
 40
0.268918991
 40
1.0
 40
1.0
 40
1.0
 40
1.0
 10
1591.5173168949
 20
401.8727534436
 30
0.0
 10
1591.9041168985
 20
402.2077115509
 30
0.0
 10
1593.377893582
 20
403.4099592267
 30
0.0
 10
1595.0134343329
 20
404.4276318209
 30
0.0
 10
1596.2858185291
 20
404.9897860618
 30
0.0
  0
SPLINE
  5
754
100
AcDbEntity
  8
0
100
AcDbSpline
 62
9
  6
CONTINUOUS
 70
0
 71
3
 72
9
 73
5
 74
0
 42
0.0000001
 43
0.0000001
 44
0.0000000001
 40
0.0
 40
0.0
 40
0.0
 40
0.0
 40
0.2331336417
 40
1.0
 40
1.0
 40
1.0
 40
1.0
 10
1102.6819352816
 20
404.9897860621
 30
0.0
 10
1103.0877646819
 20
404.8104859202
 30
0.0
 10
1104.7937917387
 20
403.9625732204
 30
0.0
 10
1106.3471956911
 20
402.8281297382
 30
0.0
 10
1107.4504369134
 20
401.8727534465
 30
0.0
  0
ENDSEC
  0
SECTION
  2
OBJECTS
  0
DICTIONARY
  5
C
100
AcDbDictionary
280
0
281
1
  3
ACAD_GROUP
350
D
  3
ACAD_MLINESTYLE
350
17
  3
ACAD_LAYOUT
350
1A
  3
ACAD_PLOTSETTINGS
350
19
  3
ACAD_PLOTSTYLENAME
350
E
  0
DICTIONARY
  5
D
102
{ACAD_REACTORS
330
C
102
}
100
AcDbDictionary
280
0
281
1
  0
ACDBDICTIONARYWDFLT
  5
E
102
{ACAD_REACTORS
330
C
102
}
100
AcDbDictionary
281
1
  3
Normal
350
F
100
AcDbDictionaryWithDefault
340
F
  0
DICTIONARY
  5
17
102
{ACAD_REACTORS
330
C
102
}
100
AcDbDictionary
280
0
281
1
  3
Standard
350
18
  0
DICTIONARY
  5
19
102
{ACAD_REACTORS
330
C
102
}
100
AcDbDictionary
281
1
  0
DICTIONARY
  5
1A
102
{ACAD_REACTORS
330
C
102
}
100
AcDbDictionary
281
1
  3
Model
350
755
  3
Layout1
350
756
  0
ACDBPLACEHOLDER
  5
F
102
{ACAD_REACTORS
330
E
102
}
  0
MLINESTYLE
  5
18
102
{ACAD_REACTORS
330
17
102
}
100
AcDbMlineStyle
  2
STANDARD
 70
0
  3

 62
256
 51
90.0
 52
90.0
 71
2
 49
0.5
 62
256
  6
BYLAYER
 49
-0.5
 62
256
  6
BYLAYER
  0
LAYOUT
  5
755
102
{ACAD_REACTORS
330
1A
102
}
100
AcDbPlotSettings
  1

  2
none_device
  4

  6

 40
0.0
 41
0.0
 42
0.0
 43
0.0
 44
431.8
 45
279.4
 46
0.0
 47
0.0
 48
0.0
 49
0.0
140
0.0
141
0.0
142
1.0
143
1.0
 70
1024
 72
1
 73
0
 74
0
  7

 75
0
147
1.0
148
0.0
149
0.0
100
AcDbLayout
  1
Model
 70
0
 71
0
 10
0.0
 20
0.0
 11
431.8
 21
279.4
 12
0.0
 22
0.0
 32
0.0
 14
0.0
 24
0.0
 34
0.0
 15
0.0
 25
0.0
 35
0.0
146
0.0
 13
0.0
 23
0.0
 33
0.0
 16
1.0
 26
0.0
 36
0.0
 17
0.0
 27
1.0
 37
0.0
 76
0
330
20A
345
0
346
0
  0
LAYOUT
  5
756
102
{ACAD_REACTORS
330
1A
102
}
100
AcDbPlotSettings
  1

  2
none_device
  4

  6

 40
0.0
 41
0.0
 42
0.0
 43
0.0
 44
431.8
 45
279.4
 46
0.0
 47
0.0
 48
0.0
 49
0.0
140
0.0
141
0.0
142
1.0
143
1.0
 70
0
 72
1
 73
0
 74
0
  7

 75
0
147
1.0
148
0.0
149
0.0
100
AcDbLayout
  1
Layout1
 70
0
 71
1
 10
0.0
 20
0.0
 11
431.8
 21
279.4
 12
0.0
 22
0.0
 32
0.0
 14
0.0
 24
0.0
 34
0.0
 15
0.0
 25
0.0
 35
0.0
146
0.0
 13
0.0
 23
0.0
 33
0.0
 16
1.0
 26
0.0
 36
0.0
 17
0.0
 27
1.0
 37
0.0
 76
0
330
20B
345
0
346
0
  0
ENDSEC
  0
EOF
