999
DXF file: C:\Users\Suzanne.Stasiak\Desktop\fg-901506-2d-A.dxf
999
Pro/ENGINEER 2019344 by Parametric Technology Corporation
  0
SECTION
  2
HEADER
  9
$ACADVER
  1
AC1015
  9
$DWGCODEPAGE
  3
ANSI_1252
  9
$EXTMAX
 10
1295.4
 20
838.2
 30
0.0
  9
$EXTMIN
 10
0.0
 20
0.0
 30
0.0
  9
$LIMMIN
 10
0.0
 20
0.0
  9
$LIMMAX
 10
1295.4
 20
838.2
  9
$VIEWCTR
 10
647.7
 20
419.1
  9
$VIEWSIZE
 40
838.2
  9
$CLAYER
  8
0
  9
$LTSCALE
 40
71.247
  9
$CELTYPE
  6
BYLAYER
  9
$DIMSCALE
 40
1.0
  9
$DIMASZ
 40
6.0
  9
$DIMEXO
 40
1.5875
  9
$DIMDLI
 40
49.2252
  9
$DIMEXE
 40
3.175
  9
$DIMCEN
 40
11.6586
  9
$DIMLFAC
 40
1.0
  9
$DIMBLK
  1
_FILLED
  9
$DIMALT
 70
1
  9
$DIMALTD
 70
1
  9
$DIMALTTD
 70
2
  9
$DIMALTF
 40
0.0393700787
  9
$DIMTXT
 40
6.858
  9
$DIMTOL
 70
1
  9
$DIMLIM
 70
0
  9
$DIMTFAC
 40
1.0
  9
$DIMTP
 40
0.01
  9
$DIMTM
 40
0.01
  9
$DIMGAP
 40
0.625
  9
$DIMDSEP
 70
46
  9
$AUNITS
 70
0
  9
$PDMODE
 70
3
  9
$PDSIZE
 40
7.9375
  9
$HANDSEED
  5
6C3
  9
$TILEMODE
 70
1
  9
$MEASUREMENT
 70
1
  9
$INSUNITS
 70
4
  0
ENDSEC
  0
SECTION
  2
CLASSES
  0
CLASS
  1
ACDBDICTIONARYWDFLT
  2
AcDbDictionaryWithDefault
  3
AutoCAD 2000
 90
0
280
0
281
0
  0
CLASS
  1
ACDBPLACEHOLDER
  2
AcDbPlaceHolder
  3
AutoCAD 2000
 90
0
280
0
281
0
  0
CLASS
  1
LAYOUT
  2
AcDbLayout
  3
AutoCAD 2000
 90
0
280
0
281
0
  0
ENDSEC
  0
SECTION
  2
TABLES
  0
TABLE
  2
VPORT
  5
8
100
AcDbSymbolTable
 70
2
  0
VPORT
  5
1F4
100
AcDbSymbolTableRecord
100
AcDbViewportTableRecord
  2
*ACTIVE
 70
0
 10
0.0
 20
0.0
 11
1.0
 21
1.0
 12
647.7
 22
419.1
 13
0.0
 23
0.0
 14
1.0
 24
1.0
 15
0.0
 25
0.0
 16
0.0
 26
0.0
 36
1.0
 17
0.0
 27
0.0
 37
0.0
 40
838.2
 41
1.5454545455
 42
50.0
 43
0.0
 44
0.0
 50
0.0
 51
0.0
 71
0
 72
100
 73
1
 74
1
 75
0
 76
0
 77
0
 78
0
  0
ENDTAB
  0
TABLE
  2
LTYPE
  5
5
100
AcDbSymbolTable
 70
6
  0
LTYPE
  5
14
100
AcDbSymbolTableRecord
100
AcDbLinetypeTableRecord
  2
BYBLOCK
 70
0
  3

 72
65
 73
0
 40
0.0
  0
LTYPE
  5
15
100
AcDbSymbolTableRecord
100
AcDbLinetypeTableRecord
  2
BYLAYER
 70
0
  3

 72
65
 73
0
 40
0.0
  0
LTYPE
  5
16
100
AcDbSymbolTableRecord
100
AcDbLinetypeTableRecord
  2
CONTINUOUS
 70
64
  3
Solid line
 72
65
 73
0
 40
0.0
  0
LTYPE
  5
1F5
100
AcDbSymbolTableRecord
100
AcDbLinetypeTableRecord
  2
CENTER
 70
64
  3
____ _ ____ _ ____ _ ____ _ ____ _ ____ _ ____
 72
65
 73
4
 40
0.6
 49
0.375
 74
0
 49
-0.075
 74
0
 49
0.075
 74
0
 49
-0.075
 74
0
  0
LTYPE
  5
1F6
100
AcDbSymbolTableRecord
100
AcDbLinetypeTableRecord
  2
HIDDEN
 70
64
  3
- - - - - - - - - - - - - - - - - - - -
 72
65
 73
2
 40
0.2
 49
0.1
 74
0
 49
-0.1
 74
0
  0
LTYPE
  5
1F7
100
AcDbSymbolTableRecord
100
AcDbLinetypeTableRecord
  2
PHANTOM
 70
64
  3
_____ _ _ _____ _ _ _____ _ _ _____
 72
65
 73
6
 40
0.8
 49
0.45
 74
0
 49
-0.05
 74
0
 49
0.1
 74
0
 49
-0.05
 74
0
 49
0.1
 74
0
 49
-0.05
 74
0
  0
LTYPE
  5
1F8
100
AcDbSymbolTableRecord
100
AcDbLinetypeTableRecord
  2
DOT
 70
64
  3
. . . . . . . . . . . . . . . . . . . .
 72
65
 73
2
 40
0.2
 49
0.1
 74
0
 49
-0.1
 74
0
  0
LTYPE
  5
1F9
100
AcDbSymbolTableRecord
100
AcDbLinetypeTableRecord
  2
DASHED
 70
64
  3
- - - - - - - - - - - - - - - - - - - -
 72
65
 73
2
 40
0.2
 49
0.1
 74
0
 49
-0.1
 74
0
  0
ENDTAB
  0
TABLE
  2
LAYER
  5
2
100
AcDbSymbolTable
 70
36
  0
LAYER
  5
10
100
AcDbSymbolTableRecord
100
AcDbLayerTableRecord
  2
0
 70
0
 62
7
  6
CONTINUOUS
370
-3
390
F
  0
LAYER
  5
1FA
100
AcDbSymbolTableRecord
100
AcDbLayerTableRecord
  2
DEFAULT_1
 70
0
 62
7
  6
CENTER
370
-3
390
F
  0
LAYER
  5
1FB
100
AcDbSymbolTableRecord
100
AcDbLayerTableRecord
  2
DEFAULT_2
 70
0
 62
8
  6
HIDDEN
370
-3
390
F
  0
LAYER
  5
1FC
100
AcDbSymbolTableRecord
100
AcDbLayerTableRecord
  2
DEFAULT_3
 70
0
 62
7
  6
PHANTOM
370
-3
390
F
  0
LAYER
  5
1FD
100
AcDbSymbolTableRecord
100
AcDbLayerTableRecord
  2
1_ALL_PLANES
 70
0
 62
7
  6
CONTINUOUS
370
-3
390
F
  0
LAYER
  5
1FE
100
AcDbSymbolTableRecord
100
AcDbLayerTableRecord
  2
1_DEF_PLANES
 70
0
 62
7
  6
CONTINUOUS
370
-3
390
F
  0
LAYER
  5
1FF
100
AcDbSymbolTableRecord
100
AcDbLayerTableRecord
  2
2_ALL_CSYS
 70
0
 62
7
  6
CONTINUOUS
370
-3
390
F
  0
LAYER
  5
200
100
AcDbSymbolTableRecord
100
AcDbLayerTableRecord
  2
2_DEF_CSYS
 70
0
 62
7
  6
CONTINUOUS
370
-3
390
F
  0
LAYER
  5
201
100
AcDbSymbolTableRecord
100
AcDbLayerTableRecord
  2
3_ALL_AXES
 70
0
 62
7
  6
CONTINUOUS
370
-3
390
F
  0
LAYER
  5
202
100
AcDbSymbolTableRecord
100
AcDbLayerTableRecord
  2
3_AXES_OTHER
 70
0
 62
7
  6
CONTINUOUS
370
-3
390
F
  0
LAYER
  5
203
100
AcDbSymbolTableRecord
100
AcDbLayerTableRecord
  2
3_HOLES
 70
0
 62
7
  6
CONTINUOUS
370
-3
390
F
  0
LAYER
  5
204
100
AcDbSymbolTableRecord
100
AcDbLayerTableRecord
  2
4_ALL_POINTS
 70
0
 62
7
  6
CONTINUOUS
370
-3
390
F
  0
LAYER
  5
205
100
AcDbSymbolTableRecord
100
AcDbLayerTableRecord
  2
5_ALL_CURVES
 70
0
 62
7
  6
CONTINUOUS
370
-3
390
F
  0
LAYER
  5
206
100
AcDbSymbolTableRecord
100
AcDbLayerTableRecord
  2
6_ALL_SURFS
 70
0
 62
7
  6
CONTINUOUS
370
-3
390
F
  0
LAYER
  5
207
100
AcDbSymbolTableRecord
100
AcDbLayerTableRecord
  2
6_COPYGEOM
 70
0
 62
7
  6
CONTINUOUS
370
-3
390
F
  0
LAYER
  5
208
100
AcDbSymbolTableRecord
100
AcDbLayerTableRecord
  2
7_ALL_ROUNDS
 70
0
 62
7
  6
CONTINUOUS
370
-3
390
F
  0
LAYER
  5
209
100
AcDbSymbolTableRecord
100
AcDbLayerTableRecord
  2
7_MERGES
 70
0
 62
7
  6
CONTINUOUS
370
-3
390
F
  0
LAYER
  5
20A
100
AcDbSymbolTableRecord
100
AcDbLayerTableRecord
  2
8_GDT
 70
0
 62
7
  6
CONTINUOUS
370
-3
390
F
  0
LAYER
  5
20B
100
AcDbSymbolTableRecord
100
AcDbLayerTableRecord
  2
8_SET_DATUMS
 70
0
 62
7
  6
CONTINUOUS
370
-3
390
F
  0
LAYER
  5
20C
100
AcDbSymbolTableRecord
100
AcDbLayerTableRecord
  2
9_COSMETICS
 70
0
 62
7
  6
CONTINUOUS
370
-3
390
F
  0
LAYER
  5
20D
100
AcDbSymbolTableRecord
100
AcDbLayerTableRecord
  2
9_THREADS
 70
0
 62
7
  6
CONTINUOUS
370
-3
390
F
  0
ENDTAB
  0
TABLE
  2
STYLE
  5
3
100
AcDbSymbolTable
 70
1
  0
STYLE
  5
11
100
AcDbSymbolTableRecord
100
AcDbTextStyleTableRecord
  2
STANDARD
 70
0
 40
0.0
 41
1.0
 50
0.0
 71
0
 42
0.2
  3
gothic.ttf
  4

  0
STYLE
  5
20E
100
AcDbSymbolTableRecord
100
AcDbTextStyleTableRecord
  2
TEXTSTYLE_1
 70
0
 40
0.0
 41
0.8
 50
0.0
 71
0
 42
0.2
  3
gdt
  4

  0
STYLE
  5
20F
100
AcDbSymbolTableRecord
100
AcDbTextStyleTableRecord
  2
TEXTSTYLE_2
 70
0
 40
0.0
 41
1.0
 50
0.0
 71
0
 42
0.2
  3
gothic.ttf
  4

  0
ENDTAB
  0
TABLE
  2
VIEW
  5
6
100
AcDbSymbolTable
 70
0
  0
ENDTAB
  0
TABLE
  2
UCS
  5
7
100
AcDbSymbolTable
 70
0
  0
ENDTAB
  0
TABLE
  2
APPID
  5
9
100
AcDbSymbolTable
 70
1
  0
APPID
  5
210
100
AcDbSymbolTableRecord
100
AcDbRegAppTableRecord
  2
ACAD
 70
0
  0
ENDTAB
  0
TABLE
  2
BLOCK_RECORD
  5
1
100
AcDbSymbolTable
 70
0
  0
BLOCK_RECORD
  5
211
100
AcDbSymbolTableRecord
100
AcDbBlockTableRecord
  2
*Model_Space
  0
BLOCK_RECORD
  5
212
100
AcDbSymbolTableRecord
100
AcDbBlockTableRecord
  2
*Paper_Space
  0
BLOCK_RECORD
  5
213
100
AcDbSymbolTableRecord
100
AcDbBlockTableRecord
  2
_FILLED
  0
BLOCK_RECORD
  5
214
100
AcDbSymbolTableRecord
100
AcDbBlockTableRecord
  2
_DOT
  0
BLOCK_RECORD
  5
215
100
AcDbSymbolTableRecord
100
AcDbBlockTableRecord
  2
*D0
  0
BLOCK_RECORD
  5
216
100
AcDbSymbolTableRecord
100
AcDbBlockTableRecord
  2
*D1
  0
BLOCK_RECORD
  5
217
100
AcDbSymbolTableRecord
100
AcDbBlockTableRecord
  2
*D2
  0
BLOCK_RECORD
  5
218
100
AcDbSymbolTableRecord
100
AcDbBlockTableRecord
  2
*D3
  0
BLOCK_RECORD
  5
219
100
AcDbSymbolTableRecord
100
AcDbBlockTableRecord
  2
*D4
  0
BLOCK_RECORD
  5
21A
100
AcDbSymbolTableRecord
100
AcDbBlockTableRecord
  2
*D5
  0
BLOCK_RECORD
  5
21B
100
AcDbSymbolTableRecord
100
AcDbBlockTableRecord
  2
*D6
  0
BLOCK_RECORD
  5
21C
100
AcDbSymbolTableRecord
100
AcDbBlockTableRecord
  2
*D7
  0
BLOCK_RECORD
  5
21D
100
AcDbSymbolTableRecord
100
AcDbBlockTableRecord
  2
*D8
  0
BLOCK_RECORD
  5
21E
100
AcDbSymbolTableRecord
100
AcDbBlockTableRecord
  2
*D9
  0
BLOCK_RECORD
  5
21F
100
AcDbSymbolTableRecord
100
AcDbBlockTableRecord
  2
*D10
  0
BLOCK_RECORD
  5
220
100
AcDbSymbolTableRecord
100
AcDbBlockTableRecord
  2
CG_BL2
  0
BLOCK_RECORD
  5
221
100
AcDbSymbolTableRecord
100
AcDbBlockTableRecord
  2
CG_BL1
  0
BLOCK_RECORD
  5
222
100
AcDbSymbolTableRecord
100
AcDbBlockTableRecord
  2
CG_BL0
  0
ENDTAB
  0
TABLE
  2
DIMSTYLE
  5
A
100
AcDbSymbolTable
 70
1
100
AcDbDimStyleTable
 71
0
  0
DIMSTYLE
105
223
100
AcDbSymbolTableRecord
100
AcDbDimStyleTableRecord
  2
STANDARD
 70
0
  3

  4

 40
1.0
 41
6.0
 42
1.5875
 43
0.38
 44
3.175
 45
0.0
 46
0.0
 47
0.01
 48
0.01
140
6.858
141
0.09
142
0.0
143
0.0393700787
144
1.0
145
0.0
146
1.0
147
0.625
 71
1.0
 72
0.0
 73
1
 74
1
 75
0
 76
0
 77
0
 78
4
 79
1
170
1
171
1
172
0
173
0
174
0
175
0
176
0
177
0
178
0
270
2
179
2
271
2
272
2
273
2
274
2
275
0
280
0
281
0
282
0
283
1
284
4
285
0
286
0
287
3
288
0
340
11
278
46
341
213
342
213
343
213
344
213
  0
DIMSTYLE
105
224
100
AcDbSymbolTableRecord
100
AcDbDimStyleTableRecord
  2
DIMSTYLE_1
 70
0
  3

  4

 40
1.0
 41
6.0
 42
1.5875
 43
0.38
 44
3.175
 45
0.0
 46
0.0
 47
0.1
 48
0.1
140
6.858
141
0.09
142
0.0
143
0.0393700787
144
1.0
145
0.0
146
1.0
147
1.143
 71
0.0
 72
0.0
 73
1
 74
1
 75
0
 76
0
 77
0
 78
4
 79
1
170
1
171
2
172
0
173
0
174
0
175
0
176
0
177
0
178
0
270
2
179
2
271
1
272
1
273
2
274
-1
275
0
280
0
281
0
282
0
283
1
284
4
285
0
286
0
287
3
288
0
340
11
278
46
341
213
342
213
343
213
344
213
  0
DIMSTYLE
105
225
100
AcDbSymbolTableRecord
100
AcDbDimStyleTableRecord
  2
DIMSTYLE_2
 70
0
  3
<>
  4

 40
1.0
 41
6.0
 42
1.5875
 43
0.38
 44
3.175
 45
0.0
 46
0.0
 47
0.1
 48
0.1
140
6.858
141
0.09
142
0.0
143
0.0393700787
144
1.0
145
0.0
146
1.0
147
0.625
 71
0.0
 72
0.0
 73
1
 74
1
 75
0
 76
0
 77
0
 78
4
 79
1
170
1
171
2
172
0
173
0
174
0
175
0
176
0
177
0
178
0
270
2
179
2
271
1
272
1
273
2
274
2
275
0
280
0
281
0
282
0
283
1
284
4
285
0
286
0
287
3
288
1
340
11
278
46
289
1
341
213
342
213
343
213
344
213
  0
DIMSTYLE
105
226
100
AcDbSymbolTableRecord
100
AcDbDimStyleTableRecord
  2
DIMSTYLE_3
 70
0
  3
<>
  4

 40
1.0
 41
6.0
 42
1.5875
 43
0.38
 44
3.175
 45
0.0
 46
0.0
 47
0.1
 48
0.1
140
6.858
141
0.09
142
0.0
143
0.0393700787
144
1.0
145
0.0
146
1.0
147
0.625
 71
0.0
 72
0.0
 73
1
 74
1
 75
0
 76
0
 77
0
 78
4
 79
1
170
1
171
2
172
0
173
0
174
0
175
0
176
0
177
0
178
0
270
2
179
2
271
1
272
1
273
2
274
-1
275
0
280
0
281
0
282
0
283
1
284
4
285
0
286
0
287
3
288
1
340
11
278
46
289
1
341
213
342
213
343
213
344
213
  0
DIMSTYLE
105
227
100
AcDbSymbolTableRecord
100
AcDbDimStyleTableRecord
  2
DIMSTYLE_4
 70
0
  3

  4

 40
1.0
 41
6.0
 42
1.5875
 43
0.38
 44
3.175
 45
0.0
 46
0.0
 47
0.01
 48
0.01
140
6.858
141
0.09
142
0.0
143
0.0393700787
144
1.0
145
0.0
146
1.0
147
1.143
 71
0.0
 72
0.0
 73
1
 74
1
 75
0
 76
0
 77
0
 78
4
 79
1
170
1
171
2
172
0
173
0
174
0
175
0
176
0
177
0
178
0
270
2
179
2
271
1
272
1
273
2
274
2
275
0
280
0
281
0
282
0
283
1
284
4
285
0
286
0
287
3
288
0
340
11
278
46
341
213
342
213
343
213
344
213
  0
DIMSTYLE
105
228
100
AcDbSymbolTableRecord
100
AcDbDimStyleTableRecord
  2
DIMSTYLE_5
 70
0
  3
<>
  4

 40
1.0
 41
6.0
 42
1.5875
 43
0.38
 44
3.175
 45
0.0
 46
0.0
 47
0.01
 48
0.01
140
6.858
141
0.09
142
0.0
143
0.0393700787
144
1.0
145
0.0
146
1.0
147
0.625
 71
0.0
 72
0.0
 73
1
 74
1
 75
0
 76
0
 77
0
 78
4
 79
1
170
1
171
2
172
0
173
0
174
0
175
0
176
0
177
0
178
0
270
2
179
2
271
1
272
1
273
2
274
2
275
0
280
0
281
0
282
0
283
1
284
4
285
0
286
0
287
3
288
0
340
11
278
46
341
213
342
213
343
213
344
213
  0
ENDTAB
  0
ENDSEC
  0
SECTION
  2
BLOCKS
  0
BLOCK
  5
20
100
AcDbEntity
  8
0
100
AcDbBlockBegin
  2
*Model_Space
 70
0
 10
0.0
 20
0.0
 30
0.0
  3
*Model_Space
  1

  0
ENDBLK
  5
21
100
AcDbEntity
  8
0
100
AcDbBlockEnd
  0
BLOCK
  5
1C
100
AcDbEntity
  8
0
100
AcDbBlockBegin
  2
*Paper_Space
 70
0
 10
0.0
 20
0.0
 30
0.0
  3
*Paper_Space
  1

  0
ENDBLK
  5
1D
100
AcDbEntity
  8
0
100
AcDbBlockEnd
  0
BLOCK
  5
229
100
AcDbEntity
  8
0
100
AcDbBlockBegin
 62
2
  6
CONTINUOUS
  2
CG_BL2
 70
64
 10
334.8361020043
 20
573.0510061792
  3
CG_BL2
  1

  0
ARC
  5
22A
100
AcDbEntity
  8
0
100
AcDbCircle
 62
7
  6
CONTINUOUS
 10
334.8361020043
 20
573.0510061792
 40
5.0768990481
100
AcDbArc
 50
90.0
 51
180.0
  0
ARC
  5
22B
100
AcDbEntity
  8
0
100
AcDbCircle
 62
7
  6
CONTINUOUS
 10
334.8361020043
 20
573.0510061792
 40
5.0768990481
100
AcDbArc
 50
180.0
 51
270.0
  0
ARC
  5
22C
100
AcDbEntity
  8
0
100
AcDbCircle
 62
7
  6
CONTINUOUS
 10
334.8361020043
 20
573.0510061792
 40
5.0768990481
100
AcDbArc
 50
270.0
 51
360.0
  0
ARC
  5
22D
100
AcDbEntity
  8
0
100
AcDbCircle
 62
7
  6
CONTINUOUS
 10
334.8361020043
 20
573.0510061792
 40
5.0768990481
100
AcDbArc
 50
0.0
 51
90.0
  0
LINE
  5
22E
100
AcDbEntity
  8
0
100
AcDbLine
 62
7
  6
CONTINUOUS
 10
334.8361020043
 20
573.0510061792
 11
339.9130010524
 21
573.0510061792
  0
LINE
  5
22F
100
AcDbEntity
  8
0
100
AcDbLine
 62
7
  6
CONTINUOUS
 10
334.8361020043
 20
573.0510061792
 11
334.8361020043
 21
567.9741071312
  0
LINE
  5
230
100
AcDbEntity
  8
0
100
AcDbLine
 62
7
  6
CONTINUOUS
 10
329.7592029563
 20
573.0510061792
 11
334.8361020043
 21
573.0510061792
  0
LINE
  5
231
100
AcDbEntity
  8
0
100
AcDbLine
 62
7
  6
CONTINUOUS
 10
334.8361020043
 20
578.1279052273
 11
334.8361020043
 21
573.0510061792
  0
LINE
  5
232
100
AcDbEntity
  8
0
100
AcDbLine
 62
2
  6
CONTINUOUS
 10
334.8361020043
 20
573.017546067
 11
334.8695621166
 21
573.0510061792
  0
LWPOLYLINE
  5
233
100
AcDbEntity
  8
0
100
AcDbPolyline
 62
7
  6
CONTINUOUS
 90
8
 70
0
 10
334.8361020043
 20
573.0510061792
 10
334.8361020043
 20
567.9741071312
 10
336.4049500889
 20
568.222588257
 10
337.8202283922
 20
568.9437085706
 10
338.9433996129
 20
570.0668797914
 10
339.6645199266
 20
571.4821580947
 10
339.9130010524
 20
573.0510061792
 10
334.8361020043
 20
573.0510061792
  0
HATCH
  5
234
100
AcDbEntity
  8
0
100
AcDbHatch
 62
7
  6
CONTINUOUS
 10
0.0
 20
0.0
 30
0.0
210
0.0
220
0.0
230
1.0
  2
SOLID
 70
1
 71
1
 91
1
 92
1
 93
7
 72
1
 10
334.8361020043
 20
573.0510061792
 11
334.8361020043
 21
567.9741071312
 72
1
 10
334.8361020043
 20
567.9741071312
 11
336.4049500889
 21
568.222588257
 72
1
 10
336.4049500889
 20
568.222588257
 11
337.8202283922
 21
568.9437085706
 72
1
 10
337.8202283922
 20
568.9437085706
 11
338.9433996129
 21
570.0668797914
 72
1
 10
338.9433996129
 20
570.0668797914
 11
339.6645199266
 21
571.4821580947
 72
1
 10
339.6645199266
 20
571.4821580947
 11
339.9130010524
 21
573.0510061792
 72
1
 10
339.9130010524
 20
573.0510061792
 11
334.8361020043
 21
573.0510061792
 97
1
330
233
 75
0
 76
1
 98
1
 10
0.0
 20
0.0
  0
LWPOLYLINE
  5
235
100
AcDbEntity
  8
0
100
AcDbPolyline
 62
7
  6
CONTINUOUS
 90
8
 70
0
 10
334.8361020043
 20
573.0510061792
 10
329.7592029563
 20
573.0510061792
 10
330.0076840821
 20
574.6198542638
 10
330.7288043957
 20
576.0351325671
 10
331.8519756165
 20
577.1583037879
 10
333.2672539197
 20
577.8794241015
 10
334.8361020043
 20
578.1279052273
 10
334.8361020043
 20
573.0510061792
  0
HATCH
  5
236
100
AcDbEntity
  8
0
100
AcDbHatch
 62
7
  6
CONTINUOUS
 10
0.0
 20
0.0
 30
0.0
210
0.0
220
0.0
230
1.0
  2
SOLID
 70
1
 71
1
 91
1
 92
1
 93
7
 72
1
 10
334.8361020043
 20
573.0510061792
 11
329.7592029563
 21
573.0510061792
 72
1
 10
329.7592029563
 20
573.0510061792
 11
330.0076840821
 21
574.6198542638
 72
1
 10
330.0076840821
 20
574.6198542638
 11
330.7288043957
 21
576.0351325671
 72
1
 10
330.7288043957
 20
576.0351325671
 11
331.8519756165
 21
577.1583037879
 72
1
 10
331.8519756165
 20
577.1583037879
 11
333.2672539197
 21
577.8794241015
 72
1
 10
333.2672539197
 20
577.8794241015
 11
334.8361020043
 21
578.1279052273
 72
1
 10
334.8361020043
 20
578.1279052273
 11
334.8361020043
 21
573.0510061792
 97
1
330
235
 75
0
 76
1
 98
1
 10
0.0
 20
0.0
  0
ENDBLK
  5
237
100
AcDbEntity
  8
0
  6
BYBLOCK
 62
0
100
AcDbBlockEnd
  0
BLOCK
  5
238
100
AcDbEntity
  8
0
100
AcDbBlockBegin
 62
2
  6
CONTINUOUS
  2
CG_BL1
 70
64
 10
334.8346774216
 20
329.1481108009
  3
CG_BL1
  1

  0
ARC
  5
239
100
AcDbEntity
  8
0
100
AcDbCircle
 62
7
  6
CONTINUOUS
 10
334.8346774216
 20
329.1481108009
 40
3.75
100
AcDbArc
 50
90.0
 51
180.0
  0
ARC
  5
23A
100
AcDbEntity
  8
0
100
AcDbCircle
 62
7
  6
CONTINUOUS
 10
334.8346774216
 20
329.1481108009
 40
3.75
100
AcDbArc
 50
180.0
 51
270.0
  0
ARC
  5
23B
100
AcDbEntity
  8
0
100
AcDbCircle
 62
7
  6
CONTINUOUS
 10
334.8346774216
 20
329.1481108009
 40
3.75
100
AcDbArc
 50
270.0
 51
360.0
  0
ARC
  5
23C
100
AcDbEntity
  8
0
100
AcDbCircle
 62
7
  6
CONTINUOUS
 10
334.8346774216
 20
329.1481108009
 40
3.75
100
AcDbArc
 50
0.0
 51
90.0
  0
LINE
  5
23D
100
AcDbEntity
  8
0
100
AcDbLine
 62
7
  6
CONTINUOUS
 10
334.8346774216
 20
329.1481108009
 11
338.5846774216
 21
329.1481108009
  0
LINE
  5
23E
100
AcDbEntity
  8
0
100
AcDbLine
 62
7
  6
CONTINUOUS
 10
334.8346774216
 20
329.1481108009
 11
334.8346774216
 21
325.3981108009
  0
LINE
  5
23F
100
AcDbEntity
  8
0
100
AcDbLine
 62
7
  6
CONTINUOUS
 10
331.0846774216
 20
329.1481108009
 11
334.8346774216
 21
329.1481108009
  0
LINE
  5
240
100
AcDbEntity
  8
0
100
AcDbLine
 62
7
  6
CONTINUOUS
 10
334.8346774216
 20
332.8981108009
 11
334.8346774216
 21
329.1481108009
  0
LINE
  5
241
100
AcDbEntity
  8
0
100
AcDbLine
 62
2
  6
CONTINUOUS
 10
334.8346774216
 20
329.1233958283
 11
334.8593923942
 21
329.1481108009
  0
LWPOLYLINE
  5
242
100
AcDbEntity
  8
0
100
AcDbPolyline
 62
7
  6
CONTINUOUS
 90
8
 70
0
 10
334.8346774216
 20
329.1481108009
 10
334.8346774216
 20
325.3981108009
 10
335.9934911505
 20
325.5816488648
 10
337.0388721177
 20
326.114297072
 10
337.8684911505
 20
326.9439161048
 10
338.4011393577
 20
327.989297072
 10
338.5846774216
 20
329.1481108009
 10
334.8346774216
 20
329.1481108009
  0
HATCH
  5
243
100
AcDbEntity
  8
0
100
AcDbHatch
 62
7
  6
CONTINUOUS
 10
0.0
 20
0.0
 30
0.0
210
0.0
220
0.0
230
1.0
  2
SOLID
 70
1
 71
1
 91
1
 92
1
 93
7
 72
1
 10
334.8346774216
 20
329.1481108009
 11
334.8346774216
 21
325.3981108009
 72
1
 10
334.8346774216
 20
325.3981108009
 11
335.9934911505
 21
325.5816488648
 72
1
 10
335.9934911505
 20
325.5816488648
 11
337.0388721177
 21
326.114297072
 72
1
 10
337.0388721177
 20
326.114297072
 11
337.8684911505
 21
326.9439161048
 72
1
 10
337.8684911505
 20
326.9439161048
 11
338.4011393577
 21
327.989297072
 72
1
 10
338.4011393577
 20
327.989297072
 11
338.5846774216
 21
329.1481108009
 72
1
 10
338.5846774216
 20
329.1481108009
 11
334.8346774216
 21
329.1481108009
 97
1
330
242
 75
0
 76
1
 98
1
 10
0.0
 20
0.0
  0
LWPOLYLINE
  5
244
100
AcDbEntity
  8
0
100
AcDbPolyline
 62
7
  6
CONTINUOUS
 90
8
 70
0
 10
334.8346774216
 20
329.1481108009
 10
331.0846774216
 20
329.1481108009
 10
331.2682154855
 20
330.3069245298
 10
331.8008636927
 20
331.352305497
 10
332.6304827255
 20
332.1819245298
 10
333.6758636927
 20
332.714572737
 10
334.8346774216
 20
332.8981108009
 10
334.8346774216
 20
329.1481108009
  0
HATCH
  5
245
100
AcDbEntity
  8
0
100
AcDbHatch
 62
7
  6
CONTINUOUS
 10
0.0
 20
0.0
 30
0.0
210
0.0
220
0.0
230
1.0
  2
SOLID
 70
1
 71
1
 91
1
 92
1
 93
7
 72
1
 10
334.8346774216
 20
329.1481108009
 11
331.0846774216
 21
329.1481108009
 72
1
 10
331.0846774216
 20
329.1481108009
 11
331.2682154855
 21
330.3069245298
 72
1
 10
331.2682154855
 20
330.3069245298
 11
331.8008636927
 21
331.352305497
 72
1
 10
331.8008636927
 20
331.352305497
 11
332.6304827255
 21
332.1819245298
 72
1
 10
332.6304827255
 20
332.1819245298
 11
333.6758636927
 21
332.714572737
 72
1
 10
333.6758636927
 20
332.714572737
 11
334.8346774216
 21
332.8981108009
 72
1
 10
334.8346774216
 20
332.8981108009
 11
334.8346774216
 21
329.1481108009
 97
1
330
244
 75
0
 76
1
 98
1
 10
0.0
 20
0.0
  0
ENDBLK
  5
246
100
AcDbEntity
  8
0
  6
BYBLOCK
 62
0
100
AcDbBlockEnd
  0
BLOCK
  5
247
100
AcDbEntity
  8
0
100
AcDbBlockBegin
 62
2
  6
CONTINUOUS
  2
CG_BL0
 70
64
 10
95.8289125382
 20
100.0670841217
  3
CG_BL0
  1

  0
ARC
  5
248
100
AcDbEntity
  8
0
100
AcDbCircle
 62
7
  6
CONTINUOUS
 10
95.8289125382
 20
100.0670841217
 40
5.0768990481
100
AcDbArc
 50
90.0
 51
180.0
  0
ARC
  5
249
100
AcDbEntity
  8
0
100
AcDbCircle
 62
7
  6
CONTINUOUS
 10
95.8289125382
 20
100.0670841217
 40
5.0768990481
100
AcDbArc
 50
180.0
 51
270.0
  0
ARC
  5
24A
100
AcDbEntity
  8
0
100
AcDbCircle
 62
7
  6
CONTINUOUS
 10
95.8289125382
 20
100.0670841217
 40
5.0768990481
100
AcDbArc
 50
270.0
 51
360.0
  0
ARC
  5
24B
100
AcDbEntity
  8
0
100
AcDbCircle
 62
7
  6
CONTINUOUS
 10
95.8289125382
 20
100.0670841217
 40
5.0768990481
100
AcDbArc
 50
0.0
 51
90.0
  0
LINE
  5
24C
100
AcDbEntity
  8
0
100
AcDbLine
 62
7
  6
CONTINUOUS
 10
95.8289125382
 20
100.0670841217
 11
100.9058115863
 21
100.0670841217
  0
LINE
  5
24D
100
AcDbEntity
  8
0
100
AcDbLine
 62
7
  6
CONTINUOUS
 10
95.8289125382
 20
100.0670841217
 11
95.8289125382
 21
94.9901850737
  0
LINE
  5
24E
100
AcDbEntity
  8
0
100
AcDbLine
 62
7
  6
CONTINUOUS
 10
90.7520134902
 20
100.0670841217
 11
95.8289125382
 21
100.0670841217
  0
LINE
  5
24F
100
AcDbEntity
  8
0
100
AcDbLine
 62
7
  6
CONTINUOUS
 10
95.8289125382
 20
105.1439831698
 11
95.8289125382
 21
100.0670841217
  0
LINE
  5
250
100
AcDbEntity
  8
0
100
AcDbLine
 62
2
  6
CONTINUOUS
 10
95.8289125382
 20
100.0336240095
 11
95.8623726505
 21
100.0670841217
  0
LWPOLYLINE
  5
251
100
AcDbEntity
  8
0
100
AcDbPolyline
 62
7
  6
CONTINUOUS
 90
8
 70
0
 10
95.8289125382
 20
100.0670841217
 10
95.8289125382
 20
94.9901850737
 10
97.3977606228
 20
95.2386661995
 10
98.8130389261
 20
95.9597865131
 10
99.9362101469
 20
97.0829577339
 10
100.6573304605
 20
98.4982360372
 10
100.9058115863
 20
100.0670841217
 10
95.8289125382
 20
100.0670841217
  0
HATCH
  5
252
100
AcDbEntity
  8
0
100
AcDbHatch
 62
7
  6
CONTINUOUS
 10
0.0
 20
0.0
 30
0.0
210
0.0
220
0.0
230
1.0
  2
SOLID
 70
1
 71
1
 91
1
 92
1
 93
7
 72
1
 10
95.8289125382
 20
100.0670841217
 11
95.8289125382
 21
94.9901850737
 72
1
 10
95.8289125382
 20
94.9901850737
 11
97.3977606228
 21
95.2386661995
 72
1
 10
97.3977606228
 20
95.2386661995
 11
98.8130389261
 21
95.9597865131
 72
1
 10
98.8130389261
 20
95.9597865131
 11
99.9362101469
 21
97.0829577339
 72
1
 10
99.9362101469
 20
97.0829577339
 11
100.6573304605
 21
98.4982360372
 72
1
 10
100.6573304605
 20
98.4982360372
 11
100.9058115863
 21
100.0670841217
 72
1
 10
100.9058115863
 20
100.0670841217
 11
95.8289125382
 21
100.0670841217
 97
1
330
251
 75
0
 76
1
 98
1
 10
0.0
 20
0.0
  0
LWPOLYLINE
  5
253
100
AcDbEntity
  8
0
100
AcDbPolyline
 62
7
  6
CONTINUOUS
 90
8
 70
0
 10
95.8289125382
 20
100.0670841217
 10
90.7520134902
 20
100.0670841217
 10
91.000494616
 20
101.6359322063
 10
91.7216149296
 20
103.0512105096
 10
92.8447861504
 20
104.1743817304
 10
94.2600644537
 20
104.895502044
 10
95.8289125382
 20
105.1439831698
 10
95.8289125382
 20
100.0670841217
  0
HATCH
  5
254
100
AcDbEntity
  8
0
100
AcDbHatch
 62
7
  6
CONTINUOUS
 10
0.0
 20
0.0
 30
0.0
210
0.0
220
0.0
230
1.0
  2
SOLID
 70
1
 71
1
 91
1
 92
1
 93
7
 72
1
 10
95.8289125382
 20
100.0670841217
 11
90.7520134902
 21
100.0670841217
 72
1
 10
90.7520134902
 20
100.0670841217
 11
91.000494616
 21
101.6359322063
 72
1
 10
91.000494616
 20
101.6359322063
 11
91.7216149296
 21
103.0512105096
 72
1
 10
91.7216149296
 20
103.0512105096
 11
92.8447861504
 21
104.1743817304
 72
1
 10
92.8447861504
 20
104.1743817304
 11
94.2600644537
 21
104.895502044
 72
1
 10
94.2600644537
 20
104.895502044
 11
95.8289125382
 21
105.1439831698
 72
1
 10
95.8289125382
 20
105.1439831698
 11
95.8289125382
 21
100.0670841217
 97
1
330
253
 75
0
 76
1
 98
1
 10
0.0
 20
0.0
  0
ENDBLK
  5
255
100
AcDbEntity
  8
0
  6
BYBLOCK
 62
0
100
AcDbBlockEnd
  0
BLOCK
  5
256
100
AcDbEntity
  8
0
100
AcDbBlockBegin
  2
_FILLED
 70
64
 10
0.0
 20
0.0
  3
_FILLED
  1

  0
SOLID
  5
257
100
AcDbEntity
  8
0
  6
BYBLOCK
 62
0
100
AcDbTrace
 10
0.0
 20
0.0
 11
-1.0
 21
0.1275
 12
-1.0
 22
-0.1275
 13
-1.0
 23
-0.1275
  0
ENDBLK
  5
258
100
AcDbEntity
  8
0
  6
BYBLOCK
 62
0
100
AcDbBlockEnd
  0
BLOCK
  5
259
100
AcDbEntity
  8
0
100
AcDbBlockBegin
  2
_DOT
 70
64
 10
0.0
 20
0.0
  3
_DOT
  1

  0
LWPOLYLINE
  5
25A
100
AcDbEntity
  8
0
  6
BYBLOCK
 62
0
100
AcDbPolyline
 90
2
 70
1
 43
0.1275
 10
-0.06375
 20
0.0
 42
1.0
 10
0.06375
 20
0.0
 42
1.0
  0
LINE
  5
25B
100
AcDbEntity
  8
0
  6
BYBLOCK
 62
0
100
AcDbLine
 10
-0.1275
 20
0.0
 11
-1.0
 21
0.0
  0
ENDBLK
  5
25C
100
AcDbEntity
  8
0
  6
BYBLOCK
 62
0
100
AcDbBlockEnd
  0
BLOCK
  5
25D
100
AcDbEntity
  8
0
100
AcDbBlockBegin
 62
2
  6
CONTINUOUS
  2
*D0
 70
65
 10
0.0
 20
0.0
  3
*D0
  1

  0
MTEXT
  5
25E
100
AcDbEntity
  8
0
100
AcDbMText
 62
2
  6
CONTINUOUS
  7
STANDARD
 71
2
 72
1
 10
498.7083586351
 20
611.2734798831
 30
0.0
 11
1.0
 21
0.0
 31
0.0
 73
2
 44
0.9
  1
198,7\P[7.82]
 40
6.858
 41
25.2904684015
  0
LINE
  5
25F
100
AcDbEntity
  8
0
100
AcDbLine
 62
2
  6
CONTINUOUS
 10
344.3793562959
 20
707.1894798831
 11
508.9472025012
 21
707.1894798831
  0
LINE
  5
260
100
AcDbEntity
  8
0
100
AcDbLine
 62
2
  6
CONTINUOUS
 10
397.1763259421
 20
508.4994798831
 11
508.9472025012
 21
508.4994798831
  0
LINE
  5
261
100
AcDbEntity
  8
0
100
AcDbLine
 62
2
  6
CONTINUOUS
 10
499.4222025012
 20
707.1894798831
 11
499.4222025012
 21
614.7024798831
  0
LINE
  5
262
100
AcDbEntity
  8
0
100
AcDbLine
 62
2
  6
CONTINUOUS
 10
499.4222025012
 20
508.4994798831
 11
499.4222025012
 21
590.6994798831
  0
INSERT
  5
263
100
AcDbEntity
  8
0
100
AcDbBlockReference
 62
2
  6
CONTINUOUS
  2
_FILLED
 10
499.4222025012
 20
707.1894798831
 41
6.0
 42
6.0
 43
6.0
 50
90.0
  0
INSERT
  5
264
100
AcDbEntity
  8
0
100
AcDbBlockReference
 62
2
  6
CONTINUOUS
  2
_FILLED
 10
499.4222025012
 20
508.4994798831
 41
6.0
 42
6.0
 43
6.0
 50
270.0
  0
ENDBLK
  5
265
100
AcDbEntity
  8
0
  6
BYBLOCK
 62
0
100
AcDbBlockEnd
  0
BLOCK
  5
266
100
AcDbEntity
  8
0
100
AcDbBlockBegin
 62
2
  6
CONTINUOUS
  2
*D1
 70
65
 10
0.0
 20
0.0
  3
*D1
  1

  0
MTEXT
  5
267
100
AcDbEntity
  8
0
100
AcDbMText
 62
2
  6
CONTINUOUS
  7
STANDARD
 71
3
 72
1
 10
272.423969184
 20
742.6498987781
 30
0.0
 11
1.0
 21
0.0
 31
0.0
 73
2
 44
0.9
  1
 \fgdt;{\fgdt;n}\fCentury Gothic;10,0{\ftxt.shx;\W0.208178;\H6.858000; } SUSPENSION CONNECTION\P[.39]
 40
6.858
 41
157.7764907063
  0
LINE
  5
268
100
AcDbEntity
  8
0
100
AcDbLine
 62
2
  6
CONTINUOUS
 10
331.4036408852
 20
695.9635067833
 11
291.473969184
 21
739.2208987781
  0
LINE
  5
269
100
AcDbEntity
  8
0
100
AcDbLine
 62
2
  6
CONTINUOUS
 10
291.473969184
 20
739.2208987781
 11
275.852969184
 21
739.2208987781
  0
INSERT
  5
26A
100
AcDbEntity
  8
0
100
AcDbBlockReference
 62
2
  6
CONTINUOUS
  2
_FILLED
 10
331.4036408852
 20
695.9635067833
 41
6.0
 42
6.0
 43
6.0
 50
312.7092264696
  0
ENDBLK
  5
26B
100
AcDbEntity
  8
0
  6
BYBLOCK
 62
0
100
AcDbBlockEnd
  0
BLOCK
  5
26C
100
AcDbEntity
  8
0
100
AcDbBlockBegin
 62
2
  6
CONTINUOUS
  2
*D2
 70
65
 10
0.0
 20
0.0
  3
*D2
  1

  0
MTEXT
  5
26D
100
AcDbEntity
  8
0
100
AcDbMText
 62
2
  6
CONTINUOUS
  7
TEXTSTYLE_1
 71
1
 72
1
 10
407.5757675078
 20
449.123151203
 30
0.0
 11
1.0
 21
0.0
 31
0.0
 73
2
 44
0.9
  1
{\fgdt;n}\fCentury Gothic;173,1\P[6.81]
 40
6.858
 41
33.0067806691
  0
LINE
  5
26E
100
AcDbEntity
  8
0
100
AcDbLine
 62
2
  6
CONTINUOUS
 10
371.026181668
 20
407.7403618933
 11
388.5257675078
 21
445.694151203
  0
LINE
  5
26F
100
AcDbEntity
  8
0
100
AcDbLine
 62
2
  6
CONTINUOUS
 10
388.5257675078
 20
445.694151203
 11
404.1467675078
 21
445.694151203
  0
INSERT
  5
270
100
AcDbEntity
  8
0
100
AcDbBlockReference
 62
2
  6
CONTINUOUS
  2
_FILLED
 10
371.026181668
 20
407.7403618933
 41
6.0
 42
6.0
 43
6.0
 50
245.2467016431
  0
ENDBLK
  5
271
100
AcDbEntity
  8
0
  6
BYBLOCK
 62
0
100
AcDbBlockEnd
  0
BLOCK
  5
272
100
AcDbEntity
  8
0
100
AcDbBlockBegin
 62
2
  6
CONTINUOUS
  2
*D3
 70
65
 10
0.0
 20
0.0
  3
*D3
  1

  0
MTEXT
  5
273
100
AcDbEntity
  8
0
100
AcDbMText
 62
2
  6
CONTINUOUS
  7
STANDARD
 71
2
 72
1
 10
445.2395673023
 20
599.3734798831
 30
0.0
 11
1.0
 21
0.0
 31
0.0
 73
2
 44
0.9
  1
174,9\P[6.89]
 40
6.858
 41
25.2904684015
  0
LINE
  5
274
100
AcDbEntity
  8
0
100
AcDbLine
 62
2
  6
CONTINUOUS
 10
383.4634831464
 20
683.3894798831
 11
455.4784111685
 21
683.3894798831
  0
LINE
  5
275
100
AcDbEntity
  8
0
100
AcDbLine
 62
2
  6
CONTINUOUS
 10
397.1763259421
 20
508.4994798831
 11
455.4784111685
 21
508.4994798831
  0
LINE
  5
276
100
AcDbEntity
  8
0
100
AcDbLine
 62
2
  6
CONTINUOUS
 10
445.9534111685
 20
683.3894798831
 11
445.9534111685
 21
602.8024798831
  0
LINE
  5
277
100
AcDbEntity
  8
0
100
AcDbLine
 62
2
  6
CONTINUOUS
 10
445.9534111685
 20
508.4994798831
 11
445.9534111685
 21
578.7994798831
  0
INSERT
  5
278
100
AcDbEntity
  8
0
100
AcDbBlockReference
 62
2
  6
CONTINUOUS
  2
_FILLED
 10
445.9534111685
 20
683.3894798831
 41
6.0
 42
6.0
 43
6.0
 50
90.0
  0
INSERT
  5
279
100
AcDbEntity
  8
0
100
AcDbBlockReference
 62
2
  6
CONTINUOUS
  2
_FILLED
 10
445.9534111685
 20
508.4994798831
 41
6.0
 42
6.0
 43
6.0
 50
270.0
  0
ENDBLK
  5
27A
100
AcDbEntity
  8
0
  6
BYBLOCK
 62
0
100
AcDbBlockEnd
  0
BLOCK
  5
27B
100
AcDbEntity
  8
0
100
AcDbBlockBegin
 62
2
  6
CONTINUOUS
  2
*D4
 70
65
 10
0.0
 20
0.0
  3
*D4
  1

  0
MTEXT
  5
27C
100
AcDbEntity
  8
0
100
AcDbMText
 62
2
  6
CONTINUOUS
  7
STANDARD
 71
2
 72
1
 10
216.515463001
 20
544.2984798831
 30
0.0
 11
1.0
 21
0.0
 31
0.0
 73
2
 44
0.9
  1
64,3\P[2.53]
 40
6.858
 41
25.2904684015
  0
LINE
  5
27D
100
AcDbEntity
  8
0
100
AcDbLine
 62
2
  6
CONTINUOUS
 10
243.5025309154
 20
508.6994798831
 11
210.3557269416
 21
508.6994798831
  0
LINE
  5
27E
100
AcDbEntity
  8
0
100
AcDbLine
 62
2
  6
CONTINUOUS
 10
330.9825309154
 20
573.0394798831
 11
210.3557269416
 21
573.0394798831
  0
LINE
  5
27F
100
AcDbEntity
  8
0
100
AcDbLine
 62
2
  6
CONTINUOUS
 10
219.8807269416
 20
508.6994798831
 11
219.8807269416
 21
523.7244798831
  0
LINE
  5
280
100
AcDbEntity
  8
0
100
AcDbLine
 62
2
  6
CONTINUOUS
 10
219.8807269416
 20
573.0394798831
 11
219.8807269416
 21
547.7274798831
  0
INSERT
  5
281
100
AcDbEntity
  8
0
100
AcDbBlockReference
 62
2
  6
CONTINUOUS
  2
_FILLED
 10
219.8807269416
 20
508.6994798831
 41
6.0
 42
6.0
 43
6.0
 50
270.0
  0
INSERT
  5
282
100
AcDbEntity
  8
0
100
AcDbBlockReference
 62
2
  6
CONTINUOUS
  2
_FILLED
 10
219.8807269416
 20
573.0394798831
 41
6.0
 42
6.0
 43
6.0
 50
90.0
  0
ENDBLK
  5
283
100
AcDbEntity
  8
0
  6
BYBLOCK
 62
0
100
AcDbBlockEnd
  0
BLOCK
  5
284
100
AcDbEntity
  8
0
100
AcDbBlockBegin
 62
2
  6
CONTINUOUS
  2
*D5
 70
65
 10
0.0
 20
0.0
  3
*D5
  1

  0
MTEXT
  5
285
100
AcDbEntity
  8
0
100
AcDbMText
 62
2
  6
CONTINUOUS
  7
TEXTSTYLE_1
 71
3
 72
1
 10
970.4542325662
 20
248.0116072936
 30
0.0
 11
1.0
 21
0.0
 31
0.0
 73
2
 44
0.9
  1
{\fgdt;n}\fCentury Gothic;5,0{\ftxt.shx;\W0.981413;\H6.858000; }WIRE ENTRY\P[.20]
 40
6.858
 41
81.8031078067
  0
LINE
  5
286
100
AcDbEntity
  8
0
100
AcDbLine
 62
2
  6
CONTINUOUS
 10
1051.732272206
 20
302.9505117935
 11
989.5042325662
 21
244.5826072936
  0
LINE
  5
287
100
AcDbEntity
  8
0
100
AcDbLine
 62
2
  6
CONTINUOUS
 10
989.5042325662
 20
244.5826072936
 11
973.8832325662
 21
244.5826072936
  0
INSERT
  5
288
100
AcDbEntity
  8
0
100
AcDbBlockReference
 62
2
  6
CONTINUOUS
  2
_FILLED
 10
1051.732272206
 20
302.9505117935
 41
6.0
 42
6.0
 43
6.0
 50
43.166655059
  0
ENDBLK
  5
289
100
AcDbEntity
  8
0
  6
BYBLOCK
 62
0
100
AcDbBlockEnd
  0
BLOCK
  5
28A
100
AcDbEntity
  8
0
100
AcDbBlockBegin
 62
2
  6
CONTINUOUS
  2
*D6
 70
65
 10
0.0
 20
0.0
  3
*D6
  1

  0
MTEXT
  5
28B
100
AcDbEntity
  8
0
100
AcDbMText
 62
2
  6
CONTINUOUS
  7
STANDARD
 71
3
 72
1
 10
268.0451655123
 20
723.5290630725
 30
0.0
 11
1.0
 21
0.0
 31
0.0
 73
2
 44
0.9
  1
2X\fgdt;{\fgdt;n}\fCentury Gothic;8,0\P[.32]
 40
6.858
 41
33.516669145
  0
LINE
  5
28C
100
AcDbEntity
  8
0
100
AcDbLine
 62
2
  6
CONTINUOUS
 10
319.4336931624
 20
695.0846089075
 11
293.8256933933
 21
720.1000630725
  0
LINE
  5
28D
100
AcDbEntity
  8
0
100
AcDbLine
 62
2
  6
CONTINUOUS
 10
293.8256933933
 20
720.1000630725
 11
278.2046933933
 21
720.1000630725
  0
INSERT
  5
28E
100
AcDbEntity
  8
0
100
AcDbBlockReference
 62
2
  6
CONTINUOUS
  2
_FILLED
 10
319.4336931624
 20
695.0846089075
 41
6.0
 42
6.0
 43
6.0
 50
315.6706142964
  0
ENDBLK
  5
28F
100
AcDbEntity
  8
0
  6
BYBLOCK
 62
0
100
AcDbBlockEnd
  0
BLOCK
  5
290
100
AcDbEntity
  8
0
100
AcDbBlockBegin
 62
2
  6
CONTINUOUS
  2
*D7
 70
65
 10
0.0
 20
0.0
  3
*D7
  1

  0
MTEXT
  5
291
100
AcDbEntity
  8
0
100
AcDbMText
 62
2
  6
CONTINUOUS
  7
STANDARD
 71
2
 72
1
 10
190.2013343967
 20
603.9234798831
 30
0.0
 11
1.0
 21
0.0
 31
0.0
 73
2
 44
0.9
  1
183,6\P[7.23]
 40
6.858
 41
25.2904684015
  0
LINE
  5
292
100
AcDbEntity
  8
0
100
AcDbLine
 62
2
  6
CONTINUOUS
 10
243.5025309154
 20
508.6994798831
 11
181.3901782629
 21
508.6994798831
  0
LINE
  5
293
100
AcDbEntity
  8
0
100
AcDbLine
 62
2
  6
CONTINUOUS
 10
317.5325309154
 20
692.2894798831
 11
181.3901782629
 21
692.2894798831
  0
LINE
  5
294
100
AcDbEntity
  8
0
100
AcDbLine
 62
2
  6
CONTINUOUS
 10
190.9151782629
 20
508.6994798831
 11
190.9151782629
 21
583.3494798831
  0
LINE
  5
295
100
AcDbEntity
  8
0
100
AcDbLine
 62
2
  6
CONTINUOUS
 10
190.9151782629
 20
692.2894798831
 11
190.9151782629
 21
607.3524798831
  0
INSERT
  5
296
100
AcDbEntity
  8
0
100
AcDbBlockReference
 62
2
  6
CONTINUOUS
  2
_FILLED
 10
190.9151782629
 20
508.6994798831
 41
6.0
 42
6.0
 43
6.0
 50
270.0
  0
INSERT
  5
297
100
AcDbEntity
  8
0
100
AcDbBlockReference
 62
2
  6
CONTINUOUS
  2
_FILLED
 10
190.9151782629
 20
692.2894798831
 41
6.0
 42
6.0
 43
6.0
 50
90.0
  0
ENDBLK
  5
298
100
AcDbEntity
  8
0
  6
BYBLOCK
 62
0
100
AcDbBlockEnd
  0
BLOCK
  5
299
100
AcDbEntity
  8
0
100
AcDbBlockBegin
 62
2
  6
CONTINUOUS
  2
*D8
 70
65
 10
0.0
 20
0.0
  3
*D8
  1

  0
MTEXT
  5
29A
100
AcDbEntity
  8
0
100
AcDbMText
 62
2
  6
CONTINUOUS
  7
STANDARD
 71
1
 72
1
 10
355.4544514638
 20
772.1891172383
 30
0.0
 11
1.0
 21
0.0
 31
0.0
 73
2
 44
0.9
  1
25,0\P[.98]
 40
6.858
 41
19.9876282528
  0
LINE
  5
29B
100
AcDbEntity
  8
0
100
AcDbLine
 62
2
  6
CONTINUOUS
 10
322.2950309154
 20
697.0519798831
 11
322.2950309154
 21
778.2851172383
  0
LINE
  5
29C
100
AcDbEntity
  8
0
100
AcDbLine
 62
2
  6
CONTINUOUS
 10
347.2950309154
 20
697.0519798831
 11
347.2950309154
 21
778.2851172383
  0
LINE
  5
29D
100
AcDbEntity
  8
0
100
AcDbLine
 62
2
  6
CONTINUOUS
 10
322.2950309154
 20
768.7601172383
 11
334.7950309154
 21
768.7601172383
  0
LINE
  5
29E
100
AcDbEntity
  8
0
100
AcDbLine
 62
2
  6
CONTINUOUS
 10
347.2950309154
 20
768.7601172383
 11
334.7950309154
 21
768.7601172383
  0
LINE
  5
29F
100
AcDbEntity
  8
0
100
AcDbLine
 62
2
  6
CONTINUOUS
 10
334.7950309154
 20
768.7601172383
 11
352.0254514638
 21
768.7601172383
  0
INSERT
  5
2A0
100
AcDbEntity
  8
0
100
AcDbBlockReference
 62
2
  6
CONTINUOUS
  2
_FILLED
 10
322.2950309154
 20
768.7601172383
 41
6.0
 42
6.0
 43
6.0
 50
180.0
  0
INSERT
  5
2A1
100
AcDbEntity
  8
0
100
AcDbBlockReference
 62
2
  6
CONTINUOUS
  2
_FILLED
 10
347.2950309154
 20
768.7601172383
 41
6.0
 42
6.0
 43
6.0
  0
ENDBLK
  5
2A2
100
AcDbEntity
  8
0
  6
BYBLOCK
 62
0
100
AcDbBlockEnd
  0
BLOCK
  5
2A3
100
AcDbEntity
  8
0
100
AcDbBlockBegin
 62
2
  6
CONTINUOUS
  2
*D9
 70
65
 10
0.0
 20
0.0
  3
*D9
  1

  0
MTEXT
  5
2A4
100
AcDbEntity
  8
0
100
AcDbMText
 62
2
  6
CONTINUOUS
  7
STANDARD
 71
1
 72
1
 10
1187.7245623941
 20
364.2891574644
 30
0.0
 11
1.0
 21
0.0
 31
0.0
 73
2
 44
0.9
  1
24,5\P[.96]
 40
6.858
 41
19.9876282528
  0
LINE
  5
2A5
100
AcDbEntity
  8
0
100
AcDbLine
 62
2
  6
CONTINUOUS
 10
1058.318189446
 20
329.1608186574
 11
1178.1995623941
 21
329.1608186574
  0
LINE
  5
2A6
100
AcDbEntity
  8
0
100
AcDbLine
 62
2
  6
CONTINUOUS
 10
1058.318189446
 20
304.6608186574
 11
1178.1995623941
 21
304.6608186574
  0
LINE
  5
2A7
100
AcDbEntity
  8
0
100
AcDbLine
 62
2
  6
CONTINUOUS
 10
1168.6745623941
 20
329.1608186574
 11
1168.6745623941
 21
316.9108186574
  0
LINE
  5
2A8
100
AcDbEntity
  8
0
100
AcDbLine
 62
2
  6
CONTINUOUS
 10
1168.6745623941
 20
316.9108186574
 11
1168.6745623941
 21
360.8601574644
  0
LINE
  5
2A9
100
AcDbEntity
  8
0
100
AcDbLine
 62
2
  6
CONTINUOUS
 10
1168.6745623941
 20
360.8601574644
 11
1184.2955623941
 21
360.8601574644
  0
LINE
  5
2AA
100
AcDbEntity
  8
0
100
AcDbLine
 62
2
  6
CONTINUOUS
 10
1168.6745623941
 20
304.6608186574
 11
1168.6745623941
 21
316.9108186574
  0
INSERT
  5
2AB
100
AcDbEntity
  8
0
100
AcDbBlockReference
 62
2
  6
CONTINUOUS
  2
_FILLED
 10
1168.6745623941
 20
329.1608186574
 41
6.0
 42
6.0
 43
6.0
 50
90.0
  0
INSERT
  5
2AC
100
AcDbEntity
  8
0
100
AcDbBlockReference
 62
2
  6
CONTINUOUS
  2
_FILLED
 10
1168.6745623941
 20
304.6608186574
 41
6.0
 42
6.0
 43
6.0
 50
270.0
  0
ENDBLK
  5
2AD
100
AcDbEntity
  8
0
  6
BYBLOCK
 62
0
100
AcDbBlockEnd
  0
BLOCK
  5
2AE
100
AcDbEntity
  8
0
100
AcDbBlockBegin
 62
2
  6
CONTINUOUS
  2
*D10
 70
65
 10
0.0
 20
0.0
  3
*D10
  1

  0
MTEXT
  5
2AF
100
AcDbEntity
  8
0
100
AcDbMText
 62
2
  6
CONTINUOUS
  7
STANDARD
 71
1
 72
1
 10
1162.6036055762
 20
435.9219249206
 30
0.0
 11
1.0
 21
0.0
 31
0.0
 73
2
 44
0.9
  1
R43,9\P[1.73]
 40
6.858
 41
25.2904684015
  0
LINE
  5
2B0
100
AcDbEntity
  8
0
100
AcDbLine
 62
2
  6
CONTINUOUS
 10
1082.3920884976
 20
362.2696502745
 11
1143.5536055762
 21
432.4929249206
  0
LINE
  5
2B1
100
AcDbEntity
  8
0
100
AcDbLine
 62
2
  6
CONTINUOUS
 10
1143.5536055762
 20
432.4929249206
 11
1159.1746055762
 21
432.4929249206
  0
INSERT
  5
2B2
100
AcDbEntity
  8
0
100
AcDbBlockReference
 62
2
  6
CONTINUOUS
  2
_FILLED
 10
1082.3920884976
 20
362.2696502745
 41
6.0
 42
6.0
 43
6.0
 50
228.9455063015
  0
ENDBLK
  5
2B3
100
AcDbEntity
  8
0
  6
BYBLOCK
 62
0
100
AcDbBlockEnd
  0
ENDSEC
  0
SECTION
  2
ENTITIES
  0
MTEXT
  5
2B4
100
AcDbEntity
  8
0
100
AcDbMText
 62
2
  6
CONTINUOUS
  7
TEXTSTYLE_2
 71
1
 72
1
 10
17.303358623
 20
130.1385821803
 30
0.0
 11
1.0
 21
0.0
 31
0.0
 73
2
 44
1.0
  1
A
 40
7.14375
 41
7.3562035316
  0
MTEXT
  5
2B5
100
AcDbEntity
  8
0
100
AcDbMText
 62
2
  6
CONTINUOUS
  7
TEXTSTYLE_2
 71
1
 72
1
 10
17.2751362823
 20
326.2550145181
 30
0.0
 11
1.0
 21
0.0
 31
0.0
 73
2
 44
1.0
  1
B
 40
7.14375
 41
5.7096886617
  0
MTEXT
  5
2B6
100
AcDbEntity
  8
0
100
AcDbMText
 62
2
  6
CONTINUOUS
  7
TEXTSTYLE_2
 71
1
 72
1
 10
17.2765034564
 20
522.4075651207
 30
0.0
 11
1.0
 21
0.0
 31
0.0
 73
2
 44
1.0
  1
C
 40
7.14375
 41
8.0997908922
  0
MTEXT
  5
2B7
100
AcDbEntity
  8
0
100
AcDbMText
 62
2
  6
CONTINUOUS
  7
TEXTSTYLE_2
 71
1
 72
1
 10
17.2617828398
 20
718.6354574308
 30
0.0
 11
1.0
 21
0.0
 31
0.0
 73
2
 44
1.0
  1
D
 40
7.14375
 41
7.4093169145
  0
MTEXT
  5
2B8
100
AcDbEntity
  8
0
100
AcDbMText
 62
2
  6
CONTINUOUS
  7
TEXTSTYLE_2
 71
1
 72
1
 10
1094.1247944198
 20
35.4499536956
 30
0.0
 11
1.0
 21
0.0
 31
0.0
 73
2
 44
1.0000002
  1
SCALE:  
 40
3.968751
 41
21.4666643309
  0
MTEXT
  5
2B9
100
AcDbEntity
  8
0
100
AcDbMText
 62
2
  6
CONTINUOUS
  7
TEXTSTYLE_2
 71
1
 72
1
 10
1094.4531825774
 20
55.7068119216
 30
0.0
 11
1.0
 21
0.0
 31
0.0
 73
2
 44
1.0000002
  1
SIZE
 40
3.968751
 41
9.6341799368
  0
MTEXT
  5
2BA
100
AcDbEntity
  8
0
100
AcDbMText
 62
2
  6
CONTINUOUS
  7
TEXTSTYLE_2
 71
1
 72
1
 10
1129.5555800754
 20
35.1657869636
 30
0.0
 11
1.0
 21
0.0
 31
0.0
 73
2
 44
1.0000002
  1
CAD FILE:                   
 40
3.996
 41
54.755598513
  0
MTEXT
  5
2BB
100
AcDbEntity
  8
0
100
AcDbMText
 62
2
  6
CONTINUOUS
  7
TEXTSTYLE_2
 71
1
 72
1
 10
1144.4049645501
 20
55.5683020218
 30
0.0
 11
1.0
 21
0.0
 31
0.0
 73
2
 44
1.0000002
  1
DWG. NO.
 40
3.968751
 41
27.7517495576
  0
MTEXT
  5
2BC
100
AcDbEntity
  8
0
100
AcDbMText
 62
2
  6
CONTINUOUS
  7
TEXTSTYLE_2
 71
1
 72
1
 10
1096.8530627537
 20
46.9609103127
 30
0.0
 11
1.0
 21
0.0
 31
0.0
 73
2
 44
1.0000002
  1
B
 40
5.556249
 41
4.4408681599
  0
MTEXT
  5
2BD
100
AcDbEntity
  8
0
100
AcDbMText
 62
2
  6
CONTINUOUS
  7
TEXTSTYLE_2
 71
1
 72
1
 10
1218.3446352486
 20
35.3128752115
 30
0.0
 11
1.0
 21
0.0
 31
0.0
 73
2
 44
1.0000002
  1
SHEET:
 40
3.968751
 41
16.3618767993
  0
MTEXT
  5
2BE
100
AcDbEntity
  8
0
100
AcDbMText
 62
2
  6
CONTINUOUS
  7
TEXTSTYLE_2
 71
1
 72
1
 10
991.0292904373
 20
106.3557392941
 30
0.0
 11
1.0
 21
0.0
 31
0.0
 73
2
 44
1.0000002
  1
DRAWN BY
 40
3.968751
 41
28.946800974
  0
MTEXT
  5
2BF
100
AcDbEntity
  8
0
100
AcDbMText
 62
2
  6
CONTINUOUS
  7
TEXTSTYLE_2
 71
1
 72
1
 10
991.4318706134
 20
86.226858051
 30
0.0
 11
1.0
 21
0.0
 31
0.0
 73
2
 44
1.0000002
  1
MECH ENGINEER
 40
3.968751
 41
44.3791933383
  0
MTEXT
  5
2C0
100
AcDbEntity
  8
0
100
AcDbMText
 62
2
  6
CONTINUOUS
  7
TEXTSTYLE_2
 71
1
 72
1
 10
991.4318706134
 20
66.08340705
 30
0.0
 11
1.0
 21
0.0
 31
0.0
 73
2
 44
1.0000002
  1
TECH DIRECTOR
 40
3.968751
 41
41.8710607361
  0
MTEXT
  5
2C1
100
AcDbEntity
  8
0
100
AcDbMText
 62
2
  6
CONTINUOUS
  7
TEXTSTYLE_2
 71
1
 72
1
 10
991.4318706134
 20
45.616053621
 30
0.0
 11
1.0
 21
0.0
 31
0.0
 73
2
 44
1.0000002
  1
MFG ENGINEER
 40
3.968751
 41
40.6465018773
  0
MTEXT
  5
2C2
100
AcDbEntity
  8
0
100
AcDbMText
 62
2
  6
CONTINUOUS
  7
TEXTSTYLE_2
 71
1
 72
1
 10
899.5505017228
 20
112.017802146
 30
0.0
 11
1.0
 21
0.0
 31
0.0
 73
2
 44
1.0000002
  1
DECIMALS                    ANGLES
 40
3.968751
 41
79.2864976729
  0
MTEXT
  5
2C3
100
AcDbEntity
  8
0
100
AcDbMText
 62
2
  6
CONTINUOUS
  7
TEXTSTYLE_2
 71
1
 72
1
 10
889.4663386414
 20
81.236342353
 30
0.0
 11
1.0
 21
0.0
 31
0.0
 73
2
 44
1.0000002
  1
MATERIAL
 40
3.968751
 41
25.759997197
  0
MTEXT
  5
2C4
100
AcDbEntity
  8
0
100
AcDbMText
 62
2
  6
CONTINUOUS
  7
TEXTSTYLE_2
 71
1
 72
1
 10
889.7385906409
 20
67.3501620973
 30
0.0
 11
1.0
 21
0.0
 31
0.0
 73
2
 44
1.0000002
  1
FINISH
 40
3.968751
 41
15.8159891152
  0
MTEXT
  5
2C5
100
AcDbEntity
  8
0
100
AcDbMText
 62
2
  6
CONTINUOUS
  7
TEXTSTYLE_2
 71
1
 72
1
 10
894.9241619148
 20
51.5670869765
 30
0.0
 11
1.0
 21
0.0
 31
0.0
 73
2
 44
1.0000002
  1
DO  NOT  SCALE  DRAWING
 40
4.7625
 41
87.9557620818
  0
MTEXT
  5
2C6
100
AcDbEntity
  8
0
100
AcDbMText
 62
2
  6
CONTINUOUS
  7
TEXTSTYLE_2
 71
1
 72
1
 10
1188.6446407769
 20
26.3130106609
 30
0.0
 11
1.0
 21
0.0
 31
0.0
 73
2
 44
1.0
  1
1
 40
7.14375
 41
5.5237918216
  0
MTEXT
  5
2C7
100
AcDbEntity
  8
0
100
AcDbMText
 62
2
  6
CONTINUOUS
  7
TEXTSTYLE_2
 71
1
 72
1
 10
1033.352433842
 20
26.5611509359
 30
0.0
 11
1.0
 21
0.0
 31
0.0
 73
2
 44
1.0
  1
2
 40
7.14375
 41
5.5237918216
  0
MTEXT
  5
2C8
100
AcDbEntity
  8
0
100
AcDbMText
 62
2
  6
CONTINUOUS
  7
TEXTSTYLE_2
 71
1
 72
1
 10
877.9575111125
 20
26.4029445874
 30
0.0
 11
1.0
 21
0.0
 31
0.0
 73
2
 44
1.0
  1
3
 40
7.14375
 41
5.5237918216
  0
MTEXT
  5
2C9
100
AcDbEntity
  8
0
100
AcDbMText
 62
2
  6
CONTINUOUS
  7
TEXTSTYLE_2
 71
1
 72
1
 10
722.8116000434
 20
26.4955421836
 30
0.0
 11
1.0
 21
0.0
 31
0.0
 73
2
 44
1.0
  1
4
 40
7.14375
 41
5.5237918216
  0
MTEXT
  5
2CA
100
AcDbEntity
  8
0
100
AcDbMText
 62
2
  6
CONTINUOUS
  7
TEXTSTYLE_2
 71
1
 72
1
 10
567.6813016454
 20
26.4167420587
 30
0.0
 11
1.0
 21
0.0
 31
0.0
 73
2
 44
1.0
  1
5
 40
7.14375
 41
5.5237918216
  0
MTEXT
  5
2CB
100
AcDbEntity
  8
0
100
AcDbMText
 62
2
  6
CONTINUOUS
  7
TEXTSTYLE_2
 71
1
 72
1
 10
412.405071533
 20
26.6287393093
 30
0.0
 11
1.0
 21
0.0
 31
0.0
 73
2
 44
1.0
  1
6
 40
7.14375
 41
5.5237918216
  0
MTEXT
  5
2CC
100
AcDbEntity
  8
0
100
AcDbMText
 62
2
  6
CONTINUOUS
  7
TEXTSTYLE_2
 71
1
 72
1
 10
257.0955458891
 20
26.5065972115
 30
0.0
 11
1.0
 21
0.0
 31
0.0
 73
2
 44
1.0
  1
7
 40
7.14375
 41
5.5237918216
  0
MTEXT
  5
2CD
100
AcDbEntity
  8
0
100
AcDbMText
 62
2
  6
CONTINUOUS
  7
TEXTSTYLE_2
 71
1
 72
1
 10
101.7215518967
 20
26.3981720698
 30
0.0
 11
1.0
 21
0.0
 31
0.0
 73
2
 44
1.0
  1
8
 40
7.14375
 41
5.5237918216
  0
MTEXT
  5
2CE
100
AcDbEntity
  8
0
100
AcDbMText
 62
2
  6
CONTINUOUS
  7
TEXTSTYLE_2
 71
1
 72
1
 10
103.8786804661
 20
820.8554926366
 30
0.0
 11
1.0
 21
0.0
 31
0.0
 73
2
 44
1.0000002
  1
8
 40
7.14375
 41
5.5237918216
  0
MTEXT
  5
2CF
100
AcDbEntity
  8
0
100
AcDbMText
 62
2
  6
CONTINUOUS
  7
TEXTSTYLE_2
 71
1
 72
1
 10
889.2376667245
 20
37.2253502697
 30
0.0
 11
1.0
 21
0.0
 31
0.0
 73
2
 44
1.0000002
  1
PROJECTION SYMBOL
 40
4.71
 41
67.9885873606
  0
MTEXT
  5
2D0
100
AcDbEntity
  8
0
100
AcDbMText
 62
2
  6
CONTINUOUS
  7
TEXTSTYLE_2
 71
1
 72
1
 10
1023.4666730879
 20
114.726792462
 30
0.0
 11
1.0
 21
0.0
 31
0.0
 73
2
 44
1.0000002
  1
APPROVALS
 40
3.968751
 41
32.0893435874
  0
MTEXT
  5
2D1
100
AcDbEntity
  8
0
100
AcDbMText
 62
2
  6
CONTINUOUS
  7
TEXTSTYLE_2
 71
1
 72
1
 10
257.3446706042
 20
820.9225580863
 30
0.0
 11
1.0
 21
0.0
 31
0.0
 73
2
 44
1.0000002
  1
7
 40
7.14375
 41
5.5237918216
  0
MTEXT
  5
2D2
100
AcDbEntity
  8
0
100
AcDbMText
 62
2
  6
CONTINUOUS
  7
TEXTSTYLE_2
 71
1
 72
1
 10
567.6969917909
 20
820.6228119085
 30
0.0
 11
1.0
 21
0.0
 31
0.0
 73
2
 44
1.0
  1
5
 40
7.14375
 41
5.5237918216
  0
MTEXT
  5
2D3
100
AcDbEntity
  8
0
100
AcDbMText
 62
2
  6
CONTINUOUS
  7
TEXTSTYLE_2
 71
1
 72
1
 10
722.9289113492
 20
820.6483371217
 30
0.0
 11
1.0
 21
0.0
 31
0.0
 73
2
 44
1.0
  1
4
 40
7.14375
 41
5.5237918216
  0
MTEXT
  5
2D4
100
AcDbEntity
  8
0
100
AcDbMText
 62
2
  6
CONTINUOUS
  7
TEXTSTYLE_2
 71
1
 72
1
 10
878.0989335242
 20
820.6298988622
 30
0.0
 11
1.0
 21
0.0
 31
0.0
 73
2
 44
1.0
  1
3
 40
7.14375
 41
5.5237918216
  0
MTEXT
  5
2D5
100
AcDbEntity
  8
0
100
AcDbMText
 62
2
  6
CONTINUOUS
  7
TEXTSTYLE_2
 71
1
 72
1
 10
1033.3996353653
 20
820.7881887178
 30
0.0
 11
1.0
 21
0.0
 31
0.0
 73
2
 44
1.0
  1
2
 40
7.14375
 41
5.5237918216
  0
MTEXT
  5
2D6
100
AcDbEntity
  8
0
100
AcDbMText
 62
2
  6
CONTINUOUS
  7
TEXTSTYLE_2
 71
1
 72
1
 10
1188.93184241
 20
820.8503245783
 30
0.0
 11
1.0
 21
0.0
 31
0.0
 73
2
 44
1.0
  1
1
 40
7.14375
 41
5.5237918216
  0
MTEXT
  5
2D7
100
AcDbEntity
  8
0
100
AcDbMText
 62
2
  6
CONTINUOUS
  7
TEXTSTYLE_2
 71
1
 72
1
 10
1271.5182376409
 20
718.4243643106
 30
0.0
 11
1.0
 21
0.0
 31
0.0
 73
2
 44
1.0
  1
D
 40
7.14375
 41
7.4093169145
  0
MTEXT
  5
2D8
100
AcDbEntity
  8
0
100
AcDbMText
 62
2
  6
CONTINUOUS
  7
TEXTSTYLE_2
 71
1
 72
1
 10
1270.7277841169
 20
522.36098242
 30
0.0
 11
1.0
 21
0.0
 31
0.0
 73
2
 44
1.0
  1
C
 40
7.14375
 41
8.0997908922
  0
MTEXT
  5
2D9
100
AcDbEntity
  8
0
100
AcDbMText
 62
2
  6
CONTINUOUS
  7
TEXTSTYLE_2
 71
1
 72
1
 10
1272.9082672514
 20
325.9660864054
 30
0.0
 11
1.0
 21
0.0
 31
0.0
 73
2
 44
1.0
  1
B
 40
7.14375
 41
5.7096886617
  0
MTEXT
  5
2DA
100
AcDbEntity
  8
0
100
AcDbMText
 62
2
  6
CONTINUOUS
  7
TEXTSTYLE_2
 71
1
 72
1
 10
1271.3396496506
 20
129.8714007838
 30
0.0
 11
1.0
 21
0.0
 31
0.0
 73
2
 44
1.0
  1
A
 40
7.14375
 41
7.3562035316
  0
MTEXT
  5
2DB
100
AcDbEntity
  8
0
100
AcDbMText
 62
2
  6
CONTINUOUS
  7
TEXTSTYLE_2
 71
1
 72
1
 10
889.9641275077
 20
139.4964380938
 30
0.0
 11
1.0
 21
0.0
 31
0.0
 73
2
 44
1.2
  1
UNLESS  OTHERWISE  SPECIFIED\PDIMENSIONS ARE IN MM [IN]\PTOLERANCES ARE:
 40
4.7625
 41
96.2768587361
  0
MTEXT
  5
2DC
100
AcDbEntity
  8
0
100
AcDbMText
 62
2
  6
CONTINUOUS
  7
TEXTSTYLE_2
 71
1
 72
1
 10
993.5607227884
 20
137.2422846929
 30
0.0
 11
1.0
 21
0.0
 31
0.0
 73
2
 44
1.0000002
  1
CAD GENERATED DRAWING\PDO NOT MANUALLY UPDATE
 40
4.7625
 41
89.4960501859
  0
MTEXT
  5
2DD
100
AcDbEntity
  8
0
100
AcDbMText
 62
2
  6
CONTINUOUS
  7
TEXTSTYLE_2
 71
1
 72
1
 10
1248.3795575665
 20
55.703749844
 30
0.0
 11
1.0
 21
0.0
 31
0.0
 73
2
 44
1.0000002
  1
REV
 40
3.968751
 41
10.2095750632
  0
MTEXT
  5
2DE
100
AcDbEntity
  8
0
100
AcDbMText
 62
2
  6
CONTINUOUS
  7
TEXTSTYLE_2
 71
1
 72
1
 10
412.4140092614
 20
820.7340564292
 30
0.0
 11
1.0
 21
0.0
 31
0.0
 73
2
 44
1.0
  1
6
 40
7.14375
 41
5.5237918216
  0
MTEXT
  5
2DF
100
AcDbEntity
  8
0
100
AcDbMText
 62
2
  6
CONTINUOUS
  7
TEXTSTYLE_2
 71
1
 72
1
 10
1107.0620110848
 20
55.3726647925
 30
0.0
 11
1.0
 21
0.0
 31
0.0
 73
2
 44
1.0000002
  1
CAGE CODE
 40
3.968751
 41
34.3024017658
  0
MTEXT
  5
2E0
100
AcDbEntity
  8
0
100
AcDbMText
 62
2
  6
CONTINUOUS
  7
TEXTSTYLE_2
 71
1
 72
1
 10
1112.0930627537
 20
46.9609103127
 30
0.0
 11
1.0
 21
0.0
 31
0.0
 73
2
 44
1.0000002
  1
00PW4
 40
5.556249
 41
24.9101720967
  0
MTEXT
  5
2E1
100
AcDbEntity
  8
0
100
AcDbMText
 62
2
  6
CONTINUOUS
  7
TEXTSTYLE_2
 71
1
 72
1
 10
1172.5294951748
 20
128.7425614009
 30
0.0
 11
1.0
 21
0.0
 31
0.0
 73
2
 44
1.0000002
  1
1675 MACARTHUR BOULEVARD\PCOSTA MESA, CA 92626 USA
 40
4.572
 41
94.6692936803
  0
MTEXT
  5
2E2
100
AcDbEntity
  8
0
100
AcDbMText
 62
2
  6
CONTINUOUS
  7
TEXTSTYLE_2
 71
1
 72
1
 10
1173.174539098
 20
139.5210999619
 30
0.0
 11
1.0
 21
0.0
 31
0.0
 73
2
 44
1.0000002
  1
QSC, LLC
 40
7.62
 41
47.532936803
  0
MTEXT
  5
2E3
100
AcDbEntity
  8
0
100
AcDbMText
 62
2
  6
CONTINUOUS
  7
TEXTSTYLE_2
 71
3
 72
1
 10
1267.9940879957
 20
22.2442884025
 30
0.0
 11
1.0
 21
0.0
 31
0.0
 73
2
 44
1.0000002
  1
Form: QMS100206 Rev C
 40
3.0
 41
49.0817843866
  0
MTEXT
  5
2E4
100
AcDbEntity
  8
0
100
AcDbMText
 62
2
  6
CONTINUOUS
  7
TEXTSTYLE_2
 71
1
 72
1
 10
28.8203183321
 20
809.9723163963
 30
0.0
 11
1.0
 21
0.0
 31
0.0
 73
2
 44
1.0000002
  3
THIS DOCUMENT CONTAINS CONFIDENTIAL OR PROPRIETARY INFORMATION \PWHICH IS THE PROPERTY OF QSC, LLC, THAT MAY NOT BE DISCLOSED, \PREPRODUCED OR USED WITHOUT EXPRESS WRITTEN CONSENT FROM QSC, \PLLC. NO PORTION OF THIS DOCUMENT MAY BE REPRODUCED,\PREDIS
  1
TRUBUTED, OR OTHERWISE DISCLOSED TO ANY THIRD PARTY WITHOUT \PQSC'S WRITTEN PERMISSION.
 40
3.968751
 41
200.6063470149
  0
DIMENSION
  5
2E5
100
AcDbEntity
  8
0
100
AcDbDimension
 62
2
  6
CONTINUOUS
  2
*D0
 10
499.4222025012
 20
508.4994798831
 11
499.4222025012
 21
602.7009798831
 70
160
 71
2
 72
2
 41
0.9
 42
198.69
  1
<>\P[]
  3
DIMSTYLE_1
100
AcDbAlignedDimension
 13
342.7918562959
 23
707.1894798831
 14
395.5888259421
 24
508.4994798831
 50
270.0
100
AcDbRotatedDimension
  0
DIMENSION
  5
2E6
100
AcDbEntity
  8
0
100
AcDbDimension
 62
2
  6
CONTINUOUS
  2
*D1
 10
331.4036408852
 20
695.9635067833
 11
194.8614338681
 21
734.0773987781
 70
163
 71
3
 72
2
 41
0.9
 42
10.0
  1
 %%c<> SUSPENSION CONNECTION\P[]
  3
DIMSTYLE_2
100
AcDbDiametricDimension
 15
338.1864209456
 25
688.615452983
  0
DIMENSION
  5
2E7
100
AcDbEntity
  8
0
100
AcDbDimension
 62
2
  6
CONTINUOUS
  2
*D2
 10
371.026181668
 20
407.7403618933
 11
424.7930017085
 21
440.550651203
 70
163
 71
1
 72
2
 41
0.9
 42
173.06
  1
%%c<>\P[]
  3
DIMSTYLE_3
100
AcDbDiametricDimension
 15
298.5638801629
 25
250.5812754216
  0
DIMENSION
  5
2E8
100
AcDbEntity
  8
0
100
AcDbDimension
 62
2
  6
CONTINUOUS
  2
*D3
 10
445.9534111685
 20
508.4994798831
 11
445.9534111685
 21
590.8009798831
 70
160
 71
2
 72
2
 41
0.9
 42
174.89
  1
<>\P[]
  3
DIMSTYLE_1
100
AcDbAlignedDimension
 13
381.8759831464
 23
683.3894798831
 14
395.5888259421
 24
508.4994798831
 50
270.0
100
AcDbRotatedDimension
  0
DIMENSION
  5
2E9
100
AcDbEntity
  8
0
100
AcDbDimension
 62
2
  6
CONTINUOUS
  2
*D4
 10
219.8807269416
 20
573.0394798831
 11
219.8807269416
 21
535.7259798831
 70
160
 71
2
 72
2
 41
0.9
 42
64.34
  1
<>\P[]
  3
DIMSTYLE_1
100
AcDbAlignedDimension
 13
245.0900309154
 23
508.6994798831
 14
332.5700309154
 24
573.0394798831
 50
90.0
100
AcDbRotatedDimension
  0
DIMENSION
  5
2EA
100
AcDbEntity
  8
0
100
AcDbDimension
 62
2
  6
CONTINUOUS
  2
*D5
 10
1051.732272206
 20
302.9505117935
 11
929.5526786628
 21
239.4391072936
 70
163
 71
3
 72
2
 41
0.9
 42
5.0
  1
%%c<>WIRE ENTRY\P[]
  3
DIMSTYLE_2
100
AcDbDiametricDimension
 15
1055.379106686
 25
306.3711255214
  0
DIMENSION
  5
2EB
100
AcDbEntity
  8
0
100
AcDbDimension
 62
2
  6
CONTINUOUS
  2
*D6
 10
319.4336931624
 20
695.0846089075
 11
254.6520948803
 21
714.9565630725
 70
163
 71
3
 72
2
 41
0.9
 42
8.0
  1
2X%%c<>\P[]
  3
DIMSTYLE_2
100
AcDbDiametricDimension
 15
325.1563686685
 25
689.4943508587
  0
DIMENSION
  5
2EC
100
AcDbEntity
  8
0
100
AcDbDimension
 62
2
  6
CONTINUOUS
  2
*D7
 10
190.9151782629
 20
692.2894798831
 11
190.9151782629
 21
595.3509798831
 70
160
 71
2
 72
2
 41
0.9
 42
183.59
  1
<>\P[]
  3
DIMSTYLE_1
100
AcDbAlignedDimension
 13
245.0900309154
 23
508.6994798831
 14
319.1200309154
 24
692.2894798831
 50
90.0
100
AcDbRotatedDimension
  0
DIMENSION
  5
2ED
100
AcDbEntity
  8
0
100
AcDbDimension
 62
2
  6
CONTINUOUS
  2
*D8
 10
347.2950309154
 20
768.7601172383
 11
365.4482655902
 21
763.6166172383
 70
160
 71
1
 72
2
 41
0.9
 42
25.0
  1
<>\P[]
  3
DIMSTYLE_1
100
AcDbAlignedDimension
 13
322.2950309154
 23
695.4644798831
 14
347.2950309154
 24
695.4644798831
100
AcDbRotatedDimension
  0
DIMENSION
  5
2EE
100
AcDbEntity
  8
0
100
AcDbDimension
 62
2
  6
CONTINUOUS
  2
*D9
 10
1168.6745623941
 20
304.6608186574
 11
1197.7183765205
 21
355.7166574644
 70
160
 71
1
 72
2
 41
0.9
 42
24.5
  1
<>\P[]
  3
DIMSTYLE_4
100
AcDbAlignedDimension
 13
1056.730689446
 23
329.1608186574
 14
1056.730689446
 24
304.6608186574
 50
270.0
100
AcDbRotatedDimension
  0
DIMENSION
  5
2EF
100
AcDbEntity
  8
0
100
AcDbDimension
 62
2
  6
CONTINUOUS
  2
*D10
 10
1053.555689446
 20
329.1608186574
 11
1178.1552040893
 21
427.3494249206
 70
164
 71
1
 72
2
 41
0.9
 42
43.905952231
  1
R<>\P[]
  3
DIMSTYLE_5
100
AcDbRadialDimension
 15
1082.3920884976
 25
362.2696502745
  0
LINE
  5
2F0
100
AcDbEntity
  8
0
100
AcDbLine
 62
2
  6
CONTINUOUS
 10
843.527563701
 20
812.9053097457
 11
1269.272563701
 21
812.9053097457
  0
LINE
  5
2F1
100
AcDbEntity
  8
0
100
AcDbLine
 62
2
  6
CONTINUOUS
 10
843.527563701
 20
812.9053097457
 11
843.527563701
 21
771.7573097457
  0
LINE
  5
2F2
100
AcDbEntity
  8
0
100
AcDbLine
 62
2
  6
CONTINUOUS
 10
843.527563701
 20
799.1893097457
 11
1269.272563701
 21
799.1893097457
  0
LINE
  5
2F3
100
AcDbEntity
  8
0
100
AcDbLine
 62
2
  6
CONTINUOUS
 10
843.527563701
 20
785.4733097457
 11
1269.272563701
 21
785.4733097457
  0
LINE
  5
2F4
100
AcDbEntity
  8
0
100
AcDbLine
 62
2
  6
CONTINUOUS
 10
843.527563701
 20
771.7573097457
 11
1269.272563701
 21
771.7573097457
  0
LINE
  5
2F5
100
AcDbEntity
  8
0
100
AcDbLine
 62
2
  6
CONTINUOUS
 10
873.155563701
 20
799.1893097457
 11
873.155563701
 21
771.7573097457
  0
LINE
  5
2F6
100
AcDbEntity
  8
0
100
AcDbLine
 62
2
  6
CONTINUOUS
 10
1183.685563701
 20
799.1893097457
 11
1183.685563701
 21
771.7573097457
  0
LINE
  5
2F7
100
AcDbEntity
  8
0
100
AcDbLine
 62
2
  6
CONTINUOUS
 10
1211.117563701
 20
799.1893097457
 11
1211.117563701
 21
771.7573097457
  0
LINE
  5
2F8
100
AcDbEntity
  8
0
100
AcDbLine
 62
2
  6
CONTINUOUS
 10
1269.272563701
 20
812.9053097457
 11
1269.272563701
 21
771.7573097457
  0
MTEXT
  5
2F9
100
AcDbEntity
  8
0
100
AcDbMText
 62
2
  6
CONTINUOUS
  7
TEXTSTYLE_2
 71
2
 72
1
 10
1056.400063701
 20
809.4763097457
 30
0.0
 11
1.0
 21
0.0
 31
0.0
 73
2
 44
0.9
  1
REVISION
 40
6.858
 41
42.1167881041
  0
MTEXT
  5
2FA
100
AcDbEntity
  8
0
100
AcDbMText
 62
2
  6
CONTINUOUS
  7
TEXTSTYLE_2
 71
2
 72
1
 10
858.341563701
 20
795.7603097457
 30
0.0
 11
1.0
 21
0.0
 31
0.0
 73
2
 44
0.9
  1
REV
 40
6.858
 41
17.6421412639
  0
MTEXT
  5
2FB
100
AcDbEntity
  8
0
100
AcDbMText
 62
2
  6
CONTINUOUS
  7
TEXTSTYLE_2
 71
1
 72
1
 10
875.898763701
 20
795.7603097457
 30
0.0
 11
1.0
 21
0.0
 31
0.0
 73
2
 44
0.9
  1
                        DESCRIPTION
 40
6.858
 41
123.6734498141
  0
MTEXT
  5
2FC
100
AcDbEntity
  8
0
100
AcDbMText
 62
2
  6
CONTINUOUS
  7
TEXTSTYLE_2
 71
2
 72
1
 10
1197.401563701
 20
795.7603097457
 30
0.0
 11
1.0
 21
0.0
 31
0.0
 73
2
 44
0.9
  1
BY
 40
6.858
 41
11.141063197
  0
MTEXT
  5
2FD
100
AcDbEntity
  8
0
100
AcDbMText
 62
2
  6
CONTINUOUS
  7
TEXTSTYLE_2
 71
2
 72
1
 10
1240.195063701
 20
795.7603097457
 30
0.0
 11
1.0
 21
0.0
 31
0.0
 73
2
 44
0.9
  1
DATE
 40
6.858
 41
23.3783866171
  0
MTEXT
  5
2FE
100
AcDbEntity
  8
0
100
AcDbMText
 62
2
  6
CONTINUOUS
  7
STANDARD
 71
2
 72
1
 10
858.341563701
 20
782.0443097457
 30
0.0
 11
1.0
 21
0.0
 31
0.0
 73
2
 44
0.9
  1
A
 40
6.858
 41
7.0619553903
  0
MTEXT
  5
2FF
100
AcDbEntity
  8
0
100
AcDbMText
 62
2
  6
CONTINUOUS
  7
STANDARD
 71
1
 72
1
 10
875.898763701
 20
782.0443097457
 30
0.0
 11
1.0
 21
0.0
 31
0.0
 73
2
 44
0.9
  1
INITIAL RELEASE
 40
6.858
 41
69.191866171
  0
MTEXT
  5
300
100
AcDbEntity
  8
0
100
AcDbMText
 62
2
  6
CONTINUOUS
  7
STANDARD
 71
2
 72
1
 10
1197.401563701
 20
782.0443097457
 30
0.0
 11
1.0
 21
0.0
 31
0.0
 73
2
 44
0.9
  1
H.HE
 40
6.858
 41
20.8289442379
  0
MTEXT
  5
301
100
AcDbEntity
  8
0
100
AcDbMText
 62
2
  6
CONTINUOUS
  7
STANDARD
 71
2
 72
1
 10
1240.195063701
 20
782.0443097457
 30
0.0
 11
1.0
 21
0.0
 31
0.0
 73
2
 44
0.9
  1
27-JUL-21
 40
6.858
 41
42.8816208178
  0
LINE
  5
302
100
AcDbEntity
  8
0
100
AcDbLine
 62
2
  6
CONTINUOUS
 10
1092.3617261403
 20
114.0454896994
 11
1269.0617261403
 21
114.0454896994
  0
LINE
  5
303
100
AcDbEntity
  8
0
100
AcDbLine
 62
2
  6
CONTINUOUS
 10
1092.3617261403
 20
114.0454896994
 11
1092.3617261403
 21
56.7173646994
  0
LINE
  5
304
100
AcDbEntity
  8
0
100
AcDbLine
 62
2
  6
CONTINUOUS
 10
1092.3617261403
 20
56.7173646994
 11
1269.0617261403
 21
56.7173646994
  0
LINE
  5
305
100
AcDbEntity
  8
0
100
AcDbLine
 62
2
  6
CONTINUOUS
 10
1269.0617261403
 20
114.0454896994
 11
1269.0617261403
 21
56.7173646994
  0
MTEXT
  5
306
100
AcDbEntity
  8
0
100
AcDbMText
 62
2
  6
CONTINUOUS
  7
TEXTSTYLE_2
 71
2
 72
1
 10
1180.7117261403
 20
98.0814268819
 30
0.0
 11
1.0
 21
0.0
 31
0.0
 73
2
 44
0.99999996
  1
LOUDSPEAKER, NL-P4, \PPENDANT
 40
9.525
 41
141.0337360595
  0
LINE
  5
307
100
AcDbEntity
  8
0
100
AcDbLine
 62
2
  6
CONTINUOUS
 10
1237.5481539816
 20
56.6925639979
 11
1268.9356539816
 21
56.6925639979
  0
LINE
  5
308
100
AcDbEntity
  8
0
100
AcDbLine
 62
2
  6
CONTINUOUS
 10
1237.5481539816
 20
56.6925639979
 11
1237.5481539816
 21
37.9425639979
  0
LINE
  5
309
100
AcDbEntity
  8
0
100
AcDbLine
 62
2
  6
CONTINUOUS
 10
1237.5481539816
 20
37.9425639979
 11
1268.9356539816
 21
37.9425639979
  0
LINE
  5
30A
100
AcDbEntity
  8
0
100
AcDbLine
 62
2
  6
CONTINUOUS
 10
1268.9356539816
 20
56.6925639979
 11
1268.9356539816
 21
37.9425639979
  0
MTEXT
  5
30B
100
AcDbEntity
  8
0
100
AcDbMText
 62
2
  6
CONTINUOUS
  7
TEXTSTYLE_2
 71
2
 72
1
 10
1253.2419039816
 20
49.4269389979
 30
0.0
 11
1.0
 21
0.0
 31
0.0
 73
2
 44
0.9
  1
A
 40
9.525
 41
9.8082713755
  0
LINE
  5
30C
100
AcDbEntity
  8
0
100
AcDbLine
 62
2
  6
CONTINUOUS
 10
1142.5592216701
 20
56.6341401249
 11
1237.0592216701
 21
56.6341401249
  0
LINE
  5
30D
100
AcDbEntity
  8
0
100
AcDbLine
 62
2
  6
CONTINUOUS
 10
1142.5592216701
 20
56.6341401249
 11
1142.5592216701
 21
37.9310151249
  0
LINE
  5
30E
100
AcDbEntity
  8
0
100
AcDbLine
 62
2
  6
CONTINUOUS
 10
1142.5592216701
 20
37.9310151249
 11
1237.0592216701
 21
37.9310151249
  0
LINE
  5
30F
100
AcDbEntity
  8
0
100
AcDbLine
 62
2
  6
CONTINUOUS
 10
1237.0592216701
 20
56.6341401249
 11
1237.0592216701
 21
37.9310151249
  0
MTEXT
  5
310
100
AcDbEntity
  8
0
100
AcDbMText
 62
2
  6
CONTINUOUS
  7
TEXTSTYLE_2
 71
2
 72
1
 10
1189.8092216701
 20
50.1653901249
 30
0.0
 11
1.0
 21
0.0
 31
0.0
 73
2
 44
0.9
  1
FG-901506-2D
 40
9.525
 41
88.3098513011
  0
LINE
  5
311
100
AcDbEntity
  8
0
100
AcDbLine
 62
2
  6
CONTINUOUS
 10
887.9074890002
 20
82.9242639795
 11
988.4074890002
 21
82.9242639795
  0
LINE
  5
312
100
AcDbEntity
  8
0
100
AcDbLine
 62
2
  6
CONTINUOUS
 10
887.9074890002
 20
82.9242639795
 11
887.9074890002
 21
69.1195764795
  0
LINE
  5
313
100
AcDbEntity
  8
0
100
AcDbLine
 62
2
  6
CONTINUOUS
 10
887.9074890002
 20
69.1195764795
 11
988.4074890002
 21
69.1195764795
  0
LINE
  5
314
100
AcDbEntity
  8
0
100
AcDbLine
 62
2
  6
CONTINUOUS
 10
988.4074890002
 20
82.9242639795
 11
988.4074890002
 21
69.1195764795
  0
MTEXT
  5
315
100
AcDbEntity
  8
0
100
AcDbMText
 62
2
  6
CONTINUOUS
  7
TEXTSTYLE_2
 71
2
 72
1
 10
948.2074890001
 20
79.4509202295
 30
0.0
 11
1.0
 21
0.0
 31
0.0
 73
2
 44
0.9
  1
SEE NOTES
 40
6.858
 41
47.0117174721
  0
LINE
  5
316
100
AcDbEntity
  8
0
100
AcDbLine
 62
2
  6
CONTINUOUS
 10
887.9702852864
 20
68.9601372167
 11
988.4702852864
 21
68.9601372167
  0
LINE
  5
317
100
AcDbEntity
  8
0
100
AcDbLine
 62
2
  6
CONTINUOUS
 10
887.9702852864
 20
68.9601372167
 11
887.9702852864
 21
55.1554497167
  0
LINE
  5
318
100
AcDbEntity
  8
0
100
AcDbLine
 62
2
  6
CONTINUOUS
 10
887.9702852864
 20
55.1554497167
 11
988.4702852864
 21
55.1554497167
  0
LINE
  5
319
100
AcDbEntity
  8
0
100
AcDbLine
 62
2
  6
CONTINUOUS
 10
988.4702852864
 20
68.9601372167
 11
988.4702852864
 21
55.1554497167
  0
MTEXT
  5
31A
100
AcDbEntity
  8
0
100
AcDbMText
 62
2
  6
CONTINUOUS
  7
TEXTSTYLE_2
 71
2
 72
1
 10
948.2702852864
 20
65.4867934667
 30
0.0
 11
1.0
 21
0.0
 31
0.0
 73
2
 44
0.9
  1
SEE NOTES
 40
6.858
 41
47.0117174721
  0
LINE
  5
31B
100
AcDbEntity
  8
0
100
AcDbLine
 62
2
  6
CONTINUOUS
 10
988.5622658575
 20
108.2205107232
 11
1092.0622658575
 21
108.2205107232
  0
LINE
  5
31C
100
AcDbEntity
  8
0
100
AcDbLine
 62
2
  6
CONTINUOUS
 10
988.5622658575
 20
108.2205107232
 11
988.5622658575
 21
88.9080107232
  0
LINE
  5
31D
100
AcDbEntity
  8
0
100
AcDbLine
 62
2
  6
CONTINUOUS
 10
988.5622658575
 20
88.9080107232
 11
1092.0622658575
 21
88.9080107232
  0
LINE
  5
31E
100
AcDbEntity
  8
0
100
AcDbLine
 62
2
  6
CONTINUOUS
 10
1092.0622658575
 20
108.2205107232
 11
1092.0622658575
 21
88.9080107232
  0
MTEXT
  5
31F
100
AcDbEntity
  8
0
100
AcDbMText
 62
2
  6
CONTINUOUS
  7
TEXTSTYLE_2
 71
1
 72
1
 10
988.7497658575
 20
98.5314482232
 30
0.0
 11
1.0
 21
0.0
 31
0.0
 73
2
 44
0.9
  1
 H. HE
 40
4.7625
 41
18.1470724907
  0
LINE
  5
320
100
AcDbEntity
  8
0
100
AcDbLine
 62
2
  6
CONTINUOUS
 10
988.5908725147
 20
89.0072462122
 11
1092.0908725147
 21
89.0072462122
  0
LINE
  5
321
100
AcDbEntity
  8
0
100
AcDbLine
 62
2
  6
CONTINUOUS
 10
988.5908725147
 20
89.0072462122
 11
988.5908725147
 21
68.5697462122
  0
LINE
  5
322
100
AcDbEntity
  8
0
100
AcDbLine
 62
2
  6
CONTINUOUS
 10
988.5908725147
 20
68.5697462122
 11
1092.0908725147
 21
68.5697462122
  0
LINE
  5
323
100
AcDbEntity
  8
0
100
AcDbLine
 62
2
  6
CONTINUOUS
 10
1092.0908725147
 20
89.0072462122
 11
1092.0908725147
 21
68.5697462122
  0
MTEXT
  5
324
100
AcDbEntity
  8
0
100
AcDbMText
 62
2
  6
CONTINUOUS
  7
TEXTSTYLE_2
 71
1
 72
1
 10
988.7783725147
 20
78.6150587122
 30
0.0
 11
1.0
 21
0.0
 31
0.0
 73
2
 44
0.9
  1
 T. GOSSARD
 40
4.7625
 41
40.4192843866
  0
LINE
  5
325
100
AcDbEntity
  8
0
100
AcDbLine
 62
2
  6
CONTINUOUS
 10
988.6120941181
 20
68.5297043917
 11
1092.1120941181
 21
68.5297043917
  0
LINE
  5
326
100
AcDbEntity
  8
0
100
AcDbLine
 62
2
  6
CONTINUOUS
 10
988.6120941181
 20
68.5297043917
 11
988.6120941181
 21
48.0922043917
  0
LINE
  5
327
100
AcDbEntity
  8
0
100
AcDbLine
 62
2
  6
CONTINUOUS
 10
988.6120941181
 20
48.0922043917
 11
1092.1120941181
 21
48.0922043917
  0
LINE
  5
328
100
AcDbEntity
  8
0
100
AcDbLine
 62
2
  6
CONTINUOUS
 10
1092.1120941181
 20
68.5297043917
 11
1092.1120941181
 21
48.0922043917
  0
MTEXT
  5
329
100
AcDbEntity
  8
0
100
AcDbMText
 62
2
  6
CONTINUOUS
  7
TEXTSTYLE_2
 71
1
 72
1
 10
988.7995941181
 20
58.1375168917
 30
0.0
 11
1.0
 21
0.0
 31
0.0
 73
2
 44
0.9
  1
 J. SANDERS
 40
4.7625
 41
37.6927973978
  0
LINE
  5
32A
100
AcDbEntity
  8
0
100
AcDbLine
 62
2
  6
CONTINUOUS
 10
988.59807489
 20
48.3553171157
 11
1092.09807489
 21
48.3553171157
  0
LINE
  5
32B
100
AcDbEntity
  8
0
100
AcDbLine
 62
2
  6
CONTINUOUS
 10
988.59807489
 20
48.3553171157
 11
988.59807489
 21
27.9178171157
  0
LINE
  5
32C
100
AcDbEntity
  8
0
100
AcDbLine
 62
2
  6
CONTINUOUS
 10
988.59807489
 20
27.9178171157
 11
1092.09807489
 21
27.9178171157
  0
LINE
  5
32D
100
AcDbEntity
  8
0
100
AcDbLine
 62
2
  6
CONTINUOUS
 10
1092.09807489
 20
48.3553171157
 11
1092.09807489
 21
27.9178171157
  0
MTEXT
  5
32E
100
AcDbEntity
  8
0
100
AcDbMText
 62
2
  6
CONTINUOUS
  7
TEXTSTYLE_2
 71
1
 72
1
 10
988.78557489
 20
37.9631296157
 30
0.0
 11
1.0
 21
0.0
 31
0.0
 73
2
 44
0.9
  1
 M. LUO
 40
4.7625
 41
24.8216542751
  0
LINE
  5
32F
100
AcDbEntity
  8
0
100
AcDbLine
 62
2
  6
CONTINUOUS
 10
1092.3309191336
 20
37.3548613938
 11
1127.7309191336
 21
37.3548613938
  0
LINE
  5
330
100
AcDbEntity
  8
0
100
AcDbLine
 62
2
  6
CONTINUOUS
 10
1092.3309191336
 20
37.3548613938
 11
1092.3309191336
 21
28.0501738938
  0
LINE
  5
331
100
AcDbEntity
  8
0
100
AcDbLine
 62
2
  6
CONTINUOUS
 10
1092.3309191336
 20
28.0501738938
 11
1127.7309191336
 21
28.0501738938
  0
LINE
  5
332
100
AcDbEntity
  8
0
100
AcDbLine
 62
2
  6
CONTINUOUS
 10
1127.7309191336
 20
37.3548613938
 11
1127.7309191336
 21
28.0501738938
  0
MTEXT
  5
333
100
AcDbEntity
  8
0
100
AcDbMText
 62
2
  6
CONTINUOUS
  7
TEXTSTYLE_2
 71
2
 72
1
 10
1118.8809191336
 20
35.3695176438
 30
0.0
 11
1.0
 21
0.0
 31
0.0
 73
2
 44
0.9
  1
1:3
 40
5.334
 41
10.3110780669
  0
LINE
  5
334
100
AcDbEntity
  8
0
100
AcDbLine
 62
2
  6
CONTINUOUS
 10
1217.378795139
 20
37.4253240674
 11
1269.128795139
 21
37.4253240674
  0
LINE
  5
335
100
AcDbEntity
  8
0
100
AcDbLine
 62
2
  6
CONTINUOUS
 10
1217.378795139
 20
37.4253240674
 11
1217.378795139
 21
28.4018865674
  0
LINE
  5
336
100
AcDbEntity
  8
0
100
AcDbLine
 62
2
  6
CONTINUOUS
 10
1217.378795139
 20
28.4018865674
 11
1269.128795139
 21
28.4018865674
  0
LINE
  5
337
100
AcDbEntity
  8
0
100
AcDbLine
 62
2
  6
CONTINUOUS
 10
1269.128795139
 20
37.4253240674
 11
1269.128795139
 21
28.4018865674
  0
MTEXT
  5
338
100
AcDbEntity
  8
0
100
AcDbMText
 62
2
  6
CONTINUOUS
  7
TEXTSTYLE_2
 71
2
 72
1
 10
1253.603795139
 20
35.6917298174
 30
0.0
 11
1.0
 21
0.0
 31
0.0
 73
2
 44
0.9
  1
1 OF 1
 40
5.556249
 41
23.3816872416
  0
LINE
  5
339
100
AcDbEntity
  8
0
100
AcDbLine
 62
2
  6
CONTINUOUS
 10
1127.7090689607
 20
37.4045026023
 11
1217.1090689607
 21
37.4045026023
  0
LINE
  5
33A
100
AcDbEntity
  8
0
100
AcDbLine
 62
2
  6
CONTINUOUS
 10
1127.7090689607
 20
37.4045026023
 11
1127.7090689607
 21
28.3810651023
  0
LINE
  5
33B
100
AcDbEntity
  8
0
100
AcDbLine
 62
2
  6
CONTINUOUS
 10
1127.7090689607
 20
28.3810651023
 11
1217.1090689607
 21
28.3810651023
  0
LINE
  5
33C
100
AcDbEntity
  8
0
100
AcDbLine
 62
2
  6
CONTINUOUS
 10
1217.1090689607
 20
37.4045026023
 11
1217.1090689607
 21
28.3810651023
  0
MTEXT
  5
33D
100
AcDbEntity
  8
0
100
AcDbMText
 62
2
  6
CONTINUOUS
  7
TEXTSTYLE_2
 71
2
 72
1
 10
1183.5840689607
 20
34.7977838523
 30
0.0
 11
1.0
 21
0.0
 31
0.0
 73
2
 44
0.9
  1
FG-901506-2D.A.5 
 40
3.81
 41
46.6123048327
  0
LINE
  5
33E
100
AcDbEntity
  8
0
100
AcDbLine
 62
2
  6
CONTINUOUS
 10
888.1746104096
 20
142.1399060861
 11
988.2996104096
 21
142.1399060861
  0
LINE
  5
33F
100
AcDbEntity
  8
0
100
AcDbLine
 62
2
  6
CONTINUOUS
 10
888.1746104096
 20
142.1399060861
 11
888.1746104096
 21
83.4524060861
  0
LINE
  5
340
100
AcDbEntity
  8
0
100
AcDbLine
 62
2
  6
CONTINUOUS
 10
888.1746104096
 20
83.4524060861
 11
988.2996104096
 21
83.4524060861
  0
LINE
  5
341
100
AcDbEntity
  8
0
100
AcDbLine
 62
2
  6
CONTINUOUS
 10
988.2996104096
 20
142.1399060861
 11
988.2996104096
 21
83.4524060861
  0
MTEXT
  5
342
100
AcDbEntity
  8
0
100
AcDbMText
 62
2
  6
CONTINUOUS
  7
TEXTSTYLE_2
 71
1
 72
1
 10
898.3746104096
 20
100.5055310861
 30
0.0
 11
1.0
 21
0.0
 31
0.0
 73
2
 44
0.9
  1
.X \fgdt;{\fgdt;`}\fCentury Gothic;{\ftxt.shx;\W0.166667;\H4.762500; } 3.0[.12]               \fgdt;{\fgdt;`}\fCentury Gothic;1\fgdt;{\fgdt;~}
 40
4.7625
 41
79.0297630112
  0
TEXT
  5
343
100
AcDbEntity
  8
0
100
AcDbText
 62
2
  6
CONTINUOUS
 10
41.0112913697
 20
123.9131822864
  7
STANDARD
 40
6.858
  1
6. GRILLE NOT SHOWN FOR CLARITY.
 41
1.0
 72
0
100
AcDbText
  0
TEXT
  5
344
100
AcDbEntity
  8
0
100
AcDbText
 62
2
  6
CONTINUOUS
 10
41.0112913697
 20
110.1971822864
  7
STANDARD
 40
6.858
  1
5. DIMENSIONS ARE IN MILLIMETERS [INCH].
 41
1.0
 72
0
100
AcDbText
  0
TEXT
  5
345
100
AcDbEntity
  8
0
100
AcDbText
 62
2
  6
CONTINUOUS
 10
41.0112913697
 20
96.4811822864
  7
STANDARD
 40
6.858
  1
4. SYMBOL     INDICATES CENTER OF GRAVITY.
 41
1.0
 72
0
100
AcDbText
  0
TEXT
  5
346
100
AcDbEntity
  8
0
100
AcDbText
 62
2
  6
CONTINUOUS
 10
44.4402913697
 20
82.7651822864
  7
STANDARD
 40
6.858
  1
3
 41
1.0
 72
0
100
AcDbText
  0
TEXT
  5
347
100
AcDbEntity
  8
0
100
AcDbText
 62
2
  6
CONTINUOUS
 10
53.1721315184
 20
82.7651822864
  7
STANDARD
 40
6.858
  1
 SUSPENSION CONNECTION.
 41
1.0
 72
0
100
AcDbText
  0
TEXT
  5
348
100
AcDbEntity
  8
0
100
AcDbText
 62
2
  6
CONTINUOUS
 10
41.0112913697
 20
69.0491822864
  7
STANDARD
 40
6.858
  1
2. PARTS ARE SYMMETRICAL ABOUT CENTER LINES UNLESS OTHERWISE NOTED.
 41
1.0
 72
0
100
AcDbText
  0
TEXT
  5
349
100
AcDbEntity
  8
0
100
AcDbText
 62
2
  6
CONTINUOUS
 10
41.0112913697
 20
55.3331822864
  7
STANDARD
 40
6.858
  1
1. NET WEIGHT APPROX 1.3 KG [2.9 LBS]. 
 41
1.0
 72
0
100
AcDbText
  0
TEXT
  5
34A
100
AcDbEntity
  8
0
100
AcDbText
 62
2
  6
CONTINUOUS
 10
41.0112913697
 20
41.6171822864
  7
STANDARD
 40
6.858
  1
NOTE: UNLESS OTHERWISE SPECIFIED.
 41
1.0
 72
0
100
AcDbText
  0
TEXT
  5
34B
100
AcDbEntity
  8
0
100
AcDbText
 62
2
  6
CONTINUOUS
 10
101.8570877604
 20
735.6464759697
  7
STANDARD
 40
6.858
  1
3
 41
1.0
 72
0
100
AcDbText
  0
MTEXT
  5
34C
100
AcDbEntity
  8
0
100
AcDbMText
 62
2
  6
CONTINUOUS
  7
STANDARD
 71
1
 72
1
 10
1047.7934860627
 20
432.2997041958
 30
0.0
 11
1.0
 21
0.0
 31
0.0
 73
2
 44
0.9
  1
CL
 40
6.858
 41
12.1863345725
  0
MTEXT
  5
34D
100
AcDbEntity
  8
0
100
AcDbMText
 62
2
  6
CONTINUOUS
  7
STANDARD
 71
1
 72
1
 10
328.7712115468
 20
490.7898384254
 30
0.0
 11
1.0
 21
0.0
 31
0.0
 73
2
 44
0.9
  1
CL
 40
6.858
 41
12.1863345725
  0
LEADER
  5
34E
100
AcDbEntity
  8
0
100
AcDbLeader
 62
2
  6
CONTINUOUS
  3
STANDARD
 71
1
 72
0
 73
0
 75
0
 40
6.858
 41
146.6439256506
 76
3
 10
283.2490594225
 20
380.1436854368
 30
0.0
 10
270.3862792698
 20
431.5172064059
 30
0.0
 10
251.3362792698
 20
431.5172064059
 30
0.0
340
34F
1001
ACAD
1000
DSTYLE
1002
{
1070
77
1070
0
1070
341
1005
214
1002
}
  0
MTEXT
  5
34F
102
{ACAD_REACTORS
330
34E
102
}
100
AcDbEntity
  8
0
100
AcDbMText
 62
2
  6
CONTINUOUS
  7
STANDARD
 71
3
 72
1
 10
251.3362792698
 20
434.9462064059
 30
0.0
 11
1.0
 21
0.0
 31
0.0
 73
2
 44
0.9
  1
4X GRILLE MOUNTING MAGNETS
 40
6.858
 41
146.6439256506
  0
LEADER
  5
350
100
AcDbEntity
  8
0
100
AcDbLeader
 62
2
  6
CONTINUOUS
  3
STANDARD
 71
1
 72
0
 73
0
 75
0
 40
6.858
 41
97.6436431227
 76
3
 10
587.3748421016
 20
361.5063174807
 30
0.0
 10
576.8744841607
 20
414.9778291452
 30
0.0
 10
557.8244841607
 20
414.9778291452
 30
0.0
340
351
1001
ACAD
1000
DSTYLE
1002
{
1070
77
1070
0
1002
}
  0
MTEXT
  5
351
102
{ACAD_REACTORS
330
350
102
}
100
AcDbEntity
  8
0
100
AcDbMText
 62
2
  6
CONTINUOUS
  7
STANDARD
 71
3
 72
1
 10
557.8244841607
 20
418.4068291452
 30
0.0
 11
1.0
 21
0.0
 31
0.0
 73
2
 44
0.9
  1
GRILLE SAFETY TETHER
 40
6.858
 41
97.6436431227
  0
LEADER
  5
352
100
AcDbEntity
  8
0
100
AcDbLeader
 62
2
  6
CONTINUOUS
  3
STANDARD
 71
1
 72
0
 73
0
 75
0
 40
6.858
 41
92.6212416357
 76
3
 10
829.3711226149
 20
330.6381604366
 30
0.0
 10
848.9636293561
 20
460.7549478235
 30
0.0
 10
868.0136293561
 20
460.7549478235
 30
0.0
340
353
1001
ACAD
1000
DSTYLE
1002
{
1070
77
1070
0
1070
341
1005
214
1002
}
  0
MTEXT
  5
353
102
{ACAD_REACTORS
330
352
102
}
100
AcDbEntity
  8
0
100
AcDbMText
 62
2
  6
CONTINUOUS
  7
STANDARD
 71
1
 72
1
 10
868.0136293561
 20
464.1839478235
 30
0.0
 11
1.0
 21
0.0
 31
0.0
 73
2
 44
0.9
  1
SUSPENSION DEVICE\PREFERNCE THE ASSEMBLY INSTRUCTIONS\PTHAT SHIPPED WITH THIS PRODUCT
 40
6.858
 41
180.5515092937
  0
LEADER
  5
354
100
AcDbEntity
  8
0
100
AcDbLeader
 62
2
  6
CONTINUOUS
  3
STANDARD
 71
1
 72
0
 73
0
 75
0
 40
6.858
 41
131.7041933086
 76
3
 10
1071.8081027319
 20
299.6246458877
 30
0.0
 10
1103.9164900047
 20
236.0629696662
 30
0.0
 10
1122.9664900047
 20
236.0629696662
 30
0.0
340
355
1001
ACAD
1000
DSTYLE
1002
{
1070
77
1070
0
1070
341
1005
214
1002
}
  0
MTEXT
  5
355
102
{ACAD_REACTORS
330
354
102
}
100
AcDbEntity
  8
0
100
AcDbMText
 62
2
  6
CONTINUOUS
  7
STANDARD
 71
1
 72
1
 10
1122.9664900047
 20
239.4919696662
 30
0.0
 11
1.0
 21
0.0
 31
0.0
 73
2
 44
0.9
  1
REMOVABLE COVER SHOWN\PWIRE CONNECTOR LOCATED \PUNDER THE COVER
 40
6.858
 41
135.4263791822
  0
INSERT
  5
356
100
AcDbEntity
  8
0
100
AcDbBlockReference
 62
2
  6
CONTINUOUS
  2
CG_BL0
 10
95.8289125382
 20
100.0670841217
  0
INSERT
  5
357
100
AcDbEntity
  8
0
100
AcDbBlockReference
 62
2
  6
CONTINUOUS
  2
CG_BL1
 10
334.8346774216
 20
329.1481108009
  0
INSERT
  5
358
100
AcDbEntity
  8
0
100
AcDbBlockReference
 62
2
  6
CONTINUOUS
  2
CG_BL2
 10
334.8361020043
 20
573.0510061792
  0
LWPOLYLINE
  5
359
100
AcDbEntity
  8
0
100
AcDbPolyline
 62
7
  6
CONTINUOUS
 90
2
 70
0
 43
0.7499999966
 10
22.1755364173
 20
423.3093417241
 10
22.1755364173
 20
417.81008041
  0
LWPOLYLINE
  5
35A
100
AcDbEntity
  8
0
100
AcDbPolyline
 62
7
  6
CONTINUOUS
 90
2
 70
0
 43
0.7499999966
 10
26.9380364173
 20
812.9897110672
 10
26.9380364173
 20
28.1297110672
  0
LWPOLYLINE
  5
35B
100
AcDbEntity
  8
0
100
AcDbPolyline
 62
7
  6
CONTINUOUS
 90
2
 70
0
 43
0.7499999966
 10
182.1955364173
 20
28.1297110672
 10
182.1955364173
 20
18.6047110672
  0
LWPOLYLINE
  5
35C
100
AcDbEntity
  8
0
100
AcDbPolyline
 62
7
  6
CONTINUOUS
 90
2
 70
0
 43
0.7499999966
 10
182.1955364173
 20
812.9897110672
 10
182.1955364173
 20
822.5147110672
  0
LWPOLYLINE
  5
35D
100
AcDbEntity
  8
0
100
AcDbPolyline
 62
7
  6
CONTINUOUS
 90
2
 70
0
 43
0.7499999966
 10
229.2442596658
 20
770.6413153375
 10
229.2442596658
 20
812.6230976378
  0
LWPOLYLINE
  5
35E
100
AcDbEntity
  8
0
100
AcDbPolyline
 62
7
  6
CONTINUOUS
 90
2
 70
0
 43
0.7499999966
 10
973.6674589114
 20
37.1517939991
 10
985.0974589117
 20
39.0567939991
  0
LWPOLYLINE
  5
35F
100
AcDbEntity
  8
0
100
AcDbPolyline
 62
7
  6
CONTINUOUS
 90
2
 70
0
 43
0.7499999966
 10
650.7176670742
 20
23.3672110672
 10
645.2184057604
 20
23.3672110672
  0
LWPOLYLINE
  5
360
100
AcDbEntity
  8
0
100
AcDbPolyline
 62
7
  6
CONTINUOUS
 90
2
 70
0
 43
0.7499999966
 10
1268.9980364173
 20
28.1297110672
 10
26.9380364173
 20
28.1297110672
  0
LWPOLYLINE
  5
361
100
AcDbEntity
  8
0
100
AcDbPolyline
 62
7
  6
CONTINUOUS
 90
2
 70
0
 43
0.2999999909
 10
961.1096989114
 20
35.2467939991
 10
970.9852189117
 20
35.2467939991
  0
LWPOLYLINE
  5
362
100
AcDbEntity
  8
0
100
AcDbPolyline
 62
7
  6
CONTINUOUS
 90
2
 70
0
 43
0.2999999909
 10
972.248799436
 20
35.2467939991
 10
986.2633444342
 20
35.2467939991
  0
LWPOLYLINE
  5
363
100
AcDbEntity
  8
0
100
AcDbPolyline
 62
7
  6
CONTINUOUS
 90
2
 70
0
 43
0.7499999966
 10
1092.3396901117
 20
37.6547110672
 10
1268.9980364173
 20
37.6547110672
  0
LWPOLYLINE
  5
364
100
AcDbEntity
  8
0
100
AcDbPolyline
 62
7
  6
CONTINUOUS
 90
2
 70
0
 43
0.7499999966
 10
887.9980364173
 20
41.8457110672
 10
988.352572963
 20
41.8457110672
  0
LWPOLYLINE
  5
365
100
AcDbEntity
  8
0
100
AcDbPolyline
 62
7
  6
CONTINUOUS
 90
2
 70
0
 43
0.7499999966
 10
988.2441822733
 20
48.3797110672
 10
1092.231299422
 20
48.3797110672
  0
LWPOLYLINE
  5
366
100
AcDbEntity
  8
0
100
AcDbPolyline
 62
7
  6
CONTINUOUS
 90
2
 70
0
 43
0.7499999966
 10
887.9980364173
 20
55.5617110672
 10
988.352572963
 20
55.5617110672
  0
LWPOLYLINE
  5
367
100
AcDbEntity
  8
0
100
AcDbPolyline
 62
7
  6
CONTINUOUS
 90
2
 70
0
 43
0.7499999966
 10
1092.3396901117
 20
57.0047110672
 10
1268.9980364173
 20
57.0047110672
  0
LINE
  5
368
100
AcDbEntity
  8
DEFAULT_1
100
AcDbLine
 62
2
  6
CENTER
 10
334.8394738688
 20
496.4463472351
 11
334.8394738688
 21
765.3450019826
  0
LWPOLYLINE
  5
369
100
AcDbEntity
  8
0
100
AcDbPolyline
 62
7
  6
CONTINUOUS
 90
2
 70
0
 43
0.7499999966
 10
22.1755364173
 20
417.81008041
 10
26.9380364173
 20
420.5597110672
  0
LWPOLYLINE
  5
36A
100
AcDbEntity
  8
0
100
AcDbPolyline
 62
7
  6
CONTINUOUS
 90
2
 70
0
 43
0.7499999966
 10
988.352572963
 20
68.6297110672
 10
1092.3396901117
 20
68.6297110672
  0
LWPOLYLINE
  5
36B
100
AcDbEntity
  8
0
100
AcDbPolyline
 62
7
  6
CONTINUOUS
 90
2
 70
0
 43
0.7499999966
 10
887.9980364173
 20
69.2777110672
 10
988.352572963
 20
69.2777110672
  0
LWPOLYLINE
  5
36C
100
AcDbEntity
  8
0
100
AcDbPolyline
 62
2
  6
CONTINUOUS
 90
5
 70
0
 10
41.0112913697
 20
79.3361822864
 10
53.1721315184
 20
79.3361822864
 10
53.1721315184
 20
93.0521822864
 10
41.0112913697
 20
93.0521822864
 10
41.0112913697
 20
79.3361822864
  0
LWPOLYLINE
  5
36D
100
AcDbEntity
  8
0
100
AcDbPolyline
 62
7
  6
CONTINUOUS
 90
2
 70
0
 43
0.7499999966
 10
988.352572963
 20
83.1950628088
 10
887.9980364173
 20
83.1950628088
  0
LWPOLYLINE
  5
36E
100
AcDbEntity
  8
0
100
AcDbPolyline
 62
7
  6
CONTINUOUS
 90
2
 70
0
 43
0.7499999966
 10
988.352572963
 20
88.8797110672
 10
1092.3396901117
 20
88.8797110672
  0
LWPOLYLINE
  5
36F
100
AcDbEntity
  8
0
100
AcDbPolyline
 62
7
  6
CONTINUOUS
 90
2
 70
0
 43
0.7499999966
 10
988.352572963
 20
108.3041026693
 10
1092.3396901117
 20
108.3041026693
  0
LWPOLYLINE
  5
370
100
AcDbEntity
  8
0
100
AcDbPolyline
 62
7
  6
CONTINUOUS
 90
2
 70
0
 43
0.7499999966
 10
973.6674589114
 20
33.3417939991
 10
985.0974589117
 20
31.4367939991
  0
LWPOLYLINE
  5
371
100
AcDbEntity
  8
0
100
AcDbPolyline
 62
7
  6
CONTINUOUS
 90
2
 70
0
 43
0.7499999966
 10
337.4530364173
 20
28.1297110672
 10
337.4530364173
 20
18.6047110672
  0
LWPOLYLINE
  5
372
100
AcDbEntity
  8
0
100
AcDbPolyline
 62
7
  6
CONTINUOUS
 90
2
 70
0
 43
0.7499999966
 10
337.4530364173
 20
812.9897110672
 10
337.4530364173
 20
822.5147110672
  0
LWPOLYLINE
  5
373
100
AcDbEntity
  8
0
100
AcDbPolyline
 62
7
  6
CONTINUOUS
 90
2
 70
0
 43
0.7499999966
 10
1092.3396901117
 20
113.8547110672
 10
1268.9980364173
 20
113.8547110672
  0
LWPOLYLINE
  5
374
100
AcDbEntity
  8
0
100
AcDbPolyline
 62
7
  6
CONTINUOUS
 90
2
 70
0
 43
0.7499999966
 10
988.352572963
 20
116.3051026693
 10
1092.3396901117
 20
116.3051026693
  0
LINE
  5
375
100
AcDbEntity
  8
0
100
AcDbLine
 62
7
  6
CONTINUOUS
 10
1110.8781469662
 20
119.979394862
 11
1114.943084972
 21
119.979394862
  0
LINE
  5
376
100
AcDbEntity
  8
0
100
AcDbLine
 62
7
  6
CONTINUOUS
 10
1100.0707196152
 20
121.5520990681
 11
1110.617089005
 21
121.5520990681
  0
LINE
  5
377
100
AcDbEntity
  8
0
100
AcDbLine
 62
7
  6
CONTINUOUS
 10
1115.2041429332
 20
121.5520990681
 11
1117.2779538748
 21
121.5520990681
  0
LINE
  5
378
100
AcDbEntity
  8
0
100
AcDbLine
 62
7
  6
CONTINUOUS
 10
1122.9899153987
 20
121.5520990626
 11
1141.8552703201
 21
121.5520990626
  0
LINE
  5
379
100
AcDbEntity
  8
0
100
AcDbLine
 62
7
  6
CONTINUOUS
 10
1138.1861537941
 20
124.1955866394
 11
1122.9899153987
 21
124.1955866394
  0
LINE
  5
37A
100
AcDbEntity
  8
0
100
AcDbLine
 62
7
  6
CONTINUOUS
 10
1168.6787585584
 20
124.254385821
 11
1153.0382422825
 21
124.254385821
  0
LINE
  5
37B
100
AcDbEntity
  8
0
100
AcDbLine
 62
7
  6
CONTINUOUS
 10
1102.7618212492
 20
124.3487791784
 11
1110.557715464
 21
124.3487791784
  0
LINE
  5
37C
100
AcDbEntity
  8
0
100
AcDbLine
 62
7
  6
CONTINUOUS
 10
1115.1240535386
 20
124.3487791921
 11
1116.3230182842
 21
124.3487791921
  0
LINE
  5
37D
100
AcDbEntity
  8
0
100
AcDbLine
 62
7
  6
CONTINUOUS
 10
1110.8187734281
 20
125.9174193308
 11
1114.8629955884
 21
125.9174193308
  0
LINE
  5
37E
100
AcDbEntity
  8
0
100
AcDbLine
 62
7
  6
CONTINUOUS
 10
1125.1498126333
 20
126.9390268751
 11
1138.1861537968
 21
126.9390268751
  0
LINE
  5
37F
100
AcDbEntity
  8
0
100
AcDbLine
 62
7
  6
CONTINUOUS
 10
1141.8552703201
 20
129.6826790231
 11
1128.9926949606
 21
129.6826790231
  0
LINE
  5
380
100
AcDbEntity
  8
0
100
AcDbLine
 62
7
  6
CONTINUOUS
 10
1128.992694958
 20
132.324444855
 11
1144.2095600173
 21
132.324444855
  0
LINE
  5
381
100
AcDbEntity
  8
0
100
AcDbLine
 62
7
  6
CONTINUOUS
 10
1153.0382422854
 20
132.3515255617
 11
1168.6787585555
 21
132.3515255617
  0
LINE
  5
382
100
AcDbEntity
  8
0
100
AcDbLine
 62
7
  6
CONTINUOUS
 10
1102.7618212518
 20
132.4744681314
 11
1116.3230182787
 21
132.4744681314
  0
LINE
  5
383
100
AcDbEntity
  8
0
100
AcDbLine
 62
7
  6
CONTINUOUS
 10
1117.2779538748
 20
135.0511435057
 11
1100.0707196152
 21
135.0511435057
  0
LINE
  5
384
100
AcDbEntity
  8
0
100
AcDbLine
 62
7
  6
CONTINUOUS
 10
1168.6787585591
 20
135.066994862
 11
1150.4313579812
 21
135.066994862
  0
LINE
  5
385
100
AcDbEntity
  8
0
100
AcDbLine
 62
7
  6
CONTINUOUS
 10
1144.2095600173
 20
135.0669948594
 11
1125.1498126333
 21
135.0669948594
  0
LWPOLYLINE
  5
386
100
AcDbEntity
  8
0
100
AcDbPolyline
 62
7
  6
CONTINUOUS
 90
2
 70
0
 43
0.7499999966
 10
887.9980364173
 20
142.4297110672
 10
1268.9980364173
 20
142.4297110672
  0
LINE
  5
387
100
AcDbEntity
  8
0
100
AcDbLine
 62
7
  6
CONTINUOUS
 10
1150.4313579812
 20
121.5521059151
 11
1168.680239997
 21
121.5294527543
  0
LWPOLYLINE
  5
388
100
AcDbEntity
  8
0
100
AcDbPolyline
 62
7
  6
CONTINUOUS
 90
2
 70
0
 43
0.7499999966
 10
26.9380364173
 20
420.5597110672
 10
22.1755364173
 20
423.3093417241
  0
LWPOLYLINE
  5
389
100
AcDbEntity
  8
0
100
AcDbPolyline
 62
7
  6
CONTINUOUS
 90
2
 70
0
 43
0.7499999966
 10
647.9680364173
 20
812.9897110672
 10
650.7176670742
 20
817.7522110672
  0
LWPOLYLINE
  5
38A
100
AcDbEntity
  8
0
100
AcDbPolyline
 62
7
  6
CONTINUOUS
 90
2
 70
0
 43
0.7499999966
 10
26.9380364173
 20
224.3447110672
 10
17.4130364173
 20
224.3447110672
  0
LWPOLYLINE
  5
38B
100
AcDbEntity
  8
0
100
AcDbPolyline
 62
7
  6
CONTINUOUS
 90
2
 70
0
 43
0.7499999966
 10
1268.9980364173
 20
224.3447110672
 10
1278.5230364173
 20
224.3447110672
  0
LWPOLYLINE
  5
38C
100
AcDbEntity
  8
0
100
AcDbPolyline
 62
7
  6
CONTINUOUS
 90
2
 70
0
 43
0.7499999966
 10
647.9680364173
 20
28.1297110672
 10
650.7176670742
 20
23.3672110672
  0
LWPOLYLINE
  5
38D
100
AcDbEntity
  8
0
100
AcDbPolyline
 62
7
  6
CONTINUOUS
 90
2
 70
0
 43
0.7499999966
 10
492.7105364173
 20
28.1297110672
 10
492.7105364173
 20
18.6047110672
  0
LWPOLYLINE
  5
38E
100
AcDbEntity
  8
0
100
AcDbPolyline
 62
7
  6
CONTINUOUS
 90
2
 70
0
 43
0.7499999966
 10
492.7105364173
 20
812.9897110672
 10
492.7105364173
 20
822.5147110672
  0
LWPOLYLINE
  5
38F
100
AcDbEntity
  8
0
100
AcDbPolyline
 62
7
  6
CONTINUOUS
 90
2
 70
0
 43
0.7499999966
 10
647.9680364173
 20
28.1297110672
 10
647.9680364173
 20
18.6047110672
  0
LWPOLYLINE
  5
390
100
AcDbEntity
  8
0
100
AcDbPolyline
 62
7
  6
CONTINUOUS
 90
2
 70
0
 43
0.7499999966
 10
647.9680364173
 20
812.9897110672
 10
647.9680364173
 20
822.5147110672
  0
LWPOLYLINE
  5
391
100
AcDbEntity
  8
0
100
AcDbPolyline
 62
7
  6
CONTINUOUS
 90
2
 70
0
 43
0.7499999966
 10
26.9380364173
 20
420.5597110672
 10
17.4130364173
 20
420.5597110672
  0
LWPOLYLINE
  5
392
100
AcDbEntity
  8
0
100
AcDbPolyline
 62
7
  6
CONTINUOUS
 90
2
 70
0
 43
0.7499999966
 10
1268.9980364173
 20
420.5597110672
 10
1278.5230364173
 20
420.5597110672
  0
LWPOLYLINE
  5
393
100
AcDbEntity
  8
0
100
AcDbPolyline
 62
7
  6
CONTINUOUS
 90
2
 70
0
 43
0.7499999966
 10
803.2255364173
 20
28.1297110672
 10
803.2255364173
 20
18.6047110672
  0
LWPOLYLINE
  5
394
100
AcDbEntity
  8
0
100
AcDbPolyline
 62
7
  6
CONTINUOUS
 90
2
 70
0
 43
0.7499999966
 10
803.2255364173
 20
812.9897110672
 10
803.2255364173
 20
822.5147110672
  0
LWPOLYLINE
  5
395
100
AcDbEntity
  8
0
100
AcDbPolyline
 62
7
  6
CONTINUOUS
 90
2
 70
0
 43
0.7499999966
 10
647.9680364173
 20
28.1297110672
 10
645.2184057604
 20
23.3672110672
  0
LWPOLYLINE
  5
396
100
AcDbEntity
  8
0
100
AcDbPolyline
 62
7
  6
CONTINUOUS
 90
2
 70
0
 43
0.7499999966
 10
26.9380364173
 20
616.7747110672
 10
17.4130364173
 20
616.7747110672
  0
LWPOLYLINE
  5
397
100
AcDbEntity
  8
0
100
AcDbPolyline
 62
7
  6
CONTINUOUS
 90
2
 70
0
 43
0.7499999966
 10
1268.9980364173
 20
616.7747110672
 10
1278.5230364173
 20
616.7747110672
  0
LWPOLYLINE
  5
398
100
AcDbEntity
  8
0
100
AcDbPolyline
 62
7
  6
CONTINUOUS
 90
2
 70
0
 43
0.7499999966
 10
647.9680364173
 20
812.9897110672
 10
645.2184057604
 20
817.7522110672
  0
LWPOLYLINE
  5
399
100
AcDbEntity
  8
0
100
AcDbPolyline
 62
7
  6
CONTINUOUS
 90
2
 70
0
 43
0.7499999966
 10
887.9980364173
 20
28.1297110672
 10
887.9980364173
 20
142.4297110672
  0
LINE
  5
39A
100
AcDbEntity
  8
DEFAULT_1
100
AcDbLine
 62
2
  6
CENTER
 10
311.2451322209
 20
692.2894798831
 11
358.34492961
 21
692.2894798831
  0
LWPOLYLINE
  5
39B
100
AcDbEntity
  8
0
100
AcDbPolyline
 62
7
  6
CONTINUOUS
 90
2
 70
0
 43
0.7499999966
 10
958.4830364173
 20
18.6047110672
 10
958.4830364173
 20
41.8457110672
  0
LWPOLYLINE
  5
39C
100
AcDbEntity
  8
0
100
AcDbPolyline
 62
7
  6
CONTINUOUS
 90
2
 70
0
 43
0.7499999966
 10
958.4830364173
 20
812.9897110672
 10
958.4830364173
 20
822.5147110672
  0
LWPOLYLINE
  5
39D
100
AcDbEntity
  8
0
100
AcDbPolyline
 62
7
  6
CONTINUOUS
 90
2
 70
0
 43
0.2999999909
 10
966.0474589114
 20
30.3090339991
 10
966.0474589114
 20
40.1845539991
  0
LWPOLYLINE
  5
39E
100
AcDbEntity
  8
0
100
AcDbPolyline
 62
7
  6
CONTINUOUS
 90
2
 70
0
 43
0.7499999966
 10
1268.9980364173
 20
420.5597110672
 10
1273.7605364173
 20
423.3093417241
  0
LWPOLYLINE
  5
39F
100
AcDbEntity
  8
0
100
AcDbPolyline
 62
2
  6
CONTINUOUS
 90
5
 70
0
 10
98.4280877604
 20
732.2174759697
 10
110.5889279091
 20
732.2174759697
 10
110.5889279091
 20
745.9334759697
 10
98.4280877604
 20
745.9334759697
 10
98.4280877604
 20
732.2174759697
  0
LWPOLYLINE
  5
3A0
100
AcDbEntity
  8
0
100
AcDbPolyline
 62
7
  6
CONTINUOUS
 90
2
 70
0
 43
0.7499999966
 10
1273.7605364173
 20
417.81008041
 10
1268.9980364173
 20
420.5597110672
  0
LWPOLYLINE
  5
3A1
100
AcDbEntity
  8
0
100
AcDbPolyline
 62
7
  6
CONTINUOUS
 90
2
 70
0
 43
0.7499999966
 10
973.6674589114
 20
37.1517939991
 10
973.6674589114
 20
33.3417939991
  0
LWPOLYLINE
  5
3A2
100
AcDbEntity
  8
0
100
AcDbPolyline
 62
7
  6
CONTINUOUS
 90
2
 70
0
 43
0.7499999966
 10
985.0974589117
 20
39.0567939991
 10
985.0974589117
 20
31.4367939991
  0
LWPOLYLINE
  5
3A3
100
AcDbEntity
  8
0
100
AcDbPolyline
 62
7
  6
CONTINUOUS
 90
2
 70
0
 43
0.7499999966
 10
988.352572963
 20
142.4297110672
 10
988.352572963
 20
28.1297110672
  0
LWPOLYLINE
  5
3A4
100
AcDbEntity
  8
0
100
AcDbPolyline
 62
7
  6
CONTINUOUS
 90
2
 70
0
 43
0.7499999966
 10
26.9378176574
 20
770.9548530697
 10
229.6319592514
 20
770.9548530697
  0
LWPOLYLINE
  5
3A5
100
AcDbEntity
  8
0
100
AcDbPolyline
 62
7
  6
CONTINUOUS
 90
2
 70
0
 43
0.7499999966
 10
26.9380364173
 20
812.6897110672
 10
1268.9980364173
 20
812.6897110672
  0
LWPOLYLINE
  5
3A6
100
AcDbEntity
  8
0
100
AcDbPolyline
 62
7
  6
CONTINUOUS
 90
2
 70
0
 43
0.7499999966
 10
650.7176670742
 20
817.7522110672
 10
645.2184057604
 20
817.7522110672
  0
LWPOLYLINE
  5
3A7
100
AcDbEntity
  8
0
100
AcDbPolyline
 62
7
  6
CONTINUOUS
 90
2
 70
0
 43
0.7499999966
 10
1092.3396901117
 20
142.4297110672
 10
1092.3396901117
 20
28.1297110672
  0
LINE
  5
3A8
100
AcDbEntity
  8
0
100
AcDbLine
 62
7
  6
CONTINUOUS
 10
1102.0830705433
 20
125.0275298843
 11
1102.0830705433
 21
131.7957174229
  0
LINE
  5
3A9
100
AcDbEntity
  8
0
100
AcDbLine
 62
7
  6
CONTINUOUS
 10
1146.5975323043
 20
128.3331121969
 11
1146.5987235827
 21
128.2298346179
  0
LWPOLYLINE
  5
3AA
100
AcDbEntity
  8
0
100
AcDbPolyline
 62
7
  6
CONTINUOUS
 90
2
 70
0
 43
0.7499999966
 10
1106.1097068658
 20
56.7047110672
 10
1106.1097068658
 20
37.6547110672
  0
LINE
  5
3AB
100
AcDbEntity
  8
0
100
AcDbLine
 62
7
  6
CONTINUOUS
 10
1110.557715464
 20
124.3487791784
 11
1110.557715464
 21
125.656361367
  0
LINE
  5
3AC
100
AcDbEntity
  8
0
100
AcDbLine
 62
7
  6
CONTINUOUS
 10
1110.617089005
 20
121.5520990681
 11
1110.617089005
 21
120.2404528232
  0
LWPOLYLINE
  5
3AD
100
AcDbEntity
  8
0
100
AcDbPolyline
 62
7
  6
CONTINUOUS
 90
2
 70
0
 43
0.7499999966
 10
1113.7405364173
 20
28.1297110672
 10
1113.7405364173
 20
18.6047110672
  0
LWPOLYLINE
  5
3AE
100
AcDbEntity
  8
0
100
AcDbPolyline
 62
7
  6
CONTINUOUS
 90
2
 70
0
 43
0.7499999966
 10
1113.7405364173
 20
812.9897110672
 10
1113.7405364173
 20
822.5147110672
  0
LINE
  5
3AF
100
AcDbEntity
  8
0
100
AcDbLine
 62
7
  6
CONTINUOUS
 10
1115.1240535386
 20
124.3487791921
 11
1115.1240535386
 21
125.6563613752
  0
LINE
  5
3B0
100
AcDbEntity
  8
0
100
AcDbLine
 62
7
  6
CONTINUOUS
 10
1115.2041429332
 20
120.2404528232
 11
1115.2041429332
 21
121.5520990681
  0
LINE
  5
3B1
100
AcDbEntity
  8
0
100
AcDbLine
 62
7
  6
CONTINUOUS
 10
1117.0017689872
 20
125.0275298951
 11
1117.0017689872
 21
131.795717434
  0
LINE
  5
3B2
100
AcDbEntity
  8
0
100
AcDbLine
 62
7
  6
CONTINUOUS
 10
1120.4776203414
 20
124.0779878279
 11
1120.4776203414
 21
132.5252547404
  0
LINE
  5
3B3
100
AcDbEntity
  8
0
100
AcDbLine
 62
7
  6
CONTINUOUS
 10
1122.3111646931
 20
123.5168359336
 11
1122.3111646931
 21
122.2308497682
  0
LWPOLYLINE
  5
3B4
100
AcDbEntity
  8
0
100
AcDbPolyline
 62
7
  6
CONTINUOUS
 90
2
 70
0
 43
0.7499999966
 10
1127.8707750106
 20
37.6547110672
 10
1127.8707750106
 20
28.1297110672
  0
LINE
  5
3B5
100
AcDbEntity
  8
0
100
AcDbLine
 62
7
  6
CONTINUOUS
 10
1128.313944255
 20
130.3614297287
 11
1128.313944255
 21
131.645694152
  0
LINE
  5
3B6
100
AcDbEntity
  8
0
100
AcDbLine
 62
7
  6
CONTINUOUS
 10
1138.8649044971
 20
126.2602761695
 11
1138.8649044971
 21
124.8743373424
  0
LWPOLYLINE
  5
3B7
100
AcDbEntity
  8
0
100
AcDbPolyline
 62
7
  6
CONTINUOUS
 90
2
 70
0
 43
0.7499999966
 10
1142.3047068658
 20
56.7047110672
 10
1142.3047068658
 20
37.6547110672
  0
LINE
  5
3B8
100
AcDbEntity
  8
0
100
AcDbLine
 62
7
  6
CONTINUOUS
 10
1144.8883107229
 20
133.0031955608
 11
1144.8883107229
 21
134.388244148
  0
LINE
  5
3B9
100
AcDbEntity
  8
0
100
AcDbLine
 62
7
  6
CONTINUOUS
 10
1152.3594915769
 20
124.9331365266
 11
1152.3594915769
 21
131.6727748532
  0
LINE
  5
3BA
100
AcDbEntity
  8
0
100
AcDbLine
 62
7
  6
CONTINUOUS
 10
1169.3575092613
 20
122.2082018396
 11
1169.3575092613
 21
123.575635118
  0
LINE
  5
3BB
100
AcDbEntity
  8
0
100
AcDbLine
 62
7
  6
CONTINUOUS
 10
1169.3575092613
 20
133.0302762676
 11
1169.3575092613
 21
134.3882441656
  0
LWPOLYLINE
  5
3BC
100
AcDbEntity
  8
0
100
AcDbPolyline
 62
7
  6
CONTINUOUS
 90
2
 70
0
 43
0.7499999966
 10
1217.0790754051
 20
37.6547110672
 10
1217.0790754051
 20
28.1297110672
  0
LWPOLYLINE
  5
3BD
100
AcDbEntity
  8
0
100
AcDbPolyline
 62
7
  6
CONTINUOUS
 90
2
 70
0
 43
0.7499999966
 10
1237.3548079084
 20
56.7047110672
 10
1237.3548079084
 20
37.6547110672
  0
LWPOLYLINE
  5
3BE
100
AcDbEntity
  8
0
100
AcDbPolyline
 62
7
  6
CONTINUOUS
 90
2
 70
0
 43
0.7499999966
 10
1268.9980364173
 20
28.1297110672
 10
1268.9980364173
 20
812.9897110672
  0
LWPOLYLINE
  5
3BF
100
AcDbEntity
  8
0
100
AcDbPolyline
 62
7
  6
CONTINUOUS
 90
2
 70
0
 43
0.7499999966
 10
1273.7605364173
 20
423.3093417241
 10
1273.7605364173
 20
417.81008041
  0
LINE
  5
3C0
100
AcDbEntity
  8
0
100
AcDbLine
 62
7
  6
CONTINUOUS
 10
344.3106559154
 20
254.6608186574
 11
347.2356559154
 21
254.6608186574
  0
LINE
  5
3C1
100
AcDbEntity
  8
0
100
AcDbLine
 62
7
  6
CONTINUOUS
 10
349.0637809154
 20
254.6608186574
 11
349.7950309154
 21
254.6608186574
  0
LINE
  5
3C2
100
AcDbEntity
  8
0
100
AcDbLine
 62
7
  6
CONTINUOUS
 10
346.5044059154
 20
255.2352866741
 11
344.3106559154
 21
255.2352866741
  0
LINE
  5
3C3
100
AcDbEntity
  8
0
100
AcDbLine
 62
7
  6
CONTINUOUS
 10
343.823155683
 20
258.4906059043
 11
344.3106559154
 21
258.5863505738
  0
LINE
  5
3C4
100
AcDbEntity
  8
0
100
AcDbLine
 62
7
  6
CONTINUOUS
 10
344.3106559154
 20
259.1608186574
 11
343.7012811479
 21
259.0650739796
  0
LINE
  5
3C5
100
AcDbEntity
  8
0
100
AcDbLine
 62
7
  6
CONTINUOUS
 10
344.3106559154
 20
258.5863505738
 11
346.5044059154
 21
258.5863505738
  0
LINE
  5
3C6
100
AcDbEntity
  8
0
100
AcDbLine
 62
7
  6
CONTINUOUS
 10
349.7950309154
 20
259.1608186574
 11
349.0637809154
 21
259.1608186574
  0
LINE
  5
3C7
100
AcDbEntity
  8
0
100
AcDbLine
 62
7
  6
CONTINUOUS
 10
347.2356559154
 20
259.1608186574
 11
344.3106559154
 21
259.1608186574
  0
LINE
  5
3C8
100
AcDbEntity
  8
0
100
AcDbLine
 62
7
  6
CONTINUOUS
 10
343.7012811479
 20
254.7565633269
 11
344.3106559154
 21
254.6608186574
  0
LINE
  5
3C9
100
AcDbEntity
  8
0
100
AcDbLine
 62
7
  6
CONTINUOUS
 10
344.3106559154
 20
255.2352866741
 11
343.823155683
 21
255.3310313435
  0
LINE
  5
3CA
100
AcDbEntity
  8
0
100
AcDbLine
 62
7
  6
CONTINUOUS
 10
343.2137809154
 20
254.9480526658
 11
343.7012811479
 21
254.7565633269
  0
LINE
  5
3CB
100
AcDbEntity
  8
0
100
AcDbLine
 62
7
  6
CONTINUOUS
 10
343.823155683
 20
255.3310313435
 11
343.457530683
 21
255.5225206824
  0
LINE
  5
3CC
100
AcDbEntity
  8
0
100
AcDbLine
 62
7
  6
CONTINUOUS
 10
342.726280683
 20
255.3310313435
 11
343.2137809154
 21
254.9480526658
  0
LINE
  5
3CD
100
AcDbEntity
  8
0
100
AcDbLine
 62
7
  6
CONTINUOUS
 10
343.457530683
 20
255.5225206824
 11
343.2137809154
 21
255.8097549589
  0
LINE
  5
3CE
100
AcDbEntity
  8
0
100
AcDbLine
 62
7
  6
CONTINUOUS
 10
342.4825309154
 20
255.7140100213
 11
342.726280683
 21
255.3310313435
  0
LINE
  5
3CF
100
AcDbEntity
  8
0
100
AcDbLine
 62
7
  6
CONTINUOUS
 10
343.2137809154
 20
255.8097549589
 11
343.091905683
 21
256.1927336367
  0
LINE
  5
3D0
100
AcDbEntity
  8
0
100
AcDbLine
 62
7
  6
CONTINUOUS
 10
342.360655683
 20
256.1927336367
 11
342.4825309154
 21
255.7140100213
  0
LINE
  5
3D1
100
AcDbEntity
  8
3_AXES_OTHER
100
AcDbLine
 62
7
  6
CENTER
 10
334.7950309154
 20
329.1608186574
 11
334.7950309154
 21
235.3820396391
  0
LINE
  5
3D2
100
AcDbEntity
  8
3_AXES_OTHER
100
AcDbLine
 62
7
  6
CENTER
 10
334.7950309154
 20
329.1608186574
 11
334.7950309154
 21
420.2821213476
  0
LINE
  5
3D3
100
AcDbEntity
  8
3_AXES_OTHER
100
AcDbLine
 62
7
  6
CENTER
 10
334.7950309154
 20
329.1608186574
 11
244.5770625379
 21
329.1608186574
  0
LINE
  5
3D4
100
AcDbEntity
  8
3_AXES_OTHER
100
AcDbLine
 62
7
  6
CENTER
 10
334.7950309154
 20
329.1608186574
 11
424.3410308657
 21
329.1608186574
  0
LINE
  5
3D5
100
AcDbEntity
  8
0
100
AcDbLine
 62
7
  6
CONTINUOUS
 10
342.360655683
 20
257.6289038123
 11
342.360655683
 21
256.1927336367
  0
LINE
  5
3D6
100
AcDbEntity
  8
0
100
AcDbLine
 62
7
  6
CONTINUOUS
 10
343.091905683
 20
256.1927336367
 11
343.091905683
 21
257.6289038123
  0
LINE
  5
3D7
100
AcDbEntity
  8
0
100
AcDbLine
 62
7
  6
CONTINUOUS
 10
346.5044059154
 20
258.5863505738
 11
346.5044059154
 21
255.2352866741
  0
LINE
  5
3D8
100
AcDbEntity
  8
0
100
AcDbLine
 62
7
  6
CONTINUOUS
 10
347.2356559154
 20
254.6608186574
 11
347.2356559154
 21
259.1608186574
  0
LINE
  5
3D9
100
AcDbEntity
  8
0
100
AcDbLine
 62
7
  6
CONTINUOUS
 10
349.0637809154
 20
259.1608186574
 11
349.0637809154
 21
254.6608186574
  0
LINE
  5
3DA
100
AcDbEntity
  8
0
100
AcDbLine
 62
7
  6
CONTINUOUS
 10
349.7950309154
 20
254.6608186574
 11
349.7950309154
 21
259.1608186574
  0
LINE
  5
3DB
100
AcDbEntity
  8
0
100
AcDbLine
 62
7
  6
CONTINUOUS
 10
342.4825309154
 20
258.1076271595
 11
342.360655683
 21
257.6289038123
  0
LINE
  5
3DC
100
AcDbEntity
  8
0
100
AcDbLine
 62
7
  6
CONTINUOUS
 10
343.091905683
 20
257.6289038123
 11
343.2137809154
 21
258.0118824901
  0
LINE
  5
3DD
100
AcDbEntity
  8
0
100
AcDbLine
 62
7
  6
CONTINUOUS
 10
342.726280683
 20
258.4906059043
 11
342.4825309154
 21
258.1076271595
  0
LINE
  5
3DE
100
AcDbEntity
  8
0
100
AcDbLine
 62
7
  6
CONTINUOUS
 10
343.2137809154
 20
258.0118824901
 11
343.457530683
 21
258.2991164984
  0
LINE
  5
3DF
100
AcDbEntity
  8
0
100
AcDbLine
 62
7
  6
CONTINUOUS
 10
343.2137809154
 20
258.8735846156
 11
342.726280683
 21
258.4906059043
  0
LINE
  5
3E0
100
AcDbEntity
  8
0
100
AcDbLine
 62
7
  6
CONTINUOUS
 10
343.457530683
 20
258.2991164984
 11
343.823155683
 21
258.4906059043
  0
LINE
  5
3E1
100
AcDbEntity
  8
0
100
AcDbLine
 62
7
  6
CONTINUOUS
 10
343.7012811479
 20
259.0650739796
 11
343.2137809154
 21
258.8735846156
  0
LINE
  5
3E2
100
AcDbEntity
  8
0
100
AcDbLine
 62
7
  6
CONTINUOUS
 10
581.1089606027
 20
360.5065964852
 11
581.1089606027
 21
361.5060384763
  0
LINE
  5
3E3
100
AcDbEntity
  8
0
100
AcDbLine
 62
7
  6
CONTINUOUS
 10
604.5089606027
 20
271.5423130529
 11
604.5089606027
 21
283.5417342088
  0
LINE
  5
3E4
100
AcDbEntity
  8
0
100
AcDbLine
 62
7
  6
CONTINUOUS
 10
604.5089606027
 20
374.7799031061
 11
604.5089606027
 21
386.779324262
  0
LINE
  5
3E5
100
AcDbEntity
  8
0
100
AcDbLine
 62
7
  6
CONTINUOUS
 10
604.7089606027
 20
242.6310366523
 11
604.7089606027
 21
415.6906006626
  0
LINE
  5
3E6
100
AcDbEntity
  8
0
100
AcDbLine
 62
9
  6
CONTINUOUS
 10
618.1598683577
 20
270.4977960547
 11
618.159208935
 21
303.4061849187
  0
LINE
  5
3E7
100
AcDbEntity
  8
0
100
AcDbLine
 62
7
  6
CONTINUOUS
 10
618.159208935
 20
303.4061849187
 11
618.1589606027
 21
404.0979968469
  0
LINE
  5
3E8
100
AcDbEntity
  8
0
100
AcDbLine
 62
7
  6
CONTINUOUS
 10
618.1589606027
 20
242.6308186574
 11
618.1598683577
 21
270.4977960547
  0
LINE
  5
3E9
100
AcDbEntity
  8
6_ALL_SURFS
100
AcDbLine
 62
7
  6
CONTINUOUS
 10
618.159868368
 20
413.5792880507
 11
618.1589606027
 21
404.0979968469
  0
LINE
  5
3EA
100
AcDbEntity
  8
6_ALL_SURFS
100
AcDbLine
 62
9
  6
CONTINUOUS
 10
618.159868368
 20
413.5792880507
 11
618.161387106
 21
415.6908186574
  0
LINE
  5
3EB
100
AcDbEntity
  8
6_ALL_SURFS
100
AcDbLine
 62
7
  6
CONTINUOUS
 10
625.6089606027
 20
409.3745661071
 11
625.6089606027
 21
401.2314527604
  0
LINE
  5
3EC
100
AcDbEntity
  8
0
100
AcDbLine
 62
7
  6
CONTINUOUS
 10
625.6089606027
 20
245.9408186574
 11
625.6089606027
 21
269.8577906287
  0
LINE
  5
3ED
100
AcDbEntity
  8
0
100
AcDbLine
 62
7
  6
CONTINUOUS
 10
625.6089606027
 20
308.2515253715
 11
625.6089606027
 21
401.2314527604
  0
LINE
  5
3EE
100
AcDbEntity
  8
0
100
AcDbLine
 62
7
  6
CONTINUOUS
 10
604.7089606027
 20
242.6308186574
 11
618.1589606027
 21
242.6308186574
  0
LINE
  5
3EF
100
AcDbEntity
  8
0
100
AcDbLine
 62
7
  6
CONTINUOUS
 10
604.7089606027
 20
271.5420236308
 11
604.5089606027
 21
271.5420236308
  0
LINE
  5
3F0
100
AcDbEntity
  8
0
100
AcDbLine
 62
7
  6
CONTINUOUS
 10
779.3989606027
 20
294.7489821478
 11
784.8989606027
 21
295.7187805417
  0
LINE
  5
3F1
100
AcDbEntity
  8
0
100
AcDbLine
 62
7
  6
CONTINUOUS
 10
604.7089606027
 20
283.5420236308
 11
604.5089606027
 21
283.5420236308
  0
LINE
  5
3F2
100
AcDbEntity
  8
0
100
AcDbLine
 62
7
  6
CONTINUOUS
 10
779.3989606027
 20
288.5608186574
 11
781.3989606027
 21
288.5608186574
  0
LINE
  5
3F3
100
AcDbEntity
  8
0
100
AcDbLine
 62
7
  6
CONTINUOUS
 10
779.3989606027
 20
293.5608186574
 11
781.3989606027
 21
293.5608186574
  0
LINE
  5
3F4
100
AcDbEntity
  8
0
100
AcDbLine
 62
7
  6
CONTINUOUS
 10
787.8989606027
 20
295.6608186574
 11
791.8989606027
 21
295.6608186574
  0
LINE
  5
3F5
100
AcDbEntity
  8
0
100
AcDbLine
 62
7
  6
CONTINUOUS
 10
784.8989606027
 20
296.1608186574
 11
787.8989606027
 21
296.1608186574
  0
LINE
  5
3F6
100
AcDbEntity
  8
0
100
AcDbLine
 62
7
  6
CONTINUOUS
 10
791.8989606027
 20
296.1608186574
 11
796.1989606027
 21
296.1608186574
  0
LINE
  5
3F7
100
AcDbEntity
  8
0
100
AcDbLine
 62
7
  6
CONTINUOUS
 10
787.8989606027
 20
304.6608186574
 11
791.8989606027
 21
304.6608186574
  0
LINE
  5
3F8
100
AcDbEntity
  8
0
100
AcDbLine
 62
7
  6
CONTINUOUS
 10
779.3989606027
 20
307.2608186574
 11
781.3989606027
 21
307.2608186574
  0
LINE
  5
3F9
100
AcDbEntity
  8
0
100
AcDbLine
 62
7
  6
CONTINUOUS
 10
779.3989606027
 20
312.2608186574
 11
781.3989606027
 21
312.2608186574
  0
LINE
  5
3FA
100
AcDbEntity
  8
0
100
AcDbLine
 62
7
  6
CONTINUOUS
 10
784.8989606027
 20
313.1608186574
 11
787.8989606027
 21
313.1608186574
  0
LINE
  5
3FB
100
AcDbEntity
  8
0
100
AcDbLine
 62
7
  6
CONTINUOUS
 10
791.8989606027
 20
313.1608186574
 11
796.1989606027
 21
313.1608186574
  0
LINE
  5
3FC
100
AcDbEntity
  8
0
100
AcDbLine
 62
7
  6
CONTINUOUS
 10
787.8989606027
 20
313.6608186574
 11
791.8989606027
 21
313.6608186574
  0
LINE
  5
3FD
100
AcDbEntity
  8
0
100
AcDbLine
 62
7
  6
CONTINUOUS
 10
822.5835702935
 20
326.1608186574
 11
843.2989606027
 21
326.1608186574
  0
LINE
  5
3FE
100
AcDbEntity
  8
0
100
AcDbLine
 62
7
  6
CONTINUOUS
 10
779.3989606027
 20
328.1608186574
 11
796.0489606027
 21
328.1608186574
  0
LINE
  5
3FF
100
AcDbEntity
  8
0
100
AcDbLine
 62
7
  6
CONTINUOUS
 10
843.2989606027
 20
328.1608186574
 11
853.2989606027
 21
328.1608186574
  0
LINE
  5
400
100
AcDbEntity
  8
0
100
AcDbLine
 62
7
  6
CONTINUOUS
 10
779.3989606027
 20
330.1608186574
 11
796.0489606027
 21
330.1608186574
  0
LINE
  5
401
100
AcDbEntity
  8
0
100
AcDbLine
 62
7
  6
CONTINUOUS
 10
843.2989606027
 20
330.1608186574
 11
853.2989606027
 21
330.1608186574
  0
LINE
  5
402
100
AcDbEntity
  8
0
100
AcDbLine
 62
7
  6
CONTINUOUS
 10
779.3989606027
 20
314.5726551671
 11
784.8989606027
 21
313.6028567732
  0
LINE
  5
403
100
AcDbEntity
  8
0
100
AcDbLine
 62
7
  6
CONTINUOUS
 10
822.5835702935
 20
332.1608186574
 11
843.2989606027
 21
332.1608186574
  0
LINE
  5
404
100
AcDbEntity
  8
0
100
AcDbLine
 62
7
  6
CONTINUOUS
 10
798.1089606027
 20
339.1608186574
 11
805.1089606027
 21
339.1608186574
  0
LINE
  5
405
100
AcDbEntity
  8
0
100
AcDbLine
 62
7
  6
CONTINUOUS
 10
604.7089606027
 20
360.5063174807
 11
581.1089606027
 21
360.5063174807
  0
LINE
  5
406
100
AcDbEntity
  8
0
100
AcDbLine
 62
7
  6
CONTINUOUS
 10
604.7089606027
 20
361.5063174807
 11
581.1089606027
 21
361.5063174807
  0
LINE
  5
407
100
AcDbEntity
  8
0
100
AcDbLine
 62
7
  6
CONTINUOUS
 10
618.1589606027
 20
242.6308186574
 11
625.6089606027
 21
245.9408186574
  0
LINE
  5
408
100
AcDbEntity
  8
0
100
AcDbLine
 62
9
  6
CONTINUOUS
 10
809.5931892367
 20
324.6608186574
 11
814.7893416594
 21
321.6608186574
  0
LINE
  5
409
100
AcDbEntity
  8
0
100
AcDbLine
 62
7
  6
CONTINUOUS
 10
770.1422515411
 20
385.5161794266
 11
770.1422515411
 21
272.8054578883
  0
LINE
  5
40A
100
AcDbEntity
  8
0
100
AcDbLine
 62
7
  6
CONTINUOUS
 10
604.7089606027
 20
374.7796136841
 11
604.5089606027
 21
374.7796136841
  0
LINE
  5
40B
100
AcDbEntity
  8
0
100
AcDbLine
 62
7
  6
CONTINUOUS
 10
815.5134963884
 20
326.4285171814
 11
798.8483208818
 21
336.0501607462
  0
LINE
  5
40C
100
AcDbEntity
  8
0
100
AcDbLine
 62
7
  6
CONTINUOUS
 10
816.0043892332
 20
327.2998006036
 11
799.3483208818
 21
336.91618615
  0
LINE
  5
40D
100
AcDbEntity
  8
0
100
AcDbLine
 62
7
  6
CONTINUOUS
 10
779.3989606027
 20
373.0667708873
 11
779.3989606027
 21
285.2548664276
  0
LINE
  5
40E
100
AcDbEntity
  8
0
100
AcDbLine
 62
7
  6
CONTINUOUS
 10
780.5825159205
 20
328.1608186574
 11
780.5825159205
 21
330.1608186574
  0
LINE
  5
40F
100
AcDbEntity
  8
0
100
AcDbLine
 62
7
  6
CONTINUOUS
 10
781.3989606027
 20
312.2608186574
 11
781.3989606027
 21
307.2608186574
  0
LINE
  5
410
100
AcDbEntity
  8
0
100
AcDbLine
 62
7
  6
CONTINUOUS
 10
781.3989606027
 20
293.5608186574
 11
781.3989606027
 21
288.5608186574
  0
LINE
  5
411
100
AcDbEntity
  8
0
100
AcDbLine
 62
7
  6
CONTINUOUS
 10
604.7089606027
 20
386.7796136841
 11
604.5089606027
 21
386.7796136841
  0
LINE
  5
412
100
AcDbEntity
  8
0
100
AcDbLine
 62
7
  6
CONTINUOUS
 10
784.8989606027
 20
313.6028567732
 11
784.8989606027
 21
295.7187805417
  0
LINE
  5
413
100
AcDbEntity
  8
0
100
AcDbLine
 62
7
  6
CONTINUOUS
 10
787.8989606027
 20
313.6608186574
 11
787.8989606027
 21
295.6608186574
  0
LINE
  5
414
100
AcDbEntity
  8
0
100
AcDbLine
 62
7
  6
CONTINUOUS
 10
791.8989606027
 20
313.6608186574
 11
791.8989606027
 21
295.6608186574
  0
LINE
  5
415
100
AcDbEntity
  8
0
100
AcDbLine
 62
9
  6
CONTINUOUS
 10
800.5803716894
 20
335.0501607462
 11
801.0803716894
 21
335.91618615
  0
LINE
  5
416
100
AcDbEntity
  8
0
100
AcDbLine
 62
7
  6
CONTINUOUS
 10
806.2989606027
 20
336.9550472915
 11
809.2989606027
 21
342.1511997142
  0
LINE
  5
417
100
AcDbEntity
  8
0
100
AcDbLine
 62
7
  6
CONTINUOUS
 10
779.3989606027
 20
285.2548664264
 11
770.1422515411
 21
272.8054578883
  0
LWPOLYLINE
  5
418
100
AcDbEntity
  8
6_ALL_SURFS
100
AcDbPolyline
 62
7
  6
CONTINUOUS
 90
6
 70
0
 10
767.841653965
 20
386.2034969434
 10
733.4800872146
 20
396.4186421174
 10
701.3374473255
 20
404.8476086531
 10
671.5266188482
 20
410.9567145299
 10
643.6852964451
 20
414.5621970769
 10
618.1613333428
 20
415.6898709339
  0
LINE
  5
419
100
AcDbEntity
  8
0
100
AcDbLine
 62
7
  6
CONTINUOUS
 10
767.8416333717
 20
386.2035031687
 11
770.1422515411
 21
385.5161794266
  0
LINE
  5
41A
100
AcDbEntity
  8
0
100
AcDbLine
 62
7
  6
CONTINUOUS
 10
779.3989606027
 20
373.0667708884
 11
770.1422515411
 21
385.5161794266
  0
LINE
  5
41B
100
AcDbEntity
  8
0
100
AcDbLine
 62
7
  6
CONTINUOUS
 10
796.0489606027
 20
328.1608186574
 11
796.0489606027
 21
330.1608186574
  0
LINE
  5
41C
100
AcDbEntity
  8
0
100
AcDbLine
 62
9
  6
CONTINUOUS
 10
796.1989606027
 20
313.1608186574
 11
796.1989606027
 21
296.1608186574
  0
LINE
  5
41D
100
AcDbEntity
  8
0
100
AcDbLine
 62
7
  6
CONTINUOUS
 10
798.1089606027
 20
337.3695883582
 11
798.1089606027
 21
339.1608186574
  0
LINE
  5
41E
100
AcDbEntity
  8
0
100
AcDbLine
 62
7
  6
CONTINUOUS
 10
803.1989606027
 20
309.4818972466
 11
803.1989606027
 21
299.8397400683
  0
LINE
  5
41F
100
AcDbEntity
  8
0
100
AcDbLine
 62
9
  6
CONTINUOUS
 10
814.0037654481
 20
327.3001607462
 11
814.5037654481
 21
328.16618615
  0
LINE
  5
420
100
AcDbEntity
  8
0
100
AcDbLine
 62
7
  6
CONTINUOUS
 10
604.7089606027
 20
415.6908186574
 11
618.1613337449
 21
415.6908186574
  0
LINE
  5
421
100
AcDbEntity
  8
0
100
AcDbLine
 62
7
  6
CONTINUOUS
 10
805.1089606027
 20
339.1608186574
 11
805.1089606027
 21
337.5300420384
  0
LINE
  5
422
100
AcDbEntity
  8
0
100
AcDbLine
 62
9
  6
CONTINUOUS
 10
822.5835702935
 20
332.1608186574
 11
822.5835702935
 21
326.1608186574
  0
LINE
  5
423
100
AcDbEntity
  8
0
100
AcDbLine
 62
7
  6
CONTINUOUS
 10
843.2989606027
 20
332.1608186574
 11
843.2989606027
 21
326.1608186574
  0
LINE
  5
424
100
AcDbEntity
  8
0
100
AcDbLine
 62
7
  6
CONTINUOUS
 10
853.2989606027
 20
330.1608186574
 11
853.2989606027
 21
328.1608186574
  0
LINE
  5
425
100
AcDbEntity
  8
0
100
AcDbLine
 62
7
  6
CONTINUOUS
 10
398.1355974843
 20
485.0994798831
 11
397.138420438
 21
485.0994798831
  0
LINE
  5
426
100
AcDbEntity
  8
0
100
AcDbLine
 62
7
  6
CONTINUOUS
 10
392.413090046
 20
508.4994798831
 11
380.4145618381
 21
508.4994798831
  0
LINE
  5
427
100
AcDbEntity
  8
0
100
AcDbLine
 62
7
  6
CONTINUOUS
 10
289.1754999927
 20
508.4994798831
 11
277.1769717849
 21
508.4994798831
  0
LINE
  5
428
100
AcDbEntity
  8
0
100
AcDbLine
 62
7
  6
CONTINUOUS
 10
248.2655881151
 20
508.6994798831
 11
421.3244737157
 21
508.6994798831
  0
LINE
  5
429
100
AcDbEntity
  8
0
100
AcDbLine
 62
7
  6
CONTINUOUS
 10
421.3250309154
 20
522.1494798831
 11
378.0600309154
 21
522.1494798831
  0
LINE
  5
42A
100
AcDbEntity
  8
0
100
AcDbLine
 62
7
  6
CONTINUOUS
 10
248.2650309154
 20
522.1494798831
 11
315.795017847
 21
522.149728215
  0
LINE
  5
42B
100
AcDbEntity
  8
6_ALL_SURFS
100
AcDbLine
 62
9
  6
CONTINUOUS
 10
353.7940552404
 20
522.1503876485
 11
315.795017847
 21
522.149728215
  0
LINE
  5
42C
100
AcDbEntity
  8
6_ALL_SURFS
100
AcDbLine
 62
7
  6
CONTINUOUS
 10
353.7940552404
 20
522.1503876485
 11
378.0600309154
 21
522.1494798831
  0
LINE
  5
42D
100
AcDbEntity
  8
0
100
AcDbLine
 62
7
  6
CONTINUOUS
 10
248.2650309154
 20
508.6994798831
 11
248.2650309154
 21
522.1494798831
  0
LINE
  5
42E
100
AcDbEntity
  8
0
100
AcDbLine
 62
7
  6
CONTINUOUS
 10
418.0150309154
 20
529.5994798831
 11
376.4050309154
 21
529.5994798831
  0
LINE
  5
42F
100
AcDbEntity
  8
0
100
AcDbLine
 62
7
  6
CONTINUOUS
 10
251.5750309154
 20
529.5994798831
 11
312.6278010318
 21
529.5994798831
  0
LINE
  5
430
100
AcDbEntity
  8
6_ALL_SURFS
100
AcDbLine
 62
7
  6
CONTINUOUS
 10
356.960840625
 20
529.5994798831
 11
376.4050309154
 21
529.5994798831
  0
LINE
  5
431
100
AcDbEntity
  8
0
100
AcDbLine
 62
7
  6
CONTINUOUS
 10
290.8890786844
 20
683.3894798831
 11
278.4396701463
 21
674.1327708216
  0
LINE
  5
432
100
AcDbEntity
  8
0
100
AcDbLine
 62
7
  6
CONTINUOUS
 10
277.1762358888
 20
508.6994798831
 11
277.1762358888
 21
508.4994798831
  0
LINE
  5
433
100
AcDbEntity
  8
0
100
AcDbLine
 62
7
  6
CONTINUOUS
 10
289.1762358888
 20
508.6994798831
 11
289.1762358888
 21
508.4994798831
  0
LINE
  5
434
100
AcDbEntity
  8
0
100
AcDbLine
 62
7
  6
CONTINUOUS
 10
317.4700309154
 20
700.0394798831
 11
312.2950309154
 21
684.5730352009
  0
LINE
  5
435
100
AcDbEntity
  8
0
100
AcDbLine
 62
7
  6
CONTINUOUS
 10
248.2650309154
 20
522.1494798831
 11
251.5750309154
 21
529.5994798831
  0
LINE
  5
436
100
AcDbEntity
  8
0
100
AcDbLine
 62
7
  6
CONTINUOUS
 10
309.2950309154
 20
683.3894798831
 11
309.2950309154
 21
685.3894798831
  0
LINE
  5
437
100
AcDbEntity
  8
0
100
AcDbLine
 62
7
  6
CONTINUOUS
 10
312.2950309154
 20
684.5730352009
 11
312.2950309154
 21
683.3894798831
  0
LINE
  5
438
100
AcDbEntity
  8
0
100
AcDbLine
 62
7
  6
CONTINUOUS
 10
321.7579118234
 20
688.3502488711
 11
321.8529927997
 21
688.8894798831
  0
LINE
  5
439
100
AcDbEntity
  8
0
100
AcDbLine
 62
7
  6
CONTINUOUS
 10
331.8085923513
 20
719.1704222078
 11
331.8226451802
 21
719.2334002357
  0
LINE
  5
43A
100
AcDbEntity
  8
3_AXES_OTHER
100
AcDbLine
 62
7
  6
CENTER
 10
322.2950309154
 20
692.2894798831
 11
322.2950309154
 21
680.6694798831
  0
LINE
  5
43B
100
AcDbEntity
  8
3_AXES_OTHER
100
AcDbLine
 62
7
  6
CENTER
 10
322.2950309154
 20
692.2894798831
 11
322.2950309154
 21
703.9094798831
  0
LINE
  5
43C
100
AcDbEntity
  8
0
100
AcDbLine
 62
7
  6
CONTINUOUS
 10
324.40272607
 20
691.8894798831
 11
324.40272607
 21
695.6632145338
  0
LINE
  5
43D
100
AcDbEntity
  8
6_ALL_SURFS
100
AcDbLine
 62
7
  6
CONTINUOUS
 10
315.7950415887
 20
522.1499765478
 11
322.795111551
 21
671.8911324301
  0
LINE
  5
43E
100
AcDbEntity
  8
0
100
AcDbLine
 62
7
  6
CONTINUOUS
 10
326.2950309154
 20
700.0394798831
 11
326.2950309154
 21
700.1894798831
  0
LINE
  5
43F
100
AcDbEntity
  8
0
100
AcDbLine
 62
7
  6
CONTINUOUS
 10
330.2950309154
 20
704.8208909699
 11
330.2950309154
 21
718.2442847285
  0
LINE
  5
440
100
AcDbEntity
  8
0
100
AcDbLine
 62
7
  6
CONTINUOUS
 10
331.2950309154
 20
704.8208909699
 11
331.2950309154
 21
718.2442847285
  0
LINE
  5
441
100
AcDbEntity
  8
0
100
AcDbLine
 62
7
  6
CONTINUOUS
 10
331.7950309154
 20
693.9032148675
 11
331.7950309154
 21
719.1703984595
  0
LINE
  5
442
100
AcDbEntity
  8
0
100
AcDbLine
 62
7
  6
CONTINUOUS
 10
331.7950309154
 20
720.0726696019
 11
331.7950309154
 21
747.2894798831
  0
LINE
  5
443
100
AcDbEntity
  8
0
100
AcDbLine
 62
7
  6
CONTINUOUS
 10
333.7950309154
 20
747.2894798831
 11
333.7950309154
 21
757.2894798831
  0
LINE
  5
444
100
AcDbEntity
  8
3_AXES_OTHER
100
AcDbLine
 62
7
  6
CENTER
 10
334.7950309154
 20
692.2894798831
 11
334.7950309154
 21
679.6694798831
  0
LINE
  5
445
100
AcDbEntity
  8
3_AXES_OTHER
100
AcDbLine
 62
7
  6
CENTER
 10
334.7950309154
 20
692.2894798831
 11
334.7950309154
 21
704.9094798831
  0
LINE
  5
446
100
AcDbEntity
  8
0
100
AcDbLine
 62
7
  6
CONTINUOUS
 10
335.7950309154
 20
747.2894798831
 11
335.7950309154
 21
757.2894798831
  0
LINE
  5
447
100
AcDbEntity
  8
0
100
AcDbLine
 62
7
  6
CONTINUOUS
 10
337.7950309154
 20
693.9032148675
 11
337.7950309154
 21
719.1703983668
  0
LINE
  5
448
100
AcDbEntity
  8
0
100
AcDbLine
 62
7
  6
CONTINUOUS
 10
337.7950309154
 20
720.0726696019
 11
337.7950309154
 21
747.2894798831
  0
LINE
  5
449
100
AcDbEntity
  8
0
100
AcDbLine
 62
7
  6
CONTINUOUS
 10
338.2950309154
 20
718.2442847285
 11
338.2950309154
 21
704.8208909699
  0
LINE
  5
44A
100
AcDbEntity
  8
0
100
AcDbLine
 62
7
  6
CONTINUOUS
 10
339.2950309154
 20
718.2442847285
 11
339.2950309154
 21
704.8208909699
  0
LINE
  5
44B
100
AcDbEntity
  8
0
100
AcDbLine
 62
7
  6
CONTINUOUS
 10
343.2950309154
 20
700.0394798831
 11
343.2950309154
 21
700.1894798831
  0
LINE
  5
44C
100
AcDbEntity
  8
0
100
AcDbLine
 62
7
  6
CONTINUOUS
 10
345.1873357609
 20
691.8894798831
 11
345.1873357609
 21
695.6632145338
  0
LINE
  5
44D
100
AcDbEntity
  8
6_ALL_SURFS
100
AcDbLine
 62
7
  6
CONTINUOUS
 10
346.7986708506
 20
671.8116172462
 11
353.7945381931
 21
522.1512953932
  0
LINE
  5
44E
100
AcDbEntity
  8
3_AXES_OTHER
100
AcDbLine
 62
7
  6
CENTER
 10
347.2950309154
 20
692.2894798831
 11
347.2950309154
 21
680.6694798831
  0
LINE
  5
44F
100
AcDbEntity
  8
3_AXES_OTHER
100
AcDbLine
 62
7
  6
CENTER
 10
347.2950309154
 20
692.2894798831
 11
347.2950309154
 21
703.9094798831
  0
LINE
  5
450
100
AcDbEntity
  8
0
100
AcDbLine
 62
7
  6
CONTINUOUS
 10
357.2950309154
 20
683.3894798831
 11
357.2950309154
 21
684.5730352009
  0
LINE
  5
451
100
AcDbEntity
  8
0
100
AcDbLine
 62
7
  6
CONTINUOUS
 10
360.2950309154
 20
683.3894798831
 11
360.2950309154
 21
685.3894798831
  0
LINE
  5
452
100
AcDbEntity
  8
0
100
AcDbLine
 62
7
  6
CONTINUOUS
 10
337.7674166506
 20
719.2334002357
 11
337.7814625496
 21
719.1703059605
  0
LINE
  5
453
100
AcDbEntity
  8
0
100
AcDbLine
 62
7
  6
CONTINUOUS
 10
347.8321500074
 20
688.3502488711
 11
347.7370690312
 21
688.8894798831
  0
LINE
  5
454
100
AcDbEntity
  8
0
100
AcDbLine
 62
7
  6
CONTINUOUS
 10
421.3250309154
 20
522.1494798831
 11
418.0150309154
 21
529.5994798831
  0
LINE
  5
455
100
AcDbEntity
  8
0
100
AcDbLine
 62
7
  6
CONTINUOUS
 10
357.2950309154
 20
684.5730352009
 11
352.1200309154
 21
700.0394798831
  0
LINE
  5
456
100
AcDbEntity
  8
0
100
AcDbLine
 62
7
  6
CONTINUOUS
 10
380.4138259421
 20
508.6994798831
 11
380.4138259421
 21
508.4994798831
  0
LINE
  5
457
100
AcDbEntity
  8
0
100
AcDbLine
 62
7
  6
CONTINUOUS
 10
278.4396701463
 20
674.1327708216
 11
391.1503916846
 21
674.1327708216
  0
LINE
  5
458
100
AcDbEntity
  8
0
100
AcDbLine
 62
7
  6
CONTINUOUS
 10
392.4138259421
 20
508.6994798831
 11
392.4138259421
 21
508.4994798831
  0
LINE
  5
459
100
AcDbEntity
  8
0
100
AcDbLine
 62
7
  6
CONTINUOUS
 10
397.1370089611
 20
508.6994798831
 11
397.1370089611
 21
485.0994798831
  0
LINE
  5
45A
100
AcDbEntity
  8
0
100
AcDbLine
 62
7
  6
CONTINUOUS
 10
398.1370089611
 20
508.6994798831
 11
398.1370089611
 21
485.0994798831
  0
LINE
  5
45B
100
AcDbEntity
  8
0
100
AcDbLine
 62
7
  6
CONTINUOUS
 10
290.8890786856
 20
683.3894798831
 11
378.7009831453
 21
683.3894798831
  0
LINE
  5
45C
100
AcDbEntity
  8
0
100
AcDbLine
 62
7
  6
CONTINUOUS
 10
309.2950309154
 20
685.3894798831
 11
312.5682094847
 21
685.3894798831
  0
LINE
  5
45D
100
AcDbEntity
  8
0
100
AcDbLine
 62
7
  6
CONTINUOUS
 10
357.0218523461
 20
685.3894798831
 11
360.2950309154
 21
685.3894798831
  0
LINE
  5
45E
100
AcDbEntity
  8
0
100
AcDbLine
 62
7
  6
CONTINUOUS
 10
321.8529927997
 20
688.8894798831
 11
324.3714242456
 21
688.8894798831
  0
LINE
  5
45F
100
AcDbEntity
  8
0
100
AcDbLine
 62
7
  6
CONTINUOUS
 10
331.2110196821
 20
688.8894798831
 11
338.3790421488
 21
688.8894798831
  0
LINE
  5
460
100
AcDbEntity
  8
0
100
AcDbLine
 62
7
  6
CONTINUOUS
 10
345.2186375853
 20
688.8894798831
 11
347.7370690312
 21
688.8894798831
  0
LINE
  5
461
100
AcDbEntity
  8
0
100
AcDbLine
 62
7
  6
CONTINUOUS
 10
324.40272607
 20
691.8894798831
 11
326.2245001232
 21
691.8894798831
  0
LINE
  5
462
100
AcDbEntity
  8
0
100
AcDbLine
 62
7
  6
CONTINUOUS
 10
329.8583846916
 20
691.8894798831
 11
332.5325945566
 21
691.8894798831
  0
LINE
  5
463
100
AcDbEntity
  8
0
100
AcDbLine
 62
7
  6
CONTINUOUS
 10
337.0574672743
 20
691.8894798831
 11
339.7316771393
 21
691.8894798831
  0
LINE
  5
464
100
AcDbEntity
  8
0
100
AcDbLine
 62
7
  6
CONTINUOUS
 10
343.3655617077
 20
691.8894798831
 11
345.1873357609
 21
691.8894798831
  0
LINE
  5
465
100
AcDbEntity
  8
3_AXES_OTHER
100
AcDbLine
 62
7
  6
CENTER
 10
347.2950309154
 20
692.2894798831
 11
335.6750309154
 21
692.2894798831
  0
LINE
  5
466
100
AcDbEntity
  8
3_AXES_OTHER
100
AcDbLine
 62
7
  6
CENTER
 10
334.7950309154
 20
692.2894798831
 11
322.1750309154
 21
692.2894798831
  0
LINE
  5
467
100
AcDbEntity
  8
3_AXES_OTHER
100
AcDbLine
 62
7
  6
CENTER
 10
322.1750309154
 20
692.2894798831
 11
310.6750309154
 21
692.2894798831
  0
LINE
  5
468
100
AcDbEntity
  8
3_AXES_OTHER
100
AcDbLine
 62
7
  6
CENTER
 10
334.7950309154
 20
692.2894798831
 11
335.6750309154
 21
692.2894798831
  0
LINE
  5
469
100
AcDbEntity
  8
3_AXES_OTHER
100
AcDbLine
 62
7
  6
CENTER
 10
347.2950309154
 20
692.2894798831
 11
347.4150309154
 21
692.2894798831
  0
LINE
  5
46A
100
AcDbEntity
  8
3_AXES_OTHER
100
AcDbLine
 62
7
  6
CENTER
 10
347.4150309154
 20
692.2894798831
 11
358.9150309154
 21
692.2894798831
  0
LINE
  5
46B
100
AcDbEntity
  8
0
100
AcDbLine
 62
7
  6
CONTINUOUS
 10
331.4110196821
 20
695.8894798831
 11
331.7950309154
 21
695.8894798831
  0
LINE
  5
46C
100
AcDbEntity
  8
0
100
AcDbLine
 62
7
  6
CONTINUOUS
 10
337.7950309154
 20
695.8894798831
 11
338.1790421488
 21
695.8894798831
  0
LINE
  5
46D
100
AcDbEntity
  8
0
100
AcDbLine
 62
7
  6
CONTINUOUS
 10
378.7009831464
 20
683.3894798831
 11
391.1503916846
 21
674.1327708216
  0
LINE
  5
46E
100
AcDbEntity
  8
0
100
AcDbLine
 62
7
  6
CONTINUOUS
 10
421.3250309154
 20
508.6994798831
 11
421.3250309154
 21
522.1494798831
  0
LINE
  5
46F
100
AcDbEntity
  8
0
100
AcDbLine
 62
7
  6
CONTINUOUS
 10
352.1200309154
 20
700.0394798831
 11
337.7950309154
 21
700.0394798831
  0
LINE
  5
470
100
AcDbEntity
  8
0
100
AcDbLine
 62
7
  6
CONTINUOUS
 10
331.7950309154
 20
700.0394798831
 11
317.4700309154
 21
700.0394798831
  0
LINE
  5
471
100
AcDbEntity
  8
0
100
AcDbLine
 62
9
  6
CONTINUOUS
 10
326.2950309154
 20
700.1894798831
 11
331.7950309154
 21
700.1894798831
  0
LINE
  5
472
100
AcDbEntity
  8
0
100
AcDbLine
 62
9
  6
CONTINUOUS
 10
337.7950309154
 20
700.1894798831
 11
343.2950309154
 21
700.1894798831
  0
LINE
  5
473
100
AcDbEntity
  8
0
100
AcDbLine
 62
7
  6
CONTINUOUS
 10
329.9732055366
 20
707.1894798831
 11
330.2950309154
 21
707.1894798831
  0
LINE
  5
474
100
AcDbEntity
  8
0
100
AcDbLine
 62
7
  6
CONTINUOUS
 10
331.2950309154
 20
707.1894798831
 11
331.7950309154
 21
707.1894798831
  0
LINE
  5
475
100
AcDbEntity
  8
0
100
AcDbLine
 62
7
  6
CONTINUOUS
 10
337.7950309154
 20
707.1894798831
 11
338.2950309154
 21
707.1894798831
  0
LINE
  5
476
100
AcDbEntity
  8
0
100
AcDbLine
 62
7
  6
CONTINUOUS
 10
339.2950309154
 20
707.1894798831
 11
339.6168562943
 21
707.1894798831
  0
LINE
  5
477
100
AcDbEntity
  8
0
100
AcDbLine
 62
9
  6
CONTINUOUS
 10
331.7950309154
 20
726.574089574
 11
337.7950309154
 21
726.574089574
  0
LINE
  5
478
100
AcDbEntity
  8
0
100
AcDbLine
 62
7
  6
CONTINUOUS
 10
331.7950309154
 20
747.2894798831
 11
337.7950309154
 21
747.2894798831
  0
LINE
  5
479
100
AcDbEntity
  8
0
100
AcDbLine
 62
7
  6
CONTINUOUS
 10
333.7950309154
 20
757.2894798831
 11
335.7950309154
 21
757.2894798831
  0
LINE
  5
47A
100
AcDbEntity
  8
0
100
AcDbLine
 62
7
  6
CONTINUOUS
 10
1053.055689446
 20
289.5608186574
 11
1054.055689446
 21
289.5608186574
  0
LINE
  5
47B
100
AcDbEntity
  8
0
100
AcDbLine
 62
7
  6
CONTINUOUS
 10
1052.055689446
 20
290.5608186574
 11
1053.055689446
 21
290.5608186574
  0
LINE
  5
47C
100
AcDbEntity
  8
0
100
AcDbLine
 62
7
  6
CONTINUOUS
 10
1054.055689446
 20
290.5608186574
 11
1055.055689446
 21
290.5608186574
  0
LINE
  5
47D
100
AcDbEntity
  8
0
100
AcDbLine
 62
7
  6
CONTINUOUS
 10
1055.055689446
 20
291.5608186574
 11
1054.055689446
 21
291.5608186574
  0
LINE
  5
47E
100
AcDbEntity
  8
0
100
AcDbLine
 62
7
  6
CONTINUOUS
 10
1053.055689446
 20
291.5608186574
 11
1052.055689446
 21
291.5608186574
  0
LINE
  5
47F
100
AcDbEntity
  8
0
100
AcDbLine
 62
7
  6
CONTINUOUS
 10
1054.055689446
 20
292.5608186574
 11
1053.055689446
 21
292.5608186574
  0
LINE
  5
480
100
AcDbEntity
  8
0
100
AcDbLine
 62
7
  6
CONTINUOUS
 10
1039.555689446
 20
294.6608186574
 11
1067.555689446
 21
294.6608186574
  0
LINE
  5
481
100
AcDbEntity
  8
0
100
AcDbLine
 62
7
  6
CONTINUOUS
 10
1048.3595370233
 20
295.6608186574
 11
1058.7518418687
 21
295.6608186574
  0
LINE
  5
482
100
AcDbEntity
  8
0
100
AcDbLine
 62
7
  6
CONTINUOUS
 10
1040.6136513303
 20
295.7187805417
 11
1048.3595370233
 21
295.7187805417
  0
LINE
  5
483
100
AcDbEntity
  8
0
100
AcDbLine
 62
7
  6
CONTINUOUS
 10
1058.7518418687
 20
295.7187805417
 11
1066.4977275618
 21
295.7187805417
  0
LINE
  5
484
100
AcDbEntity
  8
0
100
AcDbLine
 62
7
  6
CONTINUOUS
 10
1028.855689446
 20
310.2608186574
 11
1028.855689446
 21
309.2608186574
  0
LINE
  5
485
100
AcDbEntity
  8
0
100
AcDbLine
 62
7
  6
CONTINUOUS
 10
1030.055689446
 20
311.4608186574
 11
1030.055689446
 21
310.2608186574
  0
LINE
  5
486
100
AcDbEntity
  8
0
100
AcDbLine
 62
7
  6
CONTINUOUS
 10
1030.055689446
 20
309.2608186574
 11
1030.055689446
 21
308.0608186574
  0
LINE
  5
487
100
AcDbEntity
  8
0
100
AcDbLine
 62
7
  6
CONTINUOUS
 10
1031.055689446
 20
308.0608186574
 11
1031.055689446
 21
309.2608186574
  0
LINE
  5
488
100
AcDbEntity
  8
0
100
AcDbLine
 62
7
  6
CONTINUOUS
 10
1031.055689446
 20
310.2608186574
 11
1031.055689446
 21
311.4608186574
  0
LINE
  5
489
100
AcDbEntity
  8
0
100
AcDbLine
 62
7
  6
CONTINUOUS
 10
1031.055689446
 20
328.1608186574
 11
1031.055689446
 21
330.1608186574
  0
LINE
  5
48A
100
AcDbEntity
  8
0
100
AcDbLine
 62
7
  6
CONTINUOUS
 10
1032.255689446
 20
309.2608186574
 11
1032.255689446
 21
310.2608186574
  0
LINE
  5
48B
100
AcDbEntity
  8
0
100
AcDbLine
 62
7
  6
CONTINUOUS
 10
1036.230689446
 20
328.1608186574
 11
1036.230689446
 21
330.1608186574
  0
LINE
  5
48C
100
AcDbEntity
  8
0
100
AcDbLine
 62
7
  6
CONTINUOUS
 10
1030.055689446
 20
308.0608186574
 11
1031.055689446
 21
308.0608186574
  0
LINE
  5
48D
100
AcDbEntity
  8
0
100
AcDbLine
 62
7
  6
CONTINUOUS
 10
1076.055689446
 20
308.0608186574
 11
1077.055689446
 21
308.0608186574
  0
LINE
  5
48E
100
AcDbEntity
  8
0
100
AcDbLine
 62
7
  6
CONTINUOUS
 10
1028.855689446
 20
309.2608186574
 11
1030.055689446
 21
309.2608186574
  0
LINE
  5
48F
100
AcDbEntity
  8
0
100
AcDbLine
 62
7
  6
CONTINUOUS
 10
1031.055689446
 20
309.2608186574
 11
1032.255689446
 21
309.2608186574
  0
LINE
  5
490
100
AcDbEntity
  8
0
100
AcDbLine
 62
7
  6
CONTINUOUS
 10
1074.855689446
 20
309.2608186574
 11
1076.055689446
 21
309.2608186574
  0
LINE
  5
491
100
AcDbEntity
  8
0
100
AcDbLine
 62
7
  6
CONTINUOUS
 10
1077.055689446
 20
309.2608186574
 11
1078.255689446
 21
309.2608186574
  0
LINE
  5
492
100
AcDbEntity
  8
0
100
AcDbLine
 62
7
  6
CONTINUOUS
 10
1078.255689446
 20
310.2608186574
 11
1077.055689446
 21
310.2608186574
  0
LINE
  5
493
100
AcDbEntity
  8
0
100
AcDbLine
 62
7
  6
CONTINUOUS
 10
1076.055689446
 20
310.2608186574
 11
1074.855689446
 21
310.2608186574
  0
LINE
  5
494
100
AcDbEntity
  8
0
100
AcDbLine
 62
7
  6
CONTINUOUS
 10
1032.255689446
 20
310.2608186574
 11
1031.055689446
 21
310.2608186574
  0
LINE
  5
495
100
AcDbEntity
  8
0
100
AcDbLine
 62
7
  6
CONTINUOUS
 10
1030.055689446
 20
310.2608186574
 11
1028.855689446
 21
310.2608186574
  0
LINE
  5
496
100
AcDbEntity
  8
0
100
AcDbLine
 62
7
  6
CONTINUOUS
 10
1077.055689446
 20
311.4608186574
 11
1076.055689446
 21
311.4608186574
  0
LINE
  5
497
100
AcDbEntity
  8
0
100
AcDbLine
 62
7
  6
CONTINUOUS
 10
1031.055689446
 20
311.4608186574
 11
1030.055689446
 21
311.4608186574
  0
LINE
  5
498
100
AcDbEntity
  8
0
100
AcDbLine
 62
7
  6
CONTINUOUS
 10
1066.4977275618
 20
313.6028567732
 11
1058.7518418687
 21
313.6028567732
  0
LINE
  5
499
100
AcDbEntity
  8
0
100
AcDbLine
 62
7
  6
CONTINUOUS
 10
1048.3595370233
 20
313.6028567732
 11
1040.6136513303
 21
313.6028567732
  0
LINE
  5
49A
100
AcDbEntity
  8
0
100
AcDbLine
 62
7
  6
CONTINUOUS
 10
1058.7518418687
 20
313.6608186574
 11
1048.3595370233
 21
313.6608186574
  0
LINE
  5
49B
100
AcDbEntity
  8
0
100
AcDbLine
 62
7
  6
CONTINUOUS
 10
1039.555689446
 20
314.6608186574
 11
1040.6136513303
 21
313.6028567732
  0
LINE
  5
49C
100
AcDbEntity
  8
0
100
AcDbLine
 62
7
  6
CONTINUOUS
 10
1043.1633846006
 20
304.6608186574
 11
1048.3595370233
 21
295.6608186574
  0
LINE
  5
49D
100
AcDbEntity
  8
0
100
AcDbLine
 62
7
  6
CONTINUOUS
 10
1039.555689446
 20
314.6608186574
 11
1039.555689446
 21
294.6608186574
  0
LINE
  5
49E
100
AcDbEntity
  8
0
100
AcDbLine
 62
7
  6
CONTINUOUS
 10
1040.6136513303
 20
313.6028567732
 11
1040.6136513303
 21
295.7187805417
  0
LINE
  5
49F
100
AcDbEntity
  8
0
100
AcDbLine
 62
7
  6
CONTINUOUS
 10
1067.555689446
 20
314.6608186574
 11
1055.1344089452
 21
314.6608186574
  0
LINE
  5
4A0
100
AcDbEntity
  8
0
100
AcDbLine
 62
7
  6
CONTINUOUS
 10
1051.9769699469
 20
314.6608186574
 11
1039.555689446
 21
314.6608186574
  0
LINE
  5
4A1
100
AcDbEntity
  8
0
100
AcDbLine
 62
7
  6
CONTINUOUS
 10
1072.3772196707
 20
316.6608186574
 11
1056.5119451143
 21
316.6608186574
  0
LINE
  5
4A2
100
AcDbEntity
  8
0
100
AcDbLine
 62
7
  6
CONTINUOUS
 10
1050.5994337778
 20
316.6608186574
 11
1034.7341592213
 21
316.6608186574
  0
LINE
  5
4A3
100
AcDbEntity
  8
0
100
AcDbLine
 62
7
  6
CONTINUOUS
 10
1072.3772196707
 20
317.1608186574
 11
1056.555689446
 21
317.1608186574
  0
LINE
  5
4A4
100
AcDbEntity
  8
0
100
AcDbLine
 62
7
  6
CONTINUOUS
 10
1050.555689446
 20
317.1608186574
 11
1034.7341592213
 21
317.1608186574
  0
LINE
  5
4A5
100
AcDbEntity
  8
0
100
AcDbLine
 62
7
  6
CONTINUOUS
 10
1067.555689446
 20
294.6608186574
 11
1066.4977275618
 21
295.7187805417
  0
LINE
  5
4A6
100
AcDbEntity
  8
0
100
AcDbLine
 62
7
  6
CONTINUOUS
 10
1049.055689446
 20
327.7331734481
 11
1049.055689446
 21
335.4831734481
  0
LINE
  5
4A7
100
AcDbEntity
  8
0
100
AcDbLine
 62
7
  6
CONTINUOUS
 10
1050.055689446
 20
327.7331734481
 11
1050.055689446
 21
335.4831734481
  0
LINE
  5
4A8
100
AcDbEntity
  8
0
100
AcDbLine
 62
7
  6
CONTINUOUS
 10
1050.555689446
 20
339.1608186574
 11
1050.555689446
 21
336.8486801859
  0
LINE
  5
4A9
100
AcDbEntity
  8
0
100
AcDbLine
 62
7
  6
CONTINUOUS
 10
1050.555689446
 20
335.8209700827
 11
1050.555689446
 21
330.1608186574
  0
LINE
  5
4AA
100
AcDbEntity
  8
0
100
AcDbLine
 62
7
  6
CONTINUOUS
 10
1050.555689446
 20
317.1790404602
 11
1050.555689446
 21
326.3350910019
  0
LINE
  5
4AB
100
AcDbEntity
  8
0
100
AcDbLine
 62
7
  6
CONTINUOUS
 10
1050.555689446
 20
327.2470240067
 11
1050.555689446
 21
327.3854828803
  0
LINE
  5
4AC
100
AcDbEntity
  8
0
100
AcDbLine
 62
7
  6
CONTINUOUS
 10
1050.555689446
 20
339.5531235029
 11
1050.555689446
 21
341.1443730745
  0
LINE
  5
4AD
100
AcDbEntity
  8
0
100
AcDbLine
 62
9
  6
CONTINUOUS
 10
1051.555689446
 20
336.9831734481
 11
1051.555689446
 21
335.9831734481
  0
LINE
  5
4AE
100
AcDbEntity
  8
0
100
AcDbLine
 62
7
  6
CONTINUOUS
 10
1052.055689446
 20
291.5608186574
 11
1052.055689446
 21
290.5608186574
  0
LINE
  5
4AF
100
AcDbEntity
  8
0
100
AcDbLine
 62
7
  6
CONTINUOUS
 10
1053.055689446
 20
292.5608186574
 11
1053.055689446
 21
291.5608186574
  0
LINE
  5
4B0
100
AcDbEntity
  8
0
100
AcDbLine
 62
7
  6
CONTINUOUS
 10
1053.055689446
 20
290.5608186574
 11
1053.055689446
 21
289.5608186574
  0
LINE
  5
4B1
100
AcDbEntity
  8
3_AXES_OTHER
100
AcDbLine
 62
7
  6
CENTER
 10
1053.555689446
 20
329.1608186574
 11
1053.555689446
 21
234.1230520067
  0
LINE
  5
4B2
100
AcDbEntity
  8
3_AXES_OTHER
100
AcDbLine
 62
7
  6
CENTER
 10
1053.555689446
 20
329.1608186574
 11
1053.555689446
 21
424.7447225251
  0
LINE
  5
4B3
100
AcDbEntity
  8
0
100
AcDbLine
 62
7
  6
CONTINUOUS
 10
1054.055689446
 20
289.5608186574
 11
1054.055689446
 21
290.5608186574
  0
LINE
  5
4B4
100
AcDbEntity
  8
0
100
AcDbLine
 62
7
  6
CONTINUOUS
 10
1054.055689446
 20
291.5608186574
 11
1054.055689446
 21
292.5608186574
  0
LINE
  5
4B5
100
AcDbEntity
  8
0
100
AcDbLine
 62
7
  6
CONTINUOUS
 10
1031.055689446
 20
328.1608186574
 11
1049.055689446
 21
328.1608186574
  0
LINE
  5
4B6
100
AcDbEntity
  8
0
100
AcDbLine
 62
7
  6
CONTINUOUS
 10
1050.055689446
 20
328.1608186574
 11
1050.555689446
 21
328.1608186574
  0
LINE
  5
4B7
100
AcDbEntity
  8
0
100
AcDbLine
 62
7
  6
CONTINUOUS
 10
1056.555689446
 20
328.1608186574
 11
1057.055689446
 21
328.1608186574
  0
LINE
  5
4B8
100
AcDbEntity
  8
0
100
AcDbLine
 62
7
  6
CONTINUOUS
 10
1058.055689446
 20
328.1608186574
 11
1076.055689446
 21
328.1608186574
  0
LINE
  5
4B9
100
AcDbEntity
  8
3_AXES_OTHER
100
AcDbLine
 62
7
  6
CENTER
 10
1053.555689446
 20
329.1608186574
 11
956.3227617675
 21
329.1608186574
  0
LINE
  5
4BA
100
AcDbEntity
  8
3_AXES_OTHER
100
AcDbLine
 62
7
  6
CENTER
 10
1053.555689446
 20
329.1608186574
 11
1159.6132604657
 21
329.1608186574
  0
LINE
  5
4BB
100
AcDbEntity
  8
0
100
AcDbLine
 62
7
  6
CONTINUOUS
 10
1031.055689446
 20
330.1608186574
 11
1049.055689446
 21
330.1608186574
  0
LINE
  5
4BC
100
AcDbEntity
  8
0
100
AcDbLine
 62
7
  6
CONTINUOUS
 10
1050.055689446
 20
330.1608186574
 11
1050.7756281175
 21
330.1608186574
  0
LINE
  5
4BD
100
AcDbEntity
  8
0
100
AcDbLine
 62
7
  6
CONTINUOUS
 10
1056.3357507745
 20
330.1608186574
 11
1057.055689446
 21
330.1608186574
  0
LINE
  5
4BE
100
AcDbEntity
  8
0
100
AcDbLine
 62
7
  6
CONTINUOUS
 10
1058.055689446
 20
330.1608186574
 11
1076.055689446
 21
330.1608186574
  0
LINE
  5
4BF
100
AcDbEntity
  8
0
100
AcDbLine
 62
7
  6
CONTINUOUS
 10
1063.9479942914
 20
304.6608186574
 11
1058.7518418687
 21
313.6608186574
  0
LINE
  5
4C0
100
AcDbEntity
  8
0
100
AcDbLine
 62
7
  6
CONTINUOUS
 10
1055.055689446
 20
290.5608186574
 11
1055.055689446
 21
291.5608186574
  0
LINE
  5
4C1
100
AcDbEntity
  8
0
100
AcDbLine
 62
9
  6
CONTINUOUS
 10
1055.555689446
 20
336.9831734481
 11
1055.555689446
 21
335.9831734481
  0
LINE
  5
4C2
100
AcDbEntity
  8
0
100
AcDbLine
 62
7
  6
CONTINUOUS
 10
1056.555689446
 20
339.1608186574
 11
1056.555689446
 21
336.8488263458
  0
LINE
  5
4C3
100
AcDbEntity
  8
0
100
AcDbLine
 62
7
  6
CONTINUOUS
 10
1056.555689446
 20
335.8209253544
 11
1056.555689446
 21
330.1608186574
  0
LINE
  5
4C4
100
AcDbEntity
  8
0
100
AcDbLine
 62
7
  6
CONTINUOUS
 10
1056.555689446
 20
317.1790404602
 11
1056.555689446
 21
326.3350922211
  0
LINE
  5
4C5
100
AcDbEntity
  8
0
100
AcDbLine
 62
7
  6
CONTINUOUS
 10
1056.555689446
 20
327.2470240067
 11
1056.555689446
 21
327.3854825596
  0
LINE
  5
4C6
100
AcDbEntity
  8
0
100
AcDbLine
 62
7
  6
CONTINUOUS
 10
1056.555689446
 20
339.5531235029
 11
1056.555689446
 21
341.1443730745
  0
LINE
  5
4C7
100
AcDbEntity
  8
0
100
AcDbLine
 62
7
  6
CONTINUOUS
 10
1057.055689446
 20
335.4831734481
 11
1057.055689446
 21
327.7331734481
  0
LINE
  5
4C8
100
AcDbEntity
  8
0
100
AcDbLine
 62
7
  6
CONTINUOUS
 10
1058.055689446
 20
335.4831734481
 11
1058.055689446
 21
327.7331734481
  0
LINE
  5
4C9
100
AcDbEntity
  8
0
100
AcDbLine
 62
7
  6
CONTINUOUS
 10
1048.3595370233
 20
313.6608186574
 11
1043.1633846006
 21
304.6608186574
  0
LINE
  5
4CA
100
AcDbEntity
  8
0
100
AcDbLine
 62
7
  6
CONTINUOUS
 10
1051.555689446
 20
335.9831734481
 11
1055.555689446
 21
335.9831734481
  0
LINE
  5
4CB
100
AcDbEntity
  8
0
100
AcDbLine
 62
7
  6
CONTINUOUS
 10
1051.555689446
 20
336.9831734481
 11
1053.3924150929
 21
336.9831734481
  0
LINE
  5
4CC
100
AcDbEntity
  8
0
100
AcDbLine
 62
7
  6
CONTINUOUS
 10
1053.7189637992
 20
336.9831734481
 11
1055.555689446
 21
336.9831734481
  0
LINE
  5
4CD
100
AcDbEntity
  8
0
100
AcDbLine
 62
7
  6
CONTINUOUS
 10
1066.4977275618
 20
295.7187805417
 11
1066.4977275618
 21
313.6028567732
  0
LINE
  5
4CE
100
AcDbEntity
  8
0
100
AcDbLine
 62
7
  6
CONTINUOUS
 10
1067.555689446
 20
294.6608186574
 11
1067.555689446
 21
314.6608186574
  0
LINE
  5
4CF
100
AcDbEntity
  8
0
100
AcDbLine
 62
7
  6
CONTINUOUS
 10
1070.880689446
 20
328.1608186574
 11
1070.880689446
 21
330.1608186574
  0
LINE
  5
4D0
100
AcDbEntity
  8
0
100
AcDbLine
 62
7
  6
CONTINUOUS
 10
1039.555689446
 20
294.6608186574
 11
1040.6136513303
 21
295.7187805417
  0
LINE
  5
4D1
100
AcDbEntity
  8
0
100
AcDbLine
 62
7
  6
CONTINUOUS
 10
1074.855689446
 20
310.2608186574
 11
1074.855689446
 21
309.2608186574
  0
LINE
  5
4D2
100
AcDbEntity
  8
0
100
AcDbLine
 62
7
  6
CONTINUOUS
 10
1076.055689446
 20
311.4608186574
 11
1076.055689446
 21
310.2608186574
  0
LINE
  5
4D3
100
AcDbEntity
  8
0
100
AcDbLine
 62
7
  6
CONTINUOUS
 10
1076.055689446
 20
309.2608186574
 11
1076.055689446
 21
308.0608186574
  0
LINE
  5
4D4
100
AcDbEntity
  8
0
100
AcDbLine
 62
7
  6
CONTINUOUS
 10
1076.055689446
 20
328.1608186574
 11
1076.055689446
 21
330.1608186574
  0
LINE
  5
4D5
100
AcDbEntity
  8
0
100
AcDbLine
 62
7
  6
CONTINUOUS
 10
1077.055689446
 20
308.0608186574
 11
1077.055689446
 21
309.2608186574
  0
LINE
  5
4D6
100
AcDbEntity
  8
0
100
AcDbLine
 62
7
  6
CONTINUOUS
 10
1077.055689446
 20
310.2608186574
 11
1077.055689446
 21
311.4608186574
  0
LINE
  5
4D7
100
AcDbEntity
  8
0
100
AcDbLine
 62
7
  6
CONTINUOUS
 10
1078.255689446
 20
309.2608186574
 11
1078.255689446
 21
310.2608186574
  0
LINE
  5
4D8
100
AcDbEntity
  8
0
100
AcDbLine
 62
7
  6
CONTINUOUS
 10
1058.7518418687
 20
295.6608186574
 11
1063.9479942914
 21
304.6608186574
  0
LINE
  5
4D9
100
AcDbEntity
  8
0
100
AcDbLine
 62
7
  6
CONTINUOUS
 10
1067.555689446
 20
314.6608186574
 11
1066.4977275618
 21
313.6028567732
  0
LINE
  5
4DA
100
AcDbEntity
  8
0
100
AcDbLine
 62
7
  6
CONTINUOUS
 10
984.5879757153
 20
597.3749274191
 11
985.8109358963
 21
594.7599352752
  0
LINE
  5
4DB
100
AcDbEntity
  8
0
100
AcDbLine
 62
7
  6
CONTINUOUS
 10
986.5752860094
 20
593.1255651852
 11
986.8810260547
 21
592.4718171492
  0
LINE
  5
4DC
100
AcDbEntity
  8
0
100
AcDbLine
 62
7
  6
CONTINUOUS
 10
985.8224127021
 20
595.4765237174
 11
984.9051925664
 21
597.4377678254
  0
LINE
  5
4DD
100
AcDbEntity
  8
0
100
AcDbLine
 62
7
  6
CONTINUOUS
 10
984.3860619167
 20
597.9301906424
 11
984.5879757153
 21
597.3749274191
  0
LINE
  5
4DE
100
AcDbEntity
  8
0
100
AcDbLine
 62
7
  6
CONTINUOUS
 10
984.9051925664
 20
597.4377678254
 11
984.7542352476
 21
597.8840734582
  0
LINE
  5
4DF
100
AcDbEntity
  8
0
100
AcDbLine
 62
7
  6
CONTINUOUS
 10
984.2956251797
 20
598.8646955122
 11
984.287974073
 21
598.3869696763
  0
LINE
  5
4E0
100
AcDbEntity
  8
0
100
AcDbLine
 62
7
  6
CONTINUOUS
 10
985.3755791986
 20
599.3919670654
 11
985.3699212037
 21
599.0386887148
  0
LINE
  5
4E1
100
AcDbEntity
  8
0
100
AcDbLine
 62
7
  6
CONTINUOUS
 10
976.0902079377
 20
687.5448903894
 11
985.7916672098
 21
693.3886377683
  0
LINE
  5
4E2
100
AcDbEntity
  8
0
100
AcDbLine
 62
7
  6
CONTINUOUS
 10
986.2403191776
 20
598.5356229526
 11
986.4989281876
 21
598.229695744
  0
LINE
  5
4E3
100
AcDbEntity
  8
0
100
AcDbLine
 62
7
  6
CONTINUOUS
 10
986.7651885913
 20
598.401493747
 11
986.455622833
 21
598.816379174
  0
LINE
  5
4E4
100
AcDbEntity
  8
0
100
AcDbLine
 62
7
  6
CONTINUOUS
 10
986.4989281876
 20
598.229695744
 11
986.7556244568
 21
597.8043369132
  0
LINE
  5
4E5
100
AcDbEntity
  8
0
100
AcDbLine
 62
7
  6
CONTINUOUS
 10
987.0728413449
 20
597.8671773268
 11
986.7651885913
 21
598.401493747
  0
LINE
  5
4E6
100
AcDbEntity
  8
0
100
AcDbLine
 62
7
  6
CONTINUOUS
 10
986.7743523883
 20
595.6651022132
 11
986.892883027
 21
595.4116543137
  0
LINE
  5
4E7
100
AcDbEntity
  8
0
100
AcDbLine
 62
7
  6
CONTINUOUS
 10
987.8444425467
 20
593.3769840872
 11
987.9629731854
 21
593.1235361878
  0
LINE
  5
4E8
100
AcDbEntity
  8
0
100
AcDbLine
 62
7
  6
CONTINUOUS
 10
986.7556244568
 20
597.8043369132
 11
987.6728445926
 21
595.8430928052
  0
LINE
  5
4E9
100
AcDbEntity
  8
0
100
AcDbLine
 62
7
  6
CONTINUOUS
 10
989.3658916843
 20
592.9640670569
 11
989.060151639
 21
593.6178150929
  0
LINE
  5
4EA
100
AcDbEntity
  8
0
100
AcDbLine
 62
7
  6
CONTINUOUS
 10
988.2958015259
 20
595.2521851828
 11
987.0728413449
 21
597.8671773268
  0
LINE
  5
4EB
100
AcDbEntity
  8
0
100
AcDbLine
 62
7
  6
CONTINUOUS
 10
984.287974073
 20
598.3869696763
 11
984.3860619167
 21
597.9301906424
  0
LINE
  5
4EC
100
AcDbEntity
  8
0
100
AcDbLine
 62
7
  6
CONTINUOUS
 10
985.3699212037
 20
599.0386887148
 11
985.3961981782
 21
598.9163211454
  0
LINE
  5
4ED
100
AcDbEntity
  8
0
100
AcDbLine
 62
7
  6
CONTINUOUS
 10
984.7542352476
 20
597.8840734582
 11
984.7071041753
 21
598.2318942783
  0
LINE
  5
4EE
100
AcDbEntity
  8
0
100
AcDbLine
 62
7
  6
CONTINUOUS
 10
984.7071041753
 20
598.2318942783
 11
984.7637994977
 21
598.481230315
  0
LINE
  5
4EF
100
AcDbEntity
  8
0
100
AcDbLine
 62
7
  6
CONTINUOUS
 10
985.9797975009
 20
598.7221185536
 11
986.2403191776
 21
598.5356229526
  0
LINE
  5
4F0
100
AcDbEntity
  8
0
100
AcDbLine
 62
7
  6
CONTINUOUS
 10
986.455622833
 20
598.816379174
 11
986.0403181198
 21
599.210317798
  0
LINE
  5
4F1
100
AcDbEntity
  8
0
100
AcDbLine
 62
7
  6
CONTINUOUS
 10
984.4051898292
 20
599.1245049206
 11
984.2956251797
 21
598.8646955122
  0
LINE
  5
4F2
100
AcDbEntity
  8
0
100
AcDbLine
 62
7
  6
CONTINUOUS
 10
968.566252356
 20
659.6725330059
 11
967.4121754166
 21
658.9773660314
  0
LINE
  5
4F3
100
AcDbEntity
  8
0
100
AcDbLine
 62
7
  6
CONTINUOUS
 10
986.0403181198
 20
599.210317798
 11
985.7269269308
 21
599.3863399906
  0
LINE
  5
4F4
100
AcDbEntity
  8
0
100
AcDbLine
 62
7
  6
CONTINUOUS
 10
974.7580112053
 20
649.3933247507
 11
973.6039342658
 21
648.6981577763
  0
LINE
  5
4F5
100
AcDbEntity
  8
0
100
AcDbLine
 62
7
  6
CONTINUOUS
 10
1025.5732610683
 20
670.9655761548
 11
1024.4191841289
 21
670.2704091804
  0
LINE
  5
4F6
100
AcDbEntity
  8
0
100
AcDbLine
 62
7
  6
CONTINUOUS
 10
985.7269269308
 20
599.3863399906
 11
985.4116227835
 21
599.4429311992
  0
LINE
  5
4F7
100
AcDbEntity
  8
0
100
AcDbLine
 62
7
  6
CONTINUOUS
 10
985.7173628287
 20
598.7891831633
 11
985.9797975009
 21
598.7221185536
  0
LINE
  5
4F8
100
AcDbEntity
  8
0
100
AcDbLine
 62
7
  6
CONTINUOUS
 10
1031.7650199176
 20
660.6863678997
 11
1030.6109429781
 21
659.9912009252
  0
LINE
  5
4F9
100
AcDbEntity
  8
0
100
AcDbLine
 62
7
  6
CONTINUOUS
 10
984.7637994977
 20
598.481230315
 11
984.924320627
 21
598.632082133
  0
LINE
  5
4FA
100
AcDbEntity
  8
0
100
AcDbLine
 62
7
  6
CONTINUOUS
 10
980.8426094299
 20
618.2867689478
 11
980.2360499071
 21
617.9214032309
  0
LINE
  5
4FB
100
AcDbEntity
  8
0
100
AcDbLine
 62
7
  6
CONTINUOUS
 10
982.3872861588
 20
615.7150014013
 11
981.7839896194
 21
615.3516011671
  0
LINE
  5
4FC
100
AcDbEntity
  8
0
100
AcDbLine
 62
7
  6
CONTINUOUS
 10
984.6185805818
 20
599.2858301689
 11
984.4051898292
 21
599.1245049206
  0
LINE
  5
4FD
100
AcDbEntity
  8
0
100
AcDbLine
 62
7
  6
CONTINUOUS
 10
984.3029917464
 20
610.4069656653
 11
983.2210446156
 21
609.7552466268
  0
LINE
  5
4FE
100
AcDbEntity
  8
0
100
AcDbLine
 62
7
  6
CONTINUOUS
 10
987.9148510751
 20
604.4107608498
 11
986.8329039444
 21
603.7590418113
  0
LINE
  5
4FF
100
AcDbEntity
  8
0
100
AcDbLine
 62
7
  6
CONTINUOUS
 10
986.8810260547
 20
592.4718171492
 11
989.3658916843
 21
592.9640670569
  0
LINE
  5
500
100
AcDbEntity
  8
0
100
AcDbLine
 62
7
  6
CONTINUOUS
 10
987.9629731854
 20
593.1235361878
 11
989.1786822777
 21
593.3643671934
  0
LINE
  5
501
100
AcDbEntity
  8
0
100
AcDbLine
 62
7
  6
CONTINUOUS
 10
989.060151639
 20
593.6178150929
 11
986.5752860094
 21
593.1255651852
  0
LINE
  5
502
100
AcDbEntity
  8
0
100
AcDbLine
 62
7
  6
CONTINUOUS
 10
985.8109358963
 20
594.7599352752
 11
988.2958015259
 21
595.2521851828
  0
LINE
  5
503
100
AcDbEntity
  8
0
100
AcDbLine
 62
7
  6
CONTINUOUS
 10
986.892883027
 20
595.4116543137
 11
988.1085921194
 21
595.6524853194
  0
LINE
  5
504
100
AcDbEntity
  8
0
100
AcDbLine
 62
7
  6
CONTINUOUS
 10
987.6728445926
 20
595.8430928052
 11
985.8224127021
 21
595.4765237174
  0
LINE
  5
505
100
AcDbEntity
  8
0
100
AcDbLine
 62
9
  6
CONTINUOUS
 10
1169.082418143
 20
708.253509618
 11
1169.2124039641
 21
708.333021703
  0
LINE
  5
506
100
AcDbEntity
  8
0
100
AcDbLine
 62
7
  6
CONTINUOUS
 10
985.1791132768
 20
599.3968712506
 11
984.2956251797
 21
598.8646955122
  0
LINE
  5
507
100
AcDbEntity
  8
0
100
AcDbLine
 62
7
  6
CONTINUOUS
 10
985.3699212037
 20
599.0386887148
 11
984.287974073
 21
598.3869696763
  0
LINE
  5
508
100
AcDbEntity
  8
0
100
AcDbLine
 62
7
  6
CONTINUOUS
 10
985.9595692351
 20
599.2556719631
 11
984.924320627
 21
598.632082133
  0
LINE
  5
509
100
AcDbEntity
  8
0
100
AcDbLine
 62
7
  6
CONTINUOUS
 10
986.1864258612
 20
599.071726829
 11
985.7173628287
 21
598.7891831633
  0
LINE
  5
50A
100
AcDbEntity
  8
0
100
AcDbLine
 62
7
  6
CONTINUOUS
 10
984.7206745111
 20
598.1317470698
 11
984.3860619167
 21
597.9301906424
  0
LINE
  5
50B
100
AcDbEntity
  8
0
100
AcDbLine
 62
7
  6
CONTINUOUS
 10
986.3315948299
 20
598.9340263359
 11
985.9797975009
 21
598.7221185536
  0
LINE
  5
50C
100
AcDbEntity
  8
0
100
AcDbLine
 62
7
  6
CONTINUOUS
 10
986.5223924968
 20
598.7055319501
 11
986.2403191776
 21
598.5356229526
  0
LINE
  5
50D
100
AcDbEntity
  8
0
100
AcDbLine
 62
7
  6
CONTINUOUS
 10
984.8485130072
 20
597.5318640277
 11
984.5879757153
 21
597.3749274191
  0
LINE
  5
50E
100
AcDbEntity
  8
0
100
AcDbLine
 62
7
  6
CONTINUOUS
 10
986.7598163667
 20
598.3868437121
 11
986.4989281876
 21
598.229695744
  0
LINE
  5
50F
100
AcDbEntity
  8
0
100
AcDbLine
 62
7
  6
CONTINUOUS
 10
987.0161617791
 20
597.9612735401
 11
986.7556244568
 21
597.8043369132
  0
LINE
  5
510
100
AcDbEntity
  8
0
100
AcDbLine
 62
7
  6
CONTINUOUS
 10
990.3069011036
 20
598.8609261153
 11
989.9814017483
 21
598.6648591164
  0
LINE
  5
511
100
AcDbEntity
  8
0
100
AcDbLine
 62
7
  6
CONTINUOUS
 10
1176.3425485351
 20
710.6550556939
 11
1191.2845199396
 21
719.6554651974
  0
LINE
  5
512
100
AcDbEntity
  8
0
100
AcDbLine
 62
7
  6
CONTINUOUS
 10
986.892883027
 20
595.4116543137
 11
985.8109358963
 21
594.7599352752
  0
LINE
  5
513
100
AcDbEntity
  8
0
100
AcDbLine
 62
7
  6
CONTINUOUS
 10
987.9432697858
 20
596.005985466
 11
987.6728445926
 21
595.8430928052
  0
LINE
  5
514
100
AcDbEntity
  8
0
100
AcDbLine
 62
7
  6
CONTINUOUS
 10
1193.5969132968
 20
718.7135426556
 11
1199.5294606192
 21
722.2870574119
  0
LINE
  5
515
100
AcDbEntity
  8
0
100
AcDbLine
 62
7
  6
CONTINUOUS
 10
991.8571718344
 20
596.2925281581
 11
991.5293414606
 21
596.0950570526
  0
LINE
  5
516
100
AcDbEntity
  8
0
100
AcDbLine
 62
7
  6
CONTINUOUS
 10
987.9629731854
 20
593.1235361878
 11
986.8810260547
 21
592.4718171492
  0
LINE
  5
517
100
AcDbEntity
  8
0
100
AcDbLine
 62
7
  6
CONTINUOUS
 10
1194.7090233533
 20
717.0486203881
 11
1200.5614204274
 21
720.573856036
  0
LINE
  5
518
100
AcDbEntity
  8
0
100
AcDbLine
 62
7
  6
CONTINUOUS
 10
984.924320627
 20
598.632082133
 11
985.7173628287
 21
598.7891831633
  0
LINE
  5
519
100
AcDbEntity
  8
0
100
AcDbLine
 62
7
  6
CONTINUOUS
 10
985.4116227835
 20
599.4429311992
 11
984.6185805818
 21
599.2858301689
  0
LINE
  5
51A
100
AcDbEntity
  8
0
100
AcDbLine
 62
7
  6
CONTINUOUS
 10
1179.4384279597
 20
705.5154515663
 11
1194.3803993642
 21
714.5158610699
  0
LINE
  5
51B
100
AcDbEntity
  8
0
100
AcDbLine
 62
7
  6
CONTINUOUS
 10
1165.0380322961
 20
704.5222929872
 11
1169.082418143
 21
708.253509618
  0
LINE
  5
51C
100
AcDbEntity
  8
0
100
AcDbLine
 62
7
  6
CONTINUOUS
 10
1165.5933331892
 20
703.6740329392
 11
1169.76049583
 21
707.5185193798
  0
LINE
  5
51D
100
AcDbEntity
  8
0
100
AcDbLine
 62
7
  6
CONTINUOUS
 10
1011.730512806
 20
567.3766400313
 11
1010.5764358666
 21
566.6814730568
  0
LINE
  5
51E
100
AcDbEntity
  8
0
100
AcDbLine
 62
7
  6
CONTINUOUS
 10
1017.9222716552
 20
557.0974317761
 11
1016.7681947158
 21
556.4022648017
  0
LINE
  5
51F
100
AcDbEntity
  8
0
100
AcDbLine
 62
7
  6
CONTINUOUS
 10
1068.7375215183
 20
578.6696831802
 11
1067.5834445789
 21
577.9745162058
  0
LINE
  5
520
100
AcDbEntity
  8
0
100
AcDbLine
 62
7
  6
CONTINUOUS
 10
1084.6198017112
 20
555.065037951
 11
1087.9209299647
 21
560.7578022647
  0
LINE
  5
521
100
AcDbEntity
  8
0
100
AcDbLine
 62
7
  6
CONTINUOUS
 10
1074.9292803675
 20
568.3904749251
 11
1073.7752034281
 21
567.6953079506
  0
LINE
  5
522
100
AcDbEntity
  8
0
100
AcDbLine
 62
7
  6
CONTINUOUS
 10
1066.7918246895
 20
562.6306722943
 11
1047.3167763365
 21
550.8997296005
  0
LINE
  5
523
100
AcDbEntity
  8
0
100
AcDbLine
 62
7
  6
CONTINUOUS
 10
1067.3078045936
 20
561.7740716063
 11
1047.8327562406
 21
550.0431289125
  0
LINE
  5
524
100
AcDbEntity
  8
0
100
AcDbLine
 62
7
  6
CONTINUOUS
 10
1065.4667111393
 20
542.3899472775
 11
1065.5335611618
 21
542.4321969121
  0
LINE
  5
525
100
AcDbEntity
  8
0
100
AcDbLine
 62
7
  6
CONTINUOUS
 10
999.0172680464
 20
697.1775284618
 11
1005.5929182742
 21
697.434116379
  0
LINE
  5
526
100
AcDbEntity
  8
0
100
AcDbLine
 62
7
  6
CONTINUOUS
 10
1065.3856901419
 20
539.3015753363
 11
1075.087149414
 21
545.1453227153
  0
LINE
  5
527
100
AcDbEntity
  8
0
100
AcDbLine
 62
7
  6
CONTINUOUS
 10
1175.7212007562
 20
680.7554620928
 11
1177.2614630086
 21
674.3044729672
  0
LINE
  5
528
100
AcDbEntity
  8
0
100
AcDbLine
 62
7
  6
CONTINUOUS
 10
1152.7173621045
 20
718.9451354839
 11
1147.7349509887
 21
723.3227202037
  0
LWPOLYLINE
  5
529
100
AcDbEntity
  8
0
100
AcDbPolyline
 62
7
  6
CONTINUOUS
 90
2
 70
1
 43
0.75
 10
962.2374589114
 20
35.2467939991
 42
1.0
 10
969.8574589114
 20
35.2467939991
 42
1.0
  0
LWPOLYLINE
  5
52A
100
AcDbEntity
  8
0
100
AcDbPolyline
 62
7
  6
CONTINUOUS
 90
2
 70
1
 43
0.75
 10
964.1424589114
 20
35.2467939991
 42
1.0
 10
967.9524589114
 20
35.2467939991
 42
1.0
  0
ARC
  5
52B
100
AcDbEntity
  8
0
100
AcDbCircle
 62
7
  6
CONTINUOUS
 10
1153.0382422854
 20
131.6727748532
 40
0.6787507084
100
AcDbArc
 50
90.0
 51
180.0
  0
ARC
  5
52C
100
AcDbEntity
  8
0
100
AcDbCircle
 62
7
  6
CONTINUOUS
 10
1102.7618212518
 20
131.7957174229
 40
0.6787507084
100
AcDbArc
 50
90.0
 51
180.0
  0
ARC
  5
52D
100
AcDbEntity
  8
0
100
AcDbCircle
 62
7
  6
CONTINUOUS
 10
1168.6787585555
 20
133.0302762676
 40
0.6787507057
100
AcDbArc
 50
270.0
 51
360.0
  0
ARC
  5
52E
100
AcDbEntity
  8
0
100
AcDbCircle
 62
7
  6
CONTINUOUS
 10
1138.1861537915
 20
126.2602761695
 40
0.6787507057
100
AcDbArc
 50
0.0
 51
89.9999995368
  0
ARC
  5
52F
100
AcDbEntity
  8
0
100
AcDbCircle
 62
7
  6
CONTINUOUS
 10
1122.9899153987
 20
123.5168359336
 40
0.6787507057
100
AcDbArc
 50
90.0
 51
180.0
  0
ARC
  5
530
100
AcDbEntity
  8
0
100
AcDbCircle
 62
7
  6
CONTINUOUS
 10
1122.9899153987
 20
122.2308497682
 40
0.6787507057
100
AcDbArc
 50
180.0
 51
270.0
  0
ARC
  5
531
100
AcDbEntity
  8
0
100
AcDbCircle
 62
7
  6
CONTINUOUS
 10
1144.2095600173
 20
133.0031955608
 40
0.6787507057
100
AcDbArc
 50
270.0
 51
360.0
  0
ARC
  5
532
100
AcDbEntity
  8
0
100
AcDbCircle
 62
7
  6
CONTINUOUS
 10
1144.2095600173
 20
134.3882441536
 40
0.6787507057
100
AcDbArc
 50
359.9999995369
 51
90.0
  0
ARC
  5
533
100
AcDbEntity
  8
0
100
AcDbCircle
 62
7
  6
CONTINUOUS
 10
1102.7618212492
 20
125.0275298843
 40
0.6787507057
100
AcDbArc
 50
180.0
 51
270.0
  0
ARC
  5
534
100
AcDbEntity
  8
0
100
AcDbCircle
 62
7
  6
CONTINUOUS
 10
1128.9926949606
 20
130.3614297287
 40
0.6787507057
100
AcDbArc
 50
180.0
 51
270.0
  0
ARC
  5
535
100
AcDbEntity
  8
0
100
AcDbCircle
 62
7
  6
CONTINUOUS
 10
1153.0382422825
 20
124.9331365266
 40
0.6787507057
100
AcDbArc
 50
180.0
 51
270.0
  0
ARC
  5
536
100
AcDbEntity
  8
0
100
AcDbCircle
 62
7
  6
CONTINUOUS
 10
1168.6787585584
 20
134.3882441591
 40
0.6787507029
100
AcDbArc
 50
0.000000539
 51
89.9999999245
  0
ARC
  5
537
100
AcDbEntity
  8
0
100
AcDbCircle
 62
7
  6
CONTINUOUS
 10
1168.6787585591
 20
122.2082018396
 40
0.678750702
100
AcDbArc
 50
270.1250535673
 51
360.0
  0
ARC
  5
538
100
AcDbEntity
  8
0
100
AcDbCircle
 62
7
  6
CONTINUOUS
 10
1168.6787585584
 20
123.575635118
 40
0.6787507029
100
AcDbArc
 50
0.0
 51
90.0
  0
ARC
  5
539
100
AcDbEntity
  8
0
100
AcDbCircle
 62
7
  6
CONTINUOUS
 10
1128.992694958
 20
131.645694152
 40
0.6787507029
100
AcDbArc
 50
90.0
 51
180.0
  0
ARC
  5
53A
100
AcDbEntity
  8
0
100
AcDbCircle
 62
7
  6
CONTINUOUS
 10
1116.3230182842
 20
125.0275298951
 40
0.6787507029
100
AcDbArc
 50
270.0
 51
360.0
  0
ARC
  5
53B
100
AcDbEntity
  8
0
100
AcDbCircle
 62
7
  6
CONTINUOUS
 10
1116.3230182842
 20
131.7957174284
 40
0.6787507029
100
AcDbArc
 50
0.0000004631
 51
90.0000004631
  0
ARC
  5
53C
100
AcDbEntity
  8
0
100
AcDbCircle
 62
7
  6
CONTINUOUS
 10
1138.1861537941
 20
124.8743373424
 40
0.6787507029
100
AcDbArc
 50
270.0
 51
360.0
  0
ARC
  5
53D
100
AcDbEntity
  8
0
100
AcDbCircle
 62
7
  6
CONTINUOUS
 10
1110.8187734281
 20
125.656361367
 40
0.2610579639
100
AcDbArc
 50
90.0000000001
 51
180.0
  0
ARC
  5
53E
100
AcDbEntity
  8
0
100
AcDbCircle
 62
7
  6
CONTINUOUS
 10
1110.8781469662
 20
120.2404528232
 40
0.2610579612
100
AcDbArc
 50
180.0
 51
270.0
  0
ARC
  5
53F
100
AcDbEntity
  8
0
100
AcDbCircle
 62
7
  6
CONTINUOUS
 10
1114.943084972
 20
120.2404528232
 40
0.2610579612
100
AcDbArc
 50
270.0
 51
360.0
  0
ARC
  5
540
100
AcDbEntity
  8
0
100
AcDbCircle
 62
7
  6
CONTINUOUS
 10
1114.8629955829
 20
125.6563613752
 40
0.2610579557
100
AcDbArc
 50
0.0
 51
89.9999987958
  0
CIRCLE
  5
541
100
AcDbEntity
  8
0
100
AcDbCircle
 62
7
  6
CONTINUOUS
 10
503.1414612097
 20
432.8947254648
 40
0.062176467
  0
CIRCLE
  5
542
100
AcDbEntity
  8
0
100
AcDbCircle
 62
7
  6
CONTINUOUS
 10
283.1762358888
 20
277.5420236308
 40
6.0
  0
CIRCLE
  5
543
100
AcDbEntity
  8
0
100
AcDbCircle
 62
7
  6
CONTINUOUS
 10
334.7950309154
 20
262.6608186574
 40
4.5
  0
CIRCLE
  5
544
100
AcDbEntity
  8
0
100
AcDbCircle
 62
7
  6
CONTINUOUS
 10
334.7950309154
 20
262.6608186574
 40
3.5
  0
CIRCLE
  5
545
100
AcDbEntity
  8
0
100
AcDbCircle
 62
7
  6
CONTINUOUS
 10
323.8668299579
 20
263.6608186574
 40
2.0
  0
CIRCLE
  5
546
100
AcDbEntity
  8
0
100
AcDbCircle
 62
7
  6
CONTINUOUS
 10
323.8668299579
 20
263.6608186574
 40
1.5
  0
CIRCLE
  5
547
100
AcDbEntity
  8
0
100
AcDbCircle
 62
7
  6
CONTINUOUS
 10
334.7950309154
 20
329.1608186574
 40
86.53
  0
CIRCLE
  5
548
100
AcDbEntity
  8
7_ALL_ROUNDS
100
AcDbCircle
 62
9
  6
CONTINUOUS
 10
334.7950309154
 20
329.1608186574
 40
84.7525510198
  0
CIRCLE
  5
549
100
AcDbEntity
  8
7_ALL_ROUNDS
100
AcDbCircle
 62
9
  6
CONTINUOUS
 10
334.7950309154
 20
329.1608186574
 40
83.9530383582
  0
CIRCLE
  5
54A
100
AcDbEntity
  8
0
100
AcDbCircle
 62
7
  6
CONTINUOUS
 10
334.7950309154
 20
329.1608186574
 40
83.9311109227
  0
CIRCLE
  5
54B
100
AcDbEntity
  8
0
100
AcDbCircle
 62
7
  6
CONTINUOUS
 10
334.7950309154
 20
329.1608186574
 40
60.0
  0
CIRCLE
  5
54C
100
AcDbEntity
  8
0
100
AcDbCircle
 62
7
  6
CONTINUOUS
 10
334.7950309154
 20
329.1608186574
 40
47.8313914042
  0
CIRCLE
  5
54D
100
AcDbEntity
  8
0
100
AcDbCircle
 62
7
  6
CONTINUOUS
 10
334.7950309154
 20
329.1608186574
 40
47.3
  0
CIRCLE
  5
54E
100
AcDbEntity
  8
0
100
AcDbCircle
 62
7
  6
CONTINUOUS
 10
334.7950309154
 20
329.1608186574
 40
33.8545176418
  0
CIRCLE
  5
54F
100
AcDbEntity
  8
0
100
AcDbCircle
 62
7
  6
CONTINUOUS
 10
334.7950309154
 20
329.1608186574
 40
25.0
  0
CIRCLE
  5
550
100
AcDbEntity
  8
0
100
AcDbCircle
 62
7
  6
CONTINUOUS
 10
283.1762358888
 20
380.7796136841
 40
6.0
  0
CIRCLE
  5
551
100
AcDbEntity
  8
0
100
AcDbCircle
 62
7
  6
CONTINUOUS
 10
386.4138259421
 20
277.5420236308
 40
6.0
  0
CIRCLE
  5
552
100
AcDbEntity
  8
0
100
AcDbCircle
 62
7
  6
CONTINUOUS
 10
345.7950309154
 20
263.6608186574
 40
2.5
  0
CIRCLE
  5
553
100
AcDbEntity
  8
7_ALL_ROUNDS
100
AcDbCircle
 62
7
  6
CONTINUOUS
 10
345.7950309154
 20
263.6608186574
 40
1.5
  0
CIRCLE
  5
554
100
AcDbEntity
  8
7_ALL_ROUNDS
100
AcDbCircle
 62
9
  6
CONTINUOUS
 10
345.7950309154
 20
263.6608186574
 40
0.7
  0
CIRCLE
  5
555
100
AcDbEntity
  8
0
100
AcDbCircle
 62
7
  6
CONTINUOUS
 10
397.6370089611
 20
361.0063174807
 40
7.5
  0
CIRCLE
  5
556
100
AcDbEntity
  8
0
100
AcDbCircle
 62
7
  6
CONTINUOUS
 10
386.4138259421
 20
380.7796136841
 40
6.0
  0
CIRCLE
  5
557
100
AcDbEntity
  8
0
100
AcDbCircle
 62
7
  6
CONTINUOUS
 10
397.6370089611
 20
361.0063174807
 40
0.5
  0
ARC
  5
558
100
AcDbEntity
  8
0
100
AcDbCircle
 62
7
  6
CONTINUOUS
 10
171.038768519
 20
999.0339794625
 40
826.9307458372
100
AcDbArc
 50
302.7311996398
 51
303.3469617598
  0
ARC
  5
559
100
AcDbEntity
  8
0
100
AcDbCircle
 62
7
  6
CONTINUOUS
 10
574.3393409135
 20
924.005289115
 40
680.0
100
AcDbArc
 50
274.3240045608
 51
286.7349934271
  0
ARC
  5
55A
100
AcDbEntity
  8
0
100
AcDbCircle
 62
7
  6
CONTINUOUS
 10
673.0062095332
 20
864.8756888374
 40
596.9026707889
100
AcDbArc
 50
264.7278592889
 51
265.445615531
  0
ARC
  5
55B
100
AcDbEntity
  8
6_ALL_SURFS
100
AcDbCircle
 62
7
  6
CONTINUOUS
 10
422.1791343211
 20
57.643291652
 40
406.3232501971
100
AcDbArc
 50
59.956320602
 51
61.1626438495
  0
ARC
  5
55C
100
AcDbEntity
  8
0
100
AcDbCircle
 62
7
  6
CONTINUOUS
 10
822.5835702935
 20
317.1608186574
 40
15.0
100
AcDbArc
 50
132.4760041583
 51
150.0
  0
ARC
  5
55D
100
AcDbEntity
  8
0
100
AcDbCircle
 62
7
  6
CONTINUOUS
 10
822.5835702935
 20
317.1608186574
 40
15.0
100
AcDbArc
 50
90.0
 51
128.3297397884
  0
ARC
  5
55E
100
AcDbEntity
  8
0
100
AcDbCircle
 62
7
  6
CONTINUOUS
 10
801.7989606027
 20
329.1608186574
 40
15.0
100
AcDbArc
 50
60.0
 51
176.1456658177
  0
ARC
  5
55F
100
AcDbEntity
  8
0
100
AcDbCircle
 62
7
  6
CONTINUOUS
 10
801.7989606027
 20
329.1608186574
 40
15.0
100
AcDbArc
 50
183.8495799143
 51
330.0
  0
ARC
  5
560
100
AcDbEntity
  8
0
100
AcDbCircle
 62
7
  6
CONTINUOUS
 10
822.5835702935
 20
317.1608186574
 40
9.0
100
AcDbArc
 50
90.0
 51
150.0
  0
ARC
  5
561
100
AcDbEntity
  8
0
100
AcDbCircle
 62
7
  6
CONTINUOUS
 10
801.7989606027
 20
329.1608186574
 40
9.0
100
AcDbArc
 50
60.0
 51
68.4213677939
  0
ARC
  5
562
100
AcDbEntity
  8
0
100
AcDbCircle
 62
7
  6
CONTINUOUS
 10
801.7989606027
 20
329.1608186574
 40
9.0
100
AcDbArc
 50
114.2048348015
 51
173.5747777279
  0
ARC
  5
563
100
AcDbEntity
  8
0
100
AcDbCircle
 62
7
  6
CONTINUOUS
 10
801.7989606027
 20
329.1608186574
 40
9.0
100
AcDbArc
 50
186.5632612407
 51
330.0
  0
ARC
  5
564
100
AcDbEntity
  8
0
100
AcDbCircle
 62
7
  6
CONTINUOUS
 10
796.1989606027
 20
304.6608186574
 40
8.5
100
AcDbArc
 50
34.56032178
 51
90.0
  0
ARC
  5
565
100
AcDbEntity
  8
0
100
AcDbCircle
 62
7
  6
CONTINUOUS
 10
796.1989606027
 20
304.6608186574
 40
8.5
100
AcDbArc
 50
270.0
 51
325.43967822
  0
CIRCLE
  5
566
100
AcDbEntity
  8
0
100
AcDbCircle
 62
7
  6
CONTINUOUS
 10
799.0983208818
 20
336.4831734481
 40
0.5
  0
ARC
  5
567
100
AcDbEntity
  8
0
100
AcDbCircle
 62
7
  6
CONTINUOUS
 10
-260.0494395421
 20
478.329860194
 40
680.0
100
AcDbArc
 50
4.3240045608
 51
16.7349934271
  0
ARC
  5
568
100
AcDbEntity
  8
0
100
AcDbCircle
 62
7
  6
CONTINUOUS
 10
929.639501373
 20
478.329860194
 40
680.0
100
AcDbArc
 50
163.2650065729
 51
175.6759954392
  0
ARC
  5
569
100
AcDbEntity
  8
0
100
AcDbCircle
 62
7
  6
CONTINUOUS
 10
334.7950309154
 20
700.1894798831
 40
8.5
100
AcDbArc
 50
124.56032178
 51
180.0
  0
ARC
  5
56A
100
AcDbEntity
  8
0
100
AcDbCircle
 62
7
  6
CONTINUOUS
 10
334.7950309154
 20
700.1894798831
 40
8.5
100
AcDbArc
 50
0.0
 51
55.43967822
  0
ARC
  5
56B
100
AcDbEntity
  8
0
100
AcDbCircle
 62
7
  6
CONTINUOUS
 10
334.7950309154
 20
692.2894798831
 40
5.0
100
AcDbArc
 50
126.980110118
 51
53.019889882
  0
CIRCLE
  5
56C
100
AcDbEntity
  8
0
100
AcDbCircle
 62
7
  6
CONTINUOUS
 10
347.2950309154
 20
692.2894798831
 40
4.0
  0
CIRCLE
  5
56D
100
AcDbEntity
  8
0
100
AcDbCircle
 62
7
  6
CONTINUOUS
 10
322.2950309154
 20
692.2894798831
 40
4.0
  0
ARC
  5
56E
100
AcDbEntity
  8
0
100
AcDbCircle
 62
7
  6
CONTINUOUS
 10
334.7950309154
 20
693.7894798831
 40
3.0
100
AcDbArc
 50
180.0
 51
360.0
  0
ARC
  5
56F
100
AcDbEntity
  8
0
100
AcDbCircle
 62
7
  6
CONTINUOUS
 10
332.7556298514
 20
717.8213105323
 40
2.6494796704
100
AcDbArc
 50
111.3123662239
 51
113.4613236841
  0
ARC
  5
570
100
AcDbEntity
  8
0
100
AcDbCircle
 62
7
  6
CONTINUOUS
 10
336.8344372583
 20
717.8213284264
 40
2.6494610481
100
AcDbArc
 50
66.53837806
 51
68.6875671274
  0
ARC
  5
571
100
AcDbEntity
  8
0
100
AcDbCircle
 62
7
  6
CONTINUOUS
 10
336.8553431702
 20
717.8668189708
 40
2.5994081947
100
AcDbArc
 50
58.4212799956
 51
66.5618789088
  0
ARC
  5
572
100
AcDbEntity
  8
0
100
AcDbCircle
 62
7
  6
CONTINUOUS
 10
332.7347114351
 20
717.8668298793
 40
2.5993954229
100
AcDbArc
 50
113.4378169014
 51
121.5774020619
  0
ARC
  5
573
100
AcDbEntity
  8
0
100
AcDbCircle
 62
7
  6
CONTINUOUS
 10
336.9449506362
 20
718.0042743621
 40
1.4350122494
100
AcDbArc
 50
51.0643764304
 51
54.3463306174
  0
ARC
  5
574
100
AcDbEntity
  8
6_ALL_SURFS
100
AcDbCircle
 62
7
  6
CONTINUOUS
 10
878.8672263402
 20
264.3942491013
 40
244.4817833392
100
AcDbArc
 50
36.3708357634
 51
37.6045653475
  0
ARC
  5
575
100
AcDbEntity
  8
0
100
AcDbCircle
 62
7
  6
CONTINUOUS
 10
910.1219697443
 20
210.2594593573
 40
244.4817763832
100
AcDbArc
 50
22.395434635
 51
23.6291642541
  0
ARC
  5
576
100
AcDbEntity
  8
0
100
AcDbCircle
 62
7
  6
CONTINUOUS
 10
1034.7341592213
 20
305.1608186574
 40
12.0
100
AcDbArc
 50
90.0
 51
231.895378208
  0
ARC
  5
577
100
AcDbEntity
  8
0
100
AcDbCircle
 62
7
  6
CONTINUOUS
 10
1034.7341592213
 20
305.1608186574
 40
11.5
100
AcDbArc
 50
90.0
 51
231.895378208
  0
CIRCLE
  5
578
100
AcDbEntity
  8
0
100
AcDbCircle
 62
7
  6
CONTINUOUS
 10
1030.555689446
 20
309.7608186574
 40
2.5
  0
ARC
  5
579
100
AcDbEntity
  8
0
100
AcDbCircle
 62
7
  6
CONTINUOUS
 10
1021.575321207
 20
506.9132780969
 40
238.5214214407
100
AcDbArc
 50
262.3799028607
 51
263.6444400448
  0
CIRCLE
  5
57A
100
AcDbEntity
  8
0
100
AcDbCircle
 62
7
  6
CONTINUOUS
 10
1053.555689446
 20
304.6608186574
 40
8.5
  0
CIRCLE
  5
57B
100
AcDbEntity
  8
0
100
AcDbCircle
 62
7
  6
CONTINUOUS
 10
1053.555689446
 20
304.6608186574
 40
4.8218253805
  0
CIRCLE
  5
57C
100
AcDbEntity
  8
0
100
AcDbCircle
 62
7
  6
CONTINUOUS
 10
1053.555689446
 20
304.6608186574
 40
4.25
  0
CIRCLE
  5
57D
100
AcDbEntity
  8
0
100
AcDbCircle
 62
7
  6
CONTINUOUS
 10
1053.555689446
 20
304.6608186574
 40
2.5
  0
CIRCLE
  5
57E
100
AcDbEntity
  8
0
100
AcDbCircle
 62
7
  6
CONTINUOUS
 10
1053.555689446
 20
291.0608186574
 40
2.5
  0
ARC
  5
57F
100
AcDbEntity
  8
6_ALL_SURFS
100
AcDbCircle
 62
7
  6
CONTINUOUS
 10
1053.555689446
 20
329.1608186574
 40
86.53
100
AcDbArc
 50
77.3158002515
 51
120.0
  0
ARC
  5
580
100
AcDbEntity
  8
0
100
AcDbCircle
 62
7
  6
CONTINUOUS
 10
1053.555689446
 20
329.1608186574
 40
86.53
100
AcDbArc
 50
120.0
 51
77.3158002515
  0
ARC
  5
581
100
AcDbEntity
  8
0
100
AcDbCircle
 62
7
  6
CONTINUOUS
 10
1053.555689446
 20
329.1608186574
 40
83.22
100
AcDbArc
 50
345.4483160954
 51
74.5516839046
  0
ARC
  5
582
100
AcDbEntity
  8
0
100
AcDbCircle
 62
7
  6
CONTINUOUS
 10
1053.555689446
 20
329.1608186574
 40
83.22
100
AcDbArc
 50
225.4473016786
 51
314.5526983214
  0
ARC
  5
583
100
AcDbEntity
  8
0
100
AcDbCircle
 62
7
  6
CONTINUOUS
 10
1053.555689446
 20
329.1608186574
 40
83.22
100
AcDbArc
 50
120.0
 51
194.5516839046
  0
ARC
  5
584
100
AcDbEntity
  8
6_ALL_SURFS
100
AcDbCircle
 62
7
  6
CONTINUOUS
 10
1053.555689446
 20
329.1608186574
 40
83.22
100
AcDbArc
 50
105.4473016786
 51
120.0
  0
ARC
  5
585
100
AcDbEntity
  8
0
100
AcDbCircle
 62
9
  6
CONTINUOUS
 10
1053.7395512752
 20
328.9901725079
 40
56.7979504679
100
AcDbArc
 50
317.8567872426
 51
342.2546327601
  0
ARC
  5
586
100
AcDbEntity
  8
0
100
AcDbCircle
 62
9
  6
CONTINUOUS
 10
1053.3718276168
 20
328.9901725079
 40
56.7979504679
100
AcDbArc
 50
197.7453672399
 51
222.1432127574
  0
CIRCLE
  5
587
100
AcDbEntity
  8
0
100
AcDbCircle
 62
7
  6
CONTINUOUS
 10
1053.555689446
 20
329.1608186574
 40
56.3553607692
  0
CIRCLE
  5
588
100
AcDbEntity
  8
0
100
AcDbCircle
 62
7
  6
CONTINUOUS
 10
1053.555689446
 20
329.1608186574
 40
43.905952231
  0
ARC
  5
589
100
AcDbEntity
  8
0
100
AcDbCircle
 62
7
  6
CONTINUOUS
 10
1053.555689446
 20
329.1608186574
 40
42.5
100
AcDbArc
 50
231.895378208
 51
308.104621792
  0
ARC
  5
58A
100
AcDbEntity
  8
0
100
AcDbCircle
 62
7
  6
CONTINUOUS
 10
1053.555689446
 20
329.1608186574
 40
42.0
100
AcDbArc
 50
231.895378208
 51
308.104621792
  0
ARC
  5
58B
100
AcDbEntity
  8
0
100
AcDbCircle
 62
7
  6
CONTINUOUS
 10
1055.5556611084
 20
332.5305824082
 40
4.4525910399
100
AcDbArc
 50
89.1425442626
 51
89.9996353525
  0
ARC
  5
58C
100
AcDbEntity
  8
0
100
AcDbCircle
 62
7
  6
CONTINUOUS
 10
1055.677259221
 20
329.9219464548
 40
3.6785164804
100
AcDbArc
 50
282.8195458717
 51
283.8694611201
  0
ARC
  5
58D
100
AcDbEntity
  8
0
100
AcDbCircle
 62
7
  6
CONTINUOUS
 10
1051.4341003132
 20
329.9219495479
 40
3.6785155563
100
AcDbArc
 50
256.1303954906
 51
257.1808547419
  0
ARC
  5
58E
100
AcDbEntity
  8
0
100
AcDbCircle
 62
7
  6
CONTINUOUS
 10
1055.7017757655
 20
329.8234092046
 40
3.5769752729
100
AcDbArc
 50
283.8665566665
 51
285.4623155578
  0
ARC
  5
58F
100
AcDbEntity
  8
0
100
AcDbCircle
 62
7
  6
CONTINUOUS
 10
1051.409443398
 20
329.8228512523
 40
3.5763960124
100
AcDbArc
 50
254.534198261
 51
256.1333249899
  0
ARC
  5
590
100
AcDbEntity
  8
0
100
AcDbCircle
 62
7
  6
CONTINUOUS
 10
1055.7562027228
 20
329.6301924542
 40
3.3762414664
100
AcDbArc
 50
285.446285947
 51
288.5300896741
  0
ARC
  5
591
100
AcDbEntity
  8
0
100
AcDbCircle
 62
7
  6
CONTINUOUS
 10
1051.3547699745
 20
329.6288092088
 40
3.3748010178
100
AcDbArc
 50
251.4587256798
 51
254.5503238912
  0
ARC
  5
592
100
AcDbEntity
  8
0
100
AcDbCircle
 62
7
  6
CONTINUOUS
 10
1053.555689446
 20
317.1608186574
 40
3.0
100
AcDbArc
 50
180.0
 51
360.0
  0
ARC
  5
593
100
AcDbEntity
  8
0
100
AcDbCircle
 62
7
  6
CONTINUOUS
 10
1053.555689446
 20
341.1608186574
 40
3.0
100
AcDbArc
 50
0.0
 51
180.0
  0
CIRCLE
  5
594
100
AcDbEntity
  8
0
100
AcDbCircle
 62
7
  6
CONTINUOUS
 10
1053.555689446
 20
329.1608186574
 40
3.0
  0
ARC
  5
595
100
AcDbEntity
  8
0
100
AcDbCircle
 62
7
  6
CONTINUOUS
 10
1055.1521753358
 20
327.2467934984
 40
1.4035043932
100
AcDbArc
 50
358.5274419909
 51
0.0089886624
  0
ARC
  5
596
100
AcDbEntity
  8
0
100
AcDbCircle
 62
7
  6
CONTINUOUS
 10
1051.9580089818
 20
327.2467920032
 40
1.4023100332
100
AcDbArc
 50
179.9909343598
 51
181.4635524442
  0
CIRCLE
  5
597
100
AcDbEntity
  8
0
100
AcDbCircle
 62
7
  6
CONTINUOUS
 10
1053.555689446
 20
329.1608186574
 40
1.0
  0
ARC
  5
598
100
AcDbEntity
  8
0
100
AcDbCircle
 62
7
  6
CONTINUOUS
 10
1072.3772196707
 20
305.1608186574
 40
12.0
100
AcDbArc
 50
308.104621792
 51
90.0
  0
ARC
  5
599
100
AcDbEntity
  8
0
100
AcDbCircle
 62
7
  6
CONTINUOUS
 10
1072.3772196707
 20
305.1608186574
 40
11.5
100
AcDbArc
 50
308.104621792
 51
90.0
  0
CIRCLE
  5
59A
100
AcDbEntity
  8
0
100
AcDbCircle
 62
7
  6
CONTINUOUS
 10
1076.555689446
 20
309.7608186574
 40
2.5
  0
ARC
  5
59B
100
AcDbEntity
  8
0
100
AcDbCircle
 62
7
  6
CONTINUOUS
 10
1196.9894091519
 20
210.2594593555
 40
244.4817763878
100
AcDbArc
 50
156.3708357459
 51
157.604565365
  0
ARC
  5
59C
100
AcDbEntity
  8
6_ALL_SURFS
100
AcDbCircle
 62
7
  6
CONTINUOUS
 10
1223.4838784456
 20
267.9805061427
 40
238.5212454547
100
AcDbArc
 50
142.3799023942
 51
143.6444405113
  0
ARC
  5
59D
100
AcDbEntity
  8
0
100
AcDbCircle
 62
7
  6
CONTINUOUS
 10
1085.536057685
 20
506.9132780969
 40
238.5214214407
100
AcDbArc
 50
276.3555599552
 51
277.6200971393
  0
ARC
  5
59E
100
AcDbEntity
  8
6_ALL_SURFS
100
AcDbCircle
 62
7
  6
CONTINUOUS
 10
1079.5015058199
 20
-4.8417142447
 40
616.38257413
100
AcDbArc
 50
89.082249491
 51
89.4890538567
  0
ARC
  5
59F
100
AcDbEntity
  8
6_ALL_SURFS
100
AcDbCircle
 62
7
  6
CONTINUOUS
 10
782.4058729705
 20
736.8705376084
 40
300.9158660955
100
AcDbArc
 50
342.3210917766
 51
343.438490918
  0
ARC
  5
5A0
100
AcDbEntity
  8
7_ALL_ROUNDS
100
AcDbCircle
 62
9
  6
CONTINUOUS
 10
988.5325658649
 20
574.1833215812
 40
90.938347314
100
AcDbArc
 50
5.9228259473
 51
6.102764378
  0
ARC
  5
5A1
100
AcDbEntity
  8
7_ALL_ROUNDS
100
AcDbCircle
 62
7
  6
CONTINUOUS
 10
989.6444092571
 20
574.5864083777
 40
89.600669974
100
AcDbArc
 50
5.7407376883
 51
5.9228133207
  0
ARC
  5
5A2
100
AcDbEntity
  8
0
100
AcDbCircle
 62
7
  6
CONTINUOUS
 10
1141.1781701806
 20
771.0554014033
 40
69.9070057569
100
AcDbArc
 50
293.6609808877
 51
294.1760765108
  0
ARC
  5
5A3
100
AcDbEntity
  8
0
100
AcDbCircle
 62
7
  6
CONTINUOUS
 10
1187.7113236486
 20
647.5357716553
 40
62.0957435217
100
AcDbArc
 50
110.4303482267
 51
111.8104941642
  0
ARC
  5
5A4
100
AcDbEntity
  8
0
100
AcDbCircle
 62
7
  6
CONTINUOUS
 10
1147.792915254
 20
754.7665123913
 40
52.3241487154
100
AcDbArc
 50
290.4046820147
 51
291.0131955012
  0
ARC
  5
5A5
100
AcDbEntity
  8
0
100
AcDbCircle
 62
7
  6
CONTINUOUS
 10
1014.8797273577
 20
607.2561293949
 40
34.4053369373
100
AcDbArc
 50
11.7538865167
 51
15.0346869648
  0
ARC
  5
5A6
100
AcDbEntity
  8
0
100
AcDbCircle
 62
7
  6
CONTINUOUS
 10
1012.7696757516
 20
611.3797690506
 40
34.0697521958
100
AcDbArc
 50
46.7485991222
 51
50.416868314
  0
ARC
  5
5A7
100
AcDbEntity
  8
0
100
AcDbCircle
 62
7
  6
CONTINUOUS
 10
991.0273021529
 20
665.0319632751
 40
24.3929402527
100
AcDbArc
 50
119.7791369304
 51
120.8500829931
  0
ARC
  5
5A8
100
AcDbEntity
  8
7_ALL_ROUNDS
100
AcDbCircle
 62
7
  6
CONTINUOUS
 10
1052.3181570288
 20
562.3013666391
 40
23.8667670373
100
AcDbArc
 50
303.4387704257
 51
304.6824059823
  0
ARC
  5
5A9
100
AcDbEntity
  8
7_ALL_ROUNDS
100
AcDbCircle
 62
7
  6
CONTINUOUS
 10
990.3054951255
 20
665.2523718147
 40
23.8531232345
100
AcDbArc
 50
117.4474021031
 51
118.6871697018
  0
ARC
  5
5AA
100
AcDbEntity
  8
0
100
AcDbCircle
 62
7
  6
CONTINUOUS
 10
1044.4614130422
 20
588.9819008348
 40
14.1246492765
100
AcDbArc
 50
306.8099853949
 51
312.5045566267
  0
ARC
  5
5AB
100
AcDbEntity
  8
0
100
AcDbCircle
 62
7
  6
CONTINUOUS
 10
1010.2023526886
 20
645.8739108971
 40
14.0678512012
100
AcDbArc
 50
110.9975337081
 51
115.3165283611
  0
ARC
  5
5AC
100
AcDbEntity
  8
0
100
AcDbCircle
 62
7
  6
CONTINUOUS
 10
983.0303647647
 20
607.3555011655
 40
3.5212745991
100
AcDbArc
 50
62.7987567601
 51
67.8535300206
  0
ARC
  5
5AD
100
AcDbEntity
  8
0
100
AcDbCircle
 62
7
  6
CONTINUOUS
 10
988.088728065
 20
606.7735926147
 40
3.4807169494
100
AcDbArc
 50
243.3678850305
 51
247.9661891039
  0
ARC
  5
5AE
100
AcDbEntity
  8
0
100
AcDbCircle
 62
7
  6
CONTINUOUS
 10
1065.3436905426
 20
566.0832129266
 40
3.4332087428
100
AcDbArc
 50
155.725256199
 51
161.223178424
  0
ARC
  5
5AF
100
AcDbEntity
  8
0
100
AcDbCircle
 62
7
  6
CONTINUOUS
 10
982.275830611
 20
618.1975216486
 40
1.5689748969
100
AcDbArc
 50
174.6296482158
 51
178.5258587487
  0
ARC
  5
5B0
100
AcDbEntity
  8
0
100
AcDbCircle
 62
7
  6
CONTINUOUS
 10
982.9754812402
 20
617.0152384145
 40
1.5569758583
100
AcDbArc
 50
242.8068117939
 51
247.6780212738
  0
ARC
  5
5B1
100
AcDbEntity
  8
0
100
AcDbCircle
 62
7
  6
CONTINUOUS
 10
991.0141879451
 20
598.883480184
 40
1.4808154576
100
AcDbArc
 50
166.4361167051
 51
169.6462519501
  0
ARC
  5
5B2
100
AcDbEntity
  8
0
100
AcDbCircle
 62
7
  6
CONTINUOUS
 10
1169.1209204817
 20
706.4386513867
 40
1.2255546741
100
AcDbArc
 50
45.3567019701
 51
48.412638816
  0
ARC
  5
5B3
100
AcDbEntity
  8
0
100
AcDbCircle
 62
7
  6
CONTINUOUS
 10
986.3022406238
 20
604.6397043152
 40
1.0280952794
100
AcDbArc
 50
291.8183777028
 51
301.0719988414
  0
ARC
  5
5B4
100
AcDbEntity
  8
7_ALL_ROUNDS
100
AcDbCircle
 62
7
  6
CONTINUOUS
 10
991.0079425991
 20
596.9617585662
 40
1.0114486079
100
AcDbArc
 50
288.2342341418
 51
301.0306900989
  0
ARC
  5
5B5
100
AcDbEntity
  8
0
100
AcDbCircle
 62
7
  6
CONTINUOUS
 10
1169.7319527633
 20
707.5504902567
 40
0.9571475567
100
AcDbArc
 50
123.4243531372
 51
132.7355032157
  0
ARC
  5
5B6
100
AcDbEntity
  8
0
100
AcDbCircle
 62
7
  6
CONTINUOUS
 10
1169.7012475456
 20
707.5964813766
 40
0.9018492556
100
AcDbArc
 50
110.8142915307
 51
123.4057094843
  0
ARC
  5
5B7
100
AcDbEntity
  8
0
100
AcDbCircle
 62
7
  6
CONTINUOUS
 10
1169.689314077
 20
707.6247153364
 40
0.8712172214
100
AcDbArc
 50
102.8366414171
 51
110.7365303943
  0
SPLINE
  5
5B8
100
AcDbEntity
  8
0
100
AcDbSpline
 62
7
  6
CONTINUOUS
 70
0
 71
3
 72
13
 73
9
 74
0
 42
0.0000001
 43
0.0000001
 44
0.0000000001
 40
0.0
 40
0.0
 40
0.0
 40
0.0
 40
0.1317357684
 40
0.2713541552
 40
0.4178991716
 40
0.5930152361
 40
0.7698067128
 40
1.0
 40
1.0
 40
1.0
 40
1.0
 10
1150.4313579813
 20
135.066994862
 30
0.0
 10
1150.0477810107
 20
135.0384257947
 30
0.0
 10
1149.2576751595
 20
134.9795781909
 30
0.0
 10
1148.1869243779
 20
134.316079979
 30
0.0
 10
1147.4182530959
 20
133.2021859747
 30
0.0
 10
1146.9184233144
 20
131.8401388066
 30
0.0
 10
1146.63688866
 20
130.1751509441
 30
0.0
 10
1146.6109669342
 20
128.9986412821
 30
0.0
 10
1146.5975323042
 20
128.3331121969
 30
0.0
  0
SPLINE
  5
5B9
100
AcDbEntity
  8
0
100
AcDbSpline
 62
7
  6
CONTINUOUS
 70
0
 71
3
 72
13
 73
9
 74
0
 42
0.0000001
 43
0.0000001
 44
0.0000000001
 40
0.0
 40
0.0
 40
0.0
 40
0.0
 40
0.2249509061
 40
0.4029463322
 40
0.5792549365
 40
0.726797924
 40
0.8673671114
 40
1.0
 40
1.0
 40
1.0
 40
1.0
 10
1146.5987235827
 20
128.2298346178
 30
0.0
 10
1146.611893439
 20
127.5838697936
 30
0.0
 10
1146.6401542695
 20
126.4271281958
 30
0.0
 10
1146.9184230839
 20
124.7814405559
 30
0.0
 10
1147.4182588511
 20
123.4195457231
 30
0.0
 10
1148.1869061575
 20
122.3051789887
 30
0.0
 10
1149.2577386591
 20
121.6432668127
 30
0.0
 10
1150.0476518828
 20
121.5806845891
 30
0.0
 10
1150.4313579813
 20
121.552105915
 30
0.0
  0
SPLINE
  5
5BA
100
AcDbEntity
  8
0
100
AcDbSpline
 62
7
  6
CONTINUOUS
 70
0
 71
3
 72
13
 73
9
 74
0
 42
0.0000001
 43
0.0000001
 44
0.0000000001
 40
0.0
 40
0.0
 40
0.0
 40
0.0
 40
0.1604571392
 40
0.3334692485
 40
0.4767982758
 40
0.6242014838
 40
0.7505998515
 40
1.0
 40
1.0
 40
1.0
 40
1.0
 10
1141.8552703201
 20
121.5520990625
 30
0.0
 10
1142.1733425606
 20
121.5674136733
 30
0.0
 10
1142.8343745918
 20
121.5992411685
 30
0.0
 10
1143.7232754305
 20
121.9851611501
 30
0.0
 10
1144.3930915008
 20
122.633860429
 30
0.0
 10
1144.7705592004
 20
123.3775690902
 30
0.0
 10
1145.0599580551
 20
124.3752618776
 30
0.0
 10
1145.0717018699
 20
125.1218878278
 30
0.0
 10
1145.0794956961
 20
125.6173890428
 30
0.0
  0
SPLINE
  5
5BB
100
AcDbEntity
  8
0
100
AcDbSpline
 62
7
  6
CONTINUOUS
 70
0
 71
3
 72
13
 73
9
 74
0
 42
0.0000001
 43
0.0000001
 44
0.0000000001
 40
0.0
 40
0.0
 40
0.0
 40
0.0
 40
0.2494001485
 40
0.3757985162
 40
0.5232017242
 40
0.6665307515
 40
0.8395428608
 40
1.0
 40
1.0
 40
1.0
 40
1.0
 10
1145.0794956961
 20
125.6173890428
 30
0.0
 10
1145.0717018699
 20
126.1128902632
 30
0.0
 10
1145.0599580551
 20
126.8595162079
 30
0.0
 10
1144.7705592004
 20
127.8572090063
 30
0.0
 10
1144.3930915008
 20
128.6009176675
 30
0.0
 10
1143.7232754305
 20
129.2496169354
 30
0.0
 10
1142.8343745918
 20
129.635536917
 30
0.0
 10
1142.1733425606
 20
129.6673644232
 30
0.0
 10
1141.8552703201
 20
129.682679023
 30
0.0
  0
SPLINE
  5
5BC
100
AcDbEntity
  8
0
100
AcDbSpline
 62
7
  6
CONTINUOUS
 70
0
 71
3
 72
13
 73
9
 74
0
 42
0.0000001
 43
0.0000001
 44
0.0000000001
 40
0.0
 40
0.0
 40
0.0
 40
0.0
 40
0.1133740464
 40
0.2392044088
 40
0.3655787964
 40
0.4912154373
 40
0.7445390876
 40
1.0
 40
1.0
 40
1.0
 40
1.0
 10
1125.1498126334
 20
135.0669948593
 30
0.0
 10
1124.9320779311
 20
135.0562704067
 30
0.0
 10
1124.4726861929
 20
135.0336432093
 30
0.0
 10
1123.7903052077
 20
134.8297681573
 30
0.0
 10
1123.1798489129
 20
134.418080925
 30
0.0
 10
1122.5562623682
 20
133.6597373467
 30
0.0
 10
1122.1638621581
 20
132.469238824
 30
0.0
 10
1122.121306293
 20
131.4931203225
 30
0.0
 10
1122.0999389925
 20
131.0030108672
 30
0.0
  0
SPLINE
  5
5BD
100
AcDbEntity
  8
0
100
AcDbSpline
 62
7
  6
CONTINUOUS
 70
0
 71
3
 72
13
 73
9
 74
0
 42
0.0000001
 43
0.0000001
 44
0.0000000001
 40
0.0
 40
0.0
 40
0.0
 40
0.0
 40
0.2554609124
 40
0.5087845627
 40
0.6344212036
 40
0.7607955912
 40
0.8866259536
 40
1.0
 40
1.0
 40
1.0
 40
1.0
 10
1122.0999389925
 20
131.0030108672
 30
0.0
 10
1122.121306293
 20
130.5129014064
 30
0.0
 10
1122.1638621581
 20
129.5367828994
 30
0.0
 10
1122.5562623682
 20
128.3462843822
 30
0.0
 10
1123.1798489129
 20
127.5879408039
 30
0.0
 10
1123.7903052077
 20
127.176253577
 30
0.0
 10
1124.4726861929
 20
126.9723785196
 30
0.0
 10
1124.9320779311
 20
126.9497513222
 30
0.0
 10
1125.1498126334
 20
126.9390268751
 30
0.0
  0
SPLINE
  5
5BE
100
AcDbEntity
  8
0
100
AcDbSpline
 62
7
  6
CONTINUOUS
 70
0
 71
3
 72
12
 73
8
 74
0
 42
0.0000001
 43
0.0000001
 44
0.0000000001
 40
0.0
 40
0.0
 40
0.0
 40
0.0
 40
0.2415790084
 40
0.4893269843
 40
0.7378634303
 40
0.8656387112
 40
1.0
 40
1.0
 40
1.0
 40
1.0
 10
1117.2779538749
 20
121.552099068
 30
0.0
 10
1117.6498086032
 20
121.5636596096
 30
0.0
 10
1118.403013773
 20
121.5870759159
 30
0.0
 10
1119.5052509384
 20
121.9801630013
 30
0.0
 10
1120.1746612675
 20
122.722207396
 30
0.0
 10
1120.4695812401
 20
123.4636470139
 30
0.0
 10
1120.4748961298
 20
123.8698060672
 30
0.0
 10
1120.4776203414
 20
124.0779878279
 30
0.0
  0
SPLINE
  5
5BF
100
AcDbEntity
  8
0
100
AcDbSpline
 62
7
  6
CONTINUOUS
 70
0
 71
3
 72
12
 73
8
 74
0
 42
0.0000001
 43
0.0000001
 44
0.0000000001
 40
0.0
 40
0.0
 40
0.0
 40
0.0
 40
0.1343612888
 40
0.2621365697
 40
0.5106730157
 40
0.7584209916
 40
1.0
 40
1.0
 40
1.0
 40
1.0
 10
1120.4776203414
 20
132.5252547403
 30
0.0
 10
1120.4748961298
 20
132.733436512
 30
0.0
 10
1120.4695812401
 20
133.1395955654
 30
0.0
 10
1120.1746612675
 20
133.8810351833
 30
0.0
 10
1119.5052509384
 20
134.623079578
 30
0.0
 10
1118.403013773
 20
135.0161666579
 30
0.0
 10
1117.6498086032
 20
135.0395829587
 30
0.0
 10
1117.2779538749
 20
135.0511435058
 30
0.0
  0
SPLINE
  5
5C0
100
AcDbEntity
  8
0
100
AcDbSpline
 62
7
  6
CONTINUOUS
 70
0
 71
3
 72
12
 73
8
 74
0
 42
0.0000001
 43
0.0000001
 44
0.0000000001
 40
0.0
 40
0.0
 40
0.0
 40
0.0
 40
0.1341799809
 40
0.290831959
 40
0.5815217441
 40
0.760783857
 40
1.0
 40
1.0
 40
1.0
 40
1.0
 10
1100.0707196152
 20
135.0511435058
 30
0.0
 10
1099.695399287
 20
134.9869976965
 30
0.0
 10
1098.8819012916
 20
134.8479631583
 30
0.0
 10
1097.512507971
 20
133.8248925887
 30
0.0
 10
1096.8638938027
 20
132.103679095
 30
0.0
 10
1096.4843954493
 20
130.1525249702
 30
0.0
 10
1096.4559076958
 20
128.972378017
 30
0.0
 10
1096.4396231389
 20
128.2977666191
 30
0.0
  0
SPLINE
  5
5C1
100
AcDbEntity
  8
0
100
AcDbSpline
 62
7
  6
CONTINUOUS
 70
0
 71
3
 72
12
 73
8
 74
0
 42
0.0000001
 43
0.0000001
 44
0.0000000001
 40
0.0
 40
0.0
 40
0.0
 40
0.0
 40
0.2392679579
 40
0.4185688994
 40
0.7093216488
 40
0.8660075581
 40
1.0
 40
1.0
 40
1.0
 40
1.0
 10
1096.4396231389
 20
128.2977666191
 30
0.0
 10
1096.4559142027
 20
127.6231815119
 30
0.0
 10
1096.484413324
 20
126.4430805567
 30
0.0
 10
1096.8638297874
 20
124.4915953277
 30
0.0
 10
1097.5128402494
 20
122.7719842578
 30
0.0
 10
1098.8808078356
 20
121.7455915743
 30
0.0
 10
1099.6952777688
 20
121.6131499661
 30
0.0
 10
1100.0707196152
 20
121.552099068
 30
0.0
  0
SPLINE
  5
5C2
100
AcDbEntity
  8
6_ALL_SURFS
100
AcDbSpline
 62
7
  6
CONTINUOUS
 70
0
 71
3
 72
12
 73
8
 74
0
 42
0.0000001
 43
0.0000001
 44
0.0000000001
 40
0.0
 40
0.0
 40
0.0
 40
0.0
 40
0.25001411
 40
0.4375266423
 40
0.6250352144
 40
0.8125246117
 40
1.0
 40
1.0
 40
1.0
 40
1.0
 10
767.8210979658
 20
384.9324593109
 30
0.0
 10
755.6259820309
 20
388.6488098571
 30
0.0
 10
734.2376784366
 20
395.0071025511
 30
0.0
 10
703.3982419446
 20
403.0815668618
 30
0.0
 10
675.3106417095
 20
408.9850043619
 30
0.0
 10
646.8617524043
 20
412.8640775349
 30
0.0
 10
627.7200587948
 20
413.678450954
 30
0.0
 10
618.1607761128
 20
413.5778884357
 30
0.0
  0
SPLINE
  5
5C3
100
AcDbEntity
  8
0
100
AcDbSpline
 62
7
  6
CONTINUOUS
 70
0
 71
3
 72
11
 73
7
 74
0
 42
0.0000001
 43
0.0000001
 44
0.0000000001
 40
0.0
 40
0.0
 40
0.0
 40
0.0
 40
0.254385118
 40
0.5058263939
 40
0.7539862449
 40
1.0
 40
1.0
 40
1.0
 40
1.0
 10
618.1594572679
 20
303.4061444768
 30
0.0
 10
630.8756999203
 20
302.8244628957
 30
0.0
 10
656.2081316223
 20
302.5617708348
 30
0.0
 10
693.9075588881
 20
304.3858784374
 30
0.0
 10
731.080486264
 20
307.6512832811
 30
0.0
 10
755.6663479377
 20
310.3098033833
 30
0.0
 10
767.9006131508
 20
311.6789061997
 30
0.0
  0
SPLINE
  5
5C4
100
AcDbEntity
  8
0
100
AcDbSpline
 62
7
  6
CONTINUOUS
 70
0
 71
3
 72
11
 73
7
 74
0
 42
0.0000001
 43
0.0000001
 44
0.0000000001
 40
0.0
 40
0.0
 40
0.0
 40
0.0
 40
0.2469727126
 40
0.495705029
 40
0.7469597132
 40
1.0
 40
1.0
 40
1.0
 40
1.0
 10
767.8210979658
 20
290.879541209
 30
0.0
 10
755.5996837439
 20
288.5225688519
 30
0.0
 10
731.0522129284
 20
283.8811954781
 30
0.0
 10
693.9281054026
 20
277.6141719393
 30
0.0
 10
656.278496577
 20
272.742989454
 30
0.0
 10
630.905274482
 20
270.947115709
 30
0.0
 10
618.1607761082
 20
270.498171584
 30
0.0
  0
SPLINE
  5
5C5
100
AcDbEntity
  8
0
100
AcDbSpline
 62
7
  6
CONTINUOUS
 70
0
 71
3
 72
9
 73
5
 74
0
 42
0.0000001
 43
0.0000001
 44
0.0000000001
 40
0.0
 40
0.0
 40
0.0
 40
0.0
 40
0.4955505297
 40
1.0
 40
1.0
 40
1.0
 40
1.0
 10
816.2650100777
 20
326.5719808198
 30
0.0
 10
816.3283642308
 20
326.6935992903
 30
0.0
 10
816.3283201915
 20
327.0092991785
 30
0.0
 10
816.1252583166
 20
327.2299661345
 30
0.0
 10
816.0043749745
 20
327.2997763362
 30
0.0
  0
SPLINE
  5
5C6
100
AcDbEntity
  8
6_ALL_SURFS
100
AcDbSpline
 62
9
  6
CONTINUOUS
 70
0
 71
3
 72
13
 73
9
 74
0
 42
0.0000001
 43
0.0000001
 44
0.0000000001
 40
0.0
 40
0.0
 40
0.0
 40
0.0
 40
0.4388873192
 40
0.7521874014
 40
0.8614075927
 40
0.9388798525
 40
0.9847496428
 40
1.0
 40
1.0
 40
1.0
 40
1.0
 10
767.8210979658
 20
384.9324593109
 30
0.0
 10
767.8183573187
 20
385.1187556549
 30
0.0
 10
767.8148948448
 20
385.4365110662
 30
0.0
 10
767.8147018522
 20
385.8065136036
 30
0.0
 10
767.8201403271
 20
386.0131199722
 30
0.0
 10
767.8242762292
 20
386.1208418831
 30
0.0
 10
767.8313440304
 20
386.1635705681
 30
0.0
 10
767.8356044722
 20
386.2053491829
 30
0.0
 10
767.841810664
 20
386.2035061034
 30
0.0
  0
SPLINE
  5
5C7
100
AcDbEntity
  8
0
100
AcDbSpline
 62
7
  6
CONTINUOUS
 70
0
 71
3
 72
11
 73
7
 74
0
 42
0.0000001
 43
0.0000001
 44
0.0000000001
 40
0.0
 40
0.0
 40
0.0
 40
0.0
 40
0.2511567282
 40
0.502153463
 40
0.7522258723
 40
1.0
 40
1.0
 40
1.0
 40
1.0
 10
625.6089606027
 20
269.8577906287
 30
0.0
 10
637.6502734287
 20
270.263438077
 30
0.0
 10
661.6968795289
 20
272.1291525876
 30
0.0
 10
697.4165461276
 20
277.3524377353
 30
0.0
 10
732.7345743384
 20
283.9330863581
 30
0.0
 10
756.1573622424
 20
288.592322621
 30
0.0
 10
767.8210979658
 20
290.879541209
 30
0.0
  0
SPLINE
  5
5C8
100
AcDbEntity
  8
0
100
AcDbSpline
 62
9
  6
CONTINUOUS
 70
0
 71
3
 72
10
 73
6
 74
0
 42
0.0000001
 43
0.0000001
 44
0.0000000001
 40
0.0
 40
0.0
 40
0.0
 40
0.0
 40
0.2254112105
 40
0.5970669151
 40
1.0
 40
1.0
 40
1.0
 40
1.0
 10
767.8210979658
 20
290.879541209
 30
0.0
 10
767.8157557041
 20
292.4423497476
 30
0.0
 10
767.8105342679
 20
296.5819623206
 30
0.0
 10
767.8675253026
 20
303.5149709251
 30
0.0
 10
767.8898064727
 20
308.8852902922
 30
0.0
 10
767.9006130297
 20
311.6788790935
 30
0.0
  0
SPLINE
  5
5C9
100
AcDbEntity
  8
0
100
AcDbSpline
 62
7
  6
CONTINUOUS
 70
0
 71
3
 72
11
 73
7
 74
0
 42
0.0000001
 43
0.0000001
 44
0.0000000001
 40
0.0
 40
0.0
 40
0.0
 40
0.0
 40
0.2463840414
 40
0.4952478627
 40
0.7466055197
 40
1.0
 40
1.0
 40
1.0
 40
1.0
 10
767.9006130297
 20
311.6788790935
 30
0.0
 10
756.2604631869
 20
310.5719849071
 30
0.0
 10
732.7767354473
 20
309.2184774717
 30
0.0
 10
697.3412923942
 20
308.9924346963
 30
0.0
 10
661.579479598
 20
309.2818522566
 30
0.0
 10
637.6211366448
 20
308.8143657029
 30
0.0
 10
625.6089606027
 20
308.2515253715
 30
0.0
  0
SPLINE
  5
5CA
100
AcDbEntity
  8
0
100
AcDbSpline
 62
7
  6
CONTINUOUS
 70
0
 71
3
 72
9
 73
5
 74
0
 42
0.0000001
 43
0.0000001
 44
0.0000000001
 40
0.0
 40
0.0
 40
0.0
 40
0.0
 40
0.5029528715
 40
1.0
 40
1.0
 40
1.0
 40
1.0
 10
815.5134651934
 20
326.4284708593
 30
0.0
 10
815.6342904782
 20
326.3586803963
 30
0.0
 10
815.9240147027
 20
326.2750137286
 30
0.0
 10
816.2013029642
 20
326.4496847852
 30
0.0
 10
816.2650100777
 20
326.5719808198
 30
0.0
  0
SPLINE
  5
5CB
100
AcDbEntity
  8
6_ALL_SURFS
100
AcDbSpline
 62
7
  6
CONTINUOUS
 70
0
 71
3
 72
11
 73
7
 74
0
 42
0.0000001
 43
0.0000001
 44
0.0000000001
 40
0.0
 40
0.0
 40
0.0
 40
0.0
 40
0.2505788641
 40
0.5004557923
 40
0.75001491
 40
1.0
 40
1.0
 40
1.0
 40
1.0
 10
625.6089606027
 20
409.3745661071
 30
0.0
 10
637.6426916904
 20
408.4052876428
 30
0.0
 10
661.6475925533
 20
406.0789996671
 30
0.0
 10
697.4562047954
 20
401.1343289027
 30
0.0
 10
732.9277548896
 20
394.2904344337
 30
0.0
 10
756.2567724665
 20
388.2979662115
 30
0.0
 10
767.8210979658
 20
384.9324593109
 30
0.0
  0
SPLINE
  5
5CC
100
AcDbEntity
  8
0
100
AcDbSpline
 62
7
  6
CONTINUOUS
 70
0
 71
3
 72
9
 73
5
 74
0
 42
0.0000001
 43
0.0000001
 44
0.0000000001
 40
0.0
 40
0.0
 40
0.0
 40
0.0
 40
0.4917101315
 40
1.0
 40
1.0
 40
1.0
 40
1.0
 10
330.2950309154
 20
718.2442847285
 30
0.0
 10
330.2950309154
 20
718.6052124351
 30
0.0
 10
330.5056222397
 20
719.3512271529
 30
0.0
 10
331.0558018418
 20
719.8857775003
 30
0.0
 10
331.3735381858
 20
720.0813420039
 30
0.0
  0
SPLINE
  5
5CD
100
AcDbEntity
  8
0
100
AcDbSpline
 62
7
  6
CONTINUOUS
 70
0
 71
3
 72
9
 73
5
 74
0
 42
0.0000001
 43
0.0000001
 44
0.0000000001
 40
0.0
 40
0.0
 40
0.0
 40
0.0
 40
0.4734125176
 40
1.0
 40
1.0
 40
1.0
 40
1.0
 10
331.2950309154
 20
718.2442847285
 30
0.0
 10
331.2950309154
 20
718.4162562257
 30
0.0
 10
331.3946330727
 20
718.7839180802
 30
0.0
 10
331.6532605532
 20
719.0587642938
 30
0.0
 10
331.8086650138
 20
719.1703011714
 30
0.0
  0
SPLINE
  5
5CE
100
AcDbEntity
  8
0
100
AcDbSpline
 62
7
  6
CONTINUOUS
 70
0
 71
3
 72
9
 73
5
 74
0
 42
0.0000001
 43
0.0000001
 44
0.0000000001
 40
0.0
 40
0.0
 40
0.0
 40
0.0
 40
0.525803113
 40
1.0
 40
1.0
 40
1.0
 40
1.0
 10
331.7878921882
 20
703.9099962685
 30
0.0
 10
331.6383253264
 20
704.0215857212
 30
0.0
 10
331.3900535332
 20
704.2934761429
 30
0.0
 10
331.2950309154
 20
704.6525982923
 30
0.0
 10
331.2950309154
 20
704.8208909699
 30
0.0
  0
SPLINE
  5
5CF
100
AcDbEntity
  8
0
100
AcDbSpline
 62
7
  6
CONTINUOUS
 70
0
 71
3
 72
9
 73
5
 74
0
 42
0.0000001
 43
0.0000001
 44
0.0000000001
 40
0.0
 40
0.0
 40
0.0
 40
0.0
 40
0.5109519268
 40
1.0
 40
1.0
 40
1.0
 40
1.0
 10
331.7844811942
 20
702.7787419116
 30
0.0
 10
331.3651226445
 20
702.9438070888
 30
0.0
 10
330.6046285131
 20
703.4890005305
 30
0.0
 10
330.2950309154
 20
704.3895356694
 30
0.0
 10
330.2950309154
 20
704.8208909699
 30
0.0
  0
SPLINE
  5
5D0
100
AcDbEntity
  8
0
100
AcDbSpline
 62
7
  6
CONTINUOUS
 70
0
 71
3
 72
9
 73
5
 74
0
 42
0.0000001
 43
0.0000001
 44
0.0000000001
 40
0.0
 40
0.0
 40
0.0
 40
0.0
 40
0.4742029091
 40
1.0
 40
1.0
 40
1.0
 40
1.0
 10
338.2950309154
 20
704.8208909699
 30
0.0
 10
338.2950309154
 20
704.6525961762
 30
0.0
 10
338.2000067091
 20
704.2934737095
 30
0.0
 10
337.9517341256
 20
704.021585397
 30
0.0
 10
337.8021698906
 20
703.909996037
 30
0.0
  0
SPLINE
  5
5D1
100
AcDbEntity
  8
0
100
AcDbSpline
 62
7
  6
CONTINUOUS
 70
0
 71
3
 72
9
 73
5
 74
0
 42
0.0000001
 43
0.0000001
 44
0.0000000001
 40
0.0
 40
0.0
 40
0.0
 40
0.0
 40
0.4890443615
 40
1.0
 40
1.0
 40
1.0
 40
1.0
 10
339.2950309154
 20
704.8208909699
 30
0.0
 10
339.2950309154
 20
704.389548128
 30
0.0
 10
338.9854500304
 20
703.4890326383
 30
0.0
 10
338.2249833975
 20
702.9438366457
 30
0.0
 10
337.8056345868
 20
702.7787639881
 30
0.0
  0
SPLINE
  5
5D2
100
AcDbEntity
  8
0
100
AcDbSpline
 62
7
  6
CONTINUOUS
 70
0
 71
3
 72
9
 73
5
 74
0
 42
0.0000001
 43
0.0000001
 44
0.0000000001
 40
0.0
 40
0.0
 40
0.0
 40
0.0
 40
0.5082853679
 40
1.0
 40
1.0
 40
1.0
 40
1.0
 10
338.2165740466
 20
720.0813106651
 30
0.0
 10
338.5342948144
 20
719.8857456959
 30
0.0
 10
339.0844501606
 20
719.3512018689
 30
0.0
 10
339.2950309154
 20
718.6052063381
 30
0.0
 10
339.2950309154
 20
718.2442847285
 30
0.0
  0
SPLINE
  5
5D3
100
AcDbEntity
  8
0
100
AcDbSpline
 62
7
  6
CONTINUOUS
 70
0
 71
3
 72
9
 73
5
 74
0
 42
0.0000001
 43
0.0000001
 44
0.0000000001
 40
0.0
 40
0.0
 40
0.0
 40
0.0
 40
0.5241970156
 40
1.0
 40
1.0
 40
1.0
 40
1.0
 10
337.8467795035
 20
719.1205023182
 30
0.0
 10
337.9839515006
 20
719.0096189817
 30
0.0
 10
338.2096810349
 20
718.7445818744
 30
0.0
 10
338.2950309154
 20
718.4043847888
 30
0.0
 10
338.2950309154
 20
718.2442847285
 30
0.0
  0
SPLINE
  5
5D4
100
AcDbEntity
  8
0
100
AcDbSpline
 62
7
  6
CONTINUOUS
 70
0
 71
3
 72
11
 73
7
 74
0
 42
0.0000001
 43
0.0000001
 44
0.0000000001
 40
0.0
 40
0.0
 40
0.0
 40
0.0
 40
0.1711361921
 40
0.396139734
 40
0.6804010462
 40
1.0
 40
1.0
 40
1.0
 40
1.0
 10
337.7950309154
 20
711.7894798831
 30
0.0
 10
337.7950309154
 20
711.9954070011
 30
0.0
 10
337.5707811548
 20
712.4660557236
 30
0.0
 10
336.8671420864
 20
712.9196416114
 30
0.0
 10
335.9093128094
 20
713.2220868031
 30
0.0
 10
335.1796023533
 20
713.2894798831
 30
0.0
 10
334.7950309154
 20
713.2894798831
 30
0.0
  0
SPLINE
  5
5D5
100
AcDbEntity
  8
0
100
AcDbSpline
 62
7
  6
CONTINUOUS
 70
0
 71
3
 72
11
 73
7
 74
0
 42
0.0000001
 43
0.0000001
 44
0.0000000001
 40
0.0
 40
0.0
 40
0.0
 40
0.0
 40
0.3195989538
 40
0.603860266
 40
0.8288638079
 40
1.0
 40
1.0
 40
1.0
 40
1.0
 10
334.7950309154
 20
713.2894798831
 30
0.0
 10
334.4104594776
 20
713.2894798831
 30
0.0
 10
333.6807490215
 20
713.2220868031
 30
0.0
 10
332.7229197445
 20
712.9196416114
 30
0.0
 10
332.019280676
 20
712.4660557236
 30
0.0
 10
331.7950309154
 20
711.9954070011
 30
0.0
 10
331.7950309154
 20
711.7894798831
 30
0.0
  0
SPLINE
  5
5D6
100
AcDbEntity
  8
0
100
AcDbSpline
 62
9
  6
CONTINUOUS
 70
0
 71
3
 72
11
 73
7
 74
0
 42
0.0000001
 43
0.0000001
 44
0.0000000001
 40
0.0
 40
0.0
 40
0.0
 40
0.0
 40
0.1963855321
 40
0.4229212168
 40
0.6702623895
 40
1.0
 40
1.0
 40
1.0
 40
1.0
 10
339.2950309154
 20
718.2442847285
 30
0.0
 10
339.2950309154
 20
718.3208277733
 30
0.0
 10
339.1382484274
 20
718.4528204313
 30
0.0
 10
338.8831596983
 20
718.4980691
 30
0.0
 10
338.5886072162
 20
718.4984374544
 30
0.0
 10
338.2950309154
 20
718.372802957
 30
0.0
 10
338.2950309154
 20
718.2442847285
 30
0.0
  0
SPLINE
  5
5D7
100
AcDbEntity
  8
6_ALL_SURFS
100
AcDbSpline
 62
7
  6
CONTINUOUS
 70
0
 71
3
 72
11
 73
7
 74
0
 42
0.0000001
 43
0.0000001
 44
0.0000000001
 40
0.0
 40
0.0
 40
0.0
 40
0.0
 40
0.2528337086
 40
0.5044586229
 40
0.7539124749
 40
1.0
 40
1.0
 40
1.0
 40
1.0
 10
356.960840625
 20
529.5994798831
 30
0.0
 10
357.0522393453
 20
541.6190002488
 30
0.0
 10
356.2488644904
 20
565.612043163
 30
0.0
 10
353.0707896383
 20
601.317090866
 30
0.0
 10
349.4008088043
 20
636.64638765
 30
0.0
 10
347.4808496843
 20
660.1323729297
 30
0.0
 10
346.7986708506
 20
671.8116172462
 30
0.0
  0
SPLINE
  5
5D8
100
AcDbEntity
  8
0
100
AcDbSpline
 62
7
  6
CONTINUOUS
 70
0
 71
3
 72
9
 73
5
 74
0
 42
0.0000001
 43
0.0000001
 44
0.0000000001
 40
0.0
 40
0.0
 40
0.0
 40
0.0
 40
0.2030295937
 40
1.0
 40
1.0
 40
1.0
 40
1.0
 10
331.8226451802
 20
719.2334002357
 30
0.0
 10
331.8236729128
 20
719.2445024823
 30
0.0
 10
331.8272583397
 20
719.2993178029
 30
0.0
 10
331.8273205687
 20
719.3542978922
 30
0.0
 10
331.826585623
 20
719.3980586992
 30
0.0
  0
SPLINE
  5
5D9
100
AcDbEntity
  8
0
100
AcDbSpline
 62
7
  6
CONTINUOUS
 70
0
 71
3
 72
8
 73
4
 74
0
 42
0.0000001
 43
0.0000001
 44
0.0000000001
 40
0.0
 40
0.0
 40
0.0
 40
0.0
 40
1.0
 40
1.0
 40
1.0
 40
1.0
 10
331.826585623
 20
719.3980586992
 30
0.0
 10
331.8252965957
 20
719.4748111302
 30
0.0
 10
331.821201631
 20
719.5515062669
 30
0.0
 10
331.8166238054
 20
719.6281328992
 30
0.0
  0
SPLINE
  5
5DA
100
AcDbEntity
  8
0
100
AcDbSpline
 62
7
  6
CONTINUOUS
 70
0
 71
3
 72
9
 73
5
 74
0
 42
0.0000001
 43
0.0000001
 44
0.0000000001
 40
0.0
 40
0.0
 40
0.0
 40
0.0
 40
0.2672178917
 40
1.0
 40
1.0
 40
1.0
 40
1.0
 10
331.8166238054
 20
719.6281328992
 30
0.0
 10
331.8142596257
 20
719.667706083
 30
0.0
 10
331.8048526782
 20
719.8157379325
 30
0.0
 10
331.795088706
 20
719.9639520672
 30
0.0
 10
331.7950406497
 20
720.0726656766
 30
0.0
  0
SPLINE
  5
5DB
100
AcDbEntity
  8
0
100
AcDbSpline
 62
9
  6
CONTINUOUS
 70
0
 71
3
 72
10
 73
6
 74
0
 42
0.0000001
 43
0.0000001
 44
0.0000000001
 40
0.0
 40
0.0
 40
0.0
 40
0.0
 40
0.5194721809
 40
0.7648603542
 40
1.0
 40
1.0
 40
1.0
 40
1.0
 10
334.7950309154
 20
713.5837085172
 30
0.0
 10
335.5462564663
 20
713.5837085172
 30
0.0
 10
336.7138339213
 20
713.9744016328
 30
0.0
 10
337.6284769378
 20
715.1378563359
 30
0.0
 10
337.7950309154
 20
715.8417416686
 30
0.0
 10
337.7950309154
 20
716.1817847285
 30
0.0
  0
SPLINE
  5
5DC
100
AcDbEntity
  8
6_ALL_SURFS
100
AcDbSpline
 62
9
  6
CONTINUOUS
 70
0
 71
3
 72
9
 73
5
 74
0
 42
0.0000001
 43
0.0000001
 44
0.0000000001
 40
0.0
 40
0.0
 40
0.0
 40
0.0
 40
0.500032413
 40
1.0
 40
1.0
 40
1.0
 40
1.0
 10
346.7986708506
 20
671.8116172462
 30
0.0
 10
342.7978144104
 20
671.7988926118
 30
0.0
 10
334.796505067
 20
671.8215626619
 30
0.0
 10
326.7954849311
 20
671.8872667328
 30
0.0
 10
322.7951288108
 20
671.8911323549
 30
0.0
  0
SPLINE
  5
5DD
100
AcDbEntity
  8
0
100
AcDbSpline
 62
9
  6
CONTINUOUS
 70
0
 71
3
 72
10
 73
6
 74
0
 42
0.0000001
 43
0.0000001
 44
0.0000000001
 40
0.0
 40
0.0
 40
0.0
 40
0.0
 40
0.2351396458
 40
0.4805278191
 40
1.0
 40
1.0
 40
1.0
 40
1.0
 10
331.7950309154
 20
716.1817847285
 30
0.0
 10
331.7950309154
 20
715.8417416686
 30
0.0
 10
331.9615848931
 20
715.1378563359
 30
0.0
 10
332.8762279096
 20
713.9744016328
 30
0.0
 10
334.0438053646
 20
713.5837085172
 30
0.0
 10
334.7950309154
 20
713.5837085172
 30
0.0
  0
SPLINE
  5
5DE
100
AcDbEntity
  8
6_ALL_SURFS
100
AcDbSpline
 62
7
  6
CONTINUOUS
 70
0
 71
3
 72
11
 73
7
 74
0
 42
0.0000001
 43
0.0000001
 44
0.0000000001
 40
0.0
 40
0.0
 40
0.0
 40
0.0
 40
0.2460829403
 40
0.4955362578
 40
0.7471631774
 40
1.0
 40
1.0
 40
1.0
 40
1.0
 10
322.7951288108
 20
671.8911323549
 30
0.0
 10
322.1137357317
 20
660.2055142396
 30
0.0
 10
320.1941926342
 20
636.7065082825
 30
0.0
 10
316.5221512882
 20
601.3576267415
 30
0.0
 10
313.3408576874
 20
565.6325532303
 30
0.0
 10
312.5363892382
 20
541.6258629118
 30
0.0
 10
312.6278010318
 20
529.5994798831
 30
0.0
  0
SPLINE
  5
5DF
100
AcDbEntity
  8
6_ALL_SURFS
100
AcDbSpline
 62
7
  6
CONTINUOUS
 70
0
 71
3
 72
9
 73
5
 74
0
 42
0.0000001
 43
0.0000001
 44
0.0000000001
 40
0.0
 40
0.0
 40
0.0
 40
0.0
 40
0.2509529854
 40
1.0
 40
1.0
 40
1.0
 40
1.0
 10
353.7936944088
 20
522.1494798831
 30
0.0
 10
354.0584280261
 20
522.7727653583
 30
0.0
 10
355.1131524373
 20
525.2565195737
 30
0.0
 10
356.1680762964
 20
527.740191041
 30
0.0
 10
356.960840625
 20
529.5994798831
 30
0.0
  0
SPLINE
  5
5E0
100
AcDbEntity
  8
6_ALL_SURFS
100
AcDbSpline
 62
7
  6
CONTINUOUS
 70
0
 71
3
 72
9
 73
5
 74
0
 42
0.0000001
 43
0.0000001
 44
0.0000000001
 40
0.0
 40
0.0
 40
0.0
 40
0.0
 40
0.2490184354
 40
1.0
 40
1.0
 40
1.0
 40
1.0
 10
312.6278010318
 20
529.5994798831
 30
0.0
 10
312.8913577652
 20
528.9813651033
 30
0.0
 10
313.9485554636
 20
526.4986549856
 30
0.0
 10
315.0027494204
 20
524.0146677728
 30
0.0
 10
315.7949955749
 20
522.1494798831
 30
0.0
  0
SPLINE
  5
5E1
100
AcDbEntity
  8
0
100
AcDbSpline
 62
9
  6
CONTINUOUS
 70
0
 71
3
 72
11
 73
7
 74
0
 42
0.0000001
 43
0.0000001
 44
0.0000000001
 40
0.0
 40
0.0
 40
0.0
 40
0.0
 40
0.1963855321
 40
0.4229212168
 40
0.6702623895
 40
1.0
 40
1.0
 40
1.0
 40
1.0
 10
330.2950309154
 20
718.2442847285
 30
0.0
 10
330.2950309154
 20
718.3208277733
 30
0.0
 10
330.4518134035
 20
718.4528204313
 30
0.0
 10
330.7069021326
 20
718.4980691
 30
0.0
 10
331.0014546147
 20
718.4984374544
 30
0.0
 10
331.2950309154
 20
718.372802957
 30
0.0
 10
331.2950309154
 20
718.2442847285
 30
0.0
  0
SPLINE
  5
5E2
100
AcDbEntity
  8
0
100
AcDbSpline
 62
7
  6
CONTINUOUS
 70
0
 71
3
 72
9
 73
5
 74
0
 42
0.0000001
 43
0.0000001
 44
0.0000000001
 40
0.0
 40
0.0
 40
0.0
 40
0.0
 40
0.2241065806
 40
1.0
 40
1.0
 40
1.0
 40
1.0
 10
337.7950213953
 20
720.0726656352
 30
0.0
 10
337.7950067887
 20
720.0394092257
 30
0.0
 10
337.791453245
 20
719.8910170776
 30
0.0
 10
337.7802990585
 20
719.7429895989
 30
0.0
 10
337.7734333961
 20
719.6280553703
 30
0.0
  0
SPLINE
  5
5E3
100
AcDbEntity
  8
0
100
AcDbSpline
 62
7
  6
CONTINUOUS
 70
0
 71
3
 72
9
 73
5
 74
0
 42
0.0000001
 43
0.0000001
 44
0.0000000001
 40
0.0
 40
0.0
 40
0.0
 40
0.0
 40
0.2914420206
 40
1.0
 40
1.0
 40
1.0
 40
1.0
 10
337.7734333961
 20
719.6280553703
 30
0.0
 10
337.7711462706
 20
719.5897678771
 30
0.0
 10
337.7642973274
 20
719.4584574226
 30
0.0
 10
337.7588211724
 20
719.3262542725
 30
0.0
 10
337.7674166506
 20
719.2334002357
 30
0.0
  0
SPLINE
  5
5E4
100
AcDbEntity
  8
0
100
AcDbSpline
 62
9
  6
CONTINUOUS
 70
0
 71
3
 72
11
 73
7
 74
0
 42
0.0000001
 43
0.0000001
 44
0.0000000001
 40
0.0
 40
0.0
 40
0.0
 40
0.0
 40
0.1963855321
 40
0.4229212168
 40
0.6702623895
 40
1.0
 40
1.0
 40
1.0
 40
1.0
 10
330.2950309154
 20
704.8208909699
 30
0.0
 10
330.2950309154
 20
704.8974340147
 30
0.0
 10
330.4518134035
 20
705.0294266727
 30
0.0
 10
330.7069021326
 20
705.0746753414
 30
0.0
 10
331.0014546147
 20
705.0750436958
 30
0.0
 10
331.2950309154
 20
704.9494091984
 30
0.0
 10
331.2950309154
 20
704.8208909699
 30
0.0
  0
SPLINE
  5
5E5
100
AcDbEntity
  8
0
100
AcDbSpline
 62
9
  6
CONTINUOUS
 70
0
 71
3
 72
11
 73
7
 74
0
 42
0.0000001
 43
0.0000001
 44
0.0000000001
 40
0.0
 40
0.0
 40
0.0
 40
0.0
 40
0.1963855321
 40
0.4229212168
 40
0.6702623895
 40
1.0
 40
1.0
 40
1.0
 40
1.0
 10
339.2950309154
 20
704.8208909699
 30
0.0
 10
339.2950309154
 20
704.8974340147
 30
0.0
 10
339.1382484274
 20
705.0294266727
 30
0.0
 10
338.8831596983
 20
705.0746753414
 30
0.0
 10
338.5886072162
 20
705.0750436958
 30
0.0
 10
338.2950309154
 20
704.9494091984
 30
0.0
 10
338.2950309154
 20
704.8208909699
 30
0.0
  0
SPLINE
  5
5E6
100
AcDbEntity
  8
0
100
AcDbSpline
 62
7
  6
CONTINUOUS
 70
0
 71
3
 72
13
 73
9
 74
0
 42
0.0000001
 43
0.0000001
 44
0.0000000001
 40
0.0
 40
0.0
 40
0.0
 40
0.0
 40
0.0282838626
 40
0.0909500311
 40
0.1968358884
 40
0.3439931207
 40
0.5306569863
 40
1.0
 40
1.0
 40
1.0
 40
1.0
 10
1057.055689446
 20
327.7331734481
 30
0.0
 10
1057.055689446
 20
327.7392004857
 30
0.0
 10
1057.0472585093
 20
327.6960963599
 30
0.0
 10
1057.0235717011
 20
327.6823362152
 30
0.0
 10
1056.9776509339
 20
327.6212127081
 30
0.0
 10
1056.9053249194
 20
327.5662926697
 30
0.0
 10
1056.7599183807
 20
327.4727477118
 30
0.0
 10
1056.6305687544
 20
327.4183658791
 30
0.0
 10
1056.5361365904
 20
327.385424649
 30
0.0
  0
SPLINE
  5
5E7
100
AcDbEntity
  8
0
100
AcDbSpline
 62
7
  6
CONTINUOUS
 70
0
 71
3
 72
10
 73
6
 74
0
 42
0.0000001
 43
0.0000001
 44
0.0000000001
 40
0.0
 40
0.0
 40
0.0
 40
0.0
 40
0.2370752781
 40
0.476260799
 40
1.0
 40
1.0
 40
1.0
 40
1.0
 10
1058.055689446
 20
327.7331734481
 30
0.0
 10
1058.055689446
 20
327.5831113863
 30
0.0
 10
1057.9840361063
 20
327.2779341377
 30
0.0
 10
1057.5957728582
 20
326.7626675304
 30
0.0
 10
1057.1434675316
 20
326.534458714
 30
0.0
 10
1056.8291811672
 20
326.428985854
 30
0.0
  0
SPLINE
  5
5E8
100
AcDbEntity
  8
0
100
AcDbSpline
 62
7
  6
CONTINUOUS
 70
0
 71
3
 72
11
 73
7
 74
0
 42
0.0000001
 43
0.0000001
 44
0.0000000001
 40
0.0
 40
0.0
 40
0.0
 40
0.0
 40
0.2881933868
 40
0.5500989482
 40
0.7815629056
 40
1.0
 40
1.0
 40
1.0
 40
1.0
 10
1055.622293542
 20
336.9826748475
 30
0.0
 10
1055.9219097168
 20
336.9781924736
 30
0.0
 10
1056.4951726971
 20
336.9136699389
 30
0.0
 10
1057.2700905882
 20
336.6444883826
 30
0.0
 10
1057.8761223122
 20
336.184021091
 30
0.0
 10
1058.055689446
 20
335.7102938929
 30
0.0
 10
1058.055689446
 20
335.4831734481
 30
0.0
  0
SPLINE
  5
5E9
100
AcDbEntity
  8
0
100
AcDbSpline
 62
7
  6
CONTINUOUS
 70
0
 71
3
 72
17
 73
13
 74
0
 42
0.0000001
 43
0.0000001
 44
0.0000000001
 40
0.0
 40
0.0
 40
0.0
 40
0.0
 40
0.2043047695
 40
0.4016658425
 40
0.583522582
 40
0.7423807739
 40
0.8686837365
 40
0.9166878812
 40
0.9538061816
 40
0.9793405344
 40
0.9937569875
 40
1.0
 40
1.0
 40
1.0
 40
1.0
 10
1055.555689446
 20
335.9831734481
 30
0.0
 10
1055.667079915
 20
335.9831734481
 30
0.0
 10
1055.8862276862
 20
335.972658055
 30
0.0
 10
1056.201528095
 20
335.9266957774
 30
0.0
 10
1056.4864471843
 20
335.8539167968
 30
0.0
 10
1056.7237654575
 20
335.7596623079
 30
0.0
 10
1056.882747079
 20
335.6704459973
 30
0.0
 10
1056.9717163282
 20
335.5950716205
 30
0.0
 10
1057.0139590284
 20
335.555075694
 30
0.0
 10
1057.0395823035
 20
335.5145435802
 30
0.0
 10
1057.052708452
 20
335.5051477312
 30
0.0
 10
1057.055689446
 20
335.4797696504
 30
0.0
 10
1057.055689446
 20
335.4831734481
 30
0.0
  0
SPLINE
  5
5EA
100
AcDbEntity
  8
0
100
AcDbSpline
 62
7
  6
CONTINUOUS
 70
0
 71
3
 72
8
 73
4
 74
0
 42
0.0000001
 43
0.0000001
 44
0.0000000001
 40
0.0
 40
0.0
 40
0.0
 40
0.0
 40
1.0
 40
1.0
 40
1.0
 40
1.0
 10
1049.055689446
 20
335.4831734481
 30
0.0
 10
1049.055689446
 20
335.7026717438
 30
0.0
 10
1049.1365978191
 20
335.9290920726
 30
0.0
 10
1049.2639511518
 20
336.1078674357
 30
0.0
  0
SPLINE
  5
5EB
100
AcDbEntity
  8
0
100
AcDbSpline
 62
7
  6
CONTINUOUS
 70
0
 71
3
 72
9
 73
5
 74
0
 42
0.0000001
 43
0.0000001
 44
0.0000000001
 40
0.0
 40
0.0
 40
0.0
 40
0.0
 40
0.4560750866
 40
1.0
 40
1.0
 40
1.0
 40
1.0
 10
1049.2639511518
 20
336.1078674357
 30
0.0
 10
1049.4857064701
 20
336.4191619008
 30
0.0
 10
1050.261563515
 20
336.8716003145
 30
0.0
 10
1051.0998651347
 20
336.9831734481
 30
0.0
 10
1051.555689446
 20
336.9831734481
 30
0.0
  0
SPLINE
  5
5EC
100
AcDbEntity
  8
0
100
AcDbSpline
 62
7
  6
CONTINUOUS
 70
0
 71
3
 72
17
 73
13
 74
0
 42
0.0000001
 43
0.0000001
 44
0.0000000001
 40
0.0
 40
0.0
 40
0.0
 40
0.0
 40
0.0062605402
 40
0.0206664828
 40
0.0461894992
 40
0.0833156979
 40
0.1313301532
 40
0.2576263389
 40
0.4164769664
 40
0.5983295317
 40
0.7956923828
 40
1.0
 40
1.0
 40
1.0
 40
1.0
 10
1050.055689446
 20
335.4831734481
 30
0.0
 10
1050.055689446
 20
335.4797600879
 30
0.0
 10
1050.0586528789
 20
335.5051587869
 30
0.0
 10
1050.0717952264
 20
335.5145617192
 30
0.0
 10
1050.0974220994
 20
335.5550688804
 30
0.0
 10
1050.1396799503
 20
335.5950586752
 30
0.0
 10
1050.2286407987
 20
335.6704494592
 30
0.0
 10
1050.3876156666
 20
335.7596813043
 30
0.0
 10
1050.6249340904
 20
335.8539077452
 30
0.0
 10
1050.9098445827
 20
335.926696593
 30
0.0
 10
1051.2251467918
 20
335.9726567988
 30
0.0
 10
1051.4442972231
 20
335.9831734481
 30
0.0
 10
1051.555689446
 20
335.9831734481
 30
0.0
  0
SPLINE
  5
5ED
100
AcDbEntity
  8
0
100
AcDbSpline
 62
7
  6
CONTINUOUS
 70
0
 71
3
 72
9
 73
5
 74
0
 42
0.0000001
 43
0.0000001
 44
0.0000000001
 40
0.0
 40
0.0
 40
0.0
 40
0.0
 40
0.2893886052
 40
1.0
 40
1.0
 40
1.0
 40
1.0
 10
1050.5752434831
 20
327.385422456
 30
0.0
 10
1050.5365528852
 20
327.3989192429
 30
0.0
 10
1050.4044901117
 20
327.4496189751
 30
0.0
 10
1050.2768259127
 20
327.5151013771
 30
0.0
 10
1050.1960734804
 20
327.5751330616
 30
0.0
  0
SPLINE
  5
5EE
100
AcDbEntity
  8
0
100
AcDbSpline
 62
7
  6
CONTINUOUS
 70
0
 71
3
 72
11
 73
7
 74
0
 42
0.0000001
 43
0.0000001
 44
0.0000000001
 40
0.0
 40
0.0
 40
0.0
 40
0.0
 40
0.5173519999
 40
0.7053398809
 40
0.8437345041
 40
1.0
 40
1.0
 40
1.0
 40
1.0
 10
1050.1960734804
 20
327.5751330616
 30
0.0
 10
1050.1664469941
 20
327.5971575112
 30
0.0
 10
1050.1282455744
 20
327.6271661058
 30
0.0
 10
1050.087876871
 20
327.6785609417
 30
0.0
 10
1050.0684852681
 20
327.6940501948
 30
0.0
 10
1050.055689446
 20
327.744323935
 30
0.0
 10
1050.055689446
 20
327.7331734481
 30
0.0
  0
SPLINE
  5
5EF
100
AcDbEntity
  8
0
100
AcDbSpline
 62
7
  6
CONTINUOUS
 70
0
 71
3
 72
10
 73
6
 74
0
 42
0.0000001
 43
0.0000001
 44
0.0000000001
 40
0.0
 40
0.0
 40
0.0
 40
0.0
 40
0.5237200959
 40
0.7629133227
 40
1.0
 40
1.0
 40
1.0
 40
1.0
 10
1050.2816246914
 20
326.4291778064
 30
0.0
 10
1049.9674689785
 20
326.5346758959
 30
0.0
 10
1049.5153513065
 20
326.7628871972
 30
0.0
 10
1049.1273047958
 20
327.2780601432
 30
0.0
 10
1049.055689446
 20
327.583151132
 30
0.0
 10
1049.055689446
 20
327.7331734481
 30
0.0
  0
SPLINE
  5
5F0
100
AcDbEntity
  8
0
100
AcDbSpline
 62
7
  6
CONTINUOUS
 70
0
 71
3
 72
10
 73
6
 74
0
 42
0.0000001
 43
0.0000001
 44
0.0000000001
 40
0.0
 40
0.0
 40
0.0
 40
0.0
 40
0.2351396458
 40
0.4805278191
 40
1.0
 40
1.0
 40
1.0
 40
1.0
 10
1056.555689446
 20
339.5531235029
 30
0.0
 10
1056.555689446
 20
339.2130804429
 30
0.0
 10
1056.3891354684
 20
338.5091951102
 30
0.0
 10
1055.4744924519
 20
337.3457404071
 30
0.0
 10
1054.3069149969
 20
336.9550472915
 30
0.0
 10
1053.555689446
 20
336.9550472915
 30
0.0
  0
SPLINE
  5
5F1
100
AcDbEntity
  8
0
100
AcDbSpline
 62
7
  6
CONTINUOUS
 70
0
 71
3
 72
10
 73
6
 74
0
 42
0.0000001
 43
0.0000001
 44
0.0000000001
 40
0.0
 40
0.0
 40
0.0
 40
0.0
 40
0.5194721809
 40
0.7648603542
 40
1.0
 40
1.0
 40
1.0
 40
1.0
 10
1053.555689446
 20
336.9550472915
 30
0.0
 10
1052.8044638952
 20
336.9550472915
 30
0.0
 10
1051.6368864402
 20
337.3457404071
 30
0.0
 10
1050.7222434237
 20
338.5091951102
 30
0.0
 10
1050.555689446
 20
339.2130804429
 30
0.0
 10
1050.555689446
 20
339.5531235029
 30
0.0
  0
SPLINE
  5
5F2
100
AcDbEntity
  8
6_ALL_SURFS
100
AcDbSpline
 62
7
  6
CONTINUOUS
 70
0
 71
3
 72
14
 73
10
 74
0
 42
0.0000001
 43
0.0000001
 44
0.0000000001
 40
0.0
 40
0.0
 40
0.0
 40
0.0
 40
0.0608781442
 40
0.1399125012
 40
0.2393361827
 40
0.3581106736
 40
0.4944822183
 40
0.647118105
 40
1.0
 40
1.0
 40
1.0
 40
1.0
 10
1031.3898797365
 20
409.3745661071
 30
0.0
 10
1031.3390438823
 20
408.8360912751
 30
0.0
 10
1031.5756748335
 20
407.5765886643
 30
0.0
 10
1032.4887190544
 20
405.6547131144
 30
0.0
 10
1033.8367765278
 20
403.3812039324
 30
0.0
 10
1035.4751975284
 20
400.6915929464
 30
0.0
 10
1037.2355828328
 20
397.5222023042
 30
0.0
 10
1039.641576415
 20
392.3469785179
 30
0.0
 10
1040.9351164585
 20
388.0063238143
 30
0.0
 10
1041.5520495109
 20
384.9324593109
 30
0.0
  0
SPLINE
  5
5F3
100
AcDbEntity
  8
0
100
AcDbSpline
 62
9
  6
CONTINUOUS
 70
0
 71
3
 72
11
 73
7
 74
0
 42
0.0000001
 43
0.0000001
 44
0.0000000001
 40
0.0
 40
0.0
 40
0.0
 40
0.0
 40
0.1711361921
 40
0.396139734
 40
0.6804010462
 40
1.0
 40
1.0
 40
1.0
 40
1.0
 10
1050.555689446
 20
323.1608186574
 30
0.0
 10
1050.555689446
 20
322.9548915395
 30
0.0
 10
1050.7799392066
 20
322.4842428169
 30
0.0
 10
1051.4835782751
 20
322.0306569292
 30
0.0
 10
1052.4414075521
 20
321.7282117375
 30
0.0
 10
1053.1711180082
 20
321.6608186574
 30
0.0
 10
1053.555689446
 20
321.6608186574
 30
0.0
  0
SPLINE
  5
5F4
100
AcDbEntity
  8
6_ALL_SURFS
100
AcDbSpline
 62
9
  6
CONTINUOUS
 70
0
 71
3
 72
9
 73
5
 74
0
 42
0.0000001
 43
0.0000001
 44
0.0000000001
 40
0.0
 40
0.0
 40
0.0
 40
0.0
 40
0.499983269
 40
1.0
 40
1.0
 40
1.0
 40
1.0
 10
1041.5520495109
 20
384.9324593109
 30
0.0
 10
1045.4844410035
 20
385.7826186096
 30
0.0
 10
1053.5564376571
 20
386.6372579199
 30
0.0
 10
1061.6224104025
 20
385.7568952315
 30
0.0
 10
1065.5555915506
 20
384.9091178933
 30
0.0
  0
SPLINE
  5
5F5
100
AcDbEntity
  8
0
100
AcDbSpline
 62
7
  6
CONTINUOUS
 70
0
 71
3
 72
10
 73
6
 74
0
 42
0.0000001
 43
0.0000001
 44
0.0000000001
 40
0.0
 40
0.0
 40
0.0
 40
0.0
 40
0.2351396458
 40
0.4805278191
 40
1.0
 40
1.0
 40
1.0
 40
1.0
 10
1050.555689446
 20
339.5531235029
 30
0.0
 10
1050.555689446
 20
339.8931665628
 30
0.0
 10
1050.7222434237
 20
340.5970518955
 30
0.0
 10
1051.6368864402
 20
341.7605065986
 30
0.0
 10
1052.8044638952
 20
342.1511997142
 30
0.0
 10
1053.555689446
 20
342.1511997142
 30
0.0
  0
SPLINE
  5
5F6
100
AcDbEntity
  8
6_ALL_SURFS
100
AcDbSpline
 62
7
  6
CONTINUOUS
 70
0
 71
3
 72
14
 73
10
 74
0
 42
0.0000001
 43
0.0000001
 44
0.0000000001
 40
0.0
 40
0.0
 40
0.0
 40
0.0
 40
0.3529029808
 40
0.5055411993
 40
0.6419135085
 40
0.7606879538
 40
0.8601095141
 40
0.9391365897
 40
1.0
 40
1.0
 40
1.0
 40
1.0
 10
1065.5555915506
 20
384.9091178933
 30
0.0
 10
1066.1717797686
 20
387.9861501811
 30
0.0
 10
1067.4648409683
 20
392.3314035118
 30
0.0
 10
1069.8717698563
 20
397.5120115054
 30
0.0
 10
1071.6333275666
 20
400.6844594947
 30
0.0
 10
1073.2731639784
 20
403.3764561203
 30
0.0
 10
1074.6225905813
 20
405.6517688201
 30
0.0
 10
1075.536743225
 20
407.5749470305
 30
0.0
 10
1075.7737664861
 20
408.8353511312
 30
0.0
 10
1075.7229193296
 20
409.3741736508
 30
0.0
  0
SPLINE
  5
5F7
100
AcDbEntity
  8
0
100
AcDbSpline
 62
9
  6
CONTINUOUS
 70
0
 71
3
 72
11
 73
7
 74
0
 42
0.0000001
 43
0.0000001
 44
0.0000000001
 40
0.0
 40
0.0
 40
0.0
 40
0.0
 40
0.2374349354
 40
0.5
 40
0.7625650646
 40
1.0
 40
1.0
 40
1.0
 40
1.0
 10
1058.055689446
 20
327.7331734481
 30
0.0
 10
1058.055689446
 20
327.8463405058
 30
0.0
 10
1057.9297716221
 20
328.0890253889
 30
0.0
 10
1057.555689446
 20
328.2062644176
 30
0.0
 10
1057.1816072699
 20
328.0890253889
 30
0.0
 10
1057.055689446
 20
327.8463405058
 30
0.0
 10
1057.055689446
 20
327.7331734481
 30
0.0
  0
SPLINE
  5
5F8
100
AcDbEntity
  8
0
100
AcDbSpline
 62
7
  6
CONTINUOUS
 70
0
 71
3
 72
13
 73
9
 74
0
 42
0.0000001
 43
0.0000001
 44
0.0000000001
 40
0.0
 40
0.0
 40
0.0
 40
0.0
 40
0.3529727088
 40
0.6418607788
 40
0.7606431115
 40
0.8600944579
 40
0.9391517269
 40
1.0
 40
1.0
 40
1.0
 40
1.0
 10
1107.8350806439
 20
311.6788790935
 30
0.0
 10
1110.8079736738
 20
310.673993824
 30
0.0
 10
1116.4029744654
 20
309.3295817455
 30
0.0
 10
1123.1813385812
 20
309.0208670348
 30
0.0
 10
1127.6866896562
 20
309.1281543127
 30
0.0
 10
1130.3324275356
 20
309.1614618305
 30
0.0
 10
1132.4540449666
 20
308.9866307348
 30
0.0
 10
1133.6650923861
 20
308.5648328411
 30
0.0
 10
1134.1061075348
 20
308.2515253715
 30
0.0
  0
SPLINE
  5
5F9
100
AcDbEntity
  8
0
100
AcDbSpline
 62
9
  6
CONTINUOUS
 70
0
 71
3
 72
11
 73
7
 74
0
 42
0.0000001
 43
0.0000001
 44
0.0000000001
 40
0.0
 40
0.0
 40
0.0
 40
0.0
 40
0.2374349354
 40
0.5
 40
0.7625650646
 40
1.0
 40
1.0
 40
1.0
 40
1.0
 10
1049.055689446
 20
335.4831734481
 30
0.0
 10
1049.055689446
 20
335.5963405058
 30
0.0
 10
1049.1816072699
 20
335.8390253889
 30
0.0
 10
1049.555689446
 20
335.9562644176
 30
0.0
 10
1049.9297716221
 20
335.8390253889
 30
0.0
 10
1050.055689446
 20
335.5963405058
 30
0.0
 10
1050.055689446
 20
335.4831734481
 30
0.0
  0
SPLINE
  5
5FA
100
AcDbEntity
  8
0
100
AcDbSpline
 62
7
  6
CONTINUOUS
 70
0
 71
3
 72
9
 73
5
 74
0
 42
0.0000001
 43
0.0000001
 44
0.0000000001
 40
0.0
 40
0.0
 40
0.0
 40
0.0
 40
0.2459072282
 40
1.0
 40
1.0
 40
1.0
 40
1.0
 10
1050.6179826842
 20
326.3350111122
 30
0.0
 10
1050.637283676
 20
326.3304374432
 30
0.0
 10
1050.6476230289
 20
326.4610344162
 30
0.0
 10
1050.6376053769
 20
326.5116060132
 30
0.0
 10
1050.6302021582
 20
326.5719808198
 30
0.0
  0
SPLINE
  5
5FB
100
AcDbEntity
  8
0
100
AcDbSpline
 62
9
  6
CONTINUOUS
 70
0
 71
3
 72
11
 73
7
 74
0
 42
0.0000001
 43
0.0000001
 44
0.0000000001
 40
0.0
 40
0.0
 40
0.0
 40
0.0
 40
0.2374349354
 40
0.5
 40
0.7625650646
 40
1.0
 40
1.0
 40
1.0
 40
1.0
 10
1049.055689446
 20
327.7331734481
 30
0.0
 10
1049.055689446
 20
327.8463405058
 30
0.0
 10
1049.1816072699
 20
328.0890253889
 30
0.0
 10
1049.555689446
 20
328.2062644176
 30
0.0
 10
1049.9297716221
 20
328.0890253889
 30
0.0
 10
1050.055689446
 20
327.8463405058
 30
0.0
 10
1050.055689446
 20
327.7331734481
 30
0.0
  0
SPLINE
  5
5FC
100
AcDbEntity
  8
0
100
AcDbSpline
 62
7
  6
CONTINUOUS
 70
0
 71
3
 72
13
 73
9
 74
0
 42
0.0000001
 43
0.0000001
 44
0.0000000001
 40
0.0
 40
0.0
 40
0.0
 40
0.0
 40
0.0608630798
 40
0.1399276412
 40
0.2393810099
 40
0.3581633393
 40
0.6470487207
 40
1.0
 40
1.0
 40
1.0
 40
1.0
 10
1111.9399276154
 20
269.8577906287
 30
0.0
 10
1111.4483934484
 20
270.0829036848
 30
0.0
 10
1110.4781417537
 20
270.9199860105
 30
0.0
 10
1109.2665373371
 20
272.6683689006
 30
0.0
 10
1107.9733804999
 20
274.9742018431
 30
0.0
 10
1105.8155603264
 20
278.9261154588
 30
0.0
 10
1102.1635907008
 20
284.6374587402
 30
0.0
 10
1098.2071133913
 20
288.8083221556
 30
0.0
 10
1095.8535270951
 20
290.879541209
 30
0.0
  0
SPLINE
  5
5FD
100
AcDbEntity
  8
0
100
AcDbSpline
 62
7
  6
CONTINUOUS
 70
0
 71
3
 72
9
 73
5
 74
0
 42
0.0000001
 43
0.0000001
 44
0.0000000001
 40
0.0
 40
0.0
 40
0.0
 40
0.0
 40
0.2131302557
 40
1.0
 40
1.0
 40
1.0
 40
1.0
 10
1056.5552162187
 20
327.210726023
 30
0.0
 10
1056.5540586041
 20
327.165039237
 30
0.0
 10
1056.540076966
 20
326.9508585699
 30
0.0
 10
1056.5017125439
 20
326.7394546729
 30
0.0
 10
1056.4811767339
 20
326.5719808198
 30
0.0
  0
SPLINE
  5
5FE
100
AcDbEntity
  8
0
100
AcDbSpline
 62
7
  6
CONTINUOUS
 70
0
 71
3
 72
9
 73
5
 74
0
 42
0.0000001
 43
0.0000001
 44
0.0000000001
 40
0.0
 40
0.0
 40
0.0
 40
0.0
 40
0.7541094663
 40
1.0
 40
1.0
 40
1.0
 40
1.0
 10
1056.4811767339
 20
326.5719808198
 30
0.0
 10
1056.4737732187
 20
326.5116035956
 30
0.0
 10
1056.4637474974
 20
326.461018053
 30
0.0
 10
1056.4740986605
 20
326.330442115
 30
0.0
 10
1056.493400197
 20
326.3350091808
 30
0.0
  0
SPLINE
  5
5FF
100
AcDbEntity
  8
0
100
AcDbSpline
 62
9
  6
CONTINUOUS
 70
0
 71
3
 72
11
 73
7
 74
0
 42
0.0000001
 43
0.0000001
 44
0.0000000001
 40
0.0
 40
0.0
 40
0.0
 40
0.0
 40
0.3195989538
 40
0.603860266
 40
0.8288638079
 40
1.0
 40
1.0
 40
1.0
 40
1.0
 10
1053.555689446
 20
321.6608186574
 30
0.0
 10
1053.9402608839
 20
321.6608186574
 30
0.0
 10
1054.66997134
 20
321.7282117375
 30
0.0
 10
1055.627800617
 20
322.0306569292
 30
0.0
 10
1056.3314396854
 20
322.4842428169
 30
0.0
 10
1056.555689446
 20
322.9548915395
 30
0.0
 10
1056.555689446
 20
323.1608186574
 30
0.0
  0
SPLINE
  5
600
100
AcDbEntity
  8
0
100
AcDbSpline
 62
7
  6
CONTINUOUS
 70
0
 71
3
 72
9
 73
5
 74
0
 42
0.0000001
 43
0.0000001
 44
0.0000000001
 40
0.0
 40
0.0
 40
0.0
 40
0.0
 40
0.261990846
 40
1.0
 40
1.0
 40
1.0
 40
1.0
 10
1050.6302021582
 20
326.5719808198
 30
0.0
 10
1050.6233642468
 20
326.6277454264
 30
0.0
 10
1050.5921529294
 20
326.8397901307
 30
0.0
 10
1050.5601409801
 20
327.052764336
 30
0.0
 10
1050.5561564176
 20
327.2109755589
 30
0.0
  0
SPLINE
  5
601
100
AcDbEntity
  8
0
100
AcDbSpline
 62
7
  6
CONTINUOUS
 70
0
 71
3
 72
13
 73
9
 74
0
 42
0.0000001
 43
0.0000001
 44
0.0000000001
 40
0.0
 40
0.0
 40
0.0
 40
0.0
 40
0.0608630798
 40
0.1399276412
 40
0.2393810099
 40
0.3581633393
 40
0.6470487207
 40
1.0
 40
1.0
 40
1.0
 40
1.0
 10
995.1714512766
 20
269.8577906287
 30
0.0
 10
995.6629854436
 20
270.0829036848
 30
0.0
 10
996.6332371383
 20
270.9199860105
 30
0.0
 10
997.844841555
 20
272.6683689006
 30
0.0
 10
999.1379983922
 20
274.9742018431
 30
0.0
 10
1001.2958185657
 20
278.9261154588
 30
0.0
 10
1004.9477881913
 20
284.6374587402
 30
0.0
 10
1008.9042655007
 20
288.8083221556
 30
0.0
 10
1011.257851797
 20
290.879541209
 30
0.0
  0
SPLINE
  5
602
100
AcDbEntity
  8
0
100
AcDbSpline
 62
7
  6
CONTINUOUS
 70
0
 71
3
 72
13
 73
9
 74
0
 42
0.0000001
 43
0.0000001
 44
0.0000000001
 40
0.0
 40
0.0
 40
0.0
 40
0.0
 40
0.3529727088
 40
0.6418607788
 40
0.7606431115
 40
0.8600944579
 40
0.9391517269
 40
1.0
 40
1.0
 40
1.0
 40
1.0
 10
999.2762982482
 20
311.6788790935
 30
0.0
 10
996.3034052182
 20
310.673993824
 30
0.0
 10
990.7084044266
 20
309.3295817455
 30
0.0
 10
983.9300403108
 20
309.0208670348
 30
0.0
 10
979.4246892358
 20
309.1281543127
 30
0.0
 10
976.7789513564
 20
309.1614618305
 30
0.0
 10
974.6573339254
 20
308.9866307348
 30
0.0
 10
973.446286506
 20
308.5648328411
 30
0.0
 10
973.0052713572
 20
308.2515253715
 30
0.0
  0
SPLINE
  5
603
100
AcDbEntity
  8
0
100
AcDbSpline
 62
7
  6
CONTINUOUS
 70
0
 71
3
 72
10
 73
6
 74
0
 42
0.0000001
 43
0.0000001
 44
0.0000000001
 40
0.0
 40
0.0
 40
0.0
 40
0.0
 40
0.5194721809
 40
0.7648603542
 40
1.0
 40
1.0
 40
1.0
 40
1.0
 10
1053.555689446
 20
342.1511997142
 30
0.0
 10
1054.3069149969
 20
342.1511997142
 30
0.0
 10
1055.4744924519
 20
341.7605065986
 30
0.0
 10
1056.3891354684
 20
340.5970518955
 30
0.0
 10
1056.555689446
 20
339.8931665628
 30
0.0
 10
1056.555689446
 20
339.5531235029
 30
0.0
  0
SPLINE
  5
604
100
AcDbEntity
  8
0
100
AcDbSpline
 62
9
  6
CONTINUOUS
 70
0
 71
3
 72
11
 73
7
 74
0
 42
0.0000001
 43
0.0000001
 44
0.0000000001
 40
0.0
 40
0.0
 40
0.0
 40
0.0
 40
0.2374349354
 40
0.5
 40
0.7625650646
 40
1.0
 40
1.0
 40
1.0
 40
1.0
 10
1058.055689446
 20
335.4831734481
 30
0.0
 10
1058.055689446
 20
335.5963405058
 30
0.0
 10
1057.9297716221
 20
335.8390253889
 30
0.0
 10
1057.555689446
 20
335.9562644176
 30
0.0
 10
1057.1816072699
 20
335.8390253889
 30
0.0
 10
1057.055689446
 20
335.5963405058
 30
0.0
 10
1057.055689446
 20
335.4831734481
 30
0.0
  0
SPLINE
  5
605
100
AcDbEntity
  8
0
100
AcDbSpline
 62
7
  6
CONTINUOUS
 70
0
 71
3
 72
18
 73
14
 74
0
 42
0.0000001
 43
0.0000001
 44
0.0000000001
 40
0.0
 40
0.0
 40
0.0
 40
0.0
 40
0.362970804
 40
0.5289211154
 40
0.6778444896
 40
0.7441220831
 40
0.8039219212
 40
0.8564973267
 40
0.9011858553
 40
0.9374826341
 40
0.9651675405
 40
0.9849370504
 40
1.0
 40
1.0
 40
1.0
 40
1.0
 10
1011.257851797
 20
290.879541209
 30
0.0
 10
1008.4261536199
 20
288.6091828996
 30
0.0
 10
1004.3095128319
 20
285.2882267896
 30
0.0
 10
999.1095998651
 20
280.9403107248
 30
0.0
 10
996.2349494752
 20
278.4370235297
 30
0.0
 10
994.2117003184
 20
276.5744266759
 30
0.0
 10
992.9278043659
 20
275.3320554004
 30
0.0
 10
991.836968311
 20
274.2012441319
 30
0.0
 10
990.9596565936
 20
273.1940750014
 30
0.0
 10
990.3078464036
 20
272.3205424631
 30
0.0
 10
989.9024387635
 20
271.587513976
 30
0.0
 10
989.7237049753
 20
270.9704267593
 30
0.0
 10
989.8460589756
 20
270.6088964637
 30
0.0
 10
989.9481679916
 20
270.498171584
 30
0.0
  0
SPLINE
  5
606
100
AcDbEntity
  8
0
100
AcDbSpline
 62
7
  6
CONTINUOUS
 70
0
 71
3
 72
18
 73
14
 74
0
 42
0.0000001
 43
0.0000001
 44
0.0000000001
 40
0.0
 40
0.0
 40
0.0
 40
0.0
 40
0.0150544013
 40
0.0348223735
 40
0.0625191186
 40
0.0988070701
 40
0.1435073686
 40
0.1960901743
 40
0.2558916144
 40
0.3221694472
 40
0.4711150243
 40
0.6370434491
 40
1.0
 40
1.0
 40
1.0
 40
1.0
 10
970.9473156509
 20
303.4061444768
 30
0.0
 10
970.992158805
 20
303.2623119519
 30
0.0
 10
971.243851015
 20
302.9751057343
 30
0.0
 10
971.8685080524
 20
302.8217303749
 30
0.0
 10
972.7066177318
 20
302.8064580092
 30
0.0
 10
973.7901825158
 20
302.9338289806
 30
0.0
 10
975.1021878345
 20
303.1907297686
 30
0.0
 10
976.6283674193
 20
303.570500659
 30
0.0
 10
978.3477514244
 20
304.0617345383
 30
0.0
 10
980.9748383914
 20
304.8834951472
 30
0.0
 10
984.582948275
 20
306.1229129655
 30
0.0
 10
990.9533902349
 20
308.4545269661
 30
0.0
 10
995.891569454
 20
310.3606199042
 30
0.0
 10
999.2762895557
 20
311.6789061997
 30
0.0
  0
SPLINE
  5
607
100
AcDbEntity
  8
0
100
AcDbSpline
 62
7
  6
CONTINUOUS
 70
0
 71
3
 72
18
 73
14
 74
0
 42
0.0000001
 43
0.0000001
 44
0.0000000001
 40
0.0
 40
0.0
 40
0.0
 40
0.0
 40
0.0150544013
 40
0.0348223735
 40
0.0625191186
 40
0.0988070701
 40
0.1435073686
 40
0.1960901743
 40
0.2558916144
 40
0.3221694472
 40
0.4711150243
 40
0.6370434491
 40
1.0
 40
1.0
 40
1.0
 40
1.0
 10
1136.1640632411
 20
303.4061444768
 30
0.0
 10
1136.119220087
 20
303.2623119519
 30
0.0
 10
1135.867527877
 20
302.9751057343
 30
0.0
 10
1135.2428708397
 20
302.8217303749
 30
0.0
 10
1134.4047611603
 20
302.8064580092
 30
0.0
 10
1133.3211963762
 20
302.9338289806
 30
0.0
 10
1132.0091910576
 20
303.1907297686
 30
0.0
 10
1130.4830114727
 20
303.570500659
 30
0.0
 10
1128.7636274676
 20
304.0617345383
 30
0.0
 10
1126.1365405006
 20
304.8834951472
 30
0.0
 10
1122.5284306171
 20
306.1229129655
 30
0.0
 10
1116.1579886572
 20
308.4545269661
 30
0.0
 10
1111.2198094381
 20
310.3606199042
 30
0.0
 10
1107.8350893363
 20
311.6789061997
 30
0.0
  0
SPLINE
  5
608
100
AcDbEntity
  8
0
100
AcDbSpline
 62
7
  6
CONTINUOUS
 70
0
 71
3
 72
18
 73
14
 74
0
 42
0.0000001
 43
0.0000001
 44
0.0000000001
 40
0.0
 40
0.0
 40
0.0
 40
0.0
 40
0.362970804
 40
0.5289211154
 40
0.6778444896
 40
0.7441220831
 40
0.8039219212
 40
0.8564973267
 40
0.9011858553
 40
0.9374826341
 40
0.9651675405
 40
0.9849370504
 40
1.0
 40
1.0
 40
1.0
 40
1.0
 10
1095.8535270951
 20
290.879541209
 30
0.0
 10
1098.6852252722
 20
288.6091828996
 30
0.0
 10
1102.8018660602
 20
285.2882267896
 30
0.0
 10
1108.0017790269
 20
280.9403107248
 30
0.0
 10
1110.8764294169
 20
278.4370235297
 30
0.0
 10
1112.8996785737
 20
276.5744266759
 30
0.0
 10
1114.1835745262
 20
275.3320554004
 30
0.0
 10
1115.274410581
 20
274.2012441319
 30
0.0
 10
1116.1517222985
 20
273.1940750014
 30
0.0
 10
1116.8035324884
 20
272.3205424631
 30
0.0
 10
1117.2089401285
 20
271.587513976
 30
0.0
 10
1117.3876739168
 20
270.9704267593
 30
0.0
 10
1117.2653199164
 20
270.6088964637
 30
0.0
 10
1117.1632109005
 20
270.498171584
 30
0.0
  0
SPLINE
  5
609
100
AcDbEntity
  8
6_ALL_SURFS
100
AcDbSpline
 62
7
  6
CONTINUOUS
 70
0
 71
3
 72
18
 73
14
 74
0
 42
0.0000001
 43
0.0000001
 44
0.0000000001
 40
0.0
 40
0.0
 40
0.0
 40
0.0
 40
0.3629713987
 40
0.5289219806
 40
0.6778456017
 40
0.7441233043
 40
0.803923242
 40
0.8564987479
 40
0.9011873825
 40
0.9374842045
 40
0.9651688647
 40
0.9849376529
 40
1.0
 40
1.0
 40
1.0
 40
1.0
 10
1041.5520495109
 20
384.9324593109
 30
0.0
 10
1041.0017106373
 20
388.519960961
 30
0.0
 10
1040.1839999321
 20
393.7455546254
 30
0.0
 10
1039.0185476043
 20
400.4227687598
 30
0.0
 10
1038.2879640413
 20
404.1639328129
 30
0.0
 10
1037.68653632
 20
406.8474172919
 30
0.0
 10
1037.2525598199
 20
408.5804897358
 30
0.0
 10
1036.818660995
 20
410.0905862108
 30
0.0
 10
1036.3850731214
 20
411.3539417185
 30
0.0
 10
1035.9544760586
 20
412.3551892339
 30
0.0
 10
1035.5223843445
 20
413.0727951884
 30
0.0
 10
1035.0773807266
 20
413.5361472157
 30
0.0
 10
1034.703121143
 20
413.6109534904
 30
0.0
 10
1034.5561821683
 20
413.5778884357
 30
0.0
  0
SPLINE
  5
60A
100
AcDbEntity
  8
6_ALL_SURFS
100
AcDbSpline
 62
7
  6
CONTINUOUS
 70
0
 71
3
 72
18
 73
14
 74
0
 42
0.0000001
 43
0.0000001
 44
0.0000000001
 40
0.0
 40
0.0
 40
0.0
 40
0.0
 40
0.0150579303
 40
0.0348251482
 40
0.0625218099
 40
0.0988106116
 40
0.1435096318
 40
0.1960994097
 40
0.2558983987
 40
0.3221736398
 40
0.471121768
 40
0.6370558331
 40
1.0
 40
1.0
 40
1.0
 40
1.0
 10
1072.5556787727
 20
413.5791049988
 30
0.0
 10
1072.4086603963
 20
413.6121936514
 30
0.0
 10
1072.0341041515
 20
413.5376364703
 30
0.0
 10
1071.588731294
 20
413.0736142578
 30
0.0
 10
1071.1568227762
 20
412.3551158684
 30
0.0
 10
1070.7255147378
 20
411.353029492
 30
0.0
 10
1070.2917108652
 20
410.0883681128
 30
0.0
 10
1069.8573397836
 20
408.5767930786
 30
0.0
 10
1069.4229108355
 20
406.8421663431
 30
0.0
 10
1068.8212741014
 20
404.1561367468
 30
0.0
 10
1068.0908338148
 20
400.4116189941
 30
0.0
 10
1066.9245965093
 20
393.7289481055
 30
0.0
 10
1066.1062797706
 20
388.499381669
 30
0.0
 10
1065.5556088105
 20
384.9091141554
 30
0.0
  0
SPLINE
  5
60B
100
AcDbEntity
  8
0
100
AcDbSpline
 62
7
  6
CONTINUOUS
 70
0
 71
3
 72
10
 73
6
 74
0
 42
0.0000001
 43
0.0000001
 44
0.0000000001
 40
0.0
 40
0.0
 40
0.0
 40
0.0
 40
0.4125347595
 40
0.7148184418
 40
1.0
 40
1.0
 40
1.0
 40
1.0
 10
1199.5294853919
 20
722.2870258169
 30
0.0
 10
1199.7475804498
 20
722.418516751
 30
0.0
 10
1200.2699625067
 20
722.0974949165
 30
0.0
 10
1200.5869727281
 20
721.6096138525
 30
0.0
 10
1200.7145401725
 20
721.2532923562
 30
0.0
 10
1200.7327061591
 20
721.0781830587
 30
0.0
  0
SPLINE
  5
60C
100
AcDbEntity
  8
0
100
AcDbSpline
 62
7
  6
CONTINUOUS
 70
0
 71
3
 72
8
 73
4
 74
0
 42
0.0000001
 43
0.0000001
 44
0.0000000001
 40
0.0
 40
0.0
 40
0.0
 40
0.0
 40
1.0
 40
1.0
 40
1.0
 40
1.0
 10
1169.4957539406
 20
708.4741586367
 30
0.0
 10
1169.6561597556
 20
708.510669296
 30
0.0
 10
1169.8302843164
 20
708.5012636526
 30
0.0
 10
1169.9890166662
 20
708.4580537593
 30
0.0
  0
SPLINE
  5
60D
100
AcDbEntity
  8
0
100
AcDbSpline
 62
7
  6
CONTINUOUS
 70
0
 71
3
 72
8
 73
4
 74
0
 42
0.0000001
 43
0.0000001
 44
0.0000000001
 40
0.0
 40
0.0
 40
0.0
 40
0.0
 40
1.0
 40
1.0
 40
1.0
 40
1.0
 10
1169.9890166662
 20
708.4580537593
 30
0.0
 10
1170.0649485703
 20
708.4373836849
 30
0.0
 10
1170.1389799972
 20
708.4085722925
 30
0.0
 10
1170.2094861267
 20
708.3736181547
 30
0.0
  0
SPLINE
  5
60E
100
AcDbEntity
  8
0
100
AcDbSpline
 62
7
  6
CONTINUOUS
 70
0
 71
3
 72
9
 73
5
 74
0
 42
0.0000001
 43
0.0000001
 44
0.0000000001
 40
0.0
 40
0.0
 40
0.0
 40
0.0
 40
0.2346765784
 40
1.0
 40
1.0
 40
1.0
 40
1.0
 10
1170.2094861267
 20
708.3736181547
 30
0.0
 10
1170.2744427032
 20
708.3414152648
 30
0.0
 10
1170.5398394739
 20
708.1812341666
 30
0.0
 10
1170.760890983
 20
707.9563972455
 30
0.0
 10
1170.9084721978
 20
707.7716728736
 30
0.0
  0
SPLINE
  5
60F
100
AcDbEntity
  8
0
100
AcDbSpline
 62
7
  6
CONTINUOUS
 70
0
 71
3
 72
9
 73
5
 74
0
 42
0.0000001
 43
0.0000001
 44
0.0000000001
 40
0.0
 40
0.0
 40
0.0
 40
0.0
 40
0.2953492765
 40
1.0
 40
1.0
 40
1.0
 40
1.0
 10
1169.713083037
 20
707.497722267
 30
0.0
 10
1169.7385512102
 20
707.4923659345
 30
0.0
 10
1169.816857072
 20
707.4477816266
 30
0.0
 10
1169.887909854
 20
707.3964615768
 30
0.0
 10
1169.9343961724
 20
707.3552982978
 30
0.0
  0
SPLINE
  5
610
100
AcDbEntity
  8
0
100
AcDbSpline
 62
7
  6
CONTINUOUS
 70
0
 71
3
 72
9
 73
5
 74
0
 42
0.0000001
 43
0.0000001
 44
0.0000000001
 40
0.0
 40
0.0
 40
0.0
 40
0.0
 40
0.2689172447
 40
1.0
 40
1.0
 40
1.0
 40
1.0
 10
985.3279542432
 20
603.8558765384
 30
0.0
 10
985.389283505
 20
603.8244408275
 30
0.0
 10
985.6211673123
 20
603.7156999234
 30
0.0
 10
985.8706599693
 20
603.6403374273
 30
0.0
 10
986.0565418991
 20
603.6168697636
 30
0.0
  0
SPLINE
  5
611
100
AcDbEntity
  8
0
100
AcDbSpline
 62
7
  6
CONTINUOUS
 70
0
 71
3
 72
9
 73
5
 74
0
 42
0.0000001
 43
0.0000001
 44
0.0000000001
 40
0.0
 40
0.0
 40
0.0
 40
0.0
 40
0.2669110033
 40
1.0
 40
1.0
 40
1.0
 40
1.0
 10
986.0565418991
 20
603.6168697636
 30
0.0
 10
986.1126126944
 20
603.6097908046
 30
0.0
 10
986.3236479984
 20
603.5939878096
 30
0.0
 10
986.540249084
 20
603.6275477564
 30
0.0
 10
986.6843483031
 20
603.6852549321
 30
0.0
  0
SPLINE
  5
612
100
AcDbEntity
  8
0
100
AcDbSpline
 62
7
  6
CONTINUOUS
 70
0
 71
3
 72
9
 73
5
 74
0
 42
0.0000001
 43
0.0000001
 44
0.0000000001
 40
0.0
 40
0.0
 40
0.0
 40
0.0
 40
0.2619152642
 40
1.0
 40
1.0
 40
1.0
 40
1.0
 10
984.3577993842
 20
610.6169873502
 30
0.0
 10
984.3094521079
 20
610.6366006711
 30
0.0
 10
984.1231327268
 20
610.7070211853
 30
0.0
 10
983.9294336561
 20
610.7589495419
 30
0.0
 10
983.7843622458
 20
610.7828574818
 30
0.0
  0
SPLINE
  5
613
100
AcDbEntity
  8
0
100
AcDbSpline
 62
7
  6
CONTINUOUS
 70
0
 71
3
 72
9
 73
5
 74
0
 42
0.0000001
 43
0.0000001
 44
0.0000000001
 40
0.0
 40
0.0
 40
0.0
 40
0.0
 40
0.2724405122
 40
1.0
 40
1.0
 40
1.0
 40
1.0
 10
983.7843622458
 20
610.7828574818
 30
0.0
 10
983.6853212742
 20
610.799179551
 30
0.0
 10
983.3191875261
 20
610.8358406906
 30
0.0
 10
982.9347493719
 20
610.7500525058
 30
0.0
 10
982.7051222382
 20
610.6117517862
 30
0.0
  0
SPLINE
  5
614
100
AcDbEntity
  8
0
100
AcDbSpline
 62
7
  6
CONTINUOUS
 70
0
 71
3
 72
9
 73
5
 74
0
 42
0.0000001
 43
0.0000001
 44
0.0000000001
 40
0.0
 40
0.0
 40
0.0
 40
0.0
 40
0.5521938778
 40
1.0
 40
1.0
 40
1.0
 40
1.0
 10
989.9633474468
 20
599.1047086549
 30
0.0
 10
989.781050824
 20
599.1981489436
 30
0.0
 10
989.4224851563
 20
599.3296108926
 30
0.0
 10
989.0306353593
 20
599.259675914
 30
0.0
 10
988.8883902744
 20
599.1738649038
 30
0.0
  0
SPLINE
  5
615
100
AcDbEntity
  8
0
100
AcDbSpline
 62
7
  6
CONTINUOUS
 70
0
 71
3
 72
9
 73
5
 74
0
 42
0.0000001
 43
0.0000001
 44
0.0000000001
 40
0.0
 40
0.0
 40
0.0
 40
0.0
 40
0.2959994637
 40
1.0
 40
1.0
 40
1.0
 40
1.0
 10
981.139011176
 20
615.3931017645
 30
0.0
 10
981.1970161754
 20
615.36336998
 30
0.0
 10
981.3967412991
 20
615.2766466909
 30
0.0
 10
981.6511800628
 20
615.2716367762
 30
0.0
 10
981.7839927205
 20
615.3515972411
 30
0.0
  0
SPLINE
  5
616
100
AcDbEntity
  8
0
100
AcDbSpline
 62
7
  6
CONTINUOUS
 70
0
 71
3
 72
9
 73
5
 74
0
 42
0.0000001
 43
0.0000001
 44
0.0000000001
 40
0.0
 40
0.0
 40
0.0
 40
0.0
 40
0.5521938778
 40
1.0
 40
1.0
 40
1.0
 40
1.0
 10
980.8380312128
 20
618.2943694451
 30
0.0
 10
980.6921939147
 20
618.3691216761
 30
0.0
 10
980.4053413804
 20
618.4742912353
 30
0.0
 10
980.0918615429
 20
618.4183432524
 30
0.0
 10
979.9780654749
 20
618.3496944442
 30
0.0
  0
SPLINE
  5
617
100
AcDbEntity
  8
0
100
AcDbSpline
 62
7
  6
CONTINUOUS
 70
0
 71
3
 72
10
 73
6
 74
0
 42
0.0000001
 43
0.0000001
 44
0.0000000001
 40
0.0
 40
0.0
 40
0.0
 40
0.0
 40
0.5492994874
 40
0.7824570354
 40
1.0
 40
1.0
 40
1.0
 40
1.0
 10
1064.9622614033
 20
567.5504154049
 30
0.0
 10
1064.4153490449
 20
567.830747799
 30
0.0
 10
1063.5566115443
 20
568.1330691061
 30
0.0
 10
1062.425945426
 20
568.0703797572
 30
0.0
 10
1061.945944064
 20
567.883364787
 30
0.0
 10
1061.737410289
 20
567.7578495974
 30
0.0
  0
SPLINE
  5
618
100
AcDbEntity
  8
0
100
AcDbSpline
 62
7
  6
CONTINUOUS
 70
0
 71
3
 72
12
 73
8
 74
0
 42
0.0000001
 43
0.0000001
 44
0.0000000001
 40
0.0
 40
0.0
 40
0.0
 40
0.0
 40
0.2995672274
 40
0.5619314179
 40
0.7908192408
 40
0.8968029339
 40
1.0
 40
1.0
 40
1.0
 40
1.0
 10
961.2688535763
 20
643.9054731125
 30
0.0
 10
960.7694165709
 20
648.7197485456
 30
0.0
 10
960.5264504502
 20
657.8550962497
 30
0.0
 10
962.824716387
 20
670.5339752498
 30
0.0
 10
967.168431937
 20
679.3599622723
 30
0.0
 10
971.9349013219
 20
684.6440091439
 30
0.0
 10
974.6619415861
 20
686.6845804983
 30
0.0
 10
976.0902319536
 20
687.5448504507
 30
0.0
  0
SPLINE
  5
619
100
AcDbEntity
  8
0
100
AcDbSpline
 62
7
  6
CONTINUOUS
 70
0
 71
3
 72
11
 73
7
 74
0
 42
0.0000001
 43
0.0000001
 44
0.0000000001
 40
0.0
 40
0.0
 40
0.0
 40
0.0
 40
0.2897757746
 40
0.4892755527
 40
0.6733883073
 40
1.0
 40
1.0
 40
1.0
 40
1.0
 10
1178.7957681881
 20
665.4480736189
 30
0.0
 10
1179.0509394028
 20
662.9883750184
 30
0.0
 10
1179.2313043107
 20
658.8008245487
 30
0.0
 10
1178.6978351482
 20
653.0614271284
 30
0.0
 10
1177.3405838291
 20
647.1492268347
 30
0.0
 10
1175.3657117599
 20
643.1194753192
 30
0.0
 10
1173.6138685858
 20
640.9515703326
 30
0.0
  0
SPLINE
  5
61A
100
AcDbEntity
  8
0
100
AcDbSpline
 62
7
  6
CONTINUOUS
 70
0
 71
3
 72
12
 73
8
 74
0
 42
0.0000001
 43
0.0000001
 44
0.0000000001
 40
0.0
 40
0.0
 40
0.0
 40
0.0
 40
0.1755846192
 40
0.2835393513
 40
0.4071116721
 40
0.691959802
 40
1.0
 40
1.0
 40
1.0
 40
1.0
 10
1191.2846114461
 20
719.6553136662
 30
0.0
 10
1191.498069164
 20
719.7838909022
 30
0.0
 10
1191.942682591
 20
719.8222503802
 30
0.0
 10
1192.4883009543
 20
719.6322175079
 30
0.0
 10
1193.1246184962
 20
719.2580750104
 30
0.0
 10
1193.8549722272
 20
718.5309611176
 30
0.0
 10
1194.3038353783
 20
717.8098361737
 30
0.0
 10
1194.4890367383
 20
717.4138297388
 30
0.0
  0
SPLINE
  5
61B
100
AcDbEntity
  8
0
100
AcDbSpline
 62
7
  6
CONTINUOUS
 70
0
 71
3
 72
18
 73
14
 74
0
 42
0.0000001
 43
0.0000001
 44
0.0000000001
 40
0.0
 40
0.0
 40
0.0
 40
0.0
 40
0.1328025638
 40
0.2777629577
 40
0.4270322543
 40
0.5720735075
 40
0.7050251988
 40
0.7651640942
 40
0.8204531802
 40
0.8708742916
 40
0.9168597767
 40
0.9593887783
 40
1.0
 40
1.0
 40
1.0
 40
1.0
 10
961.2688535763
 20
643.9054731125
 30
0.0
 10
962.0231888683
 20
636.6341299315
 30
0.0
 10
965.3585281832
 20
621.5930109538
 30
0.0
 10
974.3037216256
 20
599.7602123308
 30
0.0
 10
986.8149866917
 20
578.9542302961
 30
0.0
 10
1001.9166789372
 20
560.8063884809
 30
0.0
 10
1016.171614449
 20
548.633077573
 30
0.0
 10
1027.9281079459
 20
541.5947051042
 30
0.0
 10
1036.3246897159
 20
537.9350690306
 30
0.0
 10
1044.4363626804
 20
535.7949352208
 30
0.0
 10
1052.1177684764
 20
535.2380584219
 30
0.0
 10
1059.21031749
 20
536.3112052349
 30
0.0
 10
1063.4706750224
 20
538.1482018354
 30
0.0
 10
1065.385666126
 20
539.301615275
 30
0.0
  0
SPLINE
  5
61C
100
AcDbEntity
  8
0
100
AcDbSpline
 62
7
  6
CONTINUOUS
 70
0
 71
3
 72
14
 73
10
 74
0
 42
0.0000001
 43
0.0000001
 44
0.0000000001
 40
0.0
 40
0.0
 40
0.0
 40
0.0
 40
0.2773446694
 40
0.4269734855
 40
0.572364057
 40
0.7056359999
 40
0.8210990679
 40
0.9173183834
 40
1.0
 40
1.0
 40
1.0
 40
1.0
 10
1023.3914697389
 20
667.244447044
 30
0.0
 10
1023.500442485
 20
666.1940146394
 30
0.0
 10
1024.0390476291
 20
664.6115067233
 30
0.0
 10
1025.1620306148
 20
662.7416541937
 30
0.0
 10
1026.2104435214
 20
661.4818415915
 30
0.0
 10
1027.3584340837
 20
660.5018246369
 30
0.0
 10
1028.5265943434
 20
659.8739591027
 30
0.0
 10
1029.6490876481
 20
659.6467421805
 30
0.0
 10
1030.3412746353
 20
659.8287217523
 30
0.0
 10
1030.6109426297
 20
659.9912015036
 30
0.0
  0
SPLINE
  5
61D
100
AcDbEntity
  8
0
100
AcDbSpline
 62
7
  6
CONTINUOUS
 70
0
 71
3
 72
14
 73
10
 74
0
 42
0.0000001
 43
0.0000001
 44
0.0000000001
 40
0.0
 40
0.0
 40
0.0
 40
0.0
 40
0.2773446694
 40
0.4269734855
 40
0.572364057
 40
0.7056359999
 40
0.8210990679
 40
0.9173183834
 40
1.0
 40
1.0
 40
1.0
 40
1.0
 10
1066.5557301888
 20
574.9485540694
 30
0.0
 10
1066.664702935
 20
573.8981216648
 30
0.0
 10
1067.203308079
 20
572.3156137487
 30
0.0
 10
1068.3262910647
 20
570.4457612191
 30
0.0
 10
1069.3747039713
 20
569.1859486169
 30
0.0
 10
1070.5226945337
 20
568.2059316623
 30
0.0
 10
1071.6908547933
 20
567.5780661281
 30
0.0
 10
1072.8133480981
 20
567.3508492059
 30
0.0
 10
1073.5055350853
 20
567.5328287777
 30
0.0
 10
1073.7752030796
 20
567.695308529
 30
0.0
  0
SPLINE
  5
61E
100
AcDbEntity
  8
0
100
AcDbSpline
 62
7
  6
CONTINUOUS
 70
0
 71
3
 72
14
 73
10
 74
0
 42
0.0000001
 43
0.0000001
 44
0.0000000001
 40
0.0
 40
0.0
 40
0.0
 40
0.0
 40
0.2773446694
 40
0.4269734855
 40
0.572364057
 40
0.7056359999
 40
0.8210990679
 40
0.9173183834
 40
1.0
 40
1.0
 40
1.0
 40
1.0
 10
1009.5487214765
 20
563.6555109205
 30
0.0
 10
1009.6576942227
 20
562.6050785159
 30
0.0
 10
1010.1962993667
 20
561.0225705997
 30
0.0
 10
1011.3192823524
 20
559.1527180701
 30
0.0
 10
1012.367695259
 20
557.892905468
 30
0.0
 10
1013.5156858214
 20
556.9128885134
 30
0.0
 10
1014.683846081
 20
556.2850229792
 30
0.0
 10
1015.8063393858
 20
556.057806057
 30
0.0
 10
1016.498526373
 20
556.2397856287
 30
0.0
 10
1016.7681943673
 20
556.4022653801
 30
0.0
  0
SPLINE
  5
61F
100
AcDbEntity
  8
0
100
AcDbSpline
 62
7
  6
CONTINUOUS
 70
0
 71
3
 72
14
 73
10
 74
0
 42
0.0000001
 43
0.0000001
 44
0.0000000001
 40
0.0
 40
0.0
 40
0.0
 40
0.0
 40
0.2773446694
 40
0.4269734855
 40
0.572364057
 40
0.7056359999
 40
0.8210990679
 40
0.9173183834
 40
1.0
 40
1.0
 40
1.0
 40
1.0
 10
966.3844610266
 20
655.9514038951
 30
0.0
 10
966.4934337727
 20
654.9009714905
 30
0.0
 10
967.0320389168
 20
653.3184635743
 30
0.0
 10
968.1550219025
 20
651.4486110447
 30
0.0
 10
969.2034348091
 20
650.1887984426
 30
0.0
 10
970.3514253714
 20
649.208781488
 30
0.0
 10
971.5195856311
 20
648.5809159538
 30
0.0
 10
972.6420789358
 20
648.3536990316
 30
0.0
 10
973.3342659231
 20
648.5356786033
 30
0.0
 10
973.6039339174
 20
648.6981583547
 30
0.0
  0
SPLINE
  5
620
100
AcDbEntity
  8
0
100
AcDbSpline
 62
7
  6
CONTINUOUS
 70
0
 71
3
 72
9
 73
5
 74
0
 42
0.0000001
 43
0.0000001
 44
0.0000000001
 40
0.0
 40
0.0
 40
0.0
 40
0.0
 40
0.264720812
 40
1.0
 40
1.0
 40
1.0
 40
1.0
 10
1170.903232248
 20
707.7827101448
 30
0.0
 10
1171.3946815863
 20
708.0134042952
 30
0.0
 10
1173.2408116692
 20
708.9063375847
 30
0.0
 10
1175.0508421744
 20
709.8769865965
 30
0.0
 10
1176.3425485351
 20
710.6550556939
 30
0.0
  0
LINE
  5
621
100
AcDbEntity
  8
0
100
AcDbLine
 62
7
  6
CONTINUOUS
 10
1169.8080354892
 20
707.2798554135
 11
1169.8531289115
 21
707.3001167812
  0
LINE
  5
622
100
AcDbEntity
  8
0
100
AcDbLine
 62
7
  6
CONTINUOUS
 10
1169.8531289115
 20
707.3001167812
 11
1169.9632948011
 21
707.3497762359
  0
SPLINE
  5
623
100
AcDbEntity
  8
0
100
AcDbSpline
 62
7
  6
CONTINUOUS
 70
0
 71
3
 72
9
 73
5
 74
0
 42
0.0000001
 43
0.0000001
 44
0.0000000001
 40
0.0
 40
0.0
 40
0.0
 40
0.0
 40
0.2616499731
 40
1.0
 40
1.0
 40
1.0
 40
1.0
 10
1175.6518750823
 20
703.4267226651
 30
0.0
 10
1175.9879903643
 20
703.5979248908
 30
0.0
 10
1177.267404512
 20
704.2622775233
 30
0.0
 10
1178.526632193
 20
704.966224489
 30
0.0
 10
1179.4384279597
 20
705.5154515663
 30
0.0
  0
SPLINE
  5
624
100
AcDbEntity
  8
0
100
AcDbSpline
 62
7
  6
CONTINUOUS
 70
0
 71
3
 72
9
 73
5
 74
0
 42
0.0000001
 43
0.0000001
 44
0.0000000001
 40
0.0
 40
0.0
 40
0.0
 40
0.0
 40
0.1884025164
 40
1.0
 40
1.0
 40
1.0
 40
1.0
 10
1170.9306958577
 20
705.0034190697
 30
0.0
 10
1170.8586585681
 20
704.9369598487
 30
0.0
 10
1170.4658322089
 20
704.5956140582
 30
0.0
 10
1170.045493181
 20
704.287289302
 30
0.0
 10
1169.6991267871
 20
704.0458505977
 30
0.0
  0
SPLINE
  5
625
100
AcDbEntity
  8
0
100
AcDbSpline
 62
7
  6
CONTINUOUS
 70
0
 71
3
 72
9
 73
5
 74
0
 42
0.0000001
 43
0.0000001
 44
0.0000000001
 40
0.0
 40
0.0
 40
0.0
 40
0.0
 40
0.2172749841
 40
1.0
 40
1.0
 40
1.0
 40
1.0
 10
1169.6991267871
 20
704.0458505977
 30
0.0
 10
1169.4843018441
 20
703.8961043844
 30
0.0
 10
1168.483353631
 20
703.2244528715
 30
0.0
 10
1167.4440551427
 20
702.6114445641
 30
0.0
 10
1166.6204150109
 20
702.1515008851
 30
0.0
  0
SPLINE
  5
626
100
AcDbEntity
  8
0
100
AcDbSpline
 62
7
  6
CONTINUOUS
 70
0
 71
3
 72
9
 73
5
 74
0
 42
0.0000001
 43
0.0000001
 44
0.0000000001
 40
0.0
 40
0.0
 40
0.0
 40
0.0
 40
0.4821650192
 40
1.0
 40
1.0
 40
1.0
 40
1.0
 10
1174.9991478423
 20
700.5934942118
 30
0.0
 10
1175.3943250435
 20
700.9577784281
 30
0.0
 10
1175.9425938843
 20
702.0414776818
 30
0.0
 10
1175.7260459381
 20
703.21149785
 30
0.0
 10
1175.4815138897
 20
703.7343680101
 30
0.0
  0
SPLINE
  5
627
100
AcDbEntity
  8
0
100
AcDbSpline
 62
7
  6
CONTINUOUS
 70
0
 71
3
 72
9
 73
5
 74
0
 42
0.0000001
 43
0.0000001
 44
0.0000000001
 40
0.0
 40
0.0
 40
0.0
 40
0.0
 40
0.2316883938
 40
1.0
 40
1.0
 40
1.0
 40
1.0
 10
1174.9991619799
 20
700.5934776401
 30
0.0
 10
1174.9102950841
 20
700.5114919809
 30
0.0
 10
1174.5206692374
 20
700.1642022085
 30
0.0
 10
1174.1108708047
 20
699.8400540027
 30
0.0
 10
1173.7898914926
 20
699.5997746384
 30
0.0
  0
SPLINE
  5
628
100
AcDbEntity
  8
0
100
AcDbSpline
 62
7
  6
CONTINUOUS
 70
0
 71
3
 72
9
 73
5
 74
0
 42
0.0000001
 43
0.0000001
 44
0.0000000001
 40
0.0
 40
0.0
 40
0.0
 40
0.0
 40
0.222693165
 40
1.0
 40
1.0
 40
1.0
 40
1.0
 10
1173.7898914926
 20
699.5997746384
 30
0.0
 10
1173.4917993265
 20
699.3766281818
 30
0.0
 10
1172.1273031919
 20
698.4092250882
 30
0.0
 10
1170.6882091069
 20
697.5514434855
 30
0.0
 10
1169.5535923919
 20
696.9174689036
 30
0.0
  0
SPLINE
  5
629
100
AcDbEntity
  8
0
100
AcDbSpline
 62
7
  6
CONTINUOUS
 70
0
 71
3
 72
9
 73
5
 74
0
 42
0.0000001
 43
0.0000001
 44
0.0000000001
 40
0.0
 40
0.0
 40
0.0
 40
0.0
 40
0.2949052024
 40
1.0
 40
1.0
 40
1.0
 40
1.0
 10
1047.2311334707
 20
550.6475660891
 30
0.0
 10
1047.2402127151
 20
550.5600475779
 30
0.0
 10
1047.3195911891
 20
550.2947928399
 30
0.0
 10
1047.6523569692
 20
549.9349193646
 30
0.0
 10
1047.832755884
 20
550.0431456357
 30
0.0
  0
SPLINE
  5
62A
100
AcDbEntity
  8
0
100
AcDbSpline
 62
7
  6
CONTINUOUS
 70
0
 71
3
 72
9
 73
5
 74
0
 42
0.0000001
 43
0.0000001
 44
0.0000000001
 40
0.0
 40
0.0
 40
0.0
 40
0.0
 40
0.245142815
 40
1.0
 40
1.0
 40
1.0
 40
1.0
 10
992.3356429535
 20
696.1933721197
 30
0.0
 10
996.9048096774
 20
698.5438637395
 30
0.0
 10
1015.8995288353
 20
707.4475769424
 30
0.0
 10
1035.9468378317
 20
713.9035634974
 30
0.0
 10
1051.2080977231
 20
718.0789196257
 30
0.0
  0
SPLINE
  5
62B
100
AcDbEntity
  8
0
100
AcDbSpline
 62
7
  6
CONTINUOUS
 70
0
 71
3
 72
15
 73
11
 74
0
 42
0.0000001
 43
0.0000001
 44
0.0000000001
 40
0.0
 40
0.0
 40
0.0
 40
0.0
 40
0.0830078648
 40
0.1809724572
 40
0.2994869756
 40
0.4360494295
 40
0.5835830195
 40
0.7328714529
 40
0.8743608321
 40
1.0
 40
1.0
 40
1.0
 40
1.0
 10
1069.4770266455
 20
554.9089768671
 30
0.0
 10
1069.8355582717
 20
555.1247748357
 30
0.0
 10
1070.4738359699
 20
555.8464783471
 30
0.0
 10
1070.8547925909
 20
557.3427889225
 30
0.0
 10
1070.7736401263
 20
559.1376603056
 30
0.0
 10
1070.2484544441
 20
561.111216417
 30
0.0
 10
1069.3272687354
 20
563.1028720422
 30
0.0
 10
1068.0869003623
 20
564.9436335325
 30
0.0
 10
1066.6365771729
 20
566.47425307
 30
0.0
 10
1065.5259126351
 20
567.2615031198
 30
0.0
 10
1064.9622614033
 20
567.5504154049
 30
0.0
  0
SPLINE
  5
62C
100
AcDbEntity
  8
0
100
AcDbSpline
 62
7
  6
CONTINUOUS
 70
0
 71
3
 72
11
 73
7
 74
0
 42
0.0000001
 43
0.0000001
 44
0.0000000001
 40
0.0
 40
0.0
 40
0.0
 40
0.0
 40
0.243699588
 40
0.5000012518
 40
0.7563040179
 40
1.0
 40
1.0
 40
1.0
 40
1.0
 10
1152.717358252
 20
718.9451160596
 30
0.0
 10
1155.4752991983
 20
716.5220973007
 30
0.0
 10
1160.6911583172
 20
711.0347903211
 30
0.0
 10
1167.2614741247
 20
701.6826903914
 30
0.0
 10
1172.4566069635
 20
691.5023157577
 30
0.0
 10
1174.868736514
 20
684.3261928782
 30
0.0
 10
1175.7212127224
 20
680.7554585483
 30
0.0
  0
SPLINE
  5
62D
100
AcDbEntity
  8
0
100
AcDbSpline
 62
7
  6
CONTINUOUS
 70
0
 71
3
 72
9
 73
5
 74
0
 42
0.0000001
 43
0.0000001
 44
0.0000000001
 40
0.0
 40
0.0
 40
0.0
 40
0.0
 40
0.2576330723
 40
1.0
 40
1.0
 40
1.0
 40
1.0
 10
1177.2614825368
 20
674.3044671939
 30
0.0
 10
1177.4408089042
 20
673.5533801595
 30
0.0
 10
1178.0928229824
 20
670.6278672164
 30
0.0
 10
1178.5661686942
 20
667.6612760806
 30
0.0
 10
1178.7957681971
 20
665.4480735319
 30
0.0
  0
SPLINE
  5
62E
100
AcDbEntity
  8
0
100
AcDbSpline
 62
7
  6
CONTINUOUS
 70
0
 71
3
 72
9
 73
5
 74
0
 42
0.0000001
 43
0.0000001
 44
0.0000000001
 40
0.0
 40
0.0
 40
0.0
 40
0.0
 40
0.2118647167
 40
1.0
 40
1.0
 40
1.0
 40
1.0
 10
1047.3167766932
 20
550.8997128773
 30
0.0
 10
1047.3000968038
 20
550.8897061529
 30
0.0
 10
1047.2310608973
 20
550.8249603418
 30
0.0
 10
1047.2236669863
 20
550.7195385539
 30
0.0
 10
1047.2311334707
 20
550.6475660891
 30
0.0
  0
SPLINE
  5
62F
100
AcDbEntity
  8
7_ALL_ROUNDS
100
AcDbSpline
 62
7
  6
CONTINUOUS
 70
0
 71
3
 72
8
 73
4
 74
0
 42
0.0000001
 43
0.0000001
 44
0.0000000001
 40
0.0
 40
0.0
 40
0.0
 40
0.0
 40
1.0
 40
1.0
 40
1.0
 40
1.0
 10
990.450653489
 20
596.0877792056
 30
0.0
 10
990.5702636292
 20
596.0264702495
 30
0.0
 10
990.7008202574
 20
595.9818453713
 30
0.0
 10
990.8337529428
 20
595.9619890149
 30
0.0
  0
SPLINE
  5
630
100
AcDbEntity
  8
7_ALL_ROUNDS
100
AcDbSpline
 62
7
  6
CONTINUOUS
 70
0
 71
3
 72
8
 73
4
 74
0
 42
0.0000001
 43
0.0000001
 44
0.0000000001
 40
0.0
 40
0.0
 40
0.0
 40
0.0
 40
1.0
 40
1.0
 40
1.0
 40
1.0
 10
990.8337529428
 20
595.9619890149
 30
0.0
 10
990.996029473
 20
595.9377495239
 30
0.0
 10
991.1685825154
 20
595.9497808981
 30
0.0
 10
991.3244273664
 20
596.0010995848
 30
0.0
  0
SPLINE
  5
631
100
AcDbEntity
  8
7_ALL_ROUNDS
100
AcDbSpline
 62
7
  6
CONTINUOUS
 70
0
 71
3
 72
8
 73
4
 74
0
 42
0.0000001
 43
0.0000001
 44
0.0000000001
 40
0.0
 40
0.0
 40
0.0
 40
0.0
 40
1.0
 40
1.0
 40
1.0
 40
1.0
 10
989.9814017483
 20
598.6648591164
 30
0.0
 10
989.8585463176
 20
598.5908562184
 30
0.0
 10
989.7496739907
 20
598.4877500512
 30
0.0
 10
989.6685432499
 20
598.3694804919
 30
0.0
  0
SPLINE
  5
632
100
AcDbEntity
  8
7_ALL_ROUNDS
100
AcDbSpline
 62
7
  6
CONTINUOUS
 70
0
 71
3
 72
9
 73
5
 74
0
 42
0.0000001
 43
0.0000001
 44
0.0000000001
 40
0.0
 40
0.0
 40
0.0
 40
0.0
 40
0.4891798577
 40
1.0
 40
1.0
 40
1.0
 40
1.0
 10
989.6685432499
 20
598.3694804919
 30
0.0
 10
989.5242141776
 20
598.1590826129
 30
0.0
 10
989.397604776
 20
597.6084144218
 30
0.0
 10
989.5694954291
 20
597.0972080258
 30
0.0
 10
989.6953989695
 20
596.8624028873
 30
0.0
  0
SPLINE
  5
633
100
AcDbEntity
  8
7_ALL_ROUNDS
100
AcDbSpline
 62
7
  6
CONTINUOUS
 70
0
 71
3
 72
8
 73
4
 74
0
 42
0.0000001
 43
0.0000001
 44
0.0000000001
 40
0.0
 40
0.0
 40
0.0
 40
0.0
 40
1.0
 40
1.0
 40
1.0
 40
1.0
 10
989.6953989695
 20
596.8624028873
 30
0.0
 10
989.8064514125
 20
596.6552944602
 30
0.0
 10
989.9543608272
 20
596.463125404
 30
0.0
 10
990.1308297274
 20
596.307931097
 30
0.0
  0
SPLINE
  5
634
100
AcDbEntity
  8
7_ALL_ROUNDS
100
AcDbSpline
 62
7
  6
CONTINUOUS
 70
0
 71
3
 72
8
 73
4
 74
0
 42
0.0000001
 43
0.0000001
 44
0.0000000001
 40
0.0
 40
0.0
 40
0.0
 40
0.0
 40
1.0
 40
1.0
 40
1.0
 40
1.0
 10
990.1308297274
 20
596.307931097
 30
0.0
 10
990.2280165888
 20
596.2224608096
 30
0.0
 10
990.3354786016
 20
596.1468147693
 30
0.0
 10
990.4506535013
 20
596.0877791993
 30
0.0
  0
SPLINE
  5
635
100
AcDbEntity
  8
0
100
AcDbSpline
 62
7
  6
CONTINUOUS
 70
0
 71
3
 72
9
 73
5
 74
0
 42
0.0000001
 43
0.0000001
 44
0.0000000001
 40
0.0
 40
0.0
 40
0.0
 40
0.0
 40
0.4212530747
 40
1.0
 40
1.0
 40
1.0
 40
1.0
 10
982.0419740515
 20
614.9233099538
 30
0.0
 10
982.2106221575
 20
615.0250488952
 30
0.0
 10
982.4562811638
 20
615.4907743526
 30
0.0
 10
982.3950794187
 20
615.9669768201
 30
0.0
 10
982.3338033178
 20
616.2305441518
 30
0.0
  0
SPLINE
  5
636
100
AcDbEntity
  8
0
100
AcDbSpline
 62
7
  6
CONTINUOUS
 70
0
 71
3
 72
9
 73
5
 74
0
 42
0.0000001
 43
0.0000001
 44
0.0000000001
 40
0.0
 40
0.0
 40
0.0
 40
0.0
 40
0.2439757163
 40
1.0
 40
1.0
 40
1.0
 40
1.0
 10
982.3338033178
 20
616.2305441518
 30
0.0
 10
982.2966851648
 20
616.3902007294
 30
0.0
 10
982.0858811095
 20
617.0291404314
 30
0.0
 10
981.6942693246
 20
617.611644793
 30
0.0
 10
981.3185207741
 20
617.9534184375
 30
0.0
  0
SPLINE
  5
637
100
AcDbEntity
  8
0
100
AcDbSpline
 62
7
  6
CONTINUOUS
 70
0
 71
3
 72
8
 73
4
 74
0
 42
0.0000001
 43
0.0000001
 44
0.0000000001
 40
0.0
 40
0.0
 40
0.0
 40
0.0
 40
1.0
 40
1.0
 40
1.0
 40
1.0
 10
981.3185207741
 20
617.9534184375
 30
0.0
 10
981.2270390109
 20
618.0366284872
 30
0.0
 10
981.1297832141
 20
618.1141290993
 30
0.0
 10
981.026928677
 20
618.182785997
 30
0.0
  0
SPLINE
  5
638
100
AcDbEntity
  8
0
100
AcDbSpline
 62
7
  6
CONTINUOUS
 70
0
 71
3
 72
8
 73
4
 74
0
 42
0.0000001
 43
0.0000001
 44
0.0000000001
 40
0.0
 40
0.0
 40
0.0
 40
0.0
 40
1.0
 40
1.0
 40
1.0
 40
1.0
 10
981.026928677
 20
618.182785997
 30
0.0
 10
980.9661039272
 20
618.2233874011
 30
0.0
 10
980.9031108832
 20
618.2610113768
 30
0.0
 10
980.8380312128
 20
618.2943694451
 30
0.0
  0
SPLINE
  5
639
100
AcDbEntity
  8
0
100
AcDbSpline
 62
7
  6
CONTINUOUS
 70
0
 71
3
 72
11
 73
7
 74
0
 42
0.0000001
 43
0.0000001
 44
0.0000000001
 40
0.0
 40
0.0
 40
0.0
 40
0.0
 40
0.4204281581
 40
0.5724367575
 40
0.7261810544
 40
1.0
 40
1.0
 40
1.0
 40
1.0
 10
980.2360468059
 20
617.9214071569
 30
0.0
 10
979.8835437568
 20
617.709181092
 30
0.0
 10
979.9701235944
 20
616.898474147
 30
0.0
 10
980.2656379516
 20
616.2872545508
 30
0.0
 10
980.583663078
 20
615.8095571459
 30
0.0
 10
980.9005363163
 20
615.5153374889
 30
0.0
 10
981.139011176
 20
615.3931017645
 30
0.0
  0
SPLINE
  5
63A
100
AcDbEntity
  8
0
100
AcDbSpline
 62
7
  6
CONTINUOUS
 70
0
 71
3
 72
9
 73
5
 74
0
 42
0.0000001
 43
0.0000001
 44
0.0000000001
 40
0.0
 40
0.0
 40
0.0
 40
0.0
 40
0.4513197581
 40
1.0
 40
1.0
 40
1.0
 40
1.0
 10
991.4682759951
 20
594.8908842908
 30
0.0
 10
991.6030296695
 20
594.9721760201
 30
0.0
 10
991.8381433928
 20
595.2604306356
 30
0.0
 10
991.8989614808
 20
595.6140892571
 30
0.0
 10
991.9077263239
 20
595.805212973
 30
0.0
  0
SPLINE
  5
63B
100
AcDbEntity
  8
0
100
AcDbSpline
 62
7
  6
CONTINUOUS
 70
0
 71
3
 72
8
 73
4
 74
0
 42
0.0000001
 43
0.0000001
 44
0.0000000001
 40
0.0
 40
0.0
 40
0.0
 40
0.0
 40
1.0
 40
1.0
 40
1.0
 40
1.0
 10
991.9077263239
 20
595.805212973
 30
0.0
 10
991.91249005
 20
595.9090894525
 30
0.0
 10
991.9091680251
 20
596.0135069593
 30
0.0
 10
991.8997914972
 20
596.1170690026
 30
0.0
  0
SPLINE
  5
63C
100
AcDbEntity
  8
0
100
AcDbSpline
 62
7
  6
CONTINUOUS
 70
0
 71
3
 72
8
 73
4
 74
0
 42
0.0000001
 43
0.0000001
 44
0.0000000001
 40
0.0
 40
0.0
 40
0.0
 40
0.0
 40
1.0
 40
1.0
 40
1.0
 40
1.0
 10
991.8997914972
 20
596.1170690026
 30
0.0
 10
991.8873694699
 20
596.2542680328
 30
0.0
 10
991.8642581322
 20
596.3907453776
 30
0.0
 10
991.833062578
 20
596.5249270382
 30
0.0
  0
SPLINE
  5
63D
100
AcDbEntity
  8
0
100
AcDbSpline
 62
7
  6
CONTINUOUS
 70
0
 71
3
 72
9
 73
5
 74
0
 42
0.0000001
 43
0.0000001
 44
0.0000000001
 40
0.0
 40
0.0
 40
0.0
 40
0.0
 40
0.2390611758
 40
1.0
 40
1.0
 40
1.0
 40
1.0
 10
991.833062578
 20
596.5249270382
 30
0.0
 10
991.8024948735
 20
596.6564081245
 30
0.0
 10
991.6417327799
 20
597.1984267523
 30
0.0
 10
991.3701618769
 20
597.7058446471
 30
0.0
 10
991.1180591312
 20
598.0537817184
 30
0.0
  0
SPLINE
  5
63E
100
AcDbEntity
  8
0
100
AcDbSpline
 62
7
  6
CONTINUOUS
 70
0
 71
3
 72
9
 73
5
 74
0
 42
0.0000001
 43
0.0000001
 44
0.0000000001
 40
0.0
 40
0.0
 40
0.0
 40
0.0
 40
0.2571309311
 40
1.0
 40
1.0
 40
1.0
 40
1.0
 10
991.1180591312
 20
598.0537817184
 30
0.0
 10
991.0760243725
 20
598.1117955683
 30
0.0
 10
990.9071629752
 20
598.3334139071
 30
0.0
 10
990.7170731744
 20
598.5392505537
 30
0.0
 10
990.5639593983
 20
598.6785198953
 30
0.0
  0
SPLINE
  5
63F
100
AcDbEntity
  8
0
100
AcDbSpline
 62
7
  6
CONTINUOUS
 70
0
 71
3
 72
9
 73
5
 74
0
 42
0.0000001
 43
0.0000001
 44
0.0000000001
 40
0.0
 40
0.0
 40
0.0
 40
0.0
 40
0.2659080183
 40
1.0
 40
1.0
 40
1.0
 40
1.0
 10
990.5639593983
 20
598.6785198953
 30
0.0
 10
990.5155961626
 20
598.722510163
 30
0.0
 10
990.3291492071
 20
598.8826747716
 30
0.0
 10
990.123963273
 20
599.0223813525
 30
0.0
 10
989.9633474468
 20
599.1047086549
 30
0.0
  0
SPLINE
  5
640
100
AcDbEntity
  8
0
100
AcDbSpline
 62
7
  6
CONTINUOUS
 70
0
 71
3
 72
8
 73
4
 74
0
 42
0.0000001
 43
0.0000001
 44
0.0000000001
 40
0.0
 40
0.0
 40
0.0
 40
0.0
 40
1.0
 40
1.0
 40
1.0
 40
1.0
 10
987.3488263219
 20
602.9025366518
 30
0.0
 10
987.4881365989
 20
602.9864409851
 30
0.0
 10
987.6129513845
 20
603.098639988
 30
0.0
 10
987.7140225518
 20
603.2260444997
 30
0.0
  0
SPLINE
  5
641
100
AcDbEntity
  8
0
100
AcDbSpline
 62
7
  6
CONTINUOUS
 70
0
 71
3
 72
9
 73
5
 74
0
 42
0.0000001
 43
0.0000001
 44
0.0000000001
 40
0.0
 40
0.0
 40
0.0
 40
0.0
 40
0.2387404751
 40
1.0
 40
1.0
 40
1.0
 40
1.0
 10
987.7140225518
 20
603.2260444997
 30
0.0
 10
987.7443317282
 20
603.2642505076
 30
0.0
 10
987.8634869416
 20
603.4304527905
 30
0.0
 10
987.9507452352
 20
603.6184055557
 30
0.0
 10
988.0009438405
 20
603.7655853096
 30
0.0
  0
SPLINE
  5
642
100
AcDbEntity
  8
0
100
AcDbSpline
 62
7
  6
CONTINUOUS
 70
0
 71
3
 72
9
 73
5
 74
0
 42
0.0000001
 43
0.0000001
 44
0.0000000001
 40
0.0
 40
0.0
 40
0.0
 40
0.0
 40
0.233277442
 40
1.0
 40
1.0
 40
1.0
 40
1.0
 10
988.0009438405
 20
603.7655853096
 30
0.0
 10
988.023661165
 20
603.8321913481
 30
0.0
 10
988.1072800564
 20
604.122402226
 30
0.0
 10
988.139452049
 20
604.425916744
 30
0.0
 10
988.1432626377
 20
604.6571851013
 30
0.0
  0
SPLINE
  5
643
100
AcDbEntity
  8
0
100
AcDbSpline
 62
7
  6
CONTINUOUS
 70
0
 71
3
 72
10
 73
6
 74
0
 42
0.0000001
 43
0.0000001
 44
0.0000000001
 40
0.0
 40
0.0
 40
0.0
 40
0.0
 40
0.2262739264
 40
0.4833191745
 40
1.0
 40
1.0
 40
1.0
 40
1.0
 10
988.1432626377
 20
604.6571851013
 30
0.0
 10
988.1507089317
 20
605.1091079788
 30
0.0
 10
988.0015572384
 20
606.0781792081
 30
0.0
 10
987.2730394022
 20
607.9425066083
 30
0.0
 10
986.3175423048
 20
609.2294381645
 30
0.0
 10
985.5253719959
 20
609.8909850259
 30
0.0
  0
SPLINE
  5
644
100
AcDbEntity
  8
0
100
AcDbSpline
 62
7
  6
CONTINUOUS
 70
0
 71
3
 72
9
 73
5
 74
0
 42
0.0000001
 43
0.0000001
 44
0.0000000001
 40
0.0
 40
0.0
 40
0.0
 40
0.0
 40
0.2635877094
 40
1.0
 40
1.0
 40
1.0
 40
1.0
 10
985.5253719959
 20
609.8909850259
 30
0.0
 10
985.4533026251
 20
609.951170652
 30
0.0
 10
985.1744805286
 20
610.1727934775
 30
0.0
 10
984.873444596
 20
610.3676881959
 30
0.0
 10
984.6400000416
 20
610.4873455227
 30
0.0
  0
SPLINE
  5
645
100
AcDbEntity
  8
0
100
AcDbSpline
 62
7
  6
CONTINUOUS
 70
0
 71
3
 72
14
 73
10
 74
0
 42
0.0000001
 43
0.0000001
 44
0.0000000001
 40
0.0
 40
0.0
 40
0.0
 40
0.0
 40
0.0831246787
 40
0.1812254779
 40
0.299903344
 40
0.4366549161
 40
0.5843968862
 40
0.7338874892
 40
1.0
 40
1.0
 40
1.0
 40
1.0
 10
983.2210927479
 20
609.7551676938
 30
0.0
 10
983.0538642742
 20
609.6543157171
 30
0.0
 10
982.7558434245
 20
609.3177629274
 30
0.0
 10
982.5781564878
 20
608.6193820334
 30
0.0
 10
982.6160045211
 20
607.7817671138
 30
0.0
 10
982.8609382702
 20
606.8610515277
 30
0.0
 10
983.2914174832
 20
605.9304222881
 30
0.0
 10
984.0314906459
 20
604.8337547089
 30
0.0
 10
984.7716014947
 20
604.1410478196
 30
0.0
 10
985.3279542432
 20
603.8558765384
 30
0.0
  0
SPLINE
  5
646
100
AcDbEntity
  8
0
100
AcDbSpline
 62
7
  6
CONTINUOUS
 70
0
 71
3
 72
11
 73
7
 74
0
 42
0.0000001
 43
0.0000001
 44
0.0000000001
 40
0.0
 40
0.0
 40
0.0
 40
0.0
 40
0.2084313584
 40
0.4374816017
 40
0.7002717692
 40
1.0
 40
1.0
 40
1.0
 40
1.0
 10
967.4121757651
 20
658.977365453
 30
0.0
 10
967.2123603221
 20
658.8569731032
 30
0.0
 10
966.8431545663
 20
658.5135039135
 30
0.0
 10
966.4928855043
 20
657.7980782261
 30
0.0
 10
966.3329748264
 20
656.9184239371
 30
0.0
 10
966.3498454741
 20
656.2850772156
 30
0.0
 10
966.3844610266
 20
655.9514038951
 30
0.0
  0
SPLINE
  5
647
100
AcDbEntity
  8
0
100
AcDbSpline
 62
7
  6
CONTINUOUS
 70
0
 71
3
 72
11
 73
7
 74
0
 42
0.0000001
 43
0.0000001
 44
0.0000000001
 40
0.0
 40
0.0
 40
0.0
 40
0.0
 40
0.2084313584
 40
0.4374816017
 40
0.7002717692
 40
1.0
 40
1.0
 40
1.0
 40
1.0
 10
1010.576436215
 20
566.6814724784
 30
0.0
 10
1010.3766207721
 20
566.5610801286
 30
0.0
 10
1010.0074150162
 20
566.2176109389
 30
0.0
 10
1009.6571459543
 20
565.5021852515
 30
0.0
 10
1009.4972352764
 20
564.6225309625
 30
0.0
 10
1009.514105924
 20
563.989184241
 30
0.0
 10
1009.5487214765
 20
563.6555109205
 30
0.0
  0
SPLINE
  5
648
100
AcDbEntity
  8
0
100
AcDbSpline
 62
7
  6
CONTINUOUS
 70
0
 71
3
 72
11
 73
7
 74
0
 42
0.0000001
 43
0.0000001
 44
0.0000000001
 40
0.0
 40
0.0
 40
0.0
 40
0.0
 40
0.2084313584
 40
0.4374816017
 40
0.7002717692
 40
1.0
 40
1.0
 40
1.0
 40
1.0
 10
1067.5834449273
 20
577.9745156274
 30
0.0
 10
1067.3836294844
 20
577.8541232776
 30
0.0
 10
1067.0144237285
 20
577.5106540878
 30
0.0
 10
1066.6641546666
 20
576.7952284004
 30
0.0
 10
1066.5042439887
 20
575.9155741114
 30
0.0
 10
1066.5211146363
 20
575.2822273899
 30
0.0
 10
1066.5557301888
 20
574.9485540694
 30
0.0
  0
SPLINE
  5
649
100
AcDbEntity
  8
0
100
AcDbSpline
 62
7
  6
CONTINUOUS
 70
0
 71
3
 72
11
 73
7
 74
0
 42
0.0000001
 43
0.0000001
 44
0.0000000001
 40
0.0
 40
0.0
 40
0.0
 40
0.0
 40
0.2084313584
 40
0.4374816017
 40
0.7002717692
 40
1.0
 40
1.0
 40
1.0
 40
1.0
 10
1024.4191844774
 20
670.270408602
 30
0.0
 10
1024.2193690344
 20
670.1500162522
 30
0.0
 10
1023.8501632786
 20
669.8065470624
 30
0.0
 10
1023.4998942166
 20
669.091121375
 30
0.0
 10
1023.3399835387
 20
668.211467086
 30
0.0
 10
1023.3568541864
 20
667.5781203645
 30
0.0
 10
1023.3914697389
 20
667.244447044
 30
0.0
  0
SPLINE
  5
64A
100
AcDbEntity
  8
7_ALL_ROUNDS
100
AcDbSpline
 62
7
  6
CONTINUOUS
 70
0
 71
3
 72
18
 73
14
 74
0
 42
0.0000001
 43
0.0000001
 44
0.0000000001
 40
0.0
 40
0.0
 40
0.0
 40
0.0
 40
0.0399202293
 40
0.0822436164
 40
0.1283986803
 40
0.1792127631
 40
0.2349786523
 40
0.2955766247
 40
0.4291717503
 40
0.5743511493
 40
0.7233321385
 40
0.8677713492
 40
1.0
 40
1.0
 40
1.0
 40
1.0
 10
979.3107763505
 20
686.4204526701
 30
0.0
 10
981.18424805
 20
687.3935523429
 30
0.0
 10
985.330238097
 20
688.8849212464
 30
0.0
 10
992.1444240207
 20
689.5534721968
 30
0.0
 10
999.5092422112
 20
688.711537947
 30
0.0
 10
1007.2818918579
 20
686.3930521536
 30
0.0
 10
1015.3211597958
 20
682.6511819701
 30
0.0
 10
1026.5533046653
 20
675.6316890273
 30
0.0
 10
1040.1394428708
 20
663.7226968118
 30
0.0
 10
1054.5112497085
 20
646.1458611876
 30
0.0
 10
1066.3929337634
 20
626.1202562114
 30
0.0
 10
1074.8781509022
 20
605.1828478428
 30
0.0
 10
1078.0452172956
 20
590.7875500535
 30
0.0
 10
1078.7667737962
 20
583.8321749084
 30
0.0
  0
SPLINE
  5
64B
100
AcDbEntity
  8
7_ALL_ROUNDS
100
AcDbSpline
 62
7
  6
CONTINUOUS
 70
0
 71
3
 72
12
 73
8
 74
0
 42
0.0000001
 43
0.0000001
 44
0.0000000001
 40
0.0
 40
0.0
 40
0.0
 40
0.0
 40
0.2999283651
 40
0.5632396421
 40
0.7926320986
 40
0.8981149189
 40
1.0
 40
1.0
 40
1.0
 40
1.0
 10
1078.7957051195
 20
583.5489139332
 30
0.0
 10
1079.2436715302
 20
579.092861206
 30
0.0
 10
1079.4678454968
 20
570.635130693
 30
0.0
 10
1077.4619469712
 20
558.8810745599
 30
0.0
 10
1073.6869020865
 20
550.6194076317
 30
0.0
 10
1069.5323232352
 20
545.5524891202
 30
0.0
 10
1067.1500270587
 20
543.5409512908
 30
0.0
 10
1065.8989927807
 20
542.6752751002
 30
0.0
  0
SPLINE
  5
64C
100
AcDbEntity
  8
0
100
AcDbSpline
 62
7
  6
CONTINUOUS
 70
0
 71
3
 72
9
 73
5
 74
0
 42
0.0000001
 43
0.0000001
 44
0.0000000001
 40
0.0
 40
0.0
 40
0.0
 40
0.0
 40
0.4882597934
 40
1.0
 40
1.0
 40
1.0
 40
1.0
 10
1075.0871220795
 20
545.1453654543
 30
0.0
 10
1077.0207129111
 20
546.3100146137
 30
0.0
 10
1080.6687889828
 20
549.250741799
 30
0.0
 10
1083.4329327225
 20
553.0185016412
 30
0.0
 10
1084.6197813064
 20
555.0650620455
 30
0.0
  0
SPLINE
  5
64D
100
AcDbEntity
  8
0
100
AcDbSpline
 62
7
  6
CONTINUOUS
 70
0
 71
3
 72
11
 73
7
 74
0
 42
0.0000001
 43
0.0000001
 44
0.0000000001
 40
0.0
 40
0.0
 40
0.0
 40
0.0
 40
0.2107529605
 40
0.4444064502
 40
0.7070753679
 40
1.0
 40
1.0
 40
1.0
 40
1.0
 10
1053.0300329442
 20
577.556138055
 30
0.0
 10
1054.1782635861
 20
578.7186896192
 30
0.0
 10
1056.1944388618
 20
581.5874205785
 30
0.0
 10
1058.0446854043
 20
586.7994392784
 30
0.0
 10
1058.8425751675
 20
592.9022041852
 30
0.0
 10
1058.6778650974
 20
597.2255370119
 30
0.0
 10
1058.4435178469
 20
599.4845050069
 30
0.0
  0
SPLINE
  5
64E
100
AcDbEntity
  8
0
100
AcDbSpline
 62
7
  6
CONTINUOUS
 70
0
 71
3
 72
9
 73
5
 74
0
 42
0.0000001
 43
0.0000001
 44
0.0000000001
 40
0.0
 40
0.0
 40
0.0
 40
0.0
 40
0.4968005598
 40
1.0
 40
1.0
 40
1.0
 40
1.0
 10
1173.6138685435
 20
640.9515703885
 30
0.0
 10
1160.8297632181
 20
625.1310978488
 30
0.0
 10
1133.060822605
 20
594.8834381178
 30
0.0
 10
1101.7788283661
 20
568.2896598297
 30
0.0
 10
1085.296816074
 20
555.9288264973
 30
0.0
  0
SPLINE
  5
64F
100
AcDbEntity
  8
0
100
AcDbSpline
 62
7
  6
CONTINUOUS
 70
0
 71
3
 72
9
 73
5
 74
0
 42
0.0000001
 43
0.0000001
 44
0.0000000001
 40
0.0
 40
0.0
 40
0.0
 40
0.0
 40
0.488264985
 40
1.0
 40
1.0
 40
1.0
 40
1.0
 10
985.7917151876
 20
693.3886109206
 30
0.0
 10
987.7252152322
 20
694.5534499966
 30
0.0
 10
992.0303887042
 20
696.403257036
 30
0.0
 10
996.6532928724
 20
697.0853207191
 30
0.0
 10
999.01726957
 20
697.1775213495
 30
0.0
  0
SPLINE
  5
650
100
AcDbEntity
  8
0
100
AcDbSpline
 62
7
  6
CONTINUOUS
 70
0
 71
3
 72
17
 73
13
 74
0
 42
0.0000001
 43
0.0000001
 44
0.0000000001
 40
0.0
 40
0.0
 40
0.0
 40
0.0
 40
0.0414086738
 40
0.0858749803
 40
0.1343124284
 40
0.1871802393
 40
0.3060177218
 40
0.4399662304
 40
0.5834436111
 40
0.729414922
 40
0.8704939495
 40
1.0
 40
1.0
 40
1.0
 40
1.0
 10
1004.129709506
 20
658.7377041243
 30
0.0
 10
1005.2893643242
 20
659.0871231204
 30
0.0
 10
1007.7905315605
 20
659.5156137746
 30
0.0
 10
1011.7386793771
 20
659.3420043262
 30
0.0
 10
1015.915409896
 20
658.3921455666
 30
0.0
 10
1021.9260923745
 20
656.0298410556
 30
0.0
 10
1029.5277202911
 20
651.1715285185
 30
0.0
 10
1038.009656541
 20
643.2023540063
 30
0.0
 10
1045.6477245277
 20
633.3960354137
 30
0.0
 10
1051.9144027389
 20
622.4234581001
 30
0.0
 10
1056.3811955878
 20
611.043153417
 30
0.0
 10
1058.0526560337
 20
603.2521802181
 30
0.0
 10
1058.4435178469
 20
599.4845050069
 30
0.0
  0
SPLINE
  5
651
100
AcDbEntity
  8
0
100
AcDbSpline
 62
7
  6
CONTINUOUS
 70
0
 71
3
 72
9
 73
5
 74
0
 42
0.0000001
 43
0.0000001
 44
0.0000000001
 40
0.0
 40
0.0
 40
0.0
 40
0.0
 40
0.5000030018
 40
1.0
 40
1.0
 40
1.0
 40
1.0
 10
1034.6310830503
 20
637.7503192707
 30
0.0
 10
1037.8429222256
 20
634.4767419652
 30
0.0
 10
1043.438606209
 20
627.0970994284
 30
0.0
 10
1047.3459424848
 20
618.7004527268
 30
0.0
 10
1048.7380492342
 20
614.3308128109
 30
0.0
  0
SPLINE
  5
652
100
AcDbEntity
  8
0
100
AcDbSpline
 62
7
  6
CONTINUOUS
 70
0
 71
3
 72
11
 73
7
 74
0
 42
0.0000001
 43
0.0000001
 44
0.0000000001
 40
0.0
 40
0.0
 40
0.0
 40
0.0
 40
0.2039114273
 40
0.4368639007
 40
0.7029306625
 40
1.0
 40
1.0
 40
1.0
 40
1.0
 10
1116.5464158071
 20
735.6917134185
 30
0.0
 10
1118.8533399467
 20
736.1428121543
 30
0.0
 10
1123.99461643
 20
736.1609885955
 30
0.0
 10
1131.8509210564
 20
733.9003720287
 30
0.0
 10
1139.9941187934
 20
729.5569184827
 30
0.0
 10
1145.1623533979
 20
725.5829671762
 30
0.0
 10
1147.7349362855
 20
723.3226473233
 30
0.0
  0
SPLINE
  5
653
100
AcDbEntity
  8
0
100
AcDbSpline
 62
7
  6
CONTINUOUS
 70
0
 71
3
 72
9
 73
5
 74
0
 42
0.0000001
 43
0.0000001
 44
0.0000000001
 40
0.0
 40
0.0
 40
0.0
 40
0.0
 40
0.5031991978
 40
1.0
 40
1.0
 40
1.0
 40
1.0
 10
1000.0959011801
 20
697.3714583547
 30
0.0
 10
1018.7286330605
 20
706.1623038209
 30
0.0
 10
1056.8626555942
 20
721.3817984735
 30
0.0
 10
1096.5842189725
 20
731.7874168191
 30
0.0
 10
1116.5463782292
 20
735.6917939375
 30
0.0
  0
SPLINE
  5
654
100
AcDbEntity
  8
0
100
AcDbSpline
 62
7
  6
CONTINUOUS
 70
0
 71
3
 72
9
 73
5
 74
0
 42
0.0000001
 43
0.0000001
 44
0.0000000001
 40
0.0
 40
0.0
 40
0.0
 40
0.0
 40
0.3053783113
 40
1.0
 40
1.0
 40
1.0
 40
1.0
 10
1200.7327061591
 20
721.0781830587
 30
0.0
 10
1200.7384453089
 20
721.0228610706
 30
0.0
 10
1200.7456514766
 20
720.8443326931
 30
0.0
 10
1200.6697397977
 20
720.639209022
 30
0.0
 10
1200.5613956548
 20
720.573887631
 30
0.0
  0
SPLINE
  5
655
100
AcDbEntity
  8
0
100
AcDbSpline
 62
7
  6
CONTINUOUS
 70
0
 71
3
 72
11
 73
7
 74
0
 42
0.0000001
 43
0.0000001
 44
0.0000000001
 40
0.0
 40
0.0
 40
0.0
 40
0.0
 40
0.3147572205
 40
0.5908930398
 40
0.8156892546
 40
1.0
 40
1.0
 40
1.0
 40
1.0
 10
1194.4890367383
 20
717.4138297388
 30
0.0
 10
1194.6275534125
 20
717.1176467391
 30
0.0
 10
1194.8387339422
 20
716.5359745757
 30
0.0
 10
1194.9488142258
 20
715.6881780066
 30
0.0
 10
1194.8289432285
 20
714.968942388
 30
0.0
 10
1194.5443160808
 20
714.6148037071
 30
0.0
 10
1194.3803078576
 20
714.5160126011
 30
0.0
  0
SPLINE
  5
656
100
AcDbEntity
  8
0
100
AcDbSpline
 62
7
  6
CONTINUOUS
 70
0
 71
3
 72
11
 73
7
 74
0
 42
0.0000001
 43
0.0000001
 44
0.0000000001
 40
0.0
 40
0.0
 40
0.0
 40
0.0
 40
0.2624977339
 40
0.5212781959
 40
0.7667643479
 40
1.0
 40
1.0
 40
1.0
 40
1.0
 10
1175.4815138897
 20
703.7343680101
 30
0.0
 10
1175.2806288079
 20
704.1639101315
 30
0.0
 10
1174.6892352629
 20
704.938782526
 30
0.0
 10
1173.4384262119
 20
705.6239059445
 30
0.0
 10
1172.0570428993
 20
705.7009049202
 30
0.0
 10
1171.2405010295
 20
705.2889756124
 30
0.0
 10
1170.9307099953
 20
705.0034024979
 30
0.0
  0
SPLINE
  5
657
100
AcDbEntity
  8
0
100
AcDbSpline
 62
7
  6
CONTINUOUS
 70
0
 71
3
 72
17
 73
13
 74
0
 42
0.0000001
 43
0.0000001
 44
0.0000000001
 40
0.0
 40
0.0
 40
0.0
 40
0.0
 40
0.1406473185
 40
0.260642957
 40
0.3141076681
 40
0.3645010198
 40
0.4134229648
 40
0.4627088786
 40
0.5686275909
 40
0.6925620745
 40
0.837179974
 40
1.0
 40
1.0
 40
1.0
 40
1.0
 10
1004.1068448506
 20
629.3464979791
 30
0.0
 10
1003.8797468165
 20
631.5355878433
 30
0.0
 10
1003.8136728196
 20
635.6457203469
 30
0.0
 10
1004.9969554215
 20
640.5063568464
 30
0.0
 10
1006.7389101679
 20
643.5705142599
 30
0.0
 10
1008.3389164216
 20
645.3730767437
 30
0.0
 10
1010.2566678487
 20
646.7257511272
 30
0.0
 10
1013.2508560098
 20
647.9170261004
 30
0.0
 10
1017.7449564926
 20
648.0655653887
 30
0.0
 10
1023.399714096
 20
646.2743695865
 30
0.0
 10
1029.2216676123
 20
642.7694945332
 30
0.0
 10
1032.8467509775
 20
639.5689498621
 30
0.0
 10
1034.6310830503
 20
637.7503192707
 30
0.0
  0
SPLINE
  5
658
100
AcDbEntity
  8
0
100
AcDbSpline
 62
7
  6
CONTINUOUS
 70
0
 71
3
 72
20
 73
16
 74
0
 42
0.0000001
 43
0.0000001
 44
0.0000000001
 40
0.0
 40
0.0
 40
0.0
 40
0.0
 40
0.1436888119
 40
0.3009697123
 40
0.4552350547
 40
0.5263080421
 40
0.5911593545
 40
0.6489554665
 40
0.6998202203
 40
0.745216834
 40
0.7881284205
 40
0.8324257631
 40
0.8814681514
 40
0.9371644372
 40
1.0
 40
1.0
 40
1.0
 40
1.0
 10
1004.1068448506
 20
629.3464979791
 30
0.0
 10
1004.5195619141
 20
625.3681511651
 30
0.0
 10
1006.7076911994
 20
617.1648736543
 30
0.0
 10
1012.5602802559
 20
605.8459606616
 30
0.0
 10
1019.316163296
 20
597.4835052511
 30
0.0
 10
1025.4693097087
 20
592.2186750162
 30
0.0
 10
1030.0400339092
 20
589.3159871239
 30
0.0
 10
1034.5321216079
 20
587.4600309449
 30
0.0
 10
1038.8054291833
 20
586.7342004566
 30
0.0
 10
1042.7195355757
 20
587.223773015
 30
0.0
 10
1046.0600739927
 20
588.9890492751
 30
0.0
 10
1048.5862396395
 20
591.9210016274
 30
0.0
 10
1050.2070464727
 20
595.7971682177
 30
0.0
 10
1050.9291745349
 20
600.4392922084
 30
0.0
 10
1050.8214204835
 20
603.7546445596
 30
0.0
 10
1050.6409380324
 20
605.4943879527
 30
0.0
  0
SPLINE
  5
659
100
AcDbEntity
  8
0
100
AcDbSpline
 62
7
  6
CONTINUOUS
 70
0
 71
3
 72
12
 73
8
 74
0
 42
0.0000001
 43
0.0000001
 44
0.0000000001
 40
0.0
 40
0.0
 40
0.0
 40
0.0
 40
0.3016689747
 40
0.5633811893
 40
0.7903433952
 40
0.8960171607
 40
1.0
 40
1.0
 40
1.0
 40
1.0
 10
994.8662268695
 20
634.0829873298
 30
0.0
 10
994.5771161648
 20
636.8698424236
 30
0.0
 10
994.4599042719
 20
642.1397975886
 30
0.0
 10
995.9295733697
 20
649.4079029475
 30
0.0
 10
998.6725646088
 20
654.348384522
 30
0.0
 10
1001.6360739768
 20
657.1554451651
 30
0.0
 10
1003.3137289354
 20
658.1775686227
 30
0.0
 10
1004.1866771467
 20
658.5906748406
 30
0.0
  0
SPLINE
  5
65A
100
AcDbEntity
  8
0
100
AcDbSpline
 62
7
  6
CONTINUOUS
 70
0
 71
3
 72
14
 73
10
 74
0
 42
0.0000001
 43
0.0000001
 44
0.0000000001
 40
0.0
 40
0.0
 40
0.0
 40
0.0
 40
0.3034659118
 40
0.4388627279
 40
0.5637265171
 40
0.6794590459
 40
0.7884605906
 40
0.8940306065
 40
1.0
 40
1.0
 40
1.0
 40
1.0
 10
992.6977746004
 20
633.1839841298
 30
0.0
 10
992.3809243176
 20
636.2382322444
 30
0.0
 10
992.3066439763
 20
640.7282642977
 30
0.0
 10
993.3262566657
 20
646.3563892511
 30
0.0
 10
994.5613615314
 20
649.9729469569
 30
0.0
 10
996.2846675852
 20
653.0864246221
 30
0.0
 10
998.4797181705
 20
655.6416225055
 30
0.0
 10
1001.1128641043
 20
657.5827517712
 30
0.0
 10
1003.1030442474
 20
658.4283566026
 30
0.0
 10
1004.129709506
 20
658.7377041243
 30
0.0
  0
SPLINE
  5
65B
100
AcDbEntity
  8
0
100
AcDbSpline
 62
7
  6
CONTINUOUS
 70
0
 71
3
 72
9
 73
5
 74
0
 42
0.0000001
 43
0.0000001
 44
0.0000000001
 40
0.0
 40
0.0
 40
0.0
 40
0.0
 40
0.2350137312
 40
1.0
 40
1.0
 40
1.0
 40
1.0
 10
1047.9183991065
 20
550.2952924239
 30
0.0
 10
1047.9136049804
 20
550.341504945
 30
0.0
 10
1047.8674764717
 20
550.5345035584
 30
0.0
 10
1047.7542952581
 20
550.7120755318
 30
0.0
 10
1047.6400619612
 20
550.8111813438
 30
0.0
  0
SPLINE
  5
65C
100
AcDbEntity
  8
0
100
AcDbSpline
 62
7
  6
CONTINUOUS
 70
0
 71
3
 72
9
 73
5
 74
0
 42
0.0000001
 43
0.0000001
 44
0.0000000001
 40
0.0
 40
0.0
 40
0.0
 40
0.0
 40
0.3167750554
 40
1.0
 40
1.0
 40
1.0
 40
1.0
 10
1047.6400619612
 20
550.8111813438
 30
0.0
 10
1047.6125333031
 20
550.8350644855
 30
0.0
 10
1047.5239939493
 20
550.9029910557
 30
0.0
 10
1047.3841819951
 20
550.940151172
 30
0.0
 10
1047.3167766932
 20
550.8997128773
 30
0.0
  0
SPLINE
  5
65D
100
AcDbEntity
  8
6_ALL_SURFS
100
AcDbSpline
 62
7
  6
CONTINUOUS
 70
0
 71
3
 72
10
 73
6
 74
0
 42
0.0000001
 43
0.0000001
 44
0.0000000001
 40
0.0
 40
0.0
 40
0.0
 40
0.0
 40
0.2799811572
 40
0.5353918103
 40
1.0
 40
1.0
 40
1.0
 40
1.0
 10
1069.1108891088
 20
645.4878810583
 30
0.0
 10
1078.2095233211
 20
650.2871670394
 30
0.0
 10
1095.4907535537
 20
659.6902445553
 30
0.0
 10
1127.2824006897
 20
678.1146978715
 30
0.0
 10
1149.7559486846
 20
692.0784574318
 30
0.0
 10
1164.2143200127
 20
701.1529812273
 30
0.0
  0
SPLINE
  5
65E
100
AcDbEntity
  8
6_ALL_SURFS
100
AcDbSpline
 62
7
  6
CONTINUOUS
 70
0
 71
3
 72
11
 73
7
 74
0
 42
0.0000001
 43
0.0000001
 44
0.0000000001
 40
0.0
 40
0.0
 40
0.0
 40
0.0
 40
0.2285231163
 40
0.4665412108
 40
0.7216627967
 40
1.0
 40
1.0
 40
1.0
 40
1.0
 10
1174.2058901187
 20
679.6614593596
 30
0.0
 10
1167.6240223026
 20
674.1966281583
 30
0.0
 10
1154.1530995901
 20
663.0802370008
 30
0.0
 10
1133.0511619232
 20
646.2081176803
 30
0.0
 10
1109.9982331818
 20
628.8033506169
 30
0.0
 10
1093.6363134861
 20
617.3442391611
 30
0.0
 10
1084.9989878416
 20
611.5162235226
 30
0.0
  0
SPLINE
  5
65F
100
AcDbEntity
  8
0
100
AcDbSpline
 62
7
  6
CONTINUOUS
 70
0
 71
3
 72
23
 73
19
 74
0
 42
0.0000001
 43
0.0000001
 44
0.0000000001
 40
0.0
 40
0.0
 40
0.0
 40
0.0
 40
0.0627874586
 40
0.1184415337
 40
0.1674461569
 40
0.2117097951
 40
0.2545885585
 40
0.2999504253
 40
0.3507764294
 40
0.4085285319
 40
0.4733299741
 40
0.5443483936
 40
0.6201104452
 40
0.698736086
 40
0.778125516
 40
0.856123066
 40
0.9306725725
 40
1.0
 40
1.0
 40
1.0
 40
1.0
 10
980.5118282154
 20
635.1679238774
 30
0.0
 10
980.1919610551
 20
638.251252895
 30
0.0
 10
980.0010318374
 20
644.127037288
 30
0.0
 10
981.2807889167
 20
652.3542417255
 30
0.0
 10
984.1532830943
 20
659.2239690791
 30
0.0
 10
988.6303688199
 20
664.4202721245
 30
0.0
 10
994.5508277426
 20
667.5487528546
 30
0.0
 10
1001.4877627563
 20
668.416493054
 30
0.0
 10
1009.0612735856
 20
667.1300111184
 30
0.0
 10
1017.0227444641
 20
663.8406636671
 30
0.0
 10
1025.1224503181
 20
658.6962790082
 30
0.0
 10
1033.0838768607
 20
651.8881281314
 30
0.0
 10
1040.6194776486
 20
643.6660111257
 30
0.0
 10
1047.4499802299
 20
634.335082017
 30
0.0
 10
1053.3194652019
 20
624.2446363947
 30
0.0
 10
1058.0077628596
 20
613.7720948777
 30
0.0
 10
1061.3398762977
 20
603.3125873192
 30
0.0
 10
1062.6305198457
 20
596.2995739592
 30
0.0
 10
1062.9837045081
 20
592.8950840536
 30
0.0
  0
SPLINE
  5
660
100
AcDbEntity
  8
7_ALL_ROUNDS
100
AcDbSpline
 62
9
  6
CONTINUOUS
 70
0
 71
3
 72
12
 73
8
 74
0
 42
0.0000001
 43
0.0000001
 44
0.0000000001
 40
0.0
 40
0.0
 40
0.0
 40
0.0
 40
0.2199016606
 40
0.312668934
 40
0.4129981223
 40
0.6716731146
 40
1.0
 40
1.0
 40
1.0
 40
1.0
 10
990.1181371421
 20
597.6126281334
 30
0.0
 10
990.043804312
 20
597.6507291196
 30
0.0
 10
989.9134950329
 20
597.6883190773
 30
0.0
 10
989.7697238504
 20
597.6076781795
 30
0.0
 10
989.6818811459
 20
597.4530932331
 30
0.0
 10
989.6941249155
 20
597.1780599088
 30
0.0
 10
989.7787556653
 20
596.9697800225
 30
0.0
 10
989.8407709367
 20
596.8615783514
 30
0.0
  0
SPLINE
  5
661
100
AcDbEntity
  8
7_ALL_ROUNDS
100
AcDbSpline
 62
9
  6
CONTINUOUS
 70
0
 71
3
 72
9
 73
5
 74
0
 42
0.0000001
 43
0.0000001
 44
0.0000000001
 40
0.0
 40
0.0
 40
0.0
 40
0.0
 40
0.2712614708
 40
1.0
 40
1.0
 40
1.0
 40
1.0
 10
989.8407709367
 20
596.8615783514
 30
0.0
 10
989.8666101359
 20
596.8164951893
 30
0.0
 10
989.9715958365
 20
596.6569088202
 30
0.0
 10
990.1143002312
 20
596.5157974132
 30
0.0
 10
990.2385291274
 20
596.4521210612
 30
0.0
  0
SPLINE
  5
662
100
AcDbEntity
  8
7_ALL_ROUNDS
100
AcDbSpline
 62
9
  6
CONTINUOUS
 70
0
 71
3
 72
9
 73
5
 74
0
 42
0.0000001
 43
0.0000001
 44
0.0000000001
 40
0.0
 40
0.0
 40
0.0
 40
0.0
 40
0.2770818622
 40
1.0
 40
1.0
 40
1.0
 40
1.0
 10
990.2385291274
 20
596.4521210612
 30
0.0
 10
990.255605359
 20
596.4433682495
 30
0.0
 10
990.3185575898
 20
596.4149172301
 30
0.0
 10
990.3889962272
 20
596.3993236081
 30
0.0
 10
990.4389639186
 20
596.4024328721
 30
0.0
  0
SPLINE
  5
663
100
AcDbEntity
  8
7_ALL_ROUNDS
100
AcDbSpline
 62
9
  6
CONTINUOUS
 70
0
 71
3
 72
11
 73
7
 74
0
 42
0.0000001
 43
0.0000001
 44
0.0000000001
 40
0.0
 40
0.0
 40
0.0
 40
0.0
 40
0.2036860614
 40
0.4175119329
 40
0.680777613
 40
1.0
 40
1.0
 40
1.0
 40
1.0
 10
990.4389639186
 20
596.4024328721
 30
0.0
 10
990.4818183351
 20
596.4050995091
 30
0.0
 10
990.5716884779
 20
596.4362406894
 30
0.0
 10
990.6524034705
 20
596.5644659724
 30
0.0
 10
990.6714260686
 20
596.7343779895
 30
0.0
 10
990.6511912716
 20
596.8567900819
 30
0.0
 10
990.6337737528
 20
596.9217894144
 30
0.0
  0
SPLINE
  5
664
100
AcDbEntity
  8
7_ALL_ROUNDS
100
AcDbSpline
 62
9
  6
CONTINUOUS
 70
0
 71
3
 72
9
 73
5
 74
0
 42
0.0000001
 43
0.0000001
 44
0.0000000001
 40
0.0
 40
0.0
 40
0.0
 40
0.0
 40
0.2585452065
 40
1.0
 40
1.0
 40
1.0
 40
1.0
 10
990.6337737528
 20
596.9217894144
 30
0.0
 10
990.6142861151
 20
596.9945140921
 30
0.0
 10
990.5083189954
 20
597.2647392818
 30
0.0
 10
990.3102836459
 20
597.5141390636
 30
0.0
 10
990.1181371421
 20
597.6126281334
 30
0.0
  0
SPLINE
  5
665
100
AcDbEntity
  8
0
100
AcDbSpline
 62
7
  6
CONTINUOUS
 70
0
 71
3
 72
23
 73
19
 74
0
 42
0.0000001
 43
0.0000001
 44
0.0000000001
 40
0.0
 40
0.0
 40
0.0
 40
0.0
 40
0.0693274275
 40
0.143876934
 40
0.221874484
 40
0.301263914
 40
0.3798895548
 40
0.4556516064
 40
0.5266700259
 40
0.5914714681
 40
0.6492235706
 40
0.7000495747
 40
0.7454114415
 40
0.7882902049
 40
0.8325538431
 40
0.8815584663
 40
0.9372125414
 40
1.0
 40
1.0
 40
1.0
 40
1.0
 10
980.5118282154
 20
635.1679238774
 30
0.0
 10
980.8650128778
 20
631.7634339718
 30
0.0
 10
982.1556564258
 20
624.7504206117
 30
0.0
 10
985.487769864
 20
614.2909130533
 30
0.0
 10
990.1760675216
 20
603.8183715362
 30
0.0
 10
996.0455524936
 20
593.7279259139
 30
0.0
 10
1002.876055075
 20
584.3969968052
 30
0.0
 10
1010.4116558629
 20
576.1748797996
 30
0.0
 10
1018.3730824055
 20
569.3667289227
 30
0.0
 10
1026.4727882594
 20
564.2223442639
 30
0.0
 10
1034.4342591379
 20
560.9329968126
 30
0.0
 10
1042.0077699672
 20
559.6465148769
 30
0.0
 10
1048.944704981
 20
560.5142550763
 30
0.0
 10
1054.8651639037
 20
563.6427358064
 30
0.0
 10
1059.3422496292
 20
568.8390388519
 30
0.0
 10
1062.2147438069
 20
575.7087662055
 30
0.0
 10
1063.4945008861
 20
583.9359706429
 30
0.0
 10
1063.3035716684
 20
589.811755036
 30
0.0
 10
1062.9837045081
 20
592.8950840536
 30
0.0
  0
SPLINE
  5
666
100
AcDbEntity
  8
0
100
AcDbSpline
 62
7
  6
CONTINUOUS
 70
0
 71
3
 72
13
 73
9
 74
0
 42
0.0000001
 43
0.0000001
 44
0.0000000001
 40
0.0
 40
0.0
 40
0.0
 40
0.0
 40
0.0877452417
 40
0.1823930307
 40
0.2887060535
 40
0.4087204157
 40
0.6868436981
 40
1.0
 40
1.0
 40
1.0
 40
1.0
 10
1061.737410289
 20
567.7578495974
 30
0.0
 10
1061.5182758382
 20
567.6259539266
 30
0.0
 10
1061.110118149
 20
567.2660908432
 30
0.0
 10
1060.6865289532
 20
566.5255602109
 30
0.0
 10
1060.4446078415
 20
565.6131671422
 30
0.0
 10
1060.3618499019
 20
564.1375272754
 30
0.0
 10
1060.7562832146
 20
562.0735054856
 30
0.0
 10
1061.4472057355
 20
560.4812374523
 30
0.0
 10
1061.8894852861
 20
559.6827310042
 30
0.0
  0
SPLINE
  5
667
100
AcDbEntity
  8
0
100
AcDbSpline
 62
7
  6
CONTINUOUS
 70
0
 71
3
 72
9
 73
5
 74
0
 42
0.0000001
 43
0.0000001
 44
0.0000000001
 40
0.0
 40
0.0
 40
0.0
 40
0.0
 40
0.5322320431
 40
1.0
 40
1.0
 40
1.0
 40
1.0
 10
1062.407608107
 20
558.8221989041
 30
0.0
 10
1062.929406336
 20
558.0226304789
 30
0.0
 10
1064.0633675415
 20
556.615712729
 30
0.0
 10
1065.5054307863
 20
555.4991720977
 30
0.0
 10
1066.2521755312
 20
555.1164110595
 30
0.0
  0
SPLINE
  5
668
100
AcDbEntity
  8
0
100
AcDbSpline
 62
7
  6
CONTINUOUS
 70
0
 71
3
 72
9
 73
5
 74
0
 42
0.0000001
 43
0.0000001
 44
0.0000000001
 40
0.0
 40
0.0
 40
0.0
 40
0.0
 40
0.2426617978
 40
1.0
 40
1.0
 40
1.0
 40
1.0
 10
1062.5632575073
 20
568.0772175756
 30
0.0
 10
1062.5292914412
 20
568.0339374019
 30
0.0
 10
1062.3951846182
 20
567.8510051668
 30
0.0
 10
1062.2847828312
 20
567.6510994422
 30
0.0
 10
1062.214030375
 20
567.4946481913
 30
0.0
  0
SPLINE
  5
669
100
AcDbEntity
  8
0
100
AcDbSpline
 62
7
  6
CONTINUOUS
 70
0
 71
3
 72
10
 73
6
 74
0
 42
0.0000001
 43
0.0000001
 44
0.0000000001
 40
0.0
 40
0.0
 40
0.0
 40
0.0
 40
0.2045563832
 40
0.444638957
 40
1.0
 40
1.0
 40
1.0
 40
1.0
 10
1062.0931987074
 20
567.1883034661
 30
0.0
 10
1061.9412641211
 20
566.7428389978
 30
0.0
 10
1061.7934157286
 20
565.7119556117
 30
0.0
 10
1062.0242840917
 20
563.4113394597
 30
0.0
 10
1062.7133100426
 20
561.6689354576
 30
0.0
 10
1063.3323935965
 20
560.5510923486
 30
0.0
  0
SPLINE
  5
66A
100
AcDbEntity
  8
0
100
AcDbSpline
 62
7
  6
CONTINUOUS
 70
0
 71
3
 72
9
 73
5
 74
0
 42
0.0000001
 43
0.0000001
 44
0.0000000001
 40
0.0
 40
0.0
 40
0.0
 40
0.0
 40
0.5322147127
 40
1.0
 40
1.0
 40
1.0
 40
1.0
 10
1063.8522253887
 20
559.6881622045
 30
0.0
 10
1064.3739637258
 20
558.8893530087
 30
0.0
 10
1065.5072321355
 20
557.4834610976
 30
0.0
 10
1066.9484978438
 20
556.3678894538
 30
0.0
 10
1067.6947717054
 20
555.9853697776
 30
0.0
  0
SPLINE
  5
66B
100
AcDbEntity
  8
0
100
AcDbSpline
 62
7
  6
CONTINUOUS
 70
0
 71
3
 72
11
 73
7
 74
0
 42
0.0000001
 43
0.0000001
 44
0.0000000001
 40
0.0
 40
0.0
 40
0.0
 40
0.0
 40
0.2436994762
 40
0.5000019565
 40
0.7563044975
 40
1.0
 40
1.0
 40
1.0
 40
1.0
 10
1147.7349362855
 20
723.3226473233
 30
0.0
 10
1151.2747791366
 20
720.2124746206
 30
0.0
 10
1157.9698912301
 20
713.1695533745
 30
0.0
 10
1166.4028933942
 20
701.165443126
 30
0.0
 10
1173.0713524946
 20
688.0985948524
 30
0.0
 10
1176.1672220337
 20
678.8876463865
 30
0.0
 10
1177.2614825368
 20
674.3044671939
 30
0.0
  0
SPLINE
  5
66C
100
AcDbEntity
  8
0
100
AcDbSpline
 62
7
  6
CONTINUOUS
 70
0
 71
3
 72
10
 73
6
 74
0
 42
0.0000001
 43
0.0000001
 44
0.0000000001
 40
0.0
 40
0.0
 40
0.0
 40
0.0
 40
0.5492994874
 40
0.7824570354
 40
1.0
 40
1.0
 40
1.0
 40
1.0
 10
1066.2521755312
 20
555.1164110595
 30
0.0
 10
1066.7990878896
 20
554.8360786654
 30
0.0
 10
1067.6578253901
 20
554.5337573584
 30
0.0
 10
1068.7884915084
 20
554.5964467072
 30
0.0
 10
1069.2684928704
 20
554.7834616775
 30
0.0
 10
1069.4770266455
 20
554.9089768671
 30
0.0
  0
SPLINE
  5
66D
100
AcDbEntity
  8
7_ALL_ROUNDS
100
AcDbSpline
 62
9
  6
CONTINUOUS
 70
0
 71
3
 72
13
 73
9
 74
0
 42
0.0000001
 43
0.0000001
 44
0.0000000001
 40
0.0
 40
0.0
 40
0.0
 40
0.0
 40
0.3003258974
 40
0.4362857319
 40
0.5628507587
 40
0.7908271015
 40
0.896594183
 40
1.0
 40
1.0
 40
1.0
 40
1.0
 10
963.596810875
 20
643.3331303883
 30
0.0
 10
963.1004091341
 20
648.1181476771
 30
0.0
 10
962.9212445093
 20
655.1619885042
 30
0.0
 10
964.1993423311
 20
664.1084829338
 30
0.0
 10
966.270585681
 20
671.6977578958
 30
0.0
 10
969.7377719188
 20
678.3910105305
 30
0.0
 10
974.6201511978
 20
683.4659008555
 30
0.0
 10
977.4022700277
 20
685.3825316344
 30
0.0
 10
978.8553615865
 20
686.1775928
 30
0.0
  0
SPLINE
  5
66E
100
AcDbEntity
  8
0
100
AcDbSpline
 62
7
  6
CONTINUOUS
 70
0
 71
3
 72
12
 73
8
 74
0
 42
0.0000001
 43
0.0000001
 44
0.0000000001
 40
0.0
 40
0.0
 40
0.0
 40
0.0
 40
0.2996530057
 40
0.561998305
 40
0.790815162
 40
0.8967828121
 40
1.0
 40
1.0
 40
1.0
 40
1.0
 10
964.0647980524
 20
643.5982240344
 30
0.0
 10
963.5792979679
 20
648.2781558451
 30
0.0
 10
963.3446035682
 20
657.1573981534
 30
0.0
 10
965.5873038906
 20
669.4779644013
 30
0.0
 10
969.8239282655
 20
678.0472616982
 30
0.0
 10
974.4700800546
 20
683.1686776116
 30
0.0
 10
977.1273891133
 20
685.1425175815
 30
0.0
 10
978.5187610118
 20
685.9735948422
 30
0.0
  0
SPLINE
  5
66F
100
AcDbEntity
  8
7_ALL_ROUNDS
100
AcDbSpline
 62
9
  6
CONTINUOUS
 70
0
 71
3
 72
13
 73
9
 74
0
 42
0.0000001
 43
0.0000001
 44
0.0000000001
 40
0.0
 40
0.0
 40
0.0
 40
0.0
 40
0.3009244964
 40
0.4368827478
 40
0.5632751038
 40
0.7906802789
 40
0.8963581368
 40
1.0
 40
1.0
 40
1.0
 40
1.0
 10
962.4904331797
 20
643.2793246455
 30
0.0
 10
961.9808594298
 20
648.1913122608
 30
0.0
 10
961.8058132645
 20
655.4202788909
 30
0.0
 10
963.1636068035
 20
664.5870620791
 30
0.0
 10
965.3468465567
 20
672.3331044866
 30
0.0
 10
968.9966285699
 20
679.1342678658
 30
0.0
 10
974.1139458021
 20
684.2134139128
 30
0.0
 10
977.0208601339
 20
686.0986404743
 30
0.0
 10
978.536251244
 20
686.8709051059
 30
0.0
  0
SPLINE
  5
670
100
AcDbEntity
  8
7_ALL_ROUNDS
100
AcDbSpline
 62
9
  6
CONTINUOUS
 70
0
 71
3
 72
18
 73
14
 74
0
 42
0.0000001
 43
0.0000001
 44
0.0000000001
 40
0.0
 40
0.0
 40
0.0
 40
0.0
 40
0.0406849183
 40
0.0836607187
 40
0.1302799423
 40
0.1813586343
 40
0.2372146169
 40
0.2977619216
 40
0.4309671967
 40
0.5755558509
 40
0.7239301565
 40
0.8679116735
 40
1.0
 40
1.0
 40
1.0
 40
1.0
 10
978.536251244
 20
686.8709051059
 30
0.0
 10
980.4662747706
 20
687.854472251
 30
0.0
 10
984.721478983
 20
689.3534104426
 30
0.0
 10
991.6842168889
 20
690.0072180054
 30
0.0
 10
999.16991885
 20
689.1335037988
 30
0.0
 10
1007.0341242508
 20
686.7771717677
 30
0.0
 10
1015.140799218
 20
682.9992717915
 30
0.0
 10
1026.4333326976
 20
675.9420331718
 30
0.0
 10
1040.0762665838
 20
663.9962167544
 30
0.0
 10
1054.5061295741
 20
646.3771893259
 30
0.0
 10
1066.4450894548
 20
626.3048381378
 30
0.0
 10
1074.9950599976
 20
605.2977594214
 30
0.0
 10
1078.2078896265
 20
590.8441086033
 30
0.0
 10
1078.9555488321
 20
583.8511633012
 30
0.0
  0
SPLINE
  5
671
100
AcDbEntity
  8
7_ALL_ROUNDS
100
AcDbSpline
 62
9
  6
CONTINUOUS
 70
0
 71
3
 72
12
 73
8
 74
0
 42
0.0000001
 43
0.0000001
 44
0.0000000001
 40
0.0
 40
0.0
 40
0.0
 40
0.0
 40
0.2978670723
 40
0.5604718273
 40
0.7906924633
 40
0.8970534966
 40
1.0
 40
1.0
 40
1.0
 40
1.0
 10
1078.9854648998
 20
583.5671410802
 30
0.0
 10
1079.4541800433
 20
579.0490061086
 30
0.0
 10
1079.7095111527
 20
570.4548168624
 30
0.0
 10
1077.7110388908
 20
558.4728975301
 30
0.0
 10
1073.8898869598
 20
550.0046164335
 30
0.0
 10
1069.654182458
 20
544.7697155516
 30
0.0
 10
1067.213372898
 20
542.67875912
 30
0.0
 10
1065.9291047073
 20
541.7758469793
 30
0.0
  0
SPLINE
  5
672
100
AcDbEntity
  8
7_ALL_ROUNDS
100
AcDbSpline
 62
9
  6
CONTINUOUS
 70
0
 71
3
 72
19
 73
15
 74
0
 42
0.0000001
 43
0.0000001
 44
0.0000000001
 40
0.0
 40
0.0
 40
0.0
 40
0.0
 40
0.0406511063
 40
0.0827961326
 40
0.12815573
 40
0.1778829078
 40
0.2325388505
 40
0.2921860326
 40
0.3565015783
 40
0.4248744458
 40
0.5702273934
 40
0.7203320427
 40
0.8663194742
 40
1.0
 40
1.0
 40
1.0
 40
1.0
 10
1065.9291047073
 20
541.7758469793
 30
0.0
 10
1064.1166656204
 20
540.5016012511
 30
0.0
 10
1060.0489373515
 20
538.4013965901
 30
0.0
 10
1053.1471441939
 20
536.9354378689
 30
0.0
 10
1045.6115751939
 20
537.1305032183
 30
0.0
 10
1037.6099329153
 20
538.9406528859
 30
0.0
 10
1029.2916923037
 20
542.302691574
 30
0.0
 10
1020.8147999768
 20
547.1389153753
 30
0.0
 10
1012.344092803
 20
553.3480289193
 30
0.0
 10
1001.0607029589
 20
563.4934996293
 30
0.0
 10
988.1762069386
 20
578.6994440106
 30
0.0
 10
975.6008292981
 20
599.3194508258
 30
0.0
 10
966.5964328265
 20
621.0415765695
 30
0.0
 10
963.2422318593
 20
636.0324328974
 30
0.0
 10
962.4904331797
 20
643.2793246455
 30
0.0
  0
SPLINE
  5
673
100
AcDbEntity
  8
6_ALL_SURFS
100
AcDbSpline
 62
9
  6
CONTINUOUS
 70
0
 71
3
 72
9
 73
5
 74
0
 42
0.0000001
 43
0.0000001
 44
0.0000000001
 40
0.0
 40
0.0
 40
0.0
 40
0.0
 40
0.4924527221
 40
1.0
 40
1.0
 40
1.0
 40
1.0
 10
1084.9990571906
 20
611.5170973598
 30
0.0
 10
1083.1198976065
 20
617.3916311181
 30
0.0
 10
1078.483527706
 20
629.0679502907
 30
0.0
 10
1072.4768247414
 20
640.0953338724
 30
0.0
 10
1069.1121160542
 20
645.4886572617
 30
0.0
  0
SPLINE
  5
674
100
AcDbEntity
  8
0
100
AcDbSpline
 62
7
  6
CONTINUOUS
 70
0
 71
3
 72
14
 73
10
 74
0
 42
0.0000001
 43
0.0000001
 44
0.0000000001
 40
0.0
 40
0.0
 40
0.0
 40
0.0
 40
0.277343308
 40
0.426975825
 40
0.572364923
 40
0.7056364687
 40
0.8210991751
 40
0.9173184613
 40
1.0
 40
1.0
 40
1.0
 40
1.0
 10
1032.7927343076
 20
663.7123300361
 30
0.0
 10
1032.683762854
 20
664.7627499807
 30
0.0
 10
1032.145124478
 20
666.3452413261
 30
0.0
 10
1031.0221755821
 20
668.215101394
 30
0.0
 10
1029.9737423599
 20
669.4748897476
 30
0.0
 10
1028.8257650978
 20
670.4549015563
 30
0.0
 10
1027.6576270142
 20
671.0827421181
 30
0.0
 10
1026.5351083078
 20
671.3100115434
 30
0.0
 10
1025.8430025561
 20
671.1279286042
 30
0.0
 10
1025.5732790108
 20
670.9655459055
 30
0.0
  0
SPLINE
  5
675
100
AcDbEntity
  8
0
100
AcDbSpline
 62
7
  6
CONTINUOUS
 70
0
 71
3
 72
14
 73
10
 74
0
 42
0.0000001
 43
0.0000001
 44
0.0000000001
 40
0.0
 40
0.0
 40
0.0
 40
0.0
 40
0.277343308
 40
0.426975825
 40
0.572364923
 40
0.7056364687
 40
0.8210991751
 40
0.9173184613
 40
1.0
 40
1.0
 40
1.0
 40
1.0
 10
1075.9569947575
 20
571.4164370615
 30
0.0
 10
1075.848023304
 20
572.4668570061
 30
0.0
 10
1075.3093849279
 20
574.0493483515
 30
0.0
 10
1074.1864360321
 20
575.9192084194
 30
0.0
 10
1073.1380028099
 20
577.178996773
 30
0.0
 10
1071.9900255478
 20
578.1590085817
 30
0.0
 10
1070.8218874641
 20
578.7868491435
 30
0.0
 10
1069.6993687577
 20
579.0141185688
 30
0.0
 10
1069.0072630061
 20
578.8320356296
 30
0.0
 10
1068.7375394608
 20
578.6696529309
 30
0.0
  0
SPLINE
  5
676
100
AcDbEntity
  8
0
100
AcDbSpline
 62
7
  6
CONTINUOUS
 70
0
 71
3
 72
14
 73
10
 74
0
 42
0.0000001
 43
0.0000001
 44
0.0000000001
 40
0.0
 40
0.0
 40
0.0
 40
0.0
 40
0.277343308
 40
0.426975825
 40
0.572364923
 40
0.7056364687
 40
0.8210991751
 40
0.9173184613
 40
1.0
 40
1.0
 40
1.0
 40
1.0
 10
1018.9499860452
 20
560.1233939125
 30
0.0
 10
1018.8410145917
 20
561.1738138572
 30
0.0
 10
1018.3023762156
 20
562.7563052026
 30
0.0
 10
1017.1794273198
 20
564.6261652705
 30
0.0
 10
1016.1309940976
 20
565.8859536241
 30
0.0
 10
1014.9830168355
 20
566.8659654327
 30
0.0
 10
1013.8148787518
 20
567.4938059946
 30
0.0
 10
1012.6923600454
 20
567.7210754198
 30
0.0
 10
1012.0002542938
 20
567.5389924806
 30
0.0
 10
1011.7305307485
 20
567.376609782
 30
0.0
  0
SPLINE
  5
677
100
AcDbEntity
  8
0
100
AcDbSpline
 62
7
  6
CONTINUOUS
 70
0
 71
3
 72
20
 73
16
 74
0
 42
0.0000001
 43
0.0000001
 44
0.0000000001
 40
0.0
 40
0.0
 40
0.0
 40
0.0
 40
0.143689374
 40
0.3009695404
 40
0.455234768
 40
0.5263075973
 40
0.59115878
 40
0.648954932
 40
0.6998198123
 40
0.7452165098
 40
0.7881280869
 40
0.8324256741
 40
0.8814672556
 40
0.9371663808
 40
1.0
 40
1.0
 40
1.0
 40
1.0
 10
1014.6642986875
 20
628.9210566218
 30
0.0
 10
1014.9690728558
 20
625.9832150621
 30
0.0
 10
1016.5848661752
 20
619.9254568998
 30
0.0
 10
1020.9067540823
 20
611.5669584482
 30
0.0
 10
1025.8956634366
 20
605.3916835258
 30
0.0
 10
1030.4394923047
 20
601.5038638355
 30
0.0
 10
1033.8147673806
 20
599.3603715495
 30
0.0
 10
1037.1319679842
 20
597.9898243211
 30
0.0
 10
1040.2876152665
 20
597.4538085999
 30
0.0
 10
1043.1780106225
 20
597.8153205558
 30
0.0
 10
1045.6448707082
 20
599.1188822555
 30
0.0
 10
1047.510284199
 20
601.284018253
 30
0.0
 10
1048.7072507519
 20
604.1464127199
 30
0.0
 10
1049.2403859593
 20
607.5744410149
 30
0.0
 10
1049.1608545208
 20
610.0226909055
 30
0.0
 10
1049.0275804761
 20
611.3073733619
 30
0.0
  0
SPLINE
  5
678
100
AcDbEntity
  8
0
100
AcDbSpline
 62
7
  6
CONTINUOUS
 70
0
 71
3
 72
17
 73
13
 74
0
 42
0.0000001
 43
0.0000001
 44
0.0000000001
 40
0.0
 40
0.0
 40
0.0
 40
0.0
 40
0.1341120595
 40
0.2805942344
 40
0.4311128612
 40
0.5766541817
 40
0.7090426598
 40
0.82264662
 40
0.8721104056
 40
0.9172431612
 40
0.9592742415
 40
1.0
 40
1.0
 40
1.0
 40
1.0
 10
994.8662268695
 20
634.0829873298
 30
0.0
 10
995.2888307149
 20
630.0093378227
 30
0.0
 10
997.1813863345
 20
621.5825142001
 30
0.0
 10
1002.263463767
 20
609.3820837052
 30
0.0
 10
1009.3579568529
 20
597.8154402898
 30
0.0
 10
1017.8971155308
 20
587.8208051111
 30
0.0
 10
1027.1900792728
 20
580.1945523713
 30
0.0
 10
1035.3846766371
 20
576.1113972379
 30
0.0
 10
1041.6394874429
 20
574.7930188818
 30
0.0
 10
1045.8463107157
 20
574.7686960693
 30
0.0
 10
1049.6850438396
 20
575.6858412263
 30
0.0
 10
1051.9284275427
 20
576.9284632472
 30
0.0
 10
1052.9243822441
 20
577.6733257932
 30
0.0
  0
SPLINE
  5
679
100
AcDbEntity
  8
0
100
AcDbSpline
 62
7
  6
CONTINUOUS
 70
0
 71
3
 72
9
 73
5
 74
0
 42
0.0000001
 43
0.0000001
 44
0.0000000001
 40
0.0
 40
0.0
 40
0.0
 40
0.0
 40
0.2839640004
 40
1.0
 40
1.0
 40
1.0
 40
1.0
 10
1067.0068175039
 20
562.6168387618
 30
0.0
 10
1067.0862938531
 20
562.5761013477
 30
0.0
 10
1067.3090810577
 20
562.3836841213
 30
0.0
 10
1067.5007006544
 20
561.8902769142
 30
0.0
 10
1067.3078241271
 20
561.7740320599
 30
0.0
  0
SPLINE
  5
67A
100
AcDbEntity
  8
0
100
AcDbSpline
 62
7
  6
CONTINUOUS
 70
0
 71
3
 72
9
 73
5
 74
0
 42
0.0000001
 43
0.0000001
 44
0.0000000001
 40
0.0
 40
0.0
 40
0.0
 40
0.0
 40
0.2206103668
 40
1.0
 40
1.0
 40
1.0
 40
1.0
 10
1066.791805156
 20
562.6307118406
 30
0.0
 10
1066.8057424048
 20
562.6391116884
 30
0.0
 10
1066.8762217737
 20
562.6657956383
 30
0.0
 10
1066.9556568759
 20
562.6430623077
 30
0.0
 10
1067.0068175039
 20
562.6168387618
 30
0.0
  0
SPLINE
  5
67B
100
AcDbEntity
  8
0
100
AcDbSpline
 62
7
  6
CONTINUOUS
 70
0
 71
3
 72
9
 73
5
 74
0
 42
0.0000001
 43
0.0000001
 44
0.0000000001
 40
0.0
 40
0.0
 40
0.0
 40
0.0
 40
0.2823174346
 40
1.0
 40
1.0
 40
1.0
 40
1.0
 10
1067.6947717054
 20
555.9853697776
 30
0.0
 10
1067.9020053545
 20
555.8791474477
 30
0.0
 10
1068.6520227551
 20
555.5437306604
 30
0.0
 10
1069.5116659806
 20
555.3872889191
 30
0.0
 10
1070.096150956
 20
555.4812198341
 30
0.0
  0
SPLINE
  5
67C
100
AcDbEntity
  8
0
100
AcDbSpline
 62
7
  6
CONTINUOUS
 70
0
 71
3
 72
18
 73
14
 74
0
 42
0.0000001
 43
0.0000001
 44
0.0000000001
 40
0.0
 40
0.0
 40
0.0
 40
0.0
 40
0.1359261149
 40
0.2845215805
 40
0.436680207
 40
0.5826545574
 40
0.7138255942
 40
0.772105235
 40
0.8250814687
 40
0.8730759368
 40
0.9170451621
 40
0.9586343496
 40
1.0
 40
1.0
 40
1.0
 40
1.0
 10
992.6977746004
 20
633.1839841298
 30
0.0
 10
993.1410050574
 20
628.9115063655
 30
0.0
 10
995.1645819629
 20
620.0730733712
 30
0.0
 10
1000.6044729755
 20
607.3302866718
 30
0.0
 10
1008.1819198253
 20
595.3430974115
 30
0.0
 10
1017.236280984
 20
585.1606346113
 30
0.0
 10
1025.7079426038
 20
578.6291737742
 30
0.0
 10
1032.5850247561
 20
575.2008570579
 30
0.0
 10
1037.4004717732
 20
573.6591458383
 30
0.0
 10
1041.9772121345
 20
573.088465407
 30
0.0
 10
1046.2187634256
 20
573.5280267919
 30
0.0
 10
1050.0050432419
 20
574.9981006239
 30
0.0
 10
1052.1114507382
 20
576.6260991399
 30
0.0
 10
1053.0300329442
 20
577.556138055
 30
0.0
  0
SPLINE
  5
67D
100
AcDbEntity
  8
0
100
AcDbSpline
 62
7
  6
CONTINUOUS
 70
0
 71
3
 72
9
 73
5
 74
0
 42
0.0000001
 43
0.0000001
 44
0.0000000001
 40
0.0
 40
0.0
 40
0.0
 40
0.0
 40
0.2118647167
 40
1.0
 40
1.0
 40
1.0
 40
1.0
 10
1047.832755884
 20
550.0431456357
 30
0.0
 10
1047.8494357733
 20
550.0531523601
 30
0.0
 10
1047.9184716799
 20
550.1178981712
 30
0.0
 10
1047.9258655908
 20
550.2233199591
 30
0.0
 10
1047.9183991065
 20
550.2952924239
 30
0.0
  0
SPLINE
  5
67E
100
AcDbEntity
  8
0
100
AcDbSpline
 62
7
  6
CONTINUOUS
 70
0
 71
3
 72
18
 73
14
 74
0
 42
0.0000001
 43
0.0000001
 44
0.0000000001
 40
0.0
 40
0.0
 40
0.0
 40
0.0
 40
0.1330570991
 40
0.2783146041
 40
0.4278289348
 40
0.5729698929
 40
0.7058133754
 40
0.7658200755
 40
0.8209360144
 40
0.8711646205
 40
0.9169730748
 40
0.959388196
 40
1.0
 40
1.0
 40
1.0
 40
1.0
 10
964.0647980524
 20
643.5982240344
 30
0.0
 10
964.800076529
 20
636.5105772088
 30
0.0
 10
968.0594546508
 20
621.849250224
 30
0.0
 10
976.802964798
 20
600.5786274435
 30
0.0
 10
989.0285560461
 20
580.3280846436
 30
0.0
 10
1003.774276988
 20
562.6995645974
 30
0.0
 10
1017.6838364629
 20
550.9128319302
 30
0.0
 10
1029.1421810744
 20
544.1422743396
 30
0.0
 10
1037.3135373344
 20
540.6532724125
 30
0.0
 10
1045.1980680348
 20
538.6555624235
 30
0.0
 10
1052.6531351717
 20
538.2112799344
 30
0.0
 10
1059.5216229987
 20
539.365964721
 30
0.0
 10
1063.6263261032
 20
541.2309798597
 30
0.0
 10
1065.4667111393
 20
542.3899472775
 30
0.0
  0
SPLINE
  5
67F
100
AcDbEntity
  8
0
100
AcDbSpline
 62
7
  6
CONTINUOUS
 70
0
 71
3
 72
14
 73
10
 74
0
 42
0.0000001
 43
0.0000001
 44
0.0000000001
 40
0.0
 40
0.0
 40
0.0
 40
0.0
 40
0.277343308
 40
0.426975825
 40
0.572364923
 40
0.7056364687
 40
0.8210991751
 40
0.9173184613
 40
1.0
 40
1.0
 40
1.0
 40
1.0
 10
975.7857255953
 20
652.4192868871
 30
0.0
 10
975.6767541417
 20
653.4697068318
 30
0.0
 10
975.1381157657
 20
655.0521981772
 30
0.0
 10
974.0151668698
 20
656.9220582451
 30
0.0
 10
972.9667336476
 20
658.1818465987
 30
0.0
 10
971.8187563855
 20
659.1618584073
 30
0.0
 10
970.6506183019
 20
659.7896989692
 30
0.0
 10
969.5280995955
 20
660.0169683944
 30
0.0
 10
968.8359938438
 20
659.8348854552
 30
0.0
 10
968.5662702985
 20
659.6725027566
 30
0.0
  0
SPLINE
  5
680
100
AcDbEntity
  8
0
100
AcDbSpline
 62
7
  6
CONTINUOUS
 70
0
 71
3
 72
8
 73
4
 74
0
 42
0.0000001
 43
0.0000001
 44
0.0000000001
 40
0.0
 40
0.0
 40
0.0
 40
0.0
 40
1.0
 40
1.0
 40
1.0
 40
1.0
 10
979.9780654749
 20
618.3496944442
 30
0.0
 10
979.9368809099
 20
618.324849374
 30
0.0
 10
979.8985877141
 20
618.2945876181
 30
0.0
 10
979.8645877995
 20
618.2605662759
 30
0.0
  0
SPLINE
  5
681
100
AcDbEntity
  8
0
100
AcDbSpline
 62
7
  6
CONTINUOUS
 70
0
 71
3
 72
12
 73
8
 74
0
 42
0.0000001
 43
0.0000001
 44
0.0000000001
 40
0.0
 40
0.0
 40
0.0
 40
0.0
 40
0.1867563352
 40
0.3094276513
 40
0.4474232166
 40
0.7395413592
 40
1.0
 40
1.0
 40
1.0
 40
1.0
 10
979.8645877995
 20
618.2605662759
 30
0.0
 10
979.6942918269
 20
618.0901629783
 30
0.0
 10
979.5914094541
 20
617.6529230814
 30
0.0
 10
979.6612592222
 20
617.0852789615
 30
0.0
 10
979.8755350616
 20
616.3985958334
 30
0.0
 10
980.3398986578
 20
615.6267146421
 30
0.0
 10
980.8830130865
 20
615.1318917711
 30
0.0
 10
981.1820083136
 20
614.978634953
 30
0.0
  0
SPLINE
  5
682
100
AcDbEntity
  8
0
100
AcDbSpline
 62
7
  6
CONTINUOUS
 70
0
 71
3
 72
11
 73
7
 74
0
 42
0.0000001
 43
0.0000001
 44
0.0000000001
 40
0.0
 40
0.0
 40
0.0
 40
0.0
 40
0.4204281581
 40
0.5724367575
 40
0.7261810544
 40
1.0
 40
1.0
 40
1.0
 40
1.0
 10
981.7839927205
 20
615.3515972411
 30
0.0
 10
982.1364957697
 20
615.5638233061
 30
0.0
 10
982.0499159321
 20
616.3745302511
 30
0.0
 10
981.7544015748
 20
616.9857498473
 30
0.0
 10
981.4363764484
 20
617.4634472521
 30
0.0
 10
981.1195032101
 20
617.7576669091
 30
0.0
 10
980.8810283504
 20
617.8799026336
 30
0.0
  0
SPLINE
  5
683
100
AcDbEntity
  8
0
100
AcDbSpline
 62
7
  6
CONTINUOUS
 70
0
 71
3
 72
14
 73
10
 74
0
 42
0.0000001
 43
0.0000001
 44
0.0000000001
 40
0.0
 40
0.0
 40
0.0
 40
0.0
 40
0.2773446694
 40
0.4269734855
 40
0.572364057
 40
0.7056359999
 40
0.8210990679
 40
0.9173183834
 40
1.0
 40
1.0
 40
1.0
 40
1.0
 10
1031.6386573681
 20
663.0171630616
 30
0.0
 10
1031.529684622
 20
664.0675954662
 30
0.0
 10
1030.9910794779
 20
665.6501033823
 30
0.0
 10
1029.8680964923
 20
667.5199559119
 30
0.0
 10
1028.8196835856
 20
668.7797685141
 30
0.0
 10
1027.6716930233
 20
669.7597854687
 30
0.0
 10
1026.5035327636
 20
670.3876510029
 30
0.0
 10
1025.3810394589
 20
670.6148679251
 30
0.0
 10
1024.6888524717
 20
670.4328883533
 30
0.0
 10
1024.4191844774
 20
670.270408602
 30
0.0
  0
SPLINE
  5
684
100
AcDbEntity
  8
0
100
AcDbSpline
 62
7
  6
CONTINUOUS
 70
0
 71
3
 72
9
 73
5
 74
0
 42
0.0000001
 43
0.0000001
 44
0.0000000001
 40
0.0
 40
0.0
 40
0.0
 40
0.0
 40
0.5522396296
 40
1.0
 40
1.0
 40
1.0
 40
1.0
 10
984.7259943168
 20
609.6584118996
 30
0.0
 10
984.4707608369
 20
609.7892376368
 30
0.0
 10
983.9687513645
 20
609.9733580648
 30
0.0
 10
983.42022932
 20
609.8752627738
 30
0.0
 10
983.2210927479
 20
609.7551676938
 30
0.0
  0
SPLINE
  5
685
100
AcDbEntity
  8
0
100
AcDbSpline
 62
7
  6
CONTINUOUS
 70
0
 71
3
 72
13
 73
9
 74
0
 42
0.0000001
 43
0.0000001
 44
0.0000000001
 40
0.0
 40
0.0
 40
0.0
 40
0.0
 40
0.0828955434
 40
0.1769993947
 40
0.2879798503
 40
0.4159572497
 40
0.7058410658
 40
1.0
 40
1.0
 40
1.0
 40
1.0
 10
988.8883902744
 20
599.1738649038
 30
0.0
 10
988.788587039
 20
599.1136574354
 30
0.0
 10
988.606741301
 20
598.9290125857
 30
0.0
 10
988.4627944817
 20
598.5419960576
 30
0.0
 10
988.4307864068
 20
598.0702096985
 30
0.0
 10
988.5383572087
 20
597.3302942321
 30
0.0
 10
988.9292144424
 20
596.3927134502
 30
0.0
 10
989.4322162033
 20
595.7285794238
 30
0.0
 10
989.7315730261
 20
595.4431701684
 30
0.0
  0
SPLINE
  5
686
100
AcDbEntity
  8
0
100
AcDbSpline
 62
7
  6
CONTINUOUS
 70
0
 71
3
 72
9
 73
5
 74
0
 42
0.0000001
 43
0.0000001
 44
0.0000000001
 40
0.0
 40
0.0
 40
0.0
 40
0.0
 40
0.2669581697
 40
1.0
 40
1.0
 40
1.0
 40
1.0
 10
989.7315730261
 20
595.4431701684
 30
0.0
 10
989.7844384114
 20
595.3927678755
 30
0.0
 10
989.9880781873
 20
595.2101829441
 30
0.0
 10
990.2148332745
 20
595.0515273753
 30
0.0
 10
990.3933188227
 20
594.9600405397
 30
0.0
  0
SPLINE
  5
687
100
AcDbEntity
  8
0
100
AcDbSpline
 62
7
  6
CONTINUOUS
 70
0
 71
3
 72
9
 73
5
 74
0
 42
0.0000001
 43
0.0000001
 44
0.0000000001
 40
0.0
 40
0.0
 40
0.0
 40
0.0
 40
0.2330322377
 40
1.0
 40
1.0
 40
1.0
 40
1.0
 10
989.5574847919
 20
599.1496198896
 30
0.0
 10
989.5491734732
 20
599.1042497742
 30
0.0
 10
989.5221678272
 20
598.9079777073
 30
0.0
 10
989.526816882
 20
598.7081287072
 30
0.0
 10
989.5429159183
 20
598.5571754183
 30
0.0
  0
SPLINE
  5
688
100
AcDbEntity
  8
0
100
AcDbSpline
 62
7
  6
CONTINUOUS
 70
0
 71
3
 72
8
 73
4
 74
0
 42
0.0000001
 43
0.0000001
 44
0.0000000001
 40
0.0
 40
0.0
 40
0.0
 40
0.0
 40
1.0
 40
1.0
 40
1.0
 40
1.0
 10
989.5429159183
 20
598.5571754183
 30
0.0
 10
989.5535423379
 20
598.4575363495
 30
0.0
 10
989.5697566388
 20
598.3583918482
 30
0.0
 10
989.5903963297
 20
598.260336415
 30
0.0
  0
SPLINE
  5
689
100
AcDbEntity
  8
0
100
AcDbSpline
 62
7
  6
CONTINUOUS
 70
0
 71
3
 72
8
 73
4
 74
0
 42
0.0000001
 43
0.0000001
 44
0.0000000001
 40
0.0
 40
0.0
 40
0.0
 40
0.0
 40
1.0
 40
1.0
 40
1.0
 40
1.0
 10
990.9900581747
 20
595.9377310122
 30
0.0
 10
991.0824057034
 20
595.8610872908
 30
0.0
 10
991.179116128
 20
595.7892685282
 30
0.0
 10
991.2801290212
 20
595.724470986
 30
0.0
  0
SPLINE
  5
68A
100
AcDbEntity
  8
0
100
AcDbSpline
 62
7
  6
CONTINUOUS
 70
0
 71
3
 72
8
 73
4
 74
0
 42
0.0000001
 43
0.0000001
 44
0.0000000001
 40
0.0
 40
0.0
 40
0.0
 40
0.0
 40
1.0
 40
1.0
 40
1.0
 40
1.0
 10
991.2801290212
 20
595.724470986
 30
0.0
 10
991.3433549692
 20
595.6839129354
 30
0.0
 10
991.4084193322
 20
595.6460233375
 30
0.0
 10
991.4752659534
 20
595.6117595783
 30
0.0
  0
SPLINE
  5
68B
100
AcDbEntity
  8
0
100
AcDbSpline
 62
7
  6
CONTINUOUS
 70
0
 71
3
 72
14
 73
10
 74
0
 42
0.0000001
 43
0.0000001
 44
0.0000000001
 40
0.0
 40
0.0
 40
0.0
 40
0.0
 40
0.2773446694
 40
0.4269734855
 40
0.572364057
 40
0.7056359999
 40
0.8210990679
 40
0.9173183834
 40
1.0
 40
1.0
 40
1.0
 40
1.0
 10
1074.8029178181
 20
570.721270087
 30
0.0
 10
1074.693945072
 20
571.7717024916
 30
0.0
 10
1074.1553399279
 20
573.3542104077
 30
0.0
 10
1073.0323569422
 20
575.2240629373
 30
0.0
 10
1071.9839440356
 20
576.4838755395
 30
0.0
 10
1070.8359534733
 20
577.4638924941
 30
0.0
 10
1069.6677932136
 20
578.0917580283
 30
0.0
 10
1068.5452999089
 20
578.3189749505
 30
0.0
 10
1067.8531129216
 20
578.1369953787
 30
0.0
 10
1067.5834449273
 20
577.9745156274
 30
0.0
  0
SPLINE
  5
68C
100
AcDbEntity
  8
7_ALL_ROUNDS
100
AcDbSpline
 62
9
  6
CONTINUOUS
 70
0
 71
3
 72
9
 73
5
 74
0
 42
0.0000001
 43
0.0000001
 44
0.0000000001
 40
0.0
 40
0.0
 40
0.0
 40
0.0
 40
0.2202866435
 40
1.0
 40
1.0
 40
1.0
 40
1.0
 10
991.529344021
 20
596.0950528013
 30
0.0
 10
991.5706196163
 20
596.1199028796
 30
0.0
 10
991.739545488
 20
596.26601584
 30
0.0
 10
991.7906899727
 20
596.5059780457
 30
0.0
 10
991.7940169759
 20
596.6764765325
 30
0.0
  0
SPLINE
  5
68D
100
AcDbEntity
  8
0
100
AcDbSpline
 62
7
  6
CONTINUOUS
 70
0
 71
3
 72
14
 73
10
 74
0
 42
0.0000001
 43
0.0000001
 44
0.0000000001
 40
0.0
 40
0.0
 40
0.0
 40
0.0
 40
0.2773446694
 40
0.4269734855
 40
0.572364057
 40
0.7056359999
 40
0.8210990679
 40
0.9173183834
 40
1.0
 40
1.0
 40
1.0
 40
1.0
 10
1017.7959091058
 20
559.4282269381
 30
0.0
 10
1017.6869363597
 20
560.4786593426
 30
0.0
 10
1017.1483312156
 20
562.0611672588
 30
0.0
 10
1016.0253482299
 20
563.9310197884
 30
0.0
 10
1014.9769353233
 20
565.1908323905
 30
0.0
 10
1013.828944761
 20
566.1708493452
 30
0.0
 10
1012.6607845013
 20
566.7987148794
 30
0.0
 10
1011.5382911966
 20
567.0259318016
 30
0.0
 10
1010.8461042093
 20
566.8439522298
 30
0.0
 10
1010.576436215
 20
566.6814724784
 30
0.0
  0
SPLINE
  5
68E
100
AcDbEntity
  8
0
100
AcDbSpline
 62
7
  6
CONTINUOUS
 70
0
 71
3
 72
14
 73
10
 74
0
 42
0.0000001
 43
0.0000001
 44
0.0000000001
 40
0.0
 40
0.0
 40
0.0
 40
0.0
 40
0.0831246737
 40
0.1812257973
 40
0.2999037376
 40
0.4366558303
 40
0.5843955055
 40
0.7338925052
 40
1.0
 40
1.0
 40
1.0
 40
1.0
 10
982.7051222382
 20
610.6117517862
 30
0.0
 10
982.4900390889
 20
610.482210674
 30
0.0
 10
982.1070118391
 20
610.0492823326
 30
0.0
 10
981.8784892146
 20
609.1514695247
 30
0.0
 10
981.9271706761
 20
608.0744977654
 30
0.0
 10
982.2420932107
 20
606.8907469153
 30
0.0
 10
982.7955342682
 20
605.6941899837
 30
0.0
 10
983.747115692
 20
604.2842371914
 30
0.0
 10
984.6986528781
 20
603.3935839982
 30
0.0
 10
985.4139485184
 20
603.0269429154
 30
0.0
  0
SPLINE
  5
68F
100
AcDbEntity
  8
0
100
AcDbSpline
 62
7
  6
CONTINUOUS
 70
0
 71
3
 72
9
 73
5
 74
0
 42
0.0000001
 43
0.0000001
 44
0.0000000001
 40
0.0
 40
0.0
 40
0.0
 40
0.0
 40
0.2350104078
 40
1.0
 40
1.0
 40
1.0
 40
1.0
 10
983.3136737047
 20
610.7851809136
 30
0.0
 10
983.2822542083
 20
610.7340490596
 30
0.0
 10
983.1603224933
 20
610.509249108
 30
0.0
 10
983.0848770967
 20
610.2610462209
 30
0.0
 10
983.0480117187
 20
610.0692035945
 30
0.0
  0
SPLINE
  5
690
100
AcDbEntity
  8
0
100
AcDbSpline
 62
7
  6
CONTINUOUS
 70
0
 71
3
 72
8
 73
4
 74
0
 42
0.0000001
 43
0.0000001
 44
0.0000000001
 40
0.0
 40
0.0
 40
0.0
 40
0.0
 40
1.0
 40
1.0
 40
1.0
 40
1.0
 10
983.0480117187
 20
610.0692035945
 30
0.0
 10
983.0187576455
 20
609.9169692064
 30
0.0
 10
983.0022691603
 20
609.7619816854
 30
0.0
 10
982.9956253166
 20
609.6071044145
 30
0.0
  0
SPLINE
  5
691
100
AcDbEntity
  8
0
100
AcDbSpline
 62
7
  6
CONTINUOUS
 70
0
 71
3
 72
9
 73
5
 74
0
 42
0.0000001
 43
0.0000001
 44
0.0000000001
 40
0.0
 40
0.0
 40
0.0
 40
0.0
 40
0.5522372932
 40
1.0
 40
1.0
 40
1.0
 40
1.0
 10
985.4139485184
 20
603.0269429154
 30
0.0
 10
985.7421039075
 20
602.8587393917
 30
0.0
 10
986.3876010621
 20
602.621948899
 30
0.0
 10
987.0927026672
 20
602.748277505
 30
0.0
 10
987.3488263219
 20
602.9025366518
 30
0.0
  0
SPLINE
  5
692
100
AcDbEntity
  8
0
100
AcDbSpline
 62
7
  6
CONTINUOUS
 70
0
 71
3
 72
14
 73
10
 74
0
 42
0.0000001
 43
0.0000001
 44
0.0000000001
 40
0.0
 40
0.0
 40
0.0
 40
0.0
 40
0.2773446694
 40
0.4269734855
 40
0.572364057
 40
0.7056359999
 40
0.8210990679
 40
0.9173183834
 40
1.0
 40
1.0
 40
1.0
 40
1.0
 10
974.6316486558
 20
651.7241199127
 30
0.0
 10
974.5226759097
 20
652.7745523172
 30
0.0
 10
973.9840707656
 20
654.3570602334
 30
0.0
 10
972.86108778
 20
656.226912763
 30
0.0
 10
971.8126748733
 20
657.4867253651
 30
0.0
 10
970.664684311
 20
658.4667423198
 30
0.0
 10
969.4965240513
 20
659.094607854
 30
0.0
 10
968.3740307466
 20
659.3218247762
 30
0.0
 10
967.6818437594
 20
659.1398452044
 30
0.0
 10
967.4121757651
 20
658.977365453
 30
0.0
  0
SPLINE
  5
693
100
AcDbEntity
  8
0
100
AcDbSpline
 62
7
  6
CONTINUOUS
 70
0
 71
3
 72
8
 73
4
 74
0
 42
0.0000001
 43
0.0000001
 44
0.0000000001
 40
0.0
 40
0.0
 40
0.0
 40
0.0
 40
1.0
 40
1.0
 40
1.0
 40
1.0
 10
984.3030014063
 20
610.4069496867
 30
0.0
 10
984.401592218
 20
610.4664257463
 30
0.0
 10
984.5119015039
 20
610.5090081236
 30
0.0
 10
984.6244063842
 20
610.5335071391
 30
0.0
  0
SPLINE
  5
694
100
AcDbEntity
  8
0
100
AcDbSpline
 62
7
  6
CONTINUOUS
 70
0
 71
3
 72
14
 73
10
 74
0
 42
0.0000001
 43
0.0000001
 44
0.0000000001
 40
0.0
 40
0.0
 40
0.0
 40
0.0
 40
0.0831246787
 40
0.1812254779
 40
0.299903344
 40
0.4366549161
 40
0.5843968862
 40
0.7338874892
 40
1.0
 40
1.0
 40
1.0
 40
1.0
 10
986.8328558121
 20
603.7591207443
 30
0.0
 10
987.0000842858
 20
603.859972721
 30
0.0
 10
987.2981051355
 20
604.1965255107
 30
0.0
 10
987.4757920722
 20
604.8949064046
 30
0.0
 10
987.4379440389
 20
605.7325213243
 30
0.0
 10
987.1930102898
 20
606.6532369104
 30
0.0
 10
986.7625310769
 20
607.5838661499
 30
0.0
 10
986.0224579141
 20
608.6805337291
 30
0.0
 10
985.2823470653
 20
609.3732406185
 30
0.0
 10
984.7259943168
 20
609.6584118996
 30
0.0
  0
SPLINE
  5
695
100
AcDbEntity
  8
0
100
AcDbSpline
 62
7
  6
CONTINUOUS
 70
0
 71
3
 72
8
 73
4
 74
0
 42
0.0000001
 43
0.0000001
 44
0.0000000001
 40
0.0
 40
0.0
 40
0.0
 40
0.0
 40
1.0
 40
1.0
 40
1.0
 40
1.0
 10
988.1703409091
 20
604.6281809884
 30
0.0
 10
988.0974504454
 20
604.5433757324
 30
0.0
 10
988.010592964
 20
604.4685400696
 30
0.0
 10
987.9148414152
 20
604.4107768285
 30
0.0
  0
SPLINE
  5
696
100
AcDbEntity
  8
0
100
AcDbSpline
 62
7
  6
CONTINUOUS
 70
0
 71
3
 72
9
 73
5
 74
0
 42
0.0000001
 43
0.0000001
 44
0.0000000001
 40
0.0
 40
0.0
 40
0.0
 40
0.0
 40
0.5521938778
 40
1.0
 40
1.0
 40
1.0
 40
1.0
 10
990.3933188227
 20
594.9600405397
 30
0.0
 10
990.5756154454
 20
594.866600251
 30
0.0
 10
990.9341811132
 20
594.735138302
 30
0.0
 10
991.3260309102
 20
594.8050732806
 30
0.0
 10
991.4682759951
 20
594.8908842908
 30
0.0
  0
SPLINE
  5
697
100
AcDbEntity
  8
0
100
AcDbSpline
 62
7
  6
CONTINUOUS
 70
0
 71
3
 72
11
 73
7
 74
0
 42
0.0000001
 43
0.0000001
 44
0.0000000001
 40
0.0
 40
0.0
 40
0.0
 40
0.0
 40
0.2084313584
 40
0.4374816017
 40
0.7002717692
 40
1.0
 40
1.0
 40
1.0
 40
1.0
 10
973.6039339174
 20
648.6981583547
 30
0.0
 10
973.8037493603
 20
648.8185507045
 30
0.0
 10
974.1729551162
 20
649.1620198943
 30
0.0
 10
974.5232241781
 20
649.8774455817
 30
0.0
 10
974.683134856
 20
650.7570998706
 30
0.0
 10
974.6662642084
 20
651.3904465922
 30
0.0
 10
974.6316486558
 20
651.7241199127
 30
0.0
  0
SPLINE
  5
698
100
AcDbEntity
  8
0
100
AcDbSpline
 62
7
  6
CONTINUOUS
 70
0
 71
3
 72
11
 73
7
 74
0
 42
0.0000001
 43
0.0000001
 44
0.0000000001
 40
0.0
 40
0.0
 40
0.0
 40
0.0
 40
0.2084271837
 40
0.4374942348
 40
0.7002128146
 40
1.0
 40
1.0
 40
1.0
 40
1.0
 10
974.7579932628
 20
649.3933550001
 30
0.0
 10
974.9578476115
 20
649.5136740788
 30
0.0
 10
975.3270278892
 20
649.8572327774
 30
0.0
 10
975.6772643179
 20
650.5725662109
 30
0.0
 10
975.8373147492
 20
651.4522108616
 30
0.0
 10
975.8203479858
 20
652.0855476523
 30
0.0
 10
975.7857255953
 20
652.4192868871
 30
0.0
  0
SPLINE
  5
699
100
AcDbEntity
  8
0
100
AcDbSpline
 62
9
  6
CONTINUOUS
 70
0
 71
3
 72
12
 73
8
 74
0
 42
0.0000001
 43
0.0000001
 44
0.0000000001
 40
0.0
 40
0.0
 40
0.0
 40
0.0
 40
0.1755846146
 40
0.2835393434
 40
0.4071116625
 40
0.6919597948
 40
1.0
 40
1.0
 40
1.0
 40
1.0
 10
1176.3426398724
 20
710.6549040607
 30
0.0
 10
1176.5560975653
 20
710.7834813471
 30
0.0
 10
1177.0007110051
 20
710.821840909
 30
0.0
 10
1177.5463293977
 20
710.6318080774
 30
0.0
 10
1178.1826469862
 20
710.2576656001
 30
0.0
 10
1178.913000777
 20
709.5305516818
 30
0.0
 10
1179.3618639612
 20
708.809426697
 30
0.0
 10
1179.5470653338
 20
708.4134202352
 30
0.0
  0
SPLINE
  5
69A
100
AcDbEntity
  8
0
100
AcDbSpline
 62
7
  6
CONTINUOUS
 70
0
 71
3
 72
9
 73
5
 74
0
 42
0.0000001
 43
0.0000001
 44
0.0000000001
 40
0.0
 40
0.0
 40
0.0
 40
0.0
 40
0.2636113543
 40
1.0
 40
1.0
 40
1.0
 40
1.0
 10
986.7829243273
 20
603.5470980649
 30
0.0
 10
986.8378500863
 20
603.5249283123
 30
0.0
 10
987.0483930888
 20
603.4465746434
 30
0.0
 10
987.2684940698
 20
603.3920924296
 30
0.0
 10
987.4326512067
 20
603.3713675292
 30
0.0
  0
SPLINE
  5
69B
100
AcDbEntity
  8
0
100
AcDbSpline
 62
7
  6
CONTINUOUS
 70
0
 71
3
 72
8
 73
4
 74
0
 42
0.0000001
 43
0.0000001
 44
0.0000000001
 40
0.0
 40
0.0
 40
0.0
 40
0.0
 40
1.0
 40
1.0
 40
1.0
 40
1.0
 10
987.4326512067
 20
603.3713675292
 30
0.0
 10
987.5581507096
 20
603.3555231696
 30
0.0
 10
987.6859143629
 20
603.3510814936
 30
0.0
 10
987.8120028027
 20
603.3612241913
 30
0.0
  0
SPLINE
  5
69C
100
AcDbEntity
  8
0
100
AcDbSpline
 62
7
  6
CONTINUOUS
 70
0
 71
3
 72
11
 73
7
 74
0
 42
0.0000001
 43
0.0000001
 44
0.0000000001
 40
0.0
 40
0.0
 40
0.0
 40
0.0
 40
0.2084313584
 40
0.4374816017
 40
0.7002717692
 40
1.0
 40
1.0
 40
1.0
 40
1.0
 10
1016.7681943673
 20
556.4022653801
 30
0.0
 10
1016.9680098103
 20
556.5226577299
 30
0.0
 10
1017.3372155661
 20
556.8661269197
 30
0.0
 10
1017.6874846281
 20
557.5815526071
 30
0.0
 10
1017.847395306
 20
558.461206896
 30
0.0
 10
1017.8305246583
 20
559.0945536176
 30
0.0
 10
1017.7959091058
 20
559.4282269381
 30
0.0
  0
SPLINE
  5
69D
100
AcDbEntity
  8
0
100
AcDbSpline
 62
7
  6
CONTINUOUS
 70
0
 71
3
 72
11
 73
7
 74
0
 42
0.0000001
 43
0.0000001
 44
0.0000000001
 40
0.0
 40
0.0
 40
0.0
 40
0.0
 40
0.2084271837
 40
0.4374942348
 40
0.7002128146
 40
1.0
 40
1.0
 40
1.0
 40
1.0
 10
1017.9222537127
 20
557.0974620255
 30
0.0
 10
1018.1221080615
 20
557.2177811042
 30
0.0
 10
1018.4912883391
 20
557.5613398028
 30
0.0
 10
1018.8415247679
 20
558.2766732363
 30
0.0
 10
1019.0015751991
 20
559.156317887
 30
0.0
 10
1018.9846084357
 20
559.7896546777
 30
0.0
 10
1018.9499860452
 20
560.1233939125
 30
0.0
  0
SPLINE
  5
69E
100
AcDbEntity
  8
0
100
AcDbSpline
 62
7
  6
CONTINUOUS
 70
0
 71
3
 72
9
 73
5
 74
0
 42
0.0000001
 43
0.0000001
 44
0.0000000001
 40
0.0
 40
0.0
 40
0.0
 40
0.0
 40
0.1461155578
 40
1.0
 40
1.0
 40
1.0
 40
1.0
 10
1169.9816755674
 20
707.3106665425
 30
0.0
 10
1169.9851350417
 20
707.3072320372
 30
0.0
 10
1170.0156399415
 20
707.2915159236
 30
0.0
 10
1170.0510541121
 20
707.2945978951
 30
0.0
 10
1170.0794202309
 20
707.2972292291
 30
0.0
  0
SPLINE
  5
69F
100
AcDbEntity
  8
0
100
AcDbSpline
 62
7
  6
CONTINUOUS
 70
0
 71
3
 72
8
 73
4
 74
0
 42
0.0000001
 43
0.0000001
 44
0.0000000001
 40
0.0
 40
0.0
 40
0.0
 40
0.0
 40
1.0
 40
1.0
 40
1.0
 40
1.0
 10
1170.0794202309
 20
707.2972292291
 30
0.0
 10
1170.0966645992
 20
707.298828873
 30
0.0
 10
1170.1138288573
 20
707.3013766466
 30
0.0
 10
1170.1308672088
 20
707.304478529
 30
0.0
  0
SPLINE
  5
6A0
100
AcDbEntity
  8
0
100
AcDbSpline
 62
7
  6
CONTINUOUS
 70
0
 71
3
 72
8
 73
4
 74
0
 42
0.0000001
 43
0.0000001
 44
0.0000000001
 40
0.0
 40
0.0
 40
0.0
 40
0.0
 40
1.0
 40
1.0
 40
1.0
 40
1.0
 10
1170.1308672088
 20
707.304478529
 30
0.0
 10
1170.1709162512
 20
707.3117695757
 30
0.0
 10
1170.2104644605
 20
707.3221331268
 30
0.0
 10
1170.2492175045
 20
707.3345945367
 30
0.0
  0
SPLINE
  5
6A1
100
AcDbEntity
  8
0
100
AcDbSpline
 62
7
  6
CONTINUOUS
 70
0
 71
3
 72
9
 73
5
 74
0
 42
0.0000001
 43
0.0000001
 44
0.0000000001
 40
0.0
 40
0.0
 40
0.0
 40
0.0
 40
0.2959994637
 40
1.0
 40
1.0
 40
1.0
 40
1.0
 10
980.8810283504
 20
617.8799026336
 30
0.0
 10
980.823023351
 20
617.909634418
 30
0.0
 10
980.6232982273
 20
617.9963577072
 30
0.0
 10
980.3688594636
 20
618.0013676219
 30
0.0
 10
980.2360468059
 20
617.9214071569
 30
0.0
  0
SPLINE
  5
6A2
100
AcDbEntity
  8
0
100
AcDbSpline
 62
7
  6
CONTINUOUS
 70
0
 71
3
 72
9
 73
5
 74
0
 42
0.0000001
 43
0.0000001
 44
0.0000000001
 40
0.0
 40
0.0
 40
0.0
 40
0.0
 40
0.2626684408
 40
1.0
 40
1.0
 40
1.0
 40
1.0
 10
991.4752659534
 20
595.6117595783
 30
0.0
 10
991.5065322141
 20
595.5957333438
 30
0.0
 10
991.6270611085
 20
595.5377610905
 30
0.0
 10
991.7538820564
 20
595.4922638497
 30
0.0
 10
991.8496418892
 20
595.4686648757
 30
0.0
  0
SPLINE
  5
6A3
100
AcDbEntity
  8
0
100
AcDbSpline
 62
7
  6
CONTINUOUS
 70
0
 71
3
 72
11
 73
7
 74
0
 42
0.0000001
 43
0.0000001
 44
0.0000000001
 40
0.0
 40
0.0
 40
0.0
 40
0.0
 40
0.2084313584
 40
0.4374816017
 40
0.7002717692
 40
1.0
 40
1.0
 40
1.0
 40
1.0
 10
1073.7752030796
 20
567.695308529
 30
0.0
 10
1073.9750185226
 20
567.8157008788
 30
0.0
 10
1074.3442242784
 20
568.1591700686
 30
0.0
 10
1074.6944933404
 20
568.874595756
 30
0.0
 10
1074.8544040183
 20
569.754250045
 30
0.0
 10
1074.8375333706
 20
570.3875967665
 30
0.0
 10
1074.8029178181
 20
570.721270087
 30
0.0
  0
SPLINE
  5
6A4
100
AcDbEntity
  8
0
100
AcDbSpline
 62
7
  6
CONTINUOUS
 70
0
 71
3
 72
11
 73
7
 74
0
 42
0.0000001
 43
0.0000001
 44
0.0000000001
 40
0.0
 40
0.0
 40
0.0
 40
0.0
 40
0.2084271837
 40
0.4374942348
 40
0.7002128146
 40
1.0
 40
1.0
 40
1.0
 40
1.0
 10
1074.929262425
 20
568.3905051744
 30
0.0
 10
1075.1291167738
 20
568.5108242532
 30
0.0
 10
1075.4982970514
 20
568.8543829517
 30
0.0
 10
1075.8485334802
 20
569.5697163852
 30
0.0
 10
1076.0085839114
 20
570.4493610359
 30
0.0
 10
1075.991617148
 20
571.0826978267
 30
0.0
 10
1075.9569947575
 20
571.4164370615
 30
0.0
  0
SPLINE
  5
6A5
100
AcDbEntity
  8
0
100
AcDbSpline
 62
9
  6
CONTINUOUS
 70
0
 71
3
 72
9
 73
5
 74
0
 42
0.0000001
 43
0.0000001
 44
0.0000000001
 40
0.0
 40
0.0
 40
0.0
 40
0.0
 40
0.4405075962
 40
1.0
 40
1.0
 40
1.0
 40
1.0
 10
1166.0357196852
 20
705.7253560002
 30
0.0
 10
1165.9056928419
 20
705.6770230464
 30
0.0
 10
1165.6539595219
 20
705.452006533
 30
0.0
 10
1165.5498883477
 20
705.1463754731
 30
0.0
 10
1165.5108984518
 20
704.9745551901
 30
0.0
  0
SPLINE
  5
6A6
100
AcDbEntity
  8
0
100
AcDbSpline
 62
7
  6
CONTINUOUS
 70
0
 71
3
 72
9
 73
5
 74
0
 42
0.0000001
 43
0.0000001
 44
0.0000000001
 40
0.0
 40
0.0
 40
0.0
 40
0.0
 40
0.5521938778
 40
1.0
 40
1.0
 40
1.0
 40
1.0
 10
981.1820083136
 20
614.978634953
 30
0.0
 10
981.3278456118
 20
614.903882722
 30
0.0
 10
981.614698146
 20
614.7987131627
 30
0.0
 10
981.9281779835
 20
614.8546611456
 30
0.0
 10
982.0419740515
 20
614.9233099538
 30
0.0
  0
SPLINE
  5
6A7
100
AcDbEntity
  8
0
100
AcDbSpline
 62
7
  6
CONTINUOUS
 70
0
 71
3
 72
11
 73
7
 74
0
 42
0.0000001
 43
0.0000001
 44
0.0000000001
 40
0.0
 40
0.0
 40
0.0
 40
0.0
 40
0.2084313584
 40
0.4374816017
 40
0.7002717692
 40
1.0
 40
1.0
 40
1.0
 40
1.0
 10
1030.6109426297
 20
659.9912015036
 30
0.0
 10
1030.8107580726
 20
660.1115938534
 30
0.0
 10
1031.1799638285
 20
660.4550630432
 30
0.0
 10
1031.5302328904
 20
661.1704887306
 30
0.0
 10
1031.6901435683
 20
662.0501430196
 30
0.0
 10
1031.6732729207
 20
662.6834897411
 30
0.0
 10
1031.6386573681
 20
663.0171630616
 30
0.0
  0
SPLINE
  5
6A8
100
AcDbEntity
  8
0
100
AcDbSpline
 62
7
  6
CONTINUOUS
 70
0
 71
3
 72
11
 73
7
 74
0
 42
0.0000001
 43
0.0000001
 44
0.0000000001
 40
0.0
 40
0.0
 40
0.0
 40
0.0
 40
0.2084271837
 40
0.4374942348
 40
0.7002128146
 40
1.0
 40
1.0
 40
1.0
 40
1.0
 10
1031.7650019751
 20
660.686398149
 30
0.0
 10
1031.9648563238
 20
660.8067172278
 30
0.0
 10
1032.3340366015
 20
661.1502759263
 30
0.0
 10
1032.6842730302
 20
661.8656093598
 30
0.0
 10
1032.8443234615
 20
662.7452540105
 30
0.0
 10
1032.8273566981
 20
663.3785908013
 30
0.0
 10
1032.7927343076
 20
663.7123300361
 30
0.0
  0
SPLINE
  5
6A9
100
AcDbEntity
  8
6_ALL_SURFS
100
AcDbSpline
 62
7
  6
CONTINUOUS
 70
0
 71
3
 72
9
 73
5
 74
0
 42
0.0000001
 43
0.0000001
 44
0.0000000001
 40
0.0
 40
0.0
 40
0.0
 40
0.0
 40
0.2611503722
 40
1.0
 40
1.0
 40
1.0
 40
1.0
 10
1084.9989040183
 20
611.5164139953
 30
0.0
 10
1085.6162528136
 20
609.5863899493
 30
0.0
 10
1087.8096500425
 20
602.1440720989
 30
0.0
 10
1089.3169338041
 20
594.4871223712
 30
0.0
 10
1089.9085037753
 20
588.7847399922
 30
0.0
  0
SPLINE
  5
6AA
100
AcDbEntity
  8
0
100
AcDbSpline
 62
7
  6
CONTINUOUS
 70
0
 71
3
 72
12
 73
8
 74
0
 42
0.0000001
 43
0.0000001
 44
0.0000000001
 40
0.0
 40
0.0
 40
0.0
 40
0.0
 40
0.1031970661
 40
0.2091807592
 40
0.4380685821
 40
0.7004327726
 40
1.0
 40
1.0
 40
1.0
 40
1.0
 10
1065.385666126
 20
539.301615275
 30
0.0
 10
1066.8139564935
 20
540.1618852274
 30
0.0
 10
1069.5409967576
 20
542.2024565818
 30
0.0
 10
1074.3074661426
 20
547.4865034533
 30
0.0
 10
1078.6511816926
 20
556.3124904759
 30
0.0
 10
1080.9494476293
 20
568.991369476
 30
0.0
 10
1080.7064815087
 20
578.1267171801
 30
0.0
 10
1080.2070445032
 20
582.9409926132
 30
0.0
  0
SPLINE
  5
6AB
100
AcDbEntity
  8
7_ALL_ROUNDS
100
AcDbSpline
 62
9
  6
CONTINUOUS
 70
0
 71
3
 72
18
 73
14
 74
0
 42
0.0000001
 43
0.0000001
 44
0.0000000001
 40
0.0
 40
0.0
 40
0.0
 40
0.0
 40
0.0406235483
 40
0.0829214572
 40
0.1285396751
 40
0.1785581374
 40
0.2334832544
 40
0.2933429491
 40
0.4260623966
 40
0.5713074739
 40
0.721086293
 40
0.8666666108
 40
1.0
 40
1.0
 40
1.0
 40
1.0
 10
1065.4698172645
 20
542.3851663755
 30
0.0
 10
1063.6480264551
 20
541.1820582566
 30
0.0
 10
1059.573887076
 20
539.2252303948
 30
0.0
 10
1052.7169582282
 20
537.9446543401
 30
0.0
 10
1045.2560981076
 20
538.2830010573
 30
0.0
 10
1037.3522080366
 20
540.1947136277
 30
0.0
 10
1029.1498504385
 20
543.6172396551
 30
0.0
 10
1017.6290340759
 20
550.3265510091
 30
0.0
 10
1003.6256924457
 20
562.0922540791
 30
0.0
 10
988.7695743529
 20
579.7525178841
 30
0.0
 10
976.4421810719
 20
600.0837256978
 30
0.0
 10
967.6230093657
 20
621.4619460251
 30
0.0
 10
964.336213841
 20
636.2057259408
 30
0.0
 10
963.596810875
 20
643.3331303883
 30
0.0
  0
SPLINE
  5
6AC
100
AcDbEntity
  8
0
100
AcDbSpline
 62
7
  6
CONTINUOUS
 70
0
 71
3
 72
18
 73
14
 74
0
 42
0.0000001
 43
0.0000001
 44
0.0000000001
 40
0.0
 40
0.0
 40
0.0
 40
0.0
 40
0.0406112217
 40
0.0831402233
 40
0.1291257084
 40
0.1795468198
 40
0.2348359058
 40
0.2949748012
 40
0.4279264925
 40
0.5729677457
 40
0.7222370423
 40
0.8671974362
 40
1.0
 40
1.0
 40
1.0
 40
1.0
 10
976.0902319536
 20
687.5448504507
 30
0.0
 10
978.0052230572
 20
688.6982638903
 30
0.0
 10
982.2655805895
 20
690.5352604908
 30
0.0
 10
989.3581296032
 20
691.6084073037
 30
0.0
 10
997.0395353992
 20
691.0515305049
 30
0.0
 10
1005.1512083636
 20
688.9113966951
 30
0.0
 10
1013.5477901336
 20
685.2517606215
 30
0.0
 10
1025.3042836306
 20
678.2133881527
 30
0.0
 10
1039.5592191423
 20
666.0400772448
 30
0.0
 10
1054.6609113878
 20
647.8922354296
 30
0.0
 10
1067.1721764539
 20
627.0862533949
 30
0.0
 10
1076.1173698964
 20
605.2534547719
 30
0.0
 10
1079.4527092113
 20
590.2123357942
 30
0.0
 10
1080.2070445032
 20
582.9409926132
 30
0.0
  0
SPLINE
  5
6AD
100
AcDbEntity
  8
0
100
AcDbSpline
 62
7
  6
CONTINUOUS
 70
0
 71
3
 72
9
 73
5
 74
0
 42
0.0000001
 43
0.0000001
 44
0.0000000001
 40
0.0
 40
0.0
 40
0.0
 40
0.0
 40
0.2561154269
 40
1.0
 40
1.0
 40
1.0
 40
1.0
 10
1048.5636413788
 20
614.264777338
 30
0.0
 10
1048.6155457203
 20
614.0144756327
 30
0.0
 10
1048.8066712992
 20
613.034844844
 30
0.0
 10
1048.9509676813
 20
612.0458750988
 30
0.0
 10
1049.0275804761
 20
611.3073733619
 30
0.0
  0
SPLINE
  5
6AE
100
AcDbEntity
  8
0
100
AcDbSpline
 62
7
  6
CONTINUOUS
 70
0
 71
3
 72
9
 73
5
 74
0
 42
0.0000001
 43
0.0000001
 44
0.0000000001
 40
0.0
 40
0.0
 40
0.0
 40
0.0
 40
0.2610926461
 40
1.0
 40
1.0
 40
1.0
 40
1.0
 10
1048.7380492342
 20
614.3308128109
 30
0.0
 10
1048.9770719671
 20
613.5805519026
 30
0.0
 10
1049.8271471331
 20
610.6872000923
 30
0.0
 10
1050.4109926728
 20
607.71092434
 30
0.0
 10
1050.6409380324
 20
605.4943879527
 30
0.0
  0
SPLINE
  5
6AF
100
AcDbEntity
  8
6_ALL_SURFS
100
AcDbSpline
 62
7
  6
CONTINUOUS
 70
0
 71
3
 72
9
 73
5
 74
0
 42
0.0000001
 43
0.0000001
 44
0.0000000001
 40
0.0
 40
0.0
 40
0.0
 40
0.0
 40
0.2597614498
 40
1.0
 40
1.0
 40
1.0
 40
1.0
 10
1089.3741567679
 20
611.461789278
 30
0.0
 10
1089.8199153838
 20
609.9101373274
 30
0.0
 10
1091.417528221
 20
603.9041935251
 30
0.0
 10
1092.5326063508
 20
597.7636448454
 30
0.0
 10
1093.0073252701
 20
593.1876370487
 30
0.0
  0
SPLINE
  5
6B0
100
AcDbEntity
  8
7_ALL_ROUNDS
100
AcDbSpline
 62
9
  6
CONTINUOUS
 70
0
 71
3
 72
9
 73
5
 74
0
 42
0.0000001
 43
0.0000001
 44
0.0000000001
 40
0.0
 40
0.0
 40
0.0
 40
0.0
 40
0.2739075419
 40
1.0
 40
1.0
 40
1.0
 40
1.0
 10
990.6263801917
 20
598.6233585191
 30
0.0
 10
990.5937782486
 20
598.6400693869
 30
0.0
 10
990.4723820319
 20
598.6957208308
 30
0.0
 10
990.3387957343
 20
598.7295025204
 30
0.0
 10
990.2416910304
 20
598.7309242437
 30
0.0
  0
SPLINE
  5
6B1
100
AcDbEntity
  8
7_ALL_ROUNDS
100
AcDbSpline
 62
9
  6
CONTINUOUS
 70
0
 71
3
 72
8
 73
4
 74
0
 42
0.0000001
 43
0.0000001
 44
0.0000000001
 40
0.0
 40
0.0
 40
0.0
 40
0.0
 40
1.0
 40
1.0
 40
1.0
 40
1.0
 10
990.2416910304
 20
598.7309242437
 30
0.0
 10
990.1521859549
 20
598.7322346997
 30
0.0
 10
990.0580878503
 20
598.7110339742
 30
0.0
 10
989.9813991879
 20
598.6648633677
 30
0.0
  0
SPLINE
  5
6B2
100
AcDbEntity
  8
0
100
AcDbSpline
 62
7
  6
CONTINUOUS
 70
0
 71
3
 72
10
 73
6
 74
0
 42
0.0000001
 43
0.0000001
 44
0.0000000001
 40
0.0
 40
0.0
 40
0.0
 40
0.0
 40
0.4544566965
 40
0.7158588014
 40
1.0
 40
1.0
 40
1.0
 40
1.0
 10
1087.9208957963
 20
560.7578427537
 30
0.0
 10
1090.4480652296
 20
565.1157286205
 30
0.0
 10
1092.8019857524
 20
572.9396557798
 30
0.0
 10
1093.6393265527
 20
583.9926216671
 30
0.0
 10
1093.332332928
 20
590.054756694
 30
0.0
 10
1093.0073252701
 20
593.1876370487
 30
0.0
  0
SPLINE
  5
6B3
100
AcDbEntity
  8
0
100
AcDbSpline
 62
7
  6
CONTINUOUS
 70
0
 71
3
 72
10
 73
6
 74
0
 42
0.0000001
 43
0.0000001
 44
0.0000000001
 40
0.0
 40
0.0
 40
0.0
 40
0.0
 40
0.4544562891
 40
0.7158601334
 40
1.0
 40
1.0
 40
1.0
 40
1.0
 10
1084.6197813064
 20
555.0650620455
 30
0.0
 10
1087.2475208542
 20
559.5962446948
 30
0.0
 10
1089.6950083905
 20
567.7314210748
 30
0.0
 10
1090.5656366687
 20
579.2240060964
 30
0.0
 10
1090.2464368849
 20
585.5272659769
 30
0.0
 10
1089.9085037753
 20
588.7847399922
 30
0.0
  0
SPLINE
  5
6B4
100
AcDbEntity
  8
6_ALL_SURFS
100
AcDbSpline
 62
7
  6
CONTINUOUS
 70
0
 71
3
 72
11
 73
7
 74
0
 42
0.0000001
 43
0.0000001
 44
0.0000000001
 40
0.0
 40
0.0
 40
0.0
 40
0.0
 40
0.2627705538
 40
0.5199909772
 40
0.7672746269
 40
1.0
 40
1.0
 40
1.0
 40
1.0
 10
1089.3741567679
 20
611.461789278
 30
0.0
 10
1097.5007871017
 20
616.4676753268
 30
0.0
 10
1113.0524546386
 20
627.2492718895
 30
0.0
 10
1134.6172253022
 20
644.9253010126
 30
0.0
 10
1154.6685546566
 20
662.6748203043
 30
0.0
 10
1167.7597039217
 20
674.1928449884
 30
0.0
 10
1174.2058901187
 20
679.6614593596
 30
0.0
  0
SPLINE
  5
6B5
100
AcDbEntity
  8
0
100
AcDbSpline
 62
7
  6
CONTINUOUS
 70
0
 71
3
 72
13
 73
9
 74
0
 42
0.0000001
 43
0.0000001
 44
0.0000000001
 40
0.0
 40
0.0
 40
0.0
 40
0.0
 40
0.1949764733
 40
0.3080829369
 40
0.4314090972
 40
0.5640034286
 40
0.70434547
 40
1.0
 40
1.0
 40
1.0
 40
1.0
 10
1005.592940722
 20
697.434060722
 30
0.0
 10
1010.9786750123
 20
697.6443906466
 30
0.0
 10
1019.581518808
 20
695.8145180716
 30
0.0
 10
1030.4026893123
 20
690.8044249244
 30
0.0
 10
1039.055539386
 20
685.3376416949
 30
0.0
 10
1047.6179162363
 20
678.4765230779
 30
0.0
 10
1058.8743080722
 20
667.4802165848
 30
0.0
 10
1066.3326834743
 20
657.9151236599
 30
0.0
 10
1070.838028219
 20
651.0961225029
 30
0.0
  0
SPLINE
  5
6B6
100
AcDbEntity
  8
0
100
AcDbSpline
 62
7
  6
CONTINUOUS
 70
0
 71
3
 72
13
 73
9
 74
0
 42
0.0000001
 43
0.0000001
 44
0.0000000001
 40
0.0
 40
0.0
 40
0.0
 40
0.0
 40
0.1941673507
 40
0.3074255151
 40
0.43114667
 40
0.5642135181
 40
0.7049035402
 40
1.0
 40
1.0
 40
1.0
 40
1.0
 10
999.01726957
 20
697.1775213495
 30
0.0
 10
1004.8625608248
 20
697.4055014051
 30
0.0
 10
1014.2170919985
 20
695.3161688994
 30
0.0
 10
1025.919829985
 20
689.6869829817
 30
0.0
 10
1035.274754617
 20
683.5517669552
 30
0.0
 10
1044.4927264294
 20
675.8761110667
 30
0.0
 10
1056.5186958769
 20
663.6373779291
 30
0.0
 10
1064.4048796488
 20
653.0307113273
 30
0.0
 10
1069.1106782605
 20
645.4877900698
 30
0.0
  0
SPLINE
  5
6B7
100
AcDbEntity
  8
0
100
AcDbSpline
 62
9
  6
CONTINUOUS
 70
0
 71
3
 72
8
 73
4
 74
0
 42
0.0000001
 43
0.0000001
 44
0.0000000001
 40
0.0
 40
0.0
 40
0.0
 40
0.0
 40
1.0
 40
1.0
 40
1.0
 40
1.0
 10
1169.2124039641
 20
708.333021703
 30
0.0
 10
1169.3019237893
 20
708.3663141866
 30
0.0
 10
1169.4072050589
 20
708.3661830642
 30
0.0
 10
1169.498864794
 20
708.3393375521
 30
0.0
  0
SPLINE
  5
6B8
100
AcDbEntity
  8
0
100
AcDbSpline
 62
9
  6
CONTINUOUS
 70
0
 71
3
 72
9
 73
5
 74
0
 42
0.0000001
 43
0.0000001
 44
0.0000000001
 40
0.0
 40
0.0
 40
0.0
 40
0.0
 40
0.5154788673
 40
1.0
 40
1.0
 40
1.0
 40
1.0
 10
1169.498864794
 20
708.3393375521
 30
0.0
 10
1169.6437950398
 20
708.2968900513
 30
0.0
 10
1169.8980597356
 20
708.0826982334
 30
0.0
 10
1169.9064868833
 20
707.7399100186
 30
0.0
 10
1169.8371196897
 20
707.6160647026
 30
0.0
  0
SPLINE
  5
6B9
100
AcDbEntity
  8
0
100
AcDbSpline
 62
9
  6
CONTINUOUS
 70
0
 71
3
 72
8
 73
4
 74
0
 42
0.0000001
 43
0.0000001
 44
0.0000000001
 40
0.0
 40
0.0
 40
0.0
 40
0.0
 40
1.0
 40
1.0
 40
1.0
 40
1.0
 10
1169.8371196897
 20
707.6160647026
 30
0.0
 10
1169.8169261381
 20
707.5800119715
 30
0.0
 10
1169.7905713747
 20
707.5468610308
 30
0.0
 10
1169.7601824108
 20
707.5188594269
 30
0.0
  0
SPLINE
  5
6BA
100
AcDbEntity
  8
6_ALL_SURFS
100
AcDbSpline
 62
9
  6
CONTINUOUS
 70
0
 71
3
 72
9
 73
5
 74
0
 42
0.0000001
 43
0.0000001
 44
0.0000000001
 40
0.0
 40
0.0
 40
0.0
 40
0.0
 40
0.4927564595
 40
1.0
 40
1.0
 40
1.0
 40
1.0
 10
1174.2058901187
 20
679.6614593596
 30
0.0
 10
1172.9888497432
 20
683.3660434405
 30
0.0
 10
1170.0579174267
 20
690.7375389077
 30
0.0
 10
1166.3195452743
 20
697.7353057267
 30
0.0
 10
1164.214329239
 20
701.152966173
 30
0.0
  0
SPLINE
  5
6BB
100
AcDbEntity
  8
0
100
AcDbSpline
 62
9
  6
CONTINUOUS
 70
0
 71
3
 72
11
 73
7
 74
0
 42
0.0000001
 43
0.0000001
 44
0.0000000001
 40
0.0
 40
0.0
 40
0.0
 40
0.0
 40
0.3147572134
 40
0.5908930318
 40
0.8156892519
 40
1.0
 40
1.0
 40
1.0
 40
1.0
 10
1179.5470653338
 20
708.4134202352
 30
0.0
 10
1179.6855819964
 20
708.1172372604
 30
0.0
 10
1179.8967625139
 20
707.5355651432
 30
0.0
 10
1180.0068428154
 20
706.6877686326
 30
0.0
 10
1179.8869718775
 20
705.9685330512
 30
0.0
 10
1179.6023448158
 20
705.6143943378
 30
0.0
 10
1179.4383366224
 20
705.5156031995
 30
0.0
  0
SPLINE
  5
6BC
100
AcDbEntity
  8
0
100
AcDbSpline
 62
7
  6
CONTINUOUS
 70
0
 71
3
 72
8
 73
4
 74
0
 42
0.0000001
 43
0.0000001
 44
0.0000000001
 40
0.0
 40
0.0
 40
0.0
 40
0.0
 40
1.0
 40
1.0
 40
1.0
 40
1.0
 10
1170.2492175045
 20
707.3345945367
 30
0.0
 10
1170.3195703837
 20
707.3572171743
 30
0.0
 10
1170.38794046
 20
707.3863792547
 30
0.0
 10
1170.4540825705
 20
707.419341848
 30
0.0
  0
SPLINE
  5
6BD
100
AcDbEntity
  8
0
100
AcDbSpline
 62
7
  6
CONTINUOUS
 70
0
 71
3
 72
9
 73
5
 74
0
 42
0.0000001
 43
0.0000001
 44
0.0000000001
 40
0.0
 40
0.0
 40
0.0
 40
0.0
 40
0.630542374
 40
1.0
 40
1.0
 40
1.0
 40
1.0
 10
1170.4540825705
 20
707.419341848
 30
0.0
 10
1170.5587203454
 20
707.471489147
 30
0.0
 10
1170.7129293785
 20
707.5731107277
 30
0.0
 10
1170.8618366875
 20
707.6904869161
 30
0.0
 10
1170.9004141562
 20
707.7470946278
 30
0.0
  0
SPLINE
  5
6BE
100
AcDbEntity
  8
0
100
AcDbSpline
 62
7
  6
CONTINUOUS
 70
0
 71
3
 72
9
 73
5
 74
0
 42
0.0000001
 43
0.0000001
 44
0.0000000001
 40
0.0
 40
0.0
 40
0.0
 40
0.0
 40
0.6555707726
 40
1.0
 40
1.0
 40
1.0
 40
1.0
 10
1170.9004141562
 20
707.7470946278
 30
0.0
 10
1170.9036956629
 20
707.7519098371
 30
0.0
 10
1170.908504657
 20
707.7588332941
 30
0.0
 10
1170.9103360184
 20
707.7692200274
 30
0.0
 10
1170.9084832518
 20
707.7716572024
 30
0.0
  0
SPLINE
  5
6BF
100
AcDbEntity
  8
6_ALL_SURFS
100
AcDbSpline
 62
7
  6
CONTINUOUS
 70
0
 71
3
 72
11
 73
7
 74
0
 42
0.0000001
 43
0.0000001
 44
0.0000000001
 40
0.0
 40
0.0
 40
0.0
 40
0.0
 40
0.2306565985
 40
0.4751630694
 40
0.7321789315
 40
1.0
 40
1.0
 40
1.0
 40
1.0
 10
1164.214329239
 20
701.152966173
 30
0.0
 10
1157.224439404
 20
696.9642517712
 30
0.0
 10
1142.4474230562
 20
688.9672453766
 30
0.0
 10
1119.1876017309
 20
677.6539832909
 30
0.0
 10
1094.8629918347
 20
665.5181250696
 30
0.0
 10
1078.8003078746
 20
656.2077292091
 30
0.0
 10
1070.838028219
 20
651.0961225029
 30
0.0
  0
SPLINE
  5
6C0
100
AcDbEntity
  8
0
100
AcDbSpline
 62
7
  6
CONTINUOUS
 70
0
 71
3
 72
15
 73
11
 74
0
 42
0.0000001
 43
0.0000001
 44
0.0000000001
 40
0.0
 40
0.0
 40
0.0
 40
0.0
 40
0.1457910776
 40
0.2719358395
 40
0.381178238
 40
0.4818905254
 40
0.5863855809
 40
0.7051263731
 40
0.8430279139
 40
1.0
 40
1.0
 40
1.0
 40
1.0
 10
1014.6642986875
 20
628.9210566218
 30
0.0
 10
1014.5091444439
 20
630.416651171
 30
0.0
 10
1014.4485629299
 20
633.2419380537
 30
0.0
 10
1015.2622459972
 20
637.1325759688
 30
0.0
 10
1017.018390774
 20
640.2123581247
 30
0.0
 10
1019.7176101659
 20
642.1963536364
 30
0.0
 10
1023.0914395102
 20
642.8400340357
 30
0.0
 10
1026.8191356282
 20
642.2087753066
 30
0.0
 10
1030.7367312989
 20
640.4389734858
 30
0.0
 10
1033.2307995913
 20
638.6685656537
 30
0.0
 10
1034.4788236331
 20
637.6373567719
 30
0.0
  0
ENDSEC
  0
SECTION
  2
OBJECTS
  0
DICTIONARY
  5
C
100
AcDbDictionary
280
0
281
1
  3
ACAD_GROUP
350
D
  3
ACAD_MLINESTYLE
350
17
  3
ACAD_LAYOUT
350
1A
  3
ACAD_PLOTSETTINGS
350
19
  3
ACAD_PLOTSTYLENAME
350
E
  0
DICTIONARY
  5
D
102
{ACAD_REACTORS
330
C
102
}
100
AcDbDictionary
280
0
281
1
  0
ACDBDICTIONARYWDFLT
  5
E
102
{ACAD_REACTORS
330
C
102
}
100
AcDbDictionary
281
1
  3
Normal
350
F
100
AcDbDictionaryWithDefault
340
F
  0
DICTIONARY
  5
17
102
{ACAD_REACTORS
330
C
102
}
100
AcDbDictionary
280
0
281
1
  3
Standard
350
18
  0
DICTIONARY
  5
19
102
{ACAD_REACTORS
330
C
102
}
100
AcDbDictionary
281
1
  0
DICTIONARY
  5
1A
102
{ACAD_REACTORS
330
C
102
}
100
AcDbDictionary
281
1
  3
Model
350
6C1
  3
Layout1
350
6C2
  0
ACDBPLACEHOLDER
  5
F
102
{ACAD_REACTORS
330
E
102
}
  0
MLINESTYLE
  5
18
102
{ACAD_REACTORS
330
17
102
}
100
AcDbMlineStyle
  2
STANDARD
 70
0
  3

 62
256
 51
90.0
 52
90.0
 71
2
 49
0.5
 62
256
  6
BYLAYER
 49
-0.5
 62
256
  6
BYLAYER
  0
LAYOUT
  5
6C1
102
{ACAD_REACTORS
330
1A
102
}
100
AcDbPlotSettings
  1

  2
none_device
  4

  6

 40
0.0
 41
0.0
 42
0.0
 43
0.0
 44
431.8
 45
279.4
 46
0.0
 47
0.0
 48
0.0
 49
0.0
140
0.0
141
0.0
142
1.0
143
1.0
 70
1024
 72
1
 73
0
 74
0
  7

 75
0
147
1.0
148
0.0
149
0.0
100
AcDbLayout
  1
Model
 70
0
 71
0
 10
0.0
 20
0.0
 11
431.8
 21
279.4
 12
0.0
 22
0.0
 32
0.0
 14
0.0
 24
0.0
 34
0.0
 15
0.0
 25
0.0
 35
0.0
146
0.0
 13
0.0
 23
0.0
 33
0.0
 16
1.0
 26
0.0
 36
0.0
 17
0.0
 27
1.0
 37
0.0
 76
0
330
211
345
0
346
0
  0
LAYOUT
  5
6C2
102
{ACAD_REACTORS
330
1A
102
}
100
AcDbPlotSettings
  1

  2
none_device
  4

  6

 40
0.0
 41
0.0
 42
0.0
 43
0.0
 44
431.8
 45
279.4
 46
0.0
 47
0.0
 48
0.0
 49
0.0
140
0.0
141
0.0
142
1.0
143
1.0
 70
0
 72
1
 73
0
 74
0
  7

 75
0
147
1.0
148
0.0
149
0.0
100
AcDbLayout
  1
Layout1
 70
0
 71
1
 10
0.0
 20
0.0
 11
431.8
 21
279.4
 12
0.0
 22
0.0
 32
0.0
 14
0.0
 24
0.0
 34
0.0
 15
0.0
 25
0.0
 35
0.0
146
0.0
 13
0.0
 23
0.0
 33
0.0
 16
1.0
 26
0.0
 36
0.0
 17
0.0
 27
1.0
 37
0.0
 76
0
330
212
345
0
346
0
  0
ENDSEC
  0
EOF
