  0
SECTION
  2
HEADER
  9
$ACADVER
  1
AC1015
  9
$ACADMAINTVER
 70
     6
  9
$DWGCODEPAGE
  3
ANSI_1252
  9
$INSBASE
 10
0.0
 20
0.0
 30
0.0
  9
$EXTMIN
 10
0.0
 20
0.0
 30
0.0
  9
$EXTMAX
 10
863.6
 20
558.8
 30
0.0
  9
$LIMMIN
 10
0.0
 20
0.0
  9
$LIMMAX
 10
863.6
 20
558.8
  9
$ORTHOMODE
 70
     0
  9
$REGENMODE
 70
     1
  9
$FILLMODE
 70
     1
  9
$QTEXTMODE
 70
     0
  9
$MIRRTEXT
 70
     1
  9
$LTSCALE
 40
2.0
  9
$ATTMODE
 70
     1
  9
$TEXTSIZE
 40
6.35
  9
$TRACEWID
 40
1.0
  9
$TEXTSTYLE
  7
STANDARD
  9
$CLAYER
  8
0
  9
$CELTYPE
  6
ByLayer
  9
$CECOLOR
 62
   256
  9
$CELTSCALE
 40
1.0
  9
$DISPSILH
 70
     0
  9
$DIMSCALE
 40
1.0
  9
$DIMASZ
 40
4.0
  9
$DIMEXO
 40
1.524
  9
$DIMDLI
 40
3.75
  9
$DIMRND
 40
0.0
  9
$DIMDLE
 40
0.0
  9
$DIMEXE
 40
1.524
  9
$DIMTP
 40
0.0
  9
$DIMTM
 40
0.0
  9
$DIMTXT
 40
6.35
  9
$DIMCEN
 40
2.5
  9
$DIMTSZ
 40
0.0
  9
$DIMTOL
 70
     0
  9
$DIMLIM
 70
     0
  9
$DIMTIH
 70
     1
  9
$DIMTOH
 70
     1
  9
$DIMSE1
 70
     0
  9
$DIMSE2
 70
     0
  9
$DIMTAD
 70
     0
  9
$DIMZIN
 70
     1
  9
$DIMBLK
  1

  9
$DIMASO
 70
     1
  9
$DIMSHO
 70
     1
  9
$DIMPOST
  1

  9
$DIMAPOST
  1

  9
$DIMALT
 70
     0
  9
$DIMALTD
 70
     3
  9
$DIMALTF
 40
0.0393700787
  9
$DIMLFAC
 40
1.0
  9
$DIMTOFL
 70
     1
  9
$DIMTVP
 40
0.0
  9
$DIMTIX
 70
     0
  9
$DIMSOXD
 70
     0
  9
$DIMSAH
 70
     0
  9
$DIMBLK1
  1

  9
$DIMBLK2
  1

  9
$DIMSTYLE
  2
ISO-25
  9
$DIMCLRD
 70
     0
  9
$DIMCLRE
 70
     0
  9
$DIMCLRT
 70
     0
  9
$DIMTFAC
 40
1.0
  9
$DIMGAP
 40
3.048
  9
$DIMJUST
 70
     0
  9
$DIMSD1
 70
     0
  9
$DIMSD2
 70
     0
  9
$DIMTOLJ
 70
     0
  9
$DIMTZIN
 70
     1
  9
$DIMALTZ
 70
     0
  9
$DIMALTTZ
 70
     0
  9
$DIMUPT
 70
     0
  9
$DIMDEC
 70
     2
  9
$DIMTDEC
 70
     2
  9
$DIMALTU
 70
     2
  9
$DIMALTTD
 70
     3
  9
$DIMTXSTY
  7
STANDARD
  9
$DIMAUNIT
 70
     0
  9
$DIMADEC
 70
     0
  9
$DIMALTRND
 40
0.0
  9
$DIMAZIN
 70
     0
  9
$DIMDSEP
 70
    44
  9
$DIMATFIT
 70
     3
  9
$DIMFRAC
 70
     0
  9
$DIMLDRBLK
  1

  9
$DIMLUNIT
 70
     2
  9
$DIMLWD
 70
    -2
  9
$DIMLWE
 70
    -2
  9
$DIMTMOVE
 70
     0
  9
$LUNITS
 70
     2
  9
$LUPREC
 70
     6
  9
$SKETCHINC
 40
1.0
  9
$FILLETRAD
 40
0.0
  9
$AUNITS
 70
     0
  9
$AUPREC
 70
     0
  9
$MENU
  1
.
  9
$ELEVATION
 40
0.0
  9
$PELEVATION
 40
0.0
  9
$THICKNESS
 40
0.0
  9
$LIMCHECK
 70
     0
  9
$CHAMFERA
 40
0.0
  9
$CHAMFERB
 40
0.0
  9
$CHAMFERC
 40
0.0
  9
$CHAMFERD
 40
0.0
  9
$SKPOLY
 70
     0
  9
$TDCREATE
 40
2460934.512077709
  9
$TDUCREATE
 40
2460934.803744375
  9
$TDUPDATE
 40
2460934.51208382
  9
$TDUUPDATE
 40
2460934.803750486
  9
$TDINDWG
 40
0.0000000116
  9
$TDUSRTIMER
 40
0.0000000116
  9
$USRTIMER
 70
     1
  9
$ANGBASE
 50
0.0
  9
$ANGDIR
 70
     0
  9
$PDMODE
 70
     0
  9
$PDSIZE
 40
-1.0
  9
$PLINEWID
 40
0.0
  9
$SPLFRAME
 70
     0
  9
$SPLINETYPE
 70
     6
  9
$SPLINESEGS
 70
     8
  9
$HANDSEED
  5
4CD
  9
$SURFTAB1
 70
     6
  9
$SURFTAB2
 70
     6
  9
$SURFTYPE
 70
     6
  9
$SURFU
 70
     6
  9
$SURFV
 70
     6
  9
$UCSBASE
  2

  9
$UCSNAME
  2

  9
$UCSORG
 10
0.0
 20
0.0
 30
0.0
  9
$UCSXDIR
 10
1.0
 20
0.0
 30
0.0
  9
$UCSYDIR
 10
0.0
 20
1.0
 30
0.0
  9
$UCSORTHOREF
  2

  9
$UCSORTHOVIEW
 70
     0
  9
$UCSORGTOP
 10
0.0
 20
0.0
 30
0.0
  9
$UCSORGBOTTOM
 10
0.0
 20
0.0
 30
0.0
  9
$UCSORGLEFT
 10
0.0
 20
0.0
 30
0.0
  9
$UCSORGRIGHT
 10
0.0
 20
0.0
 30
0.0
  9
$UCSORGFRONT
 10
0.0
 20
0.0
 30
0.0
  9
$UCSORGBACK
 10
0.0
 20
0.0
 30
0.0
  9
$PUCSBASE
  2

  9
$PUCSNAME
  2

  9
$PUCSORG
 10
0.0
 20
0.0
 30
0.0
  9
$PUCSXDIR
 10
1.0
 20
0.0
 30
0.0
  9
$PUCSYDIR
 10
0.0
 20
1.0
 30
0.0
  9
$PUCSORTHOREF
  2

  9
$PUCSORTHOVIEW
 70
     0
  9
$PUCSORGTOP
 10
0.0
 20
0.0
 30
0.0
  9
$PUCSORGBOTTOM
 10
0.0
 20
0.0
 30
0.0
  9
$PUCSORGLEFT
 10
0.0
 20
0.0
 30
0.0
  9
$PUCSORGRIGHT
 10
0.0
 20
0.0
 30
0.0
  9
$PUCSORGFRONT
 10
0.0
 20
0.0
 30
0.0
  9
$PUCSORGBACK
 10
0.0
 20
0.0
 30
0.0
  9
$USERI1
 70
     0
  9
$USERI2
 70
     0
  9
$USERI3
 70
     0
  9
$USERI4
 70
     0
  9
$USERI5
 70
     0
  9
$USERR1
 40
0.0
  9
$USERR2
 40
0.0
  9
$USERR3
 40
0.0
  9
$USERR4
 40
0.0
  9
$USERR5
 40
0.0
  9
$WORLDVIEW
 70
     1
  9
$SHADEDGE
 70
     3
  9
$SHADEDIF
 70
    70
  9
$TILEMODE
 70
     1
  9
$MAXACTVP
 70
    64
  9
$PINSBASE
 10
0.0
 20
0.0
 30
0.0
  9
$PLIMCHECK
 70
     0
  9
$PEXTMIN
 10
1.0000000000E+20
 20
1.0000000000E+20
 30
1.0000000000E+20
  9
$PEXTMAX
 10
-1.0000000000E+20
 20
-1.0000000000E+20
 30
-1.0000000000E+20
  9
$PLIMMIN
 10
0.0
 20
0.0
  9
$PLIMMAX
 10
420.0
 20
297.0
  9
$UNITMODE
 70
     0
  9
$VISRETAIN
 70
     1
  9
$PLINEGEN
 70
     0
  9
$PSLTSCALE
 70
     1
  9
$TREEDEPTH
 70
  3020
  9
$CMLSTYLE
  2
Standard
  9
$CMLJUST
 70
     0
  9
$CMLSCALE
 40
20.0
  9
$PROXYGRAPHICS
 70
     1
  9
$MEASUREMENT
 70
     1
  9
$CELWEIGHT
370
    -1
  9
$ENDCAPS
280
     0
  9
$JOINSTYLE
280
     0
  9
$LWDISPLAY
290
     1
  9
$INSUNITS
 70
     4
  9
$HYPERLINKBASE
  1

  9
$STYLESHEET
  1

  9
$XEDIT
290
     1
  9
$CEPSNTYPE
380
     0
  9
$PSTYLEMODE
290
     1
  9
$FINGERPRINTGUID
  2
{ce038e05-d3fa-416c-a6e7-feffd10e73f4}
  9
$VERSIONGUID
  2
{FAEB1C32-E019-11D5-929B-00C0DF256EC4}
  9
$EXTNAMES
290
     1
  9
$PSVPSCALE
 40
0.0
  9
$OLESTARTUP
290
     0
  0
ENDSEC
  0
SECTION
  2
CLASSES
  0
CLASS
  1
ACDBDICTIONARYWDFLT
  2
AcDbDictionaryWithDefault
  3
ObjectDBX Classes
 90
        0
280
     0
281
     0
  0
CLASS
  1
VISUALSTYLE
  2
AcDbVisualStyle
  3
ObjectDBX Classes
 90
     4095
280
     0
281
     0
  0
CLASS
  1
MATERIAL
  2
AcDbMaterial
  3
ObjectDBX Classes
 90
     1153
280
     0
281
     0
  0
CLASS
  1
SCALE
  2
AcDbScale
  3
ObjectDBX Classes
 90
     1153
280
     0
281
     0
  0
CLASS
  1
TABLESTYLE
  2
AcDbTableStyle
  3
ObjectDBX Classes
 90
     4095
280
     0
281
     0
  0
CLASS
  1
MLEADERSTYLE
  2
AcDbMLeaderStyle
  3
ACDB_MLEADERSTYLE_CLASS
 90
     4095
280
     0
281
     0
  0
CLASS
  1
SUN
  2
AcDbSun
  3
SCENEOE
 90
     1153
280
     0
281
     0
  0
CLASS
  1
ACDBPLACEHOLDER
  2
AcDbPlaceHolder
  3
ObjectDBX Classes
 90
        0
280
     0
281
     0
  0
CLASS
  1
LAYOUT
  2
AcDbLayout
  3
ObjectDBX Classes
 90
        0
280
     0
281
     0
  0
ENDSEC
  0
SECTION
  2
TABLES
  0
TABLE
  2
VPORT
  5
8
330
0
100
AcDbSymbolTable
 70
     1
  0
VPORT
  5
29
330
8
100
AcDbSymbolTableRecord
100
AcDbViewportTableRecord
  2
*Active
 70
     0
 10
0.0
 20
0.0
 11
1.0
 21
1.0
 12
431.8
 22
279.4
 13
0.0
 23
0.0
 14
10.0
 24
10.0
 15
10.0
 25
10.0
 16
0.0
 26
0.0
 36
1.0
 17
0.0
 27
0.0
 37
0.0
 40
558.8
 41
1.5454545455
 42
50.0
 43
0.0
 44
0.0
 50
0.0
 51
0.0
 71
     0
 72
  2000
 73
     1
 74
     3
 75
     0
 76
     0
 77
     0
 78
     0
281
     0
 65
     1
110
0.0
120
0.0
130
0.0
111
1.0
121
0.0
131
0.0
112
0.0
122
1.0
132
0.0
 79
     0
146
0.0
  0
ENDTAB
  0
TABLE
  2
LTYPE
  5
5
330
0
100
AcDbSymbolTable
 70
     6
  0
LTYPE
  5
14
330
5
100
AcDbSymbolTableRecord
100
AcDbLinetypeTableRecord
  2
ByBlock
 70
     0
  3

 72
    65
 73
     0
 40
0.0
  0
LTYPE
  5
15
330
5
100
AcDbSymbolTableRecord
100
AcDbLinetypeTableRecord
  2
ByLayer
 70
     0
  3

 72
    65
 73
     0
 40
0.0
  0
LTYPE
  5
16
330
5
100
AcDbSymbolTableRecord
100
AcDbLinetypeTableRecord
  2
Continuous
 70
     0
  3
Solid line
 72
    65
 73
     0
 40
0.0
  0
LTYPE
  5
5E
330
5
100
AcDbSymbolTableRecord
100
AcDbLinetypeTableRecord
  2
HIDDEN
 70
     0
  3
Hidden __ __ __ __ __ __ __ __ __ __ __ __ __ __
 72
    65
 73
     2
 40
1.905
 49
1.27
 74
     0
 49
-0.635
 74
     0
  0
LTYPE
  5
5F
330
5
100
AcDbSymbolTableRecord
100
AcDbLinetypeTableRecord
  2
PHANTOM
 70
     0
  3
Phantom ______  __  __  ______  __  __  ______
 72
    65
 73
     6
 40
12.7
 49
6.35
 74
     0
 49
-1.27
 74
     0
 49
1.27
 74
     0
 49
-1.27
 74
     0
 49
1.27
 74
     0
 49
-1.27
 74
     0
  0
LTYPE
  5
60
330
5
100
AcDbSymbolTableRecord
100
AcDbLinetypeTableRecord
  2
CENTER
 70
     0
  3
Center ____ _ ____ _ ____ _ ____ _ ____ _ ____
 72
    65
 73
     4
 40
10.16
 49
6.35
 74
     0
 49
-1.27
 74
     0
 49
1.27
 74
     0
 49
-1.27
 74
     0
  0
LTYPE
  5
61
330
5
100
AcDbSymbolTableRecord
100
AcDbLinetypeTableRecord
  2
CENTERX2
 70
     0
  3
Center (2x) ________  __  ________  __  _____
 72
    65
 73
     4
 40
20.32
 49
12.7
 74
     0
 49
-2.54
 74
     0
 49
2.54
 74
     0
 49
-2.54
 74
     0
  0
LTYPE
  5
62
330
5
100
AcDbSymbolTableRecord
100
AcDbLinetypeTableRecord
  2
DOT2
 70
     0
  3
Dot (.5x) ........................................
 72
    65
 73
     2
 40
0.635
 49
0.0
 74
     0
 49
-0.635
 74
     0
  0
ENDTAB
  0
TABLE
  2
LAYER
  5
2
330
0
100
AcDbSymbolTable
 70
     6
  0
LAYER
  5
10
330
2
100
AcDbSymbolTableRecord
100
AcDbLayerTableRecord
  2
0
 70
     0
 62
     7
  6
Continuous
370
    -3
390
F
  0
LAYER
  5
63
330
2
100
AcDbSymbolTableRecord
100
AcDbLayerTableRecord
  2
SLD-0
 70
     0
 62
   179
  6
Continuous
370
    -3
390
F
  0
LAYER
  5
64
330
2
100
AcDbSymbolTableRecord
100
AcDbLayerTableRecord
  2
WIRE_BOND
 70
     0
 62
     6
  6
Continuous
370
   100
390
F
  0
LAYER
  5
65
330
2
100
AcDbSymbolTableRecord
100
AcDbLayerTableRecord
  2
HIGHLIGHT-BLUE
 70
     0
 62
     5
  6
Continuous
370
    70
390
F
  0
LAYER
  5
66
330
2
100
AcDbSymbolTableRecord
100
AcDbLayerTableRecord
  2
MANUAL_DIM
 70
     0
 62
   114
  6
Continuous
370
    -3
390
F
  0
LAYER
  5
67
330
2
100
AcDbSymbolTableRecord
100
AcDbLayerTableRecord
  2
TORQUE_9-10
 70
     0
 62
   155
  6
Continuous
370
    -3
390
F
  0
ENDTAB
  0
TABLE
  2
STYLE
  5
3
330
0
100
AcDbSymbolTable
 70
     5
  0
STYLE
  5
11
330
3
100
AcDbSymbolTableRecord
100
AcDbTextStyleTableRecord
  2
STANDARD
 70
     0
 40
0.0
 41
1.0
 50
0.0
 71
     0
 42
6.35
  3
GOTHIC.TTF
  4

1001
ACAD
1000
CENTURY GOTHIC
1071
       34
  0
STYLE
  5
73
330
3
100
AcDbSymbolTableRecord
100
AcDbTextStyleTableRecord
  2
SLDTEXTSTYLE0
 70
     0
 40
0.0
 41
0.913
 50
0.0
 71
     0
 42
6.35
  3
GOTHIC.TTF
  4

1001
ACAD
1000
Century Gothic
1071
      290
  0
STYLE
  5
8D
330
3
100
AcDbSymbolTableRecord
100
AcDbTextStyleTableRecord
  2
SLDTEXTSTYLE1
 70
     0
 40
0.0
 41
0.87
 50
0.0
 71
     0
 42
6.35
  3
ARIALN.TTF
  4

1001
ACAD
1000
Arial Narrow
1071
      290
  0
STYLE
  5
98
330
3
100
AcDbSymbolTableRecord
100
AcDbTextStyleTableRecord
  2
SLDTEXTSTYLE2
 70
     0
 40
0.0
 41
0.8969072165
 50
0.0
 71
     0
 42
6.35
  3
ARIALN.TTF
  4

1001
ACAD
1000
Arial Narrow
1071
      290
  0
STYLE
  5
9D
330
3
100
AcDbSymbolTableRecord
100
AcDbTextStyleTableRecord
  2
SLDTEXTSTYLE3
 70
     0
 40
0.0
 41
0.8969072165
 50
0.0
 71
     0
 42
6.35
  3
ARIALN.TTF
  4
bigfont
1001
ACAD
1000
Arial Narrow
1071
      290
  0
ENDTAB
  0
TABLE
  2
VIEW
  5
6
330
0
100
AcDbSymbolTable
 70
     0
  0
ENDTAB
  0
TABLE
  2
UCS
  5
7
330
0
100
AcDbSymbolTable
 70
     0
  0
ENDTAB
  0
TABLE
  2
APPID
  5
9
330
0
100
AcDbSymbolTable
 70
     1
  0
APPID
  5
12
330
9
100
AcDbSymbolTableRecord
100
AcDbRegAppTableRecord
  2
ACAD
 70
     0
  0
ENDTAB
  0
TABLE
  2
DIMSTYLE
  5
A
330
0
100
AcDbSymbolTable
 70
     7
100
AcDbDimStyleTable
  0
DIMSTYLE
105
27
330
A
100
AcDbSymbolTableRecord
100
AcDbDimStyleTableRecord
  2
ISO-25
 70
     0
 41
2.5
 42
0.625
 43
3.75
 44
1.25
 73
     0
 74
     0
 77
     1
 78
     8
140
2.5
141
2.5
143
0.0393700787
147
0.625
171
     3
172
     1
178
     0
271
     2
272
     2
274
     3
278
    44
283
     0
284
     8
340
11
  0
DIMSTYLE
105
ED
102
{ACAD_REACTORS
330
EC
330
190
330
1A4
330
1F1
330
205
330
219
330
345
330
359
330
36E
330
397
330
3C0
330
45F
102
}
330
A
100
AcDbSymbolTableRecord
100
AcDbDimStyleTableRecord
  2
SLDDIMSTYLE0
 70
     0
 41
4.0
 44
0.0
 45
0.000000001
 78
    12
 79
     3
140
4.7625
143
0.0393700787
147
1.190625
148
0.000000001
170
     1
173
     1
178
     0
271
     1
272
     2
274
     3
276
     2
284
    12
340
73
  0
DIMSTYLE
105
103
330
A
100
AcDbSymbolTableRecord
100
AcDbDimStyleTableRecord
  2
SLDDIMSTYLE1
 70
     0
 41
4.0
 44
0.0
 45
0.000000001
146
4.0
147
0.0
173
     1
178
     0
271
     0
272
     0
276
     2
340
11
  0
DIMSTYLE
105
17C
102
{ACAD_REACTORS
330
17B
330
22D
330
382
330
3AC
330
473
102
}
330
A
100
AcDbSymbolTableRecord
100
AcDbDimStyleTableRecord
  2
SLDDIMSTYLE2
 70
     0
 41
4.0
 44
0.0
 45
0.000000001
 78
     4
 79
     1
140
4.7625
143
0.0393700787
147
1.190625
148
0.000000001
170
     1
173
     1
178
     0
271
     1
272
     2
274
     3
276
     2
284
    12
340
73
  0
DIMSTYLE
105
2A0
330
A
100
AcDbSymbolTableRecord
100
AcDbDimStyleTableRecord
  2
SLDDIMSTYLE3
 70
     0
 41
1.0
 44
0.0
 45
0.000000001
147
0.0
173
     1
178
     0
271
     0
272
     0
276
     2
340
11
341
2A1
343
2A1
344
2A1
  0
DIMSTYLE
105
2FB
102
{ACAD_REACTORS
330
2FA
102
}
330
A
100
AcDbSymbolTableRecord
100
AcDbDimStyleTableRecord
  2
SLDDIMSTYLE4
 70
     0
 41
4.0
 44
0.0
 45
0.000000001
 78
    12
 79
     3
140
4.7625
141
0.0
143
0.0393700787
147
1.190625
148
0.000000001
170
     1
173
     1
178
     0
271
     1
272
     2
274
     3
276
     2
284
    12
340
73
  0
DIMSTYLE
105
331
102
{ACAD_REACTORS
330
330
102
}
330
A
100
AcDbSymbolTableRecord
100
AcDbDimStyleTableRecord
  2
SLDDIMSTYLE5
 70
     0
 41
4.0
 44
0.0
 45
0.000000001
 78
    12
 79
     3
140
4.7625
143
0.0393700787
147
1.190625
148
0.000000001
170
     1
172
     1
173
     1
178
     0
271
     1
272
     2
274
     3
276
     2
284
    12
289
     0
340
73
  0
ENDTAB
  0
TABLE
  2
BLOCK_RECORD
  5
1
330
0
100
AcDbSymbolTable
 70
    29
  0
BLOCK_RECORD
  5
1F
330
1
100
AcDbSymbolTableRecord
100
AcDbBlockTableRecord
  2
*Model_Space
340
22
  0
BLOCK_RECORD
  5
1B
330
1
100
AcDbSymbolTableRecord
100
AcDbBlockTableRecord
  2
*Paper_Space
340
1E
  0
BLOCK_RECORD
  5
23
330
1
100
AcDbSymbolTableRecord
100
AcDbBlockTableRecord
  2
*Paper_Space0
340
26
  0
BLOCK_RECORD
  5
EE
330
1
100
AcDbSymbolTableRecord
100
AcDbBlockTableRecord
  2
_D
340
0
  0
BLOCK_RECORD
  5
17D
330
1
100
AcDbSymbolTableRecord
100
AcDbBlockTableRecord
  2
_D_1
340
0
  0
BLOCK_RECORD
  5
191
330
1
100
AcDbSymbolTableRecord
100
AcDbBlockTableRecord
  2
_D_2
340
0
  0
BLOCK_RECORD
  5
1A5
330
1
100
AcDbSymbolTableRecord
100
AcDbBlockTableRecord
  2
_D_3
340
0
  0
BLOCK_RECORD
  5
1F2
330
1
100
AcDbSymbolTableRecord
100
AcDbBlockTableRecord
  2
_D_4
340
0
  0
BLOCK_RECORD
  5
206
330
1
100
AcDbSymbolTableRecord
100
AcDbBlockTableRecord
  2
_D_5
340
0
  0
BLOCK_RECORD
  5
21A
330
1
100
AcDbSymbolTableRecord
100
AcDbBlockTableRecord
  2
_D_6
340
0
  0
BLOCK_RECORD
  5
22E
330
1
100
AcDbSymbolTableRecord
100
AcDbBlockTableRecord
  2
_D_7
340
0
  0
BLOCK_RECORD
  5
2A1
330
1
100
AcDbSymbolTableRecord
100
AcDbBlockTableRecord
  2
_Dot
340
0
  0
BLOCK_RECORD
  5
2FC
330
1
100
AcDbSymbolTableRecord
100
AcDbBlockTableRecord
  2
_D_8
340
0
  0
BLOCK_RECORD
  5
31A
330
1
100
AcDbSymbolTableRecord
100
AcDbBlockTableRecord
  2
SW_SYMBOL_HOLE_SPOT
340
0
102
{BLKREFS
331
320
102
}
  0
BLOCK_RECORD
  5
325
330
1
100
AcDbSymbolTableRecord
100
AcDbBlockTableRecord
  2
SW_SYMBOL_HOLE_DEPTH
340
0
102
{BLKREFS
331
32C
102
}
  0
BLOCK_RECORD
  5
332
330
1
100
AcDbSymbolTableRecord
100
AcDbBlockTableRecord
  2
_D_9
340
0
  0
BLOCK_RECORD
  5
346
330
1
100
AcDbSymbolTableRecord
100
AcDbBlockTableRecord
  2
_D_10
340
0
  0
BLOCK_RECORD
  5
35A
330
1
100
AcDbSymbolTableRecord
100
AcDbBlockTableRecord
  2
_D_11
340
0
  0
BLOCK_RECORD
  5
36F
330
1
100
AcDbSymbolTableRecord
100
AcDbBlockTableRecord
  2
_D_12
340
0
  0
BLOCK_RECORD
  5
383
330
1
100
AcDbSymbolTableRecord
100
AcDbBlockTableRecord
  2
_D_13
340
0
  0
BLOCK_RECORD
  5
398
330
1
100
AcDbSymbolTableRecord
100
AcDbBlockTableRecord
  2
_D_14
340
0
  0
BLOCK_RECORD
  5
3AD
330
1
100
AcDbSymbolTableRecord
100
AcDbBlockTableRecord
  2
_D_15
340
0
  0
BLOCK_RECORD
  5
3C1
330
1
100
AcDbSymbolTableRecord
100
AcDbBlockTableRecord
  2
_D_16
340
0
  0
BLOCK_RECORD
  5
3D7
330
1
100
AcDbSymbolTableRecord
100
AcDbBlockTableRecord
  2
SW_SYMBOL_MOD_CL
340
0
102
{BLKREFS
331
3DC
331
488
102
}
  0
BLOCK_RECORD
  5
3DF
330
1
100
AcDbSymbolTableRecord
100
AcDbBlockTableRecord
  2
SW_CENTERMARKSYMBOL_0
340
0
102
{BLKREFS
331
3EA
102
}
  0
BLOCK_RECORD
  5
3EB
330
1
100
AcDbSymbolTableRecord
100
AcDbBlockTableRecord
  2
SW_CENTERMARKSYMBOL_1
340
0
102
{BLKREFS
331
3F6
102
}
  0
BLOCK_RECORD
  5
3F7
330
1
100
AcDbSymbolTableRecord
100
AcDbBlockTableRecord
  2
SW_CENTERMARKSYMBOL_2
340
0
102
{BLKREFS
331
402
102
}
  0
BLOCK_RECORD
  5
403
330
1
100
AcDbSymbolTableRecord
100
AcDbBlockTableRecord
  2
SW_CENTERMARKSYMBOL_3
340
0
102
{BLKREFS
331
40E
102
}
  0
BLOCK_RECORD
  5
460
330
1
100
AcDbSymbolTableRecord
100
AcDbBlockTableRecord
  2
_D_17
340
0
  0
BLOCK_RECORD
  5
474
330
1
100
AcDbSymbolTableRecord
100
AcDbBlockTableRecord
  2
_D_18
340
0
  0
BLOCK_RECORD
  5
48E
330
1
100
AcDbSymbolTableRecord
100
AcDbBlockTableRecord
  2
SW_CENTERMARKSYMBOL_4
340
0
102
{BLKREFS
331
499
102
}
  0
ENDTAB
  0
ENDSEC
  0
SECTION
  2
BLOCKS
  0
BLOCK
  5
20
330
1F
100
AcDbEntity
  8
0
100
AcDbBlockBegin
  2
*Model_Space
 70
     0
 10
0.0
 20
0.0
 30
0.0
  3
*Model_Space
  1

  0
ENDBLK
  5
21
330
1F
100
AcDbEntity
  8
0
100
AcDbBlockEnd
  0
BLOCK
  5
1C
330
1B
100
AcDbEntity
 67
     1
  8
0
100
AcDbBlockBegin
  2
*Paper_Space
 70
     0
 10
0.0
 20
0.0
 30
0.0
  3
*Paper_Space
  1

  0
ENDBLK
  5
1D
330
1B
100
AcDbEntity
 67
     1
  8
0
100
AcDbBlockEnd
  0
BLOCK
  5
24
330
23
100
AcDbEntity
  8
0
100
AcDbBlockBegin
  2
*Paper_Space0
 70
     0
 10
0.0
 20
0.0
 30
0.0
  3
*Paper_Space0
  1

  0
ENDBLK
  5
25
330
23
100
AcDbEntity
  8
0
100
AcDbBlockEnd
  0
BLOCK
  5
EF
330
EE
100
AcDbEntity
  8
0
100
AcDbBlockBegin
  2
_D
 70
     0
 10
0.0
 20
0.0
 30
0.0
  3
_D
  1

  0
SOLID
  5
F1
330
EE
100
AcDbEntity
  8
SLD-0
100
AcDbTrace
 10
575.1029137935
 20
431.5220120822
 30
0.0
 11
579.1029137935
 21
431.0220120822
 31
0.0
 12
579.1029137935
 22
432.0220120822
 32
0.0
 13
579.1029137935
 23
432.0220120822
 33
0.0
  0
SOLID
  5
F2
330
EE
100
AcDbEntity
  8
SLD-0
100
AcDbTrace
 10
827.8101852762
 20
431.5220120822
 30
0.0
 11
823.8101852762
 21
432.0220120822
 31
0.0
 12
823.8101852762
 22
431.0220120822
 32
0.0
 13
823.8101852762
 23
431.0220120822
 33
0.0
  0
LINE
  5
F3
330
EE
100
AcDbEntity
  8
SLD-0
100
AcDbLine
 10
695.3005771659
 20
431.5220130135
 30
0.0
 11
693.851983365
 21
431.5220130135
 31
0.0
  0
LINE
  5
F4
330
EE
100
AcDbEntity
  8
SLD-0
100
AcDbLine
 10
693.851983365
 20
431.5220130135
 30
0.0
 11
693.851983365
 21
423.9549295504
 31
0.0
  0
LINE
  5
F5
330
EE
100
AcDbEntity
  8
SLD-0
100
AcDbLine
 10
693.851983365
 20
423.9549295504
 30
0.0
 11
695.3005771659
 21
423.9549295504
 31
0.0
  0
LINE
  5
F6
330
EE
100
AcDbEntity
  8
SLD-0
100
AcDbLine
 10
707.6125219039
 20
431.5220130135
 30
0.0
 11
709.0611157048
 21
431.5220130135
 31
0.0
  0
LINE
  5
F7
330
EE
100
AcDbEntity
  8
SLD-0
100
AcDbLine
 10
709.0611157048
 20
431.5220130135
 30
0.0
 11
709.0611157048
 21
423.9549295504
 31
0.0
  0
LINE
  5
F8
330
EE
100
AcDbEntity
  8
SLD-0
100
AcDbLine
 10
709.0611157048
 20
423.9549295504
 30
0.0
 11
707.6125219039
 21
423.9549295504
 31
0.0
  0
LINE
  5
F9
330
EE
100
AcDbEntity
  8
SLD-0
100
AcDbLine
 10
575.1029137935
 20
383.9342580994
 30
0.0
 11
575.1029137935
 21
433.0460120822
 31
0.0
  0
LINE
  5
FA
330
EE
100
AcDbEntity
  8
SLD-0
100
AcDbLine
 10
827.8101852762
 20
383.9342580994
 30
0.0
 11
827.8101852762
 21
433.0460120822
 31
0.0
  0
LINE
  5
FB
330
EE
100
AcDbEntity
  8
SLD-0
100
AcDbLine
 10
575.1029137935
 20
431.5220120822
 30
0.0
 11
689.6827014071
 21
431.5220120822
 31
0.0
  0
LINE
  5
FC
330
EE
100
AcDbEntity
  8
SLD-0
100
AcDbLine
 10
827.8101852762
 20
431.5220120822
 30
0.0
 11
713.2303976626
 21
431.5220120822
 31
0.0
  0
MTEXT
  5
FD
330
EE
100
AcDbEntity
  8
SLD-0
100
AcDbMText
 10
690.6483200885
 20
438.5710912802
 30
0.0
 40
4.7625
 41
0.0
 71
     1
 72
     1
  1
 
  7
SLDTEXTSTYLE0
 73
     1
 44
1.0
  0
MTEXT
  5
FE
330
EE
100
AcDbEntity
  8
SLD-0
100
AcDbMText
 10
693.5410978778
 20
438.5710917459
 30
0.0
 40
4.7625
 41
0.0
 71
     1
 72
     1
  1
252.7
  7
SLDTEXTSTYLE0
 73
     1
 44
1.0
  0
MTEXT
  5
FF
330
EE
100
AcDbEntity
  8
SLD-0
100
AcDbMText
 10
695.3005771659
 20
430.0382793926
 30
0.0
 40
4.7625
 41
0.0
 71
     1
 72
     1
  1
9.95
  7
SLDTEXTSTYLE0
 73
     1
 44
1.0
  0
MTEXT
  5
100
330
EE
100
AcDbEntity
  8
SLD-0
100
AcDbMText
 10
710.50970904
 20
438.5710912802
 30
0.0
 40
4.7625
 41
0.0
 71
     1
 72
     1
  1
 
  7
SLDTEXTSTYLE0
 73
     1
 44
1.0
  0
ENDBLK
  5
F0
330
EE
100
AcDbEntity
  8
0
100
AcDbBlockEnd
  0
BLOCK
  5
17E
330
17D
100
AcDbEntity
  8
0
100
AcDbBlockBegin
  2
_D_1
 70
     0
 10
0.0
 20
0.0
 30
0.0
  3
_D_1
  1

  0
SOLID
  5
180
330
17D
100
AcDbEntity
  8
SLD-0
100
AcDbTrace
 10
383.2461178432
 20
399.9102580994
 30
0.0
 11
382.7461178432
 21
395.9102580994
 31
0.0
 12
383.7461178432
 22
395.9102580994
 32
0.0
 13
383.7461178432
 23
395.9102580994
 33
0.0
  0
SOLID
  5
181
330
17D
100
AcDbEntity
  8
SLD-0
100
AcDbTrace
 10
383.2461178432
 20
364.9102580994
 30
0.0
 11
383.7461178432
 21
368.9102580994
 31
0.0
 12
382.7461178432
 22
368.9102580994
 32
0.0
 13
382.7461178432
 23
368.9102580994
 33
0.0
  0
LINE
  5
182
330
17D
100
AcDbEntity
  8
SLD-0
100
AcDbLine
 10
377.0901454742
 20
382.4102590307
 30
0.0
 11
375.6415516733
 21
382.4102590307
 31
0.0
  0
LINE
  5
183
330
17D
100
AcDbEntity
  8
SLD-0
100
AcDbLine
 10
375.6415516733
 20
382.4102590307
 30
0.0
 11
375.6415516733
 21
374.8431755676
 31
0.0
  0
LINE
  5
184
330
17D
100
AcDbEntity
  8
SLD-0
100
AcDbLine
 10
375.6415516733
 20
374.8431755676
 30
0.0
 11
377.0901454742
 21
374.8431755676
 31
0.0
  0
LINE
  5
185
330
17D
100
AcDbEntity
  8
SLD-0
100
AcDbLine
 10
389.4020902122
 20
382.4102590307
 30
0.0
 11
390.8506840131
 21
382.4102590307
 31
0.0
  0
LINE
  5
186
330
17D
100
AcDbEntity
  8
SLD-0
100
AcDbLine
 10
390.8506840131
 20
382.4102590307
 30
0.0
 11
390.8506840131
 21
374.8431755676
 31
0.0
  0
LINE
  5
187
330
17D
100
AcDbEntity
  8
SLD-0
100
AcDbLine
 10
390.8506840131
 20
374.8431755676
 30
0.0
 11
389.4020902122
 21
374.8431755676
 31
0.0
  0
LINE
  5
188
330
17D
100
AcDbEntity
  8
SLD-0
100
AcDbLine
 10
408.5934398533
 20
399.9102580994
 30
0.0
 11
381.7221178432
 21
399.9102580994
 31
0.0
  0
LINE
  5
189
330
17D
100
AcDbEntity
  8
SLD-0
100
AcDbLine
 10
408.5934398533
 20
364.9102580994
 30
0.0
 11
381.7221178432
 21
364.9102580994
 31
0.0
  0
LINE
  5
18A
330
17D
100
AcDbEntity
  8
SLD-0
100
AcDbLine
 10
383.2461178432
 20
399.9102580994
 30
0.0
 11
383.2461178432
 21
390.9430709182
 31
0.0
  0
LINE
  5
18B
330
17D
100
AcDbEntity
  8
SLD-0
100
AcDbLine
 10
383.2461178432
 20
364.9102580994
 30
0.0
 11
383.2461178432
 21
373.8774452805
 31
0.0
  0
MTEXT
  5
18C
330
17D
100
AcDbEntity
  8
SLD-0
100
AcDbMText
 10
372.4378883968
 20
389.4593372974
 30
0.0
 40
4.7625
 41
0.0
 71
     1
 72
     1
  1
 
  7
SLDTEXTSTYLE0
 73
     1
 44
1.0
  0
MTEXT
  5
18D
330
17D
100
AcDbEntity
  8
SLD-0
100
AcDbMText
 10
377.0901450085
 20
389.459337763
 30
0.0
 40
4.7625
 41
0.0
 71
     1
 72
     1
  1
35.0
  7
SLDTEXTSTYLE0
 73
     1
 44
1.0
  0
MTEXT
  5
18E
330
17D
100
AcDbEntity
  8
SLD-0
100
AcDbMText
 10
377.0901454742
 20
380.9265254098
 30
0.0
 40
4.7625
 41
0.0
 71
     1
 72
     1
  1
1.38
  7
SLDTEXTSTYLE0
 73
     1
 44
1.0
  0
MTEXT
  5
18F
330
17D
100
AcDbEntity
  8
SLD-0
100
AcDbMText
 10
392.2992773483
 20
389.4593372974
 30
0.0
 40
4.7625
 41
0.0
 71
     1
 72
     1
  1
 
  7
SLDTEXTSTYLE0
 73
     1
 44
1.0
  0
ENDBLK
  5
17F
330
17D
100
AcDbEntity
  8
0
100
AcDbBlockEnd
  0
BLOCK
  5
192
330
191
100
AcDbEntity
  8
0
100
AcDbBlockBegin
  2
_D_2
 70
     0
 10
0.0
 20
0.0
 30
0.0
  3
_D_2
  1

  0
SOLID
  5
194
330
191
100
AcDbEntity
  8
SLD-0
100
AcDbTrace
 10
475.167075948
 20
404.5482580994
 30
0.0
 11
474.667075948
 21
400.5482580994
 31
0.0
 12
475.667075948
 22
400.5482580994
 32
0.0
 13
475.667075948
 23
400.5482580994
 33
0.0
  0
SOLID
  5
195
330
191
100
AcDbEntity
  8
SLD-0
100
AcDbTrace
 10
475.167075948
 20
360.2722580994
 30
0.0
 11
475.667075948
 21
364.2722580994
 31
0.0
 12
474.667075948
 22
364.2722580994
 32
0.0
 13
474.667075948
 23
364.2722580994
 33
0.0
  0
LINE
  5
196
330
191
100
AcDbEntity
  8
SLD-0
100
AcDbLine
 10
469.011103579
 20
382.4102590307
 30
0.0
 11
467.5625097781
 21
382.4102590307
 31
0.0
  0
LINE
  5
197
330
191
100
AcDbEntity
  8
SLD-0
100
AcDbLine
 10
467.5625097781
 20
382.4102590307
 30
0.0
 11
467.5625097781
 21
374.8431755676
 31
0.0
  0
LINE
  5
198
330
191
100
AcDbEntity
  8
SLD-0
100
AcDbLine
 10
467.5625097781
 20
374.8431755676
 30
0.0
 11
469.011103579
 21
374.8431755676
 31
0.0
  0
LINE
  5
199
330
191
100
AcDbEntity
  8
SLD-0
100
AcDbLine
 10
481.323048317
 20
382.4102590307
 30
0.0
 11
482.7716421179
 21
382.4102590307
 31
0.0
  0
LINE
  5
19A
330
191
100
AcDbEntity
  8
SLD-0
100
AcDbLine
 10
482.7716421179
 20
382.4102590307
 30
0.0
 11
482.7716421179
 21
374.8431755676
 31
0.0
  0
LINE
  5
19B
330
191
100
AcDbEntity
  8
SLD-0
100
AcDbLine
 10
482.7716421179
 20
374.8431755676
 30
0.0
 11
481.323048317
 21
374.8431755676
 31
0.0
  0
LINE
  5
19C
330
191
100
AcDbEntity
  8
SLD-0
100
AcDbLine
 10
455.0164398533
 20
404.5482580994
 30
0.0
 11
476.691075948
 21
404.5482580994
 31
0.0
  0
LINE
  5
19D
330
191
100
AcDbEntity
  8
SLD-0
100
AcDbLine
 10
455.0164398533
 20
360.2722580994
 30
0.0
 11
476.691075948
 21
360.2722580994
 31
0.0
  0
LINE
  5
19E
330
191
100
AcDbEntity
  8
SLD-0
100
AcDbLine
 10
475.167075948
 20
404.5482580994
 30
0.0
 11
475.167075948
 21
390.9430709182
 31
0.0
  0
LINE
  5
19F
330
191
100
AcDbEntity
  8
SLD-0
100
AcDbLine
 10
475.167075948
 20
360.2722580994
 30
0.0
 11
475.167075948
 21
373.8774452805
 31
0.0
  0
MTEXT
  5
1A0
330
191
100
AcDbEntity
  8
SLD-0
100
AcDbMText
 10
464.3588465016
 20
389.4593372974
 30
0.0
 40
4.7625
 41
0.0
 71
     1
 72
     1
  1
 
  7
SLDTEXTSTYLE0
 73
     1
 44
1.0
  0
MTEXT
  5
1A1
330
191
100
AcDbEntity
  8
SLD-0
100
AcDbMText
 10
469.0111031133
 20
389.459337763
 30
0.0
 40
4.7625
 41
0.0
 71
     1
 72
     1
  1
44.3
  7
SLDTEXTSTYLE0
 73
     1
 44
1.0
  0
MTEXT
  5
1A2
330
191
100
AcDbEntity
  8
SLD-0
100
AcDbMText
 10
469.011103579
 20
380.9265254098
 30
0.0
 40
4.7625
 41
0.0
 71
     1
 72
     1
  1
1.74
  7
SLDTEXTSTYLE0
 73
     1
 44
1.0
  0
MTEXT
  5
1A3
330
191
100
AcDbEntity
  8
SLD-0
100
AcDbMText
 10
484.2202354531
 20
389.4593372974
 30
0.0
 40
4.7625
 41
0.0
 71
     1
 72
     1
  1
 
  7
SLDTEXTSTYLE0
 73
     1
 44
1.0
  0
ENDBLK
  5
193
330
191
100
AcDbEntity
  8
0
100
AcDbBlockEnd
  0
BLOCK
  5
1A6
330
1A5
100
AcDbEntity
  8
0
100
AcDbBlockBegin
  2
_D_3
 70
     0
 10
0.0
 20
0.0
 30
0.0
  3
_D_3
  1

  0
SOLID
  5
1A8
330
1A5
100
AcDbEntity
  8
SLD-0
100
AcDbTrace
 10
501.4924398533
 20
356.0222580994
 30
0.0
 11
501.9924398533
 21
360.0222580994
 31
0.0
 12
500.9924398533
 22
360.0222580994
 32
0.0
 13
500.9924398533
 23
360.0222580994
 33
0.0
  0
SOLID
  5
1A9
330
1A5
100
AcDbEntity
  8
SLD-0
100
AcDbTrace
 10
501.4924398533
 20
404.5482580994
 30
0.0
 11
500.9924398533
 21
400.5482580994
 31
0.0
 12
501.9924398533
 22
400.5482580994
 32
0.0
 13
501.9924398533
 23
400.5482580994
 33
0.0
  0
LINE
  5
1AA
330
1A5
100
AcDbEntity
  8
SLD-0
100
AcDbLine
 10
495.3364674843
 20
380.2852590307
 30
0.0
 11
493.8878736834
 21
380.2852590307
 31
0.0
  0
LINE
  5
1AB
330
1A5
100
AcDbEntity
  8
SLD-0
100
AcDbLine
 10
493.8878736834
 20
380.2852590307
 30
0.0
 11
493.8878736834
 21
372.7181755676
 31
0.0
  0
LINE
  5
1AC
330
1A5
100
AcDbEntity
  8
SLD-0
100
AcDbLine
 10
493.8878736834
 20
372.7181755676
 30
0.0
 11
495.3364674843
 21
372.7181755676
 31
0.0
  0
LINE
  5
1AD
330
1A5
100
AcDbEntity
  8
SLD-0
100
AcDbLine
 10
507.6484122223
 20
380.2852590307
 30
0.0
 11
509.0970060232
 21
380.2852590307
 31
0.0
  0
LINE
  5
1AE
330
1A5
100
AcDbEntity
  8
SLD-0
100
AcDbLine
 10
509.0970060232
 20
380.2852590307
 30
0.0
 11
509.0970060232
 21
372.7181755676
 31
0.0
  0
LINE
  5
1AF
330
1A5
100
AcDbEntity
  8
SLD-0
100
AcDbLine
 10
509.0970060232
 20
372.7181755676
 30
0.0
 11
507.6484122223
 21
372.7181755676
 31
0.0
  0
LINE
  5
1B0
330
1A5
100
AcDbEntity
  8
SLD-0
100
AcDbLine
 10
442.5164398533
 20
356.0222580994
 30
0.0
 11
503.0164398533
 21
356.0222580994
 31
0.0
  0
LINE
  5
1B1
330
1A5
100
AcDbEntity
  8
SLD-0
100
AcDbLine
 10
455.0164398533
 20
404.5482580994
 30
0.0
 11
503.0164398533
 21
404.5482580994
 31
0.0
  0
LINE
  5
1B2
330
1A5
100
AcDbEntity
  8
SLD-0
100
AcDbLine
 10
501.4924398533
 20
356.0222580994
 30
0.0
 11
501.4924398533
 21
371.7524452805
 31
0.0
  0
LINE
  5
1B3
330
1A5
100
AcDbEntity
  8
SLD-0
100
AcDbLine
 10
501.4924398533
 20
404.5482580994
 30
0.0
 11
501.4924398533
 21
388.8180709182
 31
0.0
  0
MTEXT
  5
1B4
330
1A5
100
AcDbEntity
  8
SLD-0
100
AcDbMText
 10
490.6842104069
 20
387.3343372974
 30
0.0
 40
4.7625
 41
0.0
 71
     1
 72
     1
  1
 
  7
SLDTEXTSTYLE0
 73
     1
 44
1.0
  0
MTEXT
  5
1B5
330
1A5
100
AcDbEntity
  8
SLD-0
100
AcDbMText
 10
495.3364670186
 20
387.334337763
 30
0.0
 40
4.7625
 41
0.0
 71
     1
 72
     1
  1
48.5
  7
SLDTEXTSTYLE0
 73
     1
 44
1.0
  0
MTEXT
  5
1B6
330
1A5
100
AcDbEntity
  8
SLD-0
100
AcDbMText
 10
495.3364674843
 20
378.8015254098
 30
0.0
 40
4.7625
 41
0.0
 71
     1
 72
     1
  1
1.91
  7
SLDTEXTSTYLE0
 73
     1
 44
1.0
  0
MTEXT
  5
1B7
330
1A5
100
AcDbEntity
  8
SLD-0
100
AcDbMText
 10
510.5455993584
 20
387.3343372974
 30
0.0
 40
4.7625
 41
0.0
 71
     1
 72
     1
  1
 
  7
SLDTEXTSTYLE0
 73
     1
 44
1.0
  0
ENDBLK
  5
1A7
330
1A5
100
AcDbEntity
  8
0
100
AcDbBlockEnd
  0
BLOCK
  5
1F3
330
1F2
100
AcDbEntity
  8
0
100
AcDbBlockBegin
  2
_D_4
 70
     0
 10
0.0
 20
0.0
 30
0.0
  3
_D_4
  1

  0
SOLID
  5
1F5
330
1F2
100
AcDbEntity
  8
SLD-0
100
AcDbTrace
 10
492.0673093182
 20
217.2934710879
 30
0.0
 11
488.0673093182
 21
217.7934710879
 31
0.0
 12
488.0673093182
 22
216.7934710879
 32
0.0
 13
488.0673093182
 23
216.7934710879
 33
0.0
  0
SOLID
  5
1F6
330
1F2
100
AcDbEntity
  8
SLD-0
100
AcDbTrace
 10
383.4220583796
 20
217.2934710879
 30
0.0
 11
387.4220583796
 21
216.7934710879
 31
0.0
 12
387.4220583796
 22
217.7934710879
 32
0.0
 13
387.4220583796
 23
217.7934710879
 33
0.0
  0
LINE
  5
1F7
330
1F2
100
AcDbEntity
  8
SLD-0
100
AcDbLine
 10
431.5887114799
 20
217.2934720192
 30
0.0
 11
430.140117679
 21
217.2934720192
 31
0.0
  0
LINE
  5
1F8
330
1F2
100
AcDbEntity
  8
SLD-0
100
AcDbLine
 10
430.140117679
 20
217.2934720192
 30
0.0
 11
430.140117679
 21
209.7263885561
 31
0.0
  0
LINE
  5
1F9
330
1F2
100
AcDbEntity
  8
SLD-0
100
AcDbLine
 10
430.140117679
 20
209.7263885561
 30
0.0
 11
431.5887114799
 21
209.7263885561
 31
0.0
  0
LINE
  5
1FA
330
1F2
100
AcDbEntity
  8
SLD-0
100
AcDbLine
 10
443.9006562179
 20
217.2934720192
 30
0.0
 11
445.3492500188
 21
217.2934720192
 31
0.0
  0
LINE
  5
1FB
330
1F2
100
AcDbEntity
  8
SLD-0
100
AcDbLine
 10
445.3492500188
 20
217.2934720192
 30
0.0
 11
445.3492500188
 21
209.7263885561
 31
0.0
  0
LINE
  5
1FC
330
1F2
100
AcDbEntity
  8
SLD-0
100
AcDbLine
 10
445.3492500188
 20
209.7263885561
 30
0.0
 11
443.9006562179
 21
209.7263885561
 31
0.0
  0
LINE
  5
1FD
330
1F2
100
AcDbEntity
  8
SLD-0
100
AcDbLine
 10
492.0673093182
 20
191.1794710879
 30
0.0
 11
492.0673093182
 21
218.8174710879
 31
0.0
  0
LINE
  5
1FE
330
1F2
100
AcDbEntity
  8
SLD-0
100
AcDbLine
 10
383.4220583796
 20
153.5041645355
 30
0.0
 11
383.4220583796
 21
218.8174710879
 31
0.0
  0
LINE
  5
1FF
330
1F2
100
AcDbEntity
  8
SLD-0
100
AcDbLine
 10
492.0673093182
 20
217.2934710879
 30
0.0
 11
449.5185319766
 21
217.2934710879
 31
0.0
  0
LINE
  5
200
330
1F2
100
AcDbEntity
  8
SLD-0
100
AcDbLine
 10
383.4220583796
 20
217.2934710879
 30
0.0
 11
425.9708357212
 21
217.2934710879
 31
0.0
  0
MTEXT
  5
201
330
1F2
100
AcDbEntity
  8
SLD-0
100
AcDbMText
 10
426.9364544025
 20
224.3425502859
 30
0.0
 40
4.7625
 41
0.0
 71
     1
 72
     1
  1
 
  7
SLDTEXTSTYLE0
 73
     1
 44
1.0
  0
MTEXT
  5
202
330
1F2
100
AcDbEntity
  8
SLD-0
100
AcDbMText
 10
429.8292321919
 20
224.3425507515
 30
0.0
 40
4.7625
 41
0.0
 71
     1
 72
     1
  1
108.6
  7
SLDTEXTSTYLE0
 73
     1
 44
1.0
  0
MTEXT
  5
203
330
1F2
100
AcDbEntity
  8
SLD-0
100
AcDbMText
 10
431.5887114799
 20
215.8097383983
 30
0.0
 40
4.7625
 41
0.0
 71
     1
 72
     1
  1
4.28
  7
SLDTEXTSTYLE0
 73
     1
 44
1.0
  0
MTEXT
  5
204
330
1F2
100
AcDbEntity
  8
SLD-0
100
AcDbMText
 10
446.797843354
 20
224.3425502859
 30
0.0
 40
4.7625
 41
0.0
 71
     1
 72
     1
  1
 
  7
SLDTEXTSTYLE0
 73
     1
 44
1.0
  0
ENDBLK
  5
1F4
330
1F2
100
AcDbEntity
  8
0
100
AcDbBlockEnd
  0
BLOCK
  5
207
330
206
100
AcDbEntity
  8
0
100
AcDbBlockBegin
  2
_D_5
 70
     0
 10
0.0
 20
0.0
 30
0.0
  3
_D_5
  1

  0
SOLID
  5
209
330
206
100
AcDbEntity
  8
SLD-0
100
AcDbTrace
 10
398.4269848151
 20
72.7170073621
 30
0.0
 11
402.4269848151
 21
72.2170073621
 31
0.0
 12
402.4269848151
 22
73.2170073621
 32
0.0
 13
402.4269848151
 23
73.2170073621
 33
0.0
  0
SOLID
  5
20A
330
206
100
AcDbEntity
  8
SLD-0
100
AcDbTrace
 10
484.5673093182
 20
72.7170073621
 30
0.0
 11
480.5673093182
 21
73.2170073621
 31
0.0
 12
480.5673093182
 22
72.2170073621
 32
0.0
 13
480.5673093182
 23
72.2170073621
 33
0.0
  0
LINE
  5
20B
330
206
100
AcDbEntity
  8
SLD-0
100
AcDbLine
 10
435.3411746976
 20
72.7170082934
 30
0.0
 11
433.8925808967
 21
72.7170082934
 31
0.0
  0
LINE
  5
20C
330
206
100
AcDbEntity
  8
SLD-0
100
AcDbLine
 10
433.8925808967
 20
72.7170082934
 30
0.0
 11
433.8925808967
 21
65.1499248304
 31
0.0
  0
LINE
  5
20D
330
206
100
AcDbEntity
  8
SLD-0
100
AcDbLine
 10
433.8925808967
 20
65.1499248304
 30
0.0
 11
435.3411746976
 21
65.1499248304
 31
0.0
  0
LINE
  5
20E
330
206
100
AcDbEntity
  8
SLD-0
100
AcDbLine
 10
447.6531194356
 20
72.7170082934
 30
0.0
 11
449.1017132365
 21
72.7170082934
 31
0.0
  0
LINE
  5
20F
330
206
100
AcDbEntity
  8
SLD-0
100
AcDbLine
 10
449.1017132365
 20
72.7170082934
 30
0.0
 11
449.1017132365
 21
65.1499248304
 31
0.0
  0
LINE
  5
210
330
206
100
AcDbEntity
  8
SLD-0
100
AcDbLine
 10
449.1017132365
 20
65.1499248304
 30
0.0
 11
447.6531194356
 21
65.1499248304
 31
0.0
  0
LINE
  5
211
330
206
100
AcDbEntity
  8
SLD-0
100
AcDbLine
 10
398.4269848151
 20
120.1314713537
 30
0.0
 11
398.4269848151
 21
71.1930073621
 31
0.0
  0
LINE
  5
212
330
206
100
AcDbEntity
  8
SLD-0
100
AcDbLine
 10
484.5673093182
 20
140.4934710879
 30
0.0
 11
484.5673093182
 21
71.1930073621
 31
0.0
  0
LINE
  5
213
330
206
100
AcDbEntity
  8
SLD-0
100
AcDbLine
 10
398.4269848151
 20
72.7170073621
 30
0.0
 11
429.7232989389
 21
72.7170073621
 31
0.0
  0
LINE
  5
214
330
206
100
AcDbEntity
  8
SLD-0
100
AcDbLine
 10
484.5673093182
 20
72.7170073621
 30
0.0
 11
453.2709951943
 21
72.7170073621
 31
0.0
  0
MTEXT
  5
215
330
206
100
AcDbEntity
  8
SLD-0
100
AcDbMText
 10
430.6889176202
 20
79.7660865601
 30
0.0
 40
4.7625
 41
0.0
 71
     1
 72
     1
  1
 
  7
SLDTEXTSTYLE0
 73
     1
 44
1.0
  0
MTEXT
  5
216
330
206
100
AcDbEntity
  8
SLD-0
100
AcDbMText
 10
435.3411742319
 20
79.7660870258
 30
0.0
 40
4.7625
 41
0.0
 71
     1
 72
     1
  1
86.1
  7
SLDTEXTSTYLE0
 73
     1
 44
1.0
  0
MTEXT
  5
217
330
206
100
AcDbEntity
  8
SLD-0
100
AcDbMText
 10
435.3411746976
 20
71.2332746726
 30
0.0
 40
4.7625
 41
0.0
 71
     1
 72
     1
  1
3.39
  7
SLDTEXTSTYLE0
 73
     1
 44
1.0
  0
MTEXT
  5
218
330
206
100
AcDbEntity
  8
SLD-0
100
AcDbMText
 10
450.5503065717
 20
79.7660865601
 30
0.0
 40
4.7625
 41
0.0
 71
     1
 72
     1
  1
 
  7
SLDTEXTSTYLE0
 73
     1
 44
1.0
  0
ENDBLK
  5
208
330
206
100
AcDbEntity
  8
0
100
AcDbBlockEnd
  0
BLOCK
  5
21B
330
21A
100
AcDbEntity
  8
0
100
AcDbBlockBegin
  2
_D_6
 70
     0
 10
0.0
 20
0.0
 30
0.0
  3
_D_6
  1

  0
SOLID
  5
21D
330
21A
100
AcDbEntity
  8
SLD-0
100
AcDbTrace
 10
515.9186488767
 20
197.2934710879
 30
0.0
 11
515.4186488767
 21
193.2934710879
 31
0.0
 12
516.4186488767
 22
193.2934710879
 32
0.0
 13
516.4186488767
 23
193.2934710879
 33
0.0
  0
SOLID
  5
21E
330
21A
100
AcDbEntity
  8
SLD-0
100
AcDbTrace
 10
515.9186488767
 20
146.7151791159
 30
0.0
 11
516.4186488767
 21
150.7151791159
 31
0.0
 12
515.4186488767
 22
150.7151791159
 32
0.0
 13
515.4186488767
 23
150.7151791159
 33
0.0
  0
LINE
  5
21F
330
21A
100
AcDbEntity
  8
SLD-0
100
AcDbLine
 10
509.7626765077
 20
172.0043260332
 30
0.0
 11
508.3140827068
 21
172.0043260332
 31
0.0
  0
LINE
  5
220
330
21A
100
AcDbEntity
  8
SLD-0
100
AcDbLine
 10
508.3140827068
 20
172.0043260332
 30
0.0
 11
508.3140827068
 21
164.4372425701
 31
0.0
  0
LINE
  5
221
330
21A
100
AcDbEntity
  8
SLD-0
100
AcDbLine
 10
508.3140827068
 20
164.4372425701
 30
0.0
 11
509.7626765077
 21
164.4372425701
 31
0.0
  0
LINE
  5
222
330
21A
100
AcDbEntity
  8
SLD-0
100
AcDbLine
 10
522.0746212457
 20
172.0043260332
 30
0.0
 11
523.5232150466
 21
172.0043260332
 31
0.0
  0
LINE
  5
223
330
21A
100
AcDbEntity
  8
SLD-0
100
AcDbLine
 10
523.5232150466
 20
172.0043260332
 30
0.0
 11
523.5232150466
 21
164.4372425701
 31
0.0
  0
LINE
  5
224
330
21A
100
AcDbEntity
  8
SLD-0
100
AcDbLine
 10
523.5232150466
 20
164.4372425701
 30
0.0
 11
522.0746212457
 21
164.4372425701
 31
0.0
  0
LINE
  5
225
330
21A
100
AcDbEntity
  8
SLD-0
100
AcDbLine
 10
489.5913093182
 20
197.2934710879
 30
0.0
 11
517.4426488767
 21
197.2934710879
 31
0.0
  0
LINE
  5
226
330
21A
100
AcDbEntity
  8
SLD-0
100
AcDbLine
 10
486.0913093182
 20
146.7151791159
 30
0.0
 11
517.4426488767
 21
146.7151791159
 31
0.0
  0
LINE
  5
227
330
21A
100
AcDbEntity
  8
SLD-0
100
AcDbLine
 10
515.9186488767
 20
197.2934710879
 30
0.0
 11
515.9186488767
 21
180.5371379207
 31
0.0
  0
LINE
  5
228
330
21A
100
AcDbEntity
  8
SLD-0
100
AcDbLine
 10
515.9186488767
 20
146.7151791159
 30
0.0
 11
515.9186488767
 21
163.471512283
 31
0.0
  0
MTEXT
  5
229
330
21A
100
AcDbEntity
  8
SLD-0
100
AcDbMText
 10
505.1104194303
 20
179.0534042999
 30
0.0
 40
4.7625
 41
0.0
 71
     1
 72
     1
  1
 
  7
SLDTEXTSTYLE0
 73
     1
 44
1.0
  0
MTEXT
  5
22A
330
21A
100
AcDbEntity
  8
SLD-0
100
AcDbMText
 10
509.762676042
 20
179.0534047655
 30
0.0
 40
4.7625
 41
0.0
 71
     1
 72
     1
  1
50.6
  7
SLDTEXTSTYLE0
 73
     1
 44
1.0
  0
MTEXT
  5
22B
330
21A
100
AcDbEntity
  8
SLD-0
100
AcDbMText
 10
509.7626765077
 20
170.5205924123
 30
0.0
 40
4.7625
 41
0.0
 71
     1
 72
     1
  1
1.99
  7
SLDTEXTSTYLE0
 73
     1
 44
1.0
  0
MTEXT
  5
22C
330
21A
100
AcDbEntity
  8
SLD-0
100
AcDbMText
 10
524.9718083818
 20
179.0534042999
 30
0.0
 40
4.7625
 41
0.0
 71
     1
 72
     1
  1
 
  7
SLDTEXTSTYLE0
 73
     1
 44
1.0
  0
ENDBLK
  5
21C
330
21A
100
AcDbEntity
  8
0
100
AcDbBlockEnd
  0
BLOCK
  5
22F
330
22E
100
AcDbEntity
  8
0
100
AcDbBlockBegin
  2
_D_7
 70
     0
 10
0.0
 20
0.0
 30
0.0
  3
_D_7
  1

  0
SOLID
  5
231
330
22E
100
AcDbEntity
  8
SLD-0
100
AcDbTrace
 10
515.9186488767
 20
146.7151791159
 30
0.0
 11
515.4186488767
 21
142.7151791159
 31
0.0
 12
516.4186488767
 22
142.7151791159
 32
0.0
 13
516.4186488767
 23
142.7151791159
 33
0.0
  0
SOLID
  5
232
330
22E
100
AcDbEntity
  8
SLD-0
100
AcDbTrace
 10
515.9186488767
 20
107.7219348136
 30
0.0
 11
516.4186488767
 21
111.7219348136
 31
0.0
 12
515.4186488767
 22
111.7219348136
 32
0.0
 13
515.4186488767
 23
111.7219348136
 33
0.0
  0
LINE
  5
233
330
22E
100
AcDbEntity
  8
SLD-0
100
AcDbLine
 10
509.7626765077
 20
127.2185578961
 30
0.0
 11
508.3140827068
 21
127.2185578961
 31
0.0
  0
LINE
  5
234
330
22E
100
AcDbEntity
  8
SLD-0
100
AcDbLine
 10
508.3140827068
 20
127.2185578961
 30
0.0
 11
508.3140827068
 21
119.651474433
 31
0.0
  0
LINE
  5
235
330
22E
100
AcDbEntity
  8
SLD-0
100
AcDbLine
 10
508.3140827068
 20
119.651474433
 30
0.0
 11
509.7626765077
 21
119.651474433
 31
0.0
  0
LINE
  5
236
330
22E
100
AcDbEntity
  8
SLD-0
100
AcDbLine
 10
522.0746212457
 20
127.2185578961
 30
0.0
 11
523.5232150466
 21
127.2185578961
 31
0.0
  0
LINE
  5
237
330
22E
100
AcDbEntity
  8
SLD-0
100
AcDbLine
 10
523.5232150466
 20
127.2185578961
 30
0.0
 11
523.5232150466
 21
119.651474433
 31
0.0
  0
LINE
  5
238
330
22E
100
AcDbEntity
  8
SLD-0
100
AcDbLine
 10
523.5232150466
 20
119.651474433
 30
0.0
 11
522.0746212457
 21
119.651474433
 31
0.0
  0
LINE
  5
239
330
22E
100
AcDbEntity
  8
SLD-0
100
AcDbLine
 10
486.0913093182
 20
146.7151791159
 30
0.0
 11
517.4426488767
 21
146.7151791159
 31
0.0
  0
LINE
  5
23A
330
22E
100
AcDbEntity
  8
SLD-0
100
AcDbLine
 10
477.4125221054
 20
107.7219348136
 30
0.0
 11
517.4426488767
 21
107.7219348136
 31
0.0
  0
LINE
  5
23B
330
22E
100
AcDbEntity
  8
SLD-0
100
AcDbLine
 10
515.9186488767
 20
146.7151791159
 30
0.0
 11
515.9186488767
 21
135.7513697836
 31
0.0
  0
LINE
  5
23C
330
22E
100
AcDbEntity
  8
SLD-0
100
AcDbLine
 10
515.9186488767
 20
107.7219348136
 30
0.0
 11
515.9186488767
 21
118.6857441459
 31
0.0
  0
MTEXT
  5
23D
330
22E
100
AcDbEntity
  8
SLD-0
100
AcDbMText
 10
505.1104194303
 20
134.2676361628
 30
0.0
 40
4.7625
 41
0.0
 71
     1
 72
     1
  1
 
  7
SLDTEXTSTYLE0
 73
     1
 44
1.0
  0
MTEXT
  5
23E
330
22E
100
AcDbEntity
  8
SLD-0
100
AcDbMText
 10
509.762676042
 20
134.2676366284
 30
0.0
 40
4.7625
 41
0.0
 71
     1
 72
     1
  1
39.0
  7
SLDTEXTSTYLE0
 73
     1
 44
1.0
  0
MTEXT
  5
23F
330
22E
100
AcDbEntity
  8
SLD-0
100
AcDbMText
 10
509.7626765077
 20
125.7348242752
 30
0.0
 40
4.7625
 41
0.0
 71
     1
 72
     1
  1
1.54
  7
SLDTEXTSTYLE0
 73
     1
 44
1.0
  0
MTEXT
  5
240
330
22E
100
AcDbEntity
  8
SLD-0
100
AcDbMText
 10
524.9718083818
 20
134.2676361628
 30
0.0
 40
4.7625
 41
0.0
 71
     1
 72
     1
  1
 
  7
SLDTEXTSTYLE0
 73
     1
 44
1.0
  0
ENDBLK
  5
230
330
22E
100
AcDbEntity
  8
0
100
AcDbBlockEnd
  0
BLOCK
  5
2A2
330
2A1
100
AcDbEntity
  8
0
100
AcDbBlockBegin
  2
_Dot
 70
     0
 10
0.0
 20
0.0
 30
0.0
  3
_Dot
  1

  0
LWPOLYLINE
  5
2A4
330
2A1
100
AcDbEntity
  8
0
  6
ByBlock
 62
     0
100
AcDbPolyline
 90
        2
 70
     1
 43
0.5
 10
-0.25
 20
0.0
 42
1.0
 10
0.25
 20
0.0
 42
1.0
  0
LINE
  5
2A5
330
2A1
100
AcDbEntity
  8
0
  6
ByBlock
 62
     0
370
    -2
100
AcDbLine
 10
-0.5
 20
0.0
 30
0.0
 11
-1.0
 21
0.0
 31
0.0
  0
ENDBLK
  5
2A3
330
2A1
100
AcDbEntity
  8
0
100
AcDbBlockEnd
  0
BLOCK
  5
2FD
330
2FC
100
AcDbEntity
  8
0
100
AcDbBlockBegin
  2
_D_8
 70
     0
 10
0.0
 20
0.0
 30
0.0
  3
_D_8
  1

  0
SOLID
  5
2FF
330
2FC
100
AcDbEntity
  8
SLD-0
100
AcDbTrace
 10
136.4576945982
 20
121.6346885074
 30
0.0
 11
134.0246818963
 21
118.4205868922
 31
0.0
 12
134.8907073001
 22
117.9205868922
 32
0.0
 13
134.8907073001
 23
117.9205868922
 33
0.0
  0
LINE
  5
300
330
2FC
100
AcDbEntity
  8
SLD-0
100
AcDbLine
 10
61.596581068
 20
90.6253292838
 30
0.0
 11
60.1479872672
 21
90.6253292838
 31
0.0
  0
LINE
  5
301
330
2FC
100
AcDbEntity
  8
SLD-0
100
AcDbLine
 10
60.1479872672
 20
90.6253292838
 30
0.0
 11
60.1479872672
 21
83.0582458207
 31
0.0
  0
LINE
  5
302
330
2FC
100
AcDbEntity
  8
SLD-0
100
AcDbLine
 10
60.1479872672
 20
83.0582458207
 30
0.0
 11
61.596581068
 21
83.0582458207
 31
0.0
  0
LINE
  5
303
330
2FC
100
AcDbEntity
  8
SLD-0
100
AcDbLine
 10
73.9085258061
 20
90.6253292838
 30
0.0
 11
75.357119607
 21
90.6253292838
 31
0.0
  0
LINE
  5
304
330
2FC
100
AcDbEntity
  8
SLD-0
100
AcDbLine
 10
75.357119607
 20
90.6253292838
 30
0.0
 11
75.357119607
 21
83.0582458207
 31
0.0
  0
LINE
  5
305
330
2FC
100
AcDbEntity
  8
SLD-0
100
AcDbLine
 10
75.357119607
 20
83.0582458207
 30
0.0
 11
73.9085258061
 21
83.0582458207
 31
0.0
  0
LINE
  5
306
330
2FC
100
AcDbEntity
  8
SLD-0
100
AcDbLine
 10
55.0146282727
 20
81.1267871091
 30
0.0
 11
53.5660344718
 21
81.1267871091
 31
0.0
  0
LINE
  5
307
330
2FC
100
AcDbEntity
  8
SLD-0
100
AcDbLine
 10
53.5660344718
 20
81.1267871091
 30
0.0
 11
53.5660344718
 21
73.559703646
 31
0.0
  0
LINE
  5
308
330
2FC
100
AcDbEntity
  8
SLD-0
100
AcDbLine
 10
53.5660344718
 20
73.559703646
 30
0.0
 11
55.0146282727
 21
73.559703646
 31
0.0
  0
LINE
  5
309
330
2FC
100
AcDbEntity
  8
SLD-0
100
AcDbLine
 10
67.3265730107
 20
81.1267871091
 30
0.0
 11
68.7751668116
 21
81.1267871091
 31
0.0
  0
LINE
  5
30A
330
2FC
100
AcDbEntity
  8
SLD-0
100
AcDbLine
 10
68.7751668116
 20
81.1267871091
 30
0.0
 11
68.7751668116
 21
73.559703646
 31
0.0
  0
LINE
  5
30B
330
2FC
100
AcDbEntity
  8
SLD-0
100
AcDbLine
 10
68.7751668116
 20
73.559703646
 30
0.0
 11
67.3265730107
 21
73.559703646
 31
0.0
  0
LINE
  5
30C
330
2FC
100
AcDbEntity
  8
SLD-0
100
AcDbLine
 10
92.2344506794
 20
81.1267871091
 30
0.0
 11
90.7858568785
 21
81.1267871091
 31
0.0
  0
LINE
  5
30D
330
2FC
100
AcDbEntity
  8
SLD-0
100
AcDbLine
 10
90.7858568785
 20
81.1267871091
 30
0.0
 11
90.7858568785
 21
73.559703646
 31
0.0
  0
LINE
  5
30E
330
2FC
100
AcDbEntity
  8
SLD-0
100
AcDbLine
 10
90.7858568785
 20
73.559703646
 30
0.0
 11
92.2344506794
 21
73.559703646
 31
0.0
  0
LINE
  5
30F
330
2FC
100
AcDbEntity
  8
SLD-0
100
AcDbLine
 10
104.5463954175
 20
81.1267871091
 30
0.0
 11
105.9949892183
 21
81.1267871091
 31
0.0
  0
LINE
  5
310
330
2FC
100
AcDbEntity
  8
SLD-0
100
AcDbLine
 10
105.9949892183
 20
81.1267871091
 30
0.0
 11
105.9949892183
 21
73.559703646
 31
0.0
  0
LINE
  5
311
330
2FC
100
AcDbEntity
  8
SLD-0
100
AcDbLine
 10
105.9949892183
 20
73.559703646
 30
0.0
 11
104.5463954175
 21
73.559703646
 31
0.0
  0
LINE
  5
312
330
2FC
100
AcDbEntity
  8
SLD-0
100
AcDbLine
 10
136.4576945982
 20
121.6346885074
 30
0.0
 11
111.4435820879
 21
78.3089747334
 31
0.0
  0
LINE
  5
313
330
2FC
100
AcDbEntity
  8
SLD-0
100
AcDbLine
 10
111.4435820879
 20
78.3089747334
 30
0.0
 11
107.4435820879
 21
78.3089747334
 31
0.0
  0
MTEXT
  5
314
330
2FC
100
AcDbEntity
  8
SLD-0
100
AcDbMText
 10
31.8256633432
 20
89.1415956629
 30
0.0
 40
4.7625
 41
0.0
 71
     1
 72
     1
  1
2
  7
SLDTEXTSTYLE0
 73
     1
 44
1.0
  0
MTEXT
  5
315
330
2FC
100
AcDbEntity
  8
SLD-0
100
AcDbMText
 10
35.3446216864
 20
89.1415956629
 30
0.0
 40
4.7625
 41
0.0
 71
     1
 72
     1
  1
X 
  7
SLDTEXTSTYLE0
 73
     1
 44
1.0
  0
MTEXT
  5
316
330
2FC
100
AcDbEntity
  8
SLD-0
100
AcDbMText
 10
40.9626083525
 20
89.1415956629
 30
0.0
 40
4.7625
 41
0.0
 71
     1
 72
     1
  1
%%c
  7
SLDTEXTSTYLE0
 73
     1
 44
1.0
  0
MTEXT
  5
317
330
2FC
100
AcDbEntity
  8
SLD-0
100
AcDbMText
 10
48.1513364317
 20
89.1415956629
 30
0.0
 40
4.7625
 41
0.0
 71
     1
 72
     1
  1
 6.5
  7
SLDTEXTSTYLE0
 73
     1
 44
1.0
  0
MTEXT
  5
318
330
2FC
100
AcDbEntity
  8
SLD-0
100
AcDbMText
 10
61.596581068
 20
89.1415956629
 30
0.0
 40
4.7625
 41
0.0
 71
     1
 72
     1
  1
0.26
  7
SLDTEXTSTYLE0
 73
     1
 44
1.0
  0
MTEXT
  5
319
330
2FC
100
AcDbEntity
  8
SLD-0
100
AcDbMText
 10
76.8057124765
 20
89.1415956629
 30
0.0
 40
4.7625
 41
0.0
 71
     1
 72
     1
  1
 THRU
  7
SLDTEXTSTYLE0
 73
     1
 44
1.0
  0
INSERT
  5
320
330
2FC
100
AcDbEntity
  8
SLD-0
100
AcDbBlockReference
  2
SW_SYMBOL_HOLE_SPOT
 10
17.9976558389
 20
74.2201286835
 30
0.0
 41
0.0030416748
 42
0.0030416748
 43
0.0030416748
  0
MTEXT
  5
321
330
2FC
100
AcDbEntity
  8
SLD-0
100
AcDbMText
 10
30.8616979124
 20
79.6430534882
 30
0.0
 40
4.7625
 41
0.0
 71
     1
 72
     1
  1
%%c
  7
SLDTEXTSTYLE0
 73
     1
 44
1.0
  0
MTEXT
  5
322
330
2FC
100
AcDbEntity
  8
SLD-0
100
AcDbMText
 10
38.0504278542
 20
79.6430534882
 30
0.0
 40
4.7625
 41
0.0
 71
     1
 72
     1
  1
 11.0
  7
SLDTEXTSTYLE0
 73
     1
 44
1.0
  0
MTEXT
  5
323
330
2FC
100
AcDbEntity
  8
SLD-0
100
AcDbMText
 10
55.0146282727
 20
79.6430534882
 30
0.0
 40
4.7625
 41
0.0
 71
     1
 72
     1
  1
0.43
  7
SLDTEXTSTYLE0
 73
     1
 44
1.0
  0
MTEXT
  5
324
330
2FC
100
AcDbEntity
  8
SLD-0
100
AcDbMText
 10
70.2237596811
 20
79.6430534882
 30
0.0
 40
4.7625
 41
0.0
 71
     1
 72
     1
  1
 
  7
SLDTEXTSTYLE0
 73
     1
 44
1.0
  0
INSERT
  5
32C
330
2FC
100
AcDbEntity
  8
SLD-0
100
AcDbBlockReference
  2
SW_SYMBOL_HOLE_DEPTH
 10
71.9788296224
 20
74.2201286835
 30
0.0
 41
0.0030416748
 42
0.0030416748
 43
0.0030416748
  0
MTEXT
  5
32D
330
2FC
100
AcDbEntity
  8
SLD-0
100
AcDbMText
 10
78.7892041804
 20
79.6430534882
 30
0.0
 40
4.7625
 41
0.0
 71
     1
 72
     1
  1
 6.0
  7
SLDTEXTSTYLE0
 73
     1
 44
1.0
  0
MTEXT
  5
32E
330
2FC
100
AcDbEntity
  8
SLD-0
100
AcDbMText
 10
92.2344506794
 20
79.6430534882
 30
0.0
 40
4.7625
 41
0.0
 71
     1
 72
     1
  1
0.24
  7
SLDTEXTSTYLE0
 73
     1
 44
1.0
  0
MTEXT
  5
32F
330
2FC
100
AcDbEntity
  8
SLD-0
100
AcDbMText
 10
45.7872858347
 20
71.1102406693
 30
0.0
 40
4.7625
 41
0.0
 71
     1
 72
     1
  1
BOTH SIDES
  7
SLDTEXTSTYLE0
 73
     1
 44
1.0
  0
ENDBLK
  5
2FE
330
2FC
100
AcDbEntity
  8
0
100
AcDbBlockEnd
  0
BLOCK
  5
31B
330
31A
100
AcDbEntity
  8
0
100
AcDbBlockBegin
  2
SW_SYMBOL_HOLE_SPOT
 70
     0
 10
0.0
 20
0.0
 30
0.0
  3
SW_SYMBOL_HOLE_SPOT
  1

  0
LINE
  5
31D
330
31A
100
AcDbEntity
  8
SLD-0
 62
     0
100
AcDbLine
 10
0.0
 20
1750.0
 30
0.0
 11
0.0
 21
150.0
 31
0.0
  0
LINE
  5
31E
330
31A
100
AcDbEntity
  8
SLD-0
 62
     0
100
AcDbLine
 10
0.0
 20
150.0
 30
0.0
 11
3200.0
 21
150.0
 31
0.0
  0
LINE
  5
31F
330
31A
100
AcDbEntity
  8
SLD-0
 62
     0
100
AcDbLine
 10
3200.0
 20
150.0
 30
0.0
 11
3200.0
 21
1750.0
 31
0.0
  0
ENDBLK
  5
31C
330
31A
100
AcDbEntity
  8
0
100
AcDbBlockEnd
  0
BLOCK
  5
326
330
325
100
AcDbEntity
  8
0
100
AcDbBlockBegin
  2
SW_SYMBOL_HOLE_DEPTH
 70
     0
 10
0.0
 20
0.0
 30
0.0
  3
SW_SYMBOL_HOLE_DEPTH
  1

  0
LINE
  5
328
330
325
100
AcDbEntity
  8
SLD-0
 62
     0
100
AcDbLine
 10
0.0
 20
1750.0
 30
0.0
 11
1600.0
 21
1750.0
 31
0.0
  0
LINE
  5
329
330
325
100
AcDbEntity
  8
SLD-0
 62
     0
100
AcDbLine
 10
800.0
 20
1750.0
 30
0.0
 11
800.0
 21
150.0
 31
0.0
  0
LINE
  5
32A
330
325
100
AcDbEntity
  8
SLD-0
 62
     0
100
AcDbLine
 10
200.0
 20
1110.0
 30
0.0
 11
800.0
 21
150.0
 31
0.0
  0
LINE
  5
32B
330
325
100
AcDbEntity
  8
SLD-0
 62
     0
100
AcDbLine
 10
1400.0
 20
1110.0
 30
0.0
 11
800.0
 21
150.0
 31
0.0
  0
ENDBLK
  5
327
330
325
100
AcDbEntity
  8
0
100
AcDbBlockEnd
  0
BLOCK
  5
333
330
332
100
AcDbEntity
  8
0
100
AcDbBlockBegin
  2
_D_9
 70
     0
 10
0.0
 20
0.0
 30
0.0
  3
_D_9
  1

  0
SOLID
  5
335
330
332
100
AcDbEntity
  8
SLD-0
100
AcDbTrace
 10
240.4826945982
 20
78.3089747334
 30
0.0
 11
236.4826945982
 21
78.8089747334
 31
0.0
 12
236.4826945982
 22
77.8089747334
 32
0.0
 13
236.4826945982
 23
77.8089747334
 33
0.0
  0
SOLID
  5
336
330
332
100
AcDbEntity
  8
SLD-0
100
AcDbTrace
 10
276.6826945982
 20
78.3089747334
 30
0.0
 11
280.6826945982
 21
77.8089747334
 31
0.0
 12
280.6826945982
 22
78.8089747334
 32
0.0
 13
280.6826945982
 23
78.8089747334
 33
0.0
  0
LINE
  5
337
330
332
100
AcDbEntity
  8
SLD-0
100
AcDbLine
 10
252.4267222292
 20
78.3089756647
 30
0.0
 11
250.9781284283
 21
78.3089756647
 31
0.0
  0
LINE
  5
338
330
332
100
AcDbEntity
  8
SLD-0
100
AcDbLine
 10
250.9781284283
 20
78.3089756647
 30
0.0
 11
250.9781284283
 21
70.7418922016
 31
0.0
  0
LINE
  5
339
330
332
100
AcDbEntity
  8
SLD-0
100
AcDbLine
 10
250.9781284283
 20
70.7418922016
 30
0.0
 11
252.4267222292
 21
70.7418922016
 31
0.0
  0
LINE
  5
33A
330
332
100
AcDbEntity
  8
SLD-0
100
AcDbLine
 10
264.7386669672
 20
78.3089756647
 30
0.0
 11
266.1872607681
 21
78.3089756647
 31
0.0
  0
LINE
  5
33B
330
332
100
AcDbEntity
  8
SLD-0
100
AcDbLine
 10
266.1872607681
 20
78.3089756647
 30
0.0
 11
266.1872607681
 21
70.7418922016
 31
0.0
  0
LINE
  5
33C
330
332
100
AcDbEntity
  8
SLD-0
100
AcDbLine
 10
266.1872607681
 20
70.7418922016
 30
0.0
 11
264.7386669672
 21
70.7418922016
 31
0.0
  0
LINE
  5
33D
330
332
100
AcDbEntity
  8
SLD-0
100
AcDbLine
 10
240.4826945982
 20
98.1897687369
 30
0.0
 11
240.4826945982
 21
76.7849747334
 31
0.0
  0
LINE
  5
33E
330
332
100
AcDbEntity
  8
SLD-0
100
AcDbLine
 10
276.6826945982
 20
98.1897687369
 30
0.0
 11
276.6826945982
 21
76.7849747334
 31
0.0
  0
LINE
  5
33F
330
332
100
AcDbEntity
  8
SLD-0
100
AcDbLine
 10
240.4826945982
 20
78.3089747334
 30
0.0
 11
232.4826945982
 21
78.3089747334
 31
0.0
  0
LINE
  5
340
330
332
100
AcDbEntity
  8
SLD-0
100
AcDbLine
 10
276.6826945982
 20
78.3089747334
 30
0.0
 11
284.6826945982
 21
78.3089747334
 31
0.0
  0
MTEXT
  5
341
330
332
100
AcDbEntity
  8
SLD-0
100
AcDbMText
 10
247.7744651518
 20
85.3580539314
 30
0.0
 40
4.7625
 41
0.0
 71
     1
 72
     1
  1
 
  7
SLDTEXTSTYLE0
 73
     1
 44
1.0
  0
MTEXT
  5
342
330
332
100
AcDbEntity
  8
SLD-0
100
AcDbMText
 10
252.4267217635
 20
85.3580543971
 30
0.0
 40
4.7625
 41
0.0
 71
     1
 72
     1
  1
36.2
  7
SLDTEXTSTYLE0
 73
     1
 44
1.0
  0
MTEXT
  5
343
330
332
100
AcDbEntity
  8
SLD-0
100
AcDbMText
 10
252.4267222292
 20
76.8252420438
 30
0.0
 40
4.7625
 41
0.0
 71
     1
 72
     1
  1
1.43
  7
SLDTEXTSTYLE0
 73
     1
 44
1.0
  0
MTEXT
  5
344
330
332
100
AcDbEntity
  8
SLD-0
100
AcDbMText
 10
267.6358541033
 20
85.3580539314
 30
0.0
 40
4.7625
 41
0.0
 71
     1
 72
     1
  1
 
  7
SLDTEXTSTYLE0
 73
     1
 44
1.0
  0
ENDBLK
  5
334
330
332
100
AcDbEntity
  8
0
100
AcDbBlockEnd
  0
BLOCK
  5
347
330
346
100
AcDbEntity
  8
0
100
AcDbBlockBegin
  2
_D_10
 70
     0
 10
0.0
 20
0.0
 30
0.0
  3
_D_10
  1

  0
SOLID
  5
349
330
346
100
AcDbEntity
  8
SLD-0
100
AcDbTrace
 10
299.4363303395
 20
78.3089747334
 30
0.0
 11
295.4363303395
 21
78.8089747334
 31
0.0
 12
295.4363303395
 22
77.8089747334
 32
0.0
 13
295.4363303395
 23
77.8089747334
 33
0.0
  0
SOLID
  5
34A
330
346
100
AcDbEntity
  8
SLD-0
100
AcDbTrace
 10
276.6826945982
 20
78.3089747334
 30
0.0
 11
280.6826945982
 21
77.8089747334
 31
0.0
 12
280.6826945982
 22
78.8089747334
 32
0.0
 13
280.6826945982
 23
78.8089747334
 33
0.0
  0
LINE
  5
34B
330
346
100
AcDbEntity
  8
SLD-0
100
AcDbLine
 10
315.0398367928
 20
78.3089756647
 30
0.0
 11
313.5912429919
 21
78.3089756647
 31
0.0
  0
LINE
  5
34C
330
346
100
AcDbEntity
  8
SLD-0
100
AcDbLine
 10
313.5912429919
 20
78.3089756647
 30
0.0
 11
313.5912429919
 21
70.7418922016
 31
0.0
  0
LINE
  5
34D
330
346
100
AcDbEntity
  8
SLD-0
100
AcDbLine
 10
313.5912429919
 20
70.7418922016
 30
0.0
 11
315.0398367928
 21
70.7418922016
 31
0.0
  0
LINE
  5
34E
330
346
100
AcDbEntity
  8
SLD-0
100
AcDbLine
 10
323.8328229548
 20
78.3089756647
 30
0.0
 11
325.2814167557
 21
78.3089756647
 31
0.0
  0
LINE
  5
34F
330
346
100
AcDbEntity
  8
SLD-0
100
AcDbLine
 10
325.2814167557
 20
78.3089756647
 30
0.0
 11
325.2814167557
 21
70.7418922016
 31
0.0
  0
LINE
  5
350
330
346
100
AcDbEntity
  8
SLD-0
100
AcDbLine
 10
325.2814167557
 20
70.7418922016
 30
0.0
 11
323.8328229548
 21
70.7418922016
 31
0.0
  0
LINE
  5
351
330
346
100
AcDbEntity
  8
SLD-0
100
AcDbLine
 10
299.4363303395
 20
152.0539424131
 30
0.0
 11
299.4363303395
 21
76.7849747334
 31
0.0
  0
LINE
  5
352
330
346
100
AcDbEntity
  8
SLD-0
100
AcDbLine
 10
276.6826945982
 20
98.1897687369
 30
0.0
 11
276.6826945982
 21
76.7849747334
 31
0.0
  0
LINE
  5
353
330
346
100
AcDbEntity
  8
SLD-0
100
AcDbLine
 10
299.4363303395
 20
78.3089747334
 30
0.0
 11
309.4219610341
 21
78.3089747334
 31
0.0
  0
LINE
  5
354
330
346
100
AcDbEntity
  8
SLD-0
100
AcDbLine
 10
276.6826945982
 20
78.3089747334
 30
0.0
 11
299.4363303395
 21
78.3089747334
 31
0.0
  0
MTEXT
  5
355
330
346
100
AcDbEntity
  8
SLD-0
100
AcDbMText
 10
310.3875797154
 20
85.3580539314
 30
0.0
 40
4.7625
 41
0.0
 71
     1
 72
     1
  1
 
  7
SLDTEXTSTYLE0
 73
     1
 44
1.0
  0
MTEXT
  5
356
330
346
100
AcDbEntity
  8
SLD-0
100
AcDbMText
 10
313.2803575048
 20
85.3580543971
 30
0.0
 40
4.7625
 41
0.0
 71
     1
 72
     1
  1
22.8
  7
SLDTEXTSTYLE0
 73
     1
 44
1.0
  0
MTEXT
  5
357
330
346
100
AcDbEntity
  8
SLD-0
100
AcDbMText
 10
315.0398367928
 20
76.8252420438
 30
0.0
 40
4.7625
 41
0.0
 71
     1
 72
     1
  1
.90
  7
SLDTEXTSTYLE0
 73
     1
 44
1.0
  0
MTEXT
  5
358
330
346
100
AcDbEntity
  8
SLD-0
100
AcDbMText
 10
326.7300110223
 20
85.3580539314
 30
0.0
 40
4.7625
 41
0.0
 71
     1
 72
     1
  1
 
  7
SLDTEXTSTYLE0
 73
     1
 44
1.0
  0
ENDBLK
  5
348
330
346
100
AcDbEntity
  8
0
100
AcDbBlockEnd
  0
BLOCK
  5
35B
330
35A
100
AcDbEntity
  8
0
100
AcDbBlockBegin
  2
_D_11
 70
     0
 10
0.0
 20
0.0
 30
0.0
  3
_D_11
  1

  0
SOLID
  5
35D
330
35A
100
AcDbEntity
  8
SLD-0
100
AcDbTrace
 10
317.040322833
 20
97.1596371179
 30
0.0
 11
317.540322833
 21
101.1596371179
 31
0.0
 12
316.540322833
 22
101.1596371179
 32
0.0
 13
316.540322833
 23
101.1596371179
 33
0.0
  0
SOLID
  5
35E
330
35A
100
AcDbEntity
  8
SLD-0
100
AcDbTrace
 10
317.040322833
 20
112.0779424131
 30
0.0
 11
316.540322833
 21
108.0779424131
 31
0.0
 12
317.540322833
 22
108.0779424131
 32
0.0
 13
317.540322833
 23
108.0779424131
 33
0.0
  0
LINE
  5
35F
330
35A
100
AcDbEntity
  8
SLD-0
100
AcDbLine
 10
328.5894359544
 20
127.9887712938
 30
0.0
 11
327.1408421535
 21
127.9887712938
 31
0.0
  0
LINE
  5
360
330
35A
100
AcDbEntity
  8
SLD-0
100
AcDbLine
 10
327.1408421535
 20
127.9887712938
 30
0.0
 11
327.1408421535
 21
120.4216878307
 31
0.0
  0
LINE
  5
361
330
35A
100
AcDbEntity
  8
SLD-0
100
AcDbLine
 10
327.1408421535
 20
120.4216878307
 30
0.0
 11
328.5894359544
 21
120.4216878307
 31
0.0
  0
LINE
  5
362
330
35A
100
AcDbEntity
  8
SLD-0
100
AcDbLine
 10
337.3824221164
 20
127.9887712938
 30
0.0
 11
338.8310159173
 21
127.9887712938
 31
0.0
  0
LINE
  5
363
330
35A
100
AcDbEntity
  8
SLD-0
100
AcDbLine
 10
338.8310159173
 20
127.9887712938
 30
0.0
 11
338.8310159173
 21
120.4216878307
 31
0.0
  0
LINE
  5
364
330
35A
100
AcDbEntity
  8
SLD-0
100
AcDbLine
 10
338.8310159173
 20
120.4216878307
 30
0.0
 11
337.3824221164
 21
120.4216878307
 31
0.0
  0
LINE
  5
365
330
35A
100
AcDbEntity
  8
SLD-0
100
AcDbLine
 10
278.2066945982
 20
97.1596371179
 30
0.0
 11
318.564322833
 21
97.1596371179
 31
0.0
  0
LINE
  5
366
330
35A
100
AcDbEntity
  8
SLD-0
100
AcDbLine
 10
292.8935475103
 20
112.0779424131
 30
0.0
 11
318.564322833
 21
112.0779424131
 31
0.0
  0
LINE
  5
367
330
35A
100
AcDbEntity
  8
SLD-0
100
AcDbLine
 10
321.040322833
 20
127.9887703624
 30
0.0
 11
317.040322833
 21
127.9887703624
 31
0.0
  0
LINE
  5
368
330
35A
100
AcDbEntity
  8
SLD-0
100
AcDbLine
 10
317.040322833
 20
127.9887703624
 30
0.0
 11
317.040322833
 21
112.0779424131
 31
0.0
  0
LINE
  5
369
330
35A
100
AcDbEntity
  8
SLD-0
100
AcDbLine
 10
317.040322833
 20
97.1596371179
 30
0.0
 11
317.040322833
 21
112.0779424131
 31
0.0
  0
MTEXT
  5
36A
330
35A
100
AcDbEntity
  8
SLD-0
100
AcDbMText
 10
323.937178877
 20
135.0378495604
 30
0.0
 40
4.7625
 41
0.0
 71
     1
 72
     1
  1
 
  7
SLDTEXTSTYLE0
 73
     1
 44
1.0
  0
MTEXT
  5
36B
330
35A
100
AcDbEntity
  8
SLD-0
100
AcDbMText
 10
326.8299566664
 20
135.0378500261
 30
0.0
 40
4.7625
 41
0.0
 71
     1
 72
     1
  1
14.9
  7
SLDTEXTSTYLE0
 73
     1
 44
1.0
  0
MTEXT
  5
36C
330
35A
100
AcDbEntity
  8
SLD-0
100
AcDbMText
 10
328.5894359544
 20
126.5050376729
 30
0.0
 40
4.7625
 41
0.0
 71
     1
 72
     1
  1
.59
  7
SLDTEXTSTYLE0
 73
     1
 44
1.0
  0
MTEXT
  5
36D
330
35A
100
AcDbEntity
  8
SLD-0
100
AcDbMText
 10
340.2796101838
 20
135.0378495604
 30
0.0
 40
4.7625
 41
0.0
 71
     1
 72
     1
  1
 
  7
SLDTEXTSTYLE0
 73
     1
 44
1.0
  0
ENDBLK
  5
35C
330
35A
100
AcDbEntity
  8
0
100
AcDbBlockEnd
  0
BLOCK
  5
370
330
36F
100
AcDbEntity
  8
0
100
AcDbBlockBegin
  2
_D_12
 70
     0
 10
0.0
 20
0.0
 30
0.0
  3
_D_12
  1

  0
SOLID
  5
372
330
36F
100
AcDbEntity
  8
SLD-0
100
AcDbTrace
 10
32.8894942907
 20
153.5779424131
 30
0.0
 11
32.3894942907
 21
149.5779424131
 31
0.0
 12
33.3894942907
 22
149.5779424131
 32
0.0
 13
33.3894942907
 23
149.5779424131
 33
0.0
  0
SOLID
  5
373
330
36F
100
AcDbEntity
  8
SLD-0
100
AcDbTrace
 10
32.8894942907
 20
112.0779424131
 30
0.0
 11
33.3894942907
 21
116.0779424131
 31
0.0
 12
32.3894942907
 22
116.0779424131
 32
0.0
 13
32.3894942907
 23
116.0779424131
 33
0.0
  0
LINE
  5
374
330
36F
100
AcDbEntity
  8
SLD-0
100
AcDbLine
 10
26.7335219217
 20
132.8279433444
 30
0.0
 11
25.2849281208
 21
132.8279433444
 31
0.0
  0
LINE
  5
375
330
36F
100
AcDbEntity
  8
SLD-0
100
AcDbLine
 10
25.2849281208
 20
132.8279433444
 30
0.0
 11
25.2849281208
 21
125.2608598814
 31
0.0
  0
LINE
  5
376
330
36F
100
AcDbEntity
  8
SLD-0
100
AcDbLine
 10
25.2849281208
 20
125.2608598814
 30
0.0
 11
26.7335219217
 21
125.2608598814
 31
0.0
  0
LINE
  5
377
330
36F
100
AcDbEntity
  8
SLD-0
100
AcDbLine
 10
39.0454666597
 20
132.8279433444
 30
0.0
 11
40.4940604606
 21
132.8279433444
 31
0.0
  0
LINE
  5
378
330
36F
100
AcDbEntity
  8
SLD-0
100
AcDbLine
 10
40.4940604606
 20
132.8279433444
 30
0.0
 11
40.4940604606
 21
125.2608598814
 31
0.0
  0
LINE
  5
379
330
36F
100
AcDbEntity
  8
SLD-0
100
AcDbLine
 10
40.4940604606
 20
125.2608598814
 30
0.0
 11
39.0454666597
 21
125.2608598814
 31
0.0
  0
LINE
  5
37A
330
36F
100
AcDbEntity
  8
SLD-0
100
AcDbLine
 10
45.2050588568
 20
153.5779424131
 30
0.0
 11
31.3654942907
 21
153.5779424131
 31
0.0
  0
LINE
  5
37B
330
36F
100
AcDbEntity
  8
SLD-0
100
AcDbLine
 10
53.2718416861
 20
112.0779424131
 30
0.0
 11
31.3654942907
 21
112.0779424131
 31
0.0
  0
LINE
  5
37C
330
36F
100
AcDbEntity
  8
SLD-0
100
AcDbLine
 10
32.8894942907
 20
153.5779424131
 30
0.0
 11
32.8894942907
 21
141.360755232
 31
0.0
  0
LINE
  5
37D
330
36F
100
AcDbEntity
  8
SLD-0
100
AcDbLine
 10
32.8894942907
 20
112.0779424131
 30
0.0
 11
32.8894942907
 21
124.2951295942
 31
0.0
  0
MTEXT
  5
37E
330
36F
100
AcDbEntity
  8
SLD-0
100
AcDbMText
 10
22.0812648443
 20
139.8770216111
 30
0.0
 40
4.7625
 41
0.0
 71
     1
 72
     1
  1
 
  7
SLDTEXTSTYLE0
 73
     1
 44
1.0
  0
MTEXT
  5
37F
330
36F
100
AcDbEntity
  8
SLD-0
100
AcDbMText
 10
26.733521456
 20
139.8770220768
 30
0.0
 40
4.7625
 41
0.0
 71
     1
 72
     1
  1
41.5
  7
SLDTEXTSTYLE0
 73
     1
 44
1.0
  0
MTEXT
  5
380
330
36F
100
AcDbEntity
  8
SLD-0
100
AcDbMText
 10
26.7335219217
 20
131.3442097236
 30
0.0
 40
4.7625
 41
0.0
 71
     1
 72
     1
  1
1.63
  7
SLDTEXTSTYLE0
 73
     1
 44
1.0
  0
MTEXT
  5
381
330
36F
100
AcDbEntity
  8
SLD-0
100
AcDbMText
 10
41.9426537958
 20
139.8770216111
 30
0.0
 40
4.7625
 41
0.0
 71
     1
 72
     1
  1
 
  7
SLDTEXTSTYLE0
 73
     1
 44
1.0
  0
ENDBLK
  5
371
330
36F
100
AcDbEntity
  8
0
100
AcDbBlockEnd
  0
BLOCK
  5
384
330
383
100
AcDbEntity
  8
0
100
AcDbBlockBegin
  2
_D_13
 70
     0
 10
0.0
 20
0.0
 30
0.0
  3
_D_13
  1

  0
SOLID
  5
386
330
383
100
AcDbEntity
  8
SLD-0
100
AcDbTrace
 10
155.3203768226
 20
131.3991552003
 30
0.0
 11
154.8203768226
 21
127.3991552003
 31
0.0
 12
155.8203768226
 22
127.3991552003
 32
0.0
 13
155.8203768226
 23
127.3991552003
 33
0.0
  0
SOLID
  5
387
330
383
100
AcDbEntity
  8
SLD-0
100
AcDbTrace
 10
155.3203768226
 20
117.3991552003
 30
0.0
 11
155.8203768226
 21
121.3991552003
 31
0.0
 12
154.8203768226
 22
121.3991552003
 32
0.0
 13
154.8203768226
 23
121.3991552003
 33
0.0
  0
LINE
  5
388
330
383
100
AcDbEntity
  8
SLD-0
100
AcDbLine
 10
134.9782766079
 20
177.6843296848
 30
0.0
 11
133.529682807
 21
177.6843296848
 31
0.0
  0
LINE
  5
389
330
383
100
AcDbEntity
  8
SLD-0
100
AcDbLine
 10
133.529682807
 20
177.6843296848
 30
0.0
 11
133.529682807
 21
170.1172462218
 31
0.0
  0
LINE
  5
38A
330
383
100
AcDbEntity
  8
SLD-0
100
AcDbLine
 10
133.529682807
 20
170.1172462218
 30
0.0
 11
134.9782766079
 21
170.1172462218
 31
0.0
  0
LINE
  5
38B
330
383
100
AcDbEntity
  8
SLD-0
100
AcDbLine
 10
143.7712627699
 20
177.6843296848
 30
0.0
 11
145.2198565708
 21
177.6843296848
 31
0.0
  0
LINE
  5
38C
330
383
100
AcDbEntity
  8
SLD-0
100
AcDbLine
 10
145.2198565708
 20
177.6843296848
 30
0.0
 11
145.2198565708
 21
170.1172462218
 31
0.0
  0
LINE
  5
38D
330
383
100
AcDbEntity
  8
SLD-0
100
AcDbLine
 10
145.2198565708
 20
170.1172462218
 30
0.0
 11
143.7712627699
 21
170.1172462218
 31
0.0
  0
LINE
  5
38E
330
383
100
AcDbEntity
  8
SLD-0
100
AcDbLine
 10
167.0586945982
 20
131.3991552003
 30
0.0
 11
153.7963768226
 21
131.3991552003
 31
0.0
  0
LINE
  5
38F
330
383
100
AcDbEntity
  8
SLD-0
100
AcDbLine
 10
167.0586945982
 20
117.3991552003
 30
0.0
 11
153.7963768226
 21
117.3991552003
 31
0.0
  0
LINE
  5
390
330
383
100
AcDbEntity
  8
SLD-0
100
AcDbLine
 10
151.3203768226
 20
177.6843287535
 30
0.0
 11
155.3203768226
 21
177.6843287535
 31
0.0
  0
LINE
  5
391
330
383
100
AcDbEntity
  8
SLD-0
100
AcDbLine
 10
155.3203768226
 20
177.6843287535
 30
0.0
 11
155.3203768226
 21
131.3991552003
 31
0.0
  0
LINE
  5
392
330
383
100
AcDbEntity
  8
SLD-0
100
AcDbLine
 10
155.3203768226
 20
131.3991552003
 30
0.0
 11
155.3203768226
 21
117.3991552003
 31
0.0
  0
MTEXT
  5
393
330
383
100
AcDbEntity
  8
SLD-0
100
AcDbMText
 10
130.3260195305
 20
184.7334079515
 30
0.0
 40
4.7625
 41
0.0
 71
     1
 72
     1
  1
 
  7
SLDTEXTSTYLE0
 73
     1
 44
1.0
  0
MTEXT
  5
394
330
383
100
AcDbEntity
  8
SLD-0
100
AcDbMText
 10
133.2187973199
 20
184.7334084172
 30
0.0
 40
4.7625
 41
0.0
 71
     1
 72
     1
  1
14.0
  7
SLDTEXTSTYLE0
 73
     1
 44
1.0
  0
MTEXT
  5
395
330
383
100
AcDbEntity
  8
SLD-0
100
AcDbMText
 10
134.9782766079
 20
176.200596064
 30
0.0
 40
4.7625
 41
0.0
 71
     1
 72
     1
  1
.55
  7
SLDTEXTSTYLE0
 73
     1
 44
1.0
  0
MTEXT
  5
396
330
383
100
AcDbEntity
  8
SLD-0
100
AcDbMText
 10
146.6684508373
 20
184.7334079515
 30
0.0
 40
4.7625
 41
0.0
 71
     1
 72
     1
  1
 
  7
SLDTEXTSTYLE0
 73
     1
 44
1.0
  0
ENDBLK
  5
385
330
383
100
AcDbEntity
  8
0
100
AcDbBlockEnd
  0
BLOCK
  5
399
330
398
100
AcDbEntity
  8
0
100
AcDbBlockBegin
  2
_D_14
 70
     0
 10
0.0
 20
0.0
 30
0.0
  3
_D_14
  1

  0
SOLID
  5
39B
330
398
100
AcDbEntity
  8
SLD-0
100
AcDbTrace
 10
88.3651526571
 20
131.3991552003
 30
0.0
 11
88.8651526571
 21
135.3991552003
 31
0.0
 12
87.8651526571
 22
135.3991552003
 32
0.0
 13
87.8651526571
 23
135.3991552003
 33
0.0
  0
SOLID
  5
39C
330
398
100
AcDbEntity
  8
SLD-0
100
AcDbTrace
 10
88.3651526571
 20
144.9016189261
 30
0.0
 11
87.8651526571
 21
140.9016189261
 31
0.0
 12
88.8651526571
 22
140.9016189261
 32
0.0
 13
88.8651526571
 23
140.9016189261
 33
0.0
  0
LINE
  5
39D
330
398
100
AcDbEntity
  8
SLD-0
100
AcDbLine
 10
68.0230524424
 20
177.6843296848
 30
0.0
 11
66.5744586415
 21
177.6843296848
 31
0.0
  0
LINE
  5
39E
330
398
100
AcDbEntity
  8
SLD-0
100
AcDbLine
 10
66.5744586415
 20
177.6843296848
 30
0.0
 11
66.5744586415
 21
170.1172462218
 31
0.0
  0
LINE
  5
39F
330
398
100
AcDbEntity
  8
SLD-0
100
AcDbLine
 10
66.5744586415
 20
170.1172462218
 30
0.0
 11
68.0230524424
 21
170.1172462218
 31
0.0
  0
LINE
  5
3A0
330
398
100
AcDbEntity
  8
SLD-0
100
AcDbLine
 10
76.8160386044
 20
177.6843296848
 30
0.0
 11
78.2646324053
 21
177.6843296848
 31
0.0
  0
LINE
  5
3A1
330
398
100
AcDbEntity
  8
SLD-0
100
AcDbLine
 10
78.2646324053
 20
177.6843296848
 30
0.0
 11
78.2646324053
 21
170.1172462218
 31
0.0
  0
LINE
  5
3A2
330
398
100
AcDbEntity
  8
SLD-0
100
AcDbLine
 10
78.2646324053
 20
170.1172462218
 30
0.0
 11
76.8160386044
 21
170.1172462218
 31
0.0
  0
LINE
  5
3A3
330
398
100
AcDbEntity
  8
SLD-0
100
AcDbLine
 10
167.0586945982
 20
131.3991552003
 30
0.0
 11
86.8411526571
 21
131.3991552003
 31
0.0
  0
LINE
  5
3A4
330
398
100
AcDbEntity
  8
SLD-0
100
AcDbLine
 10
111.5586945982
 20
144.9016189261
 30
0.0
 11
86.8411526571
 21
144.9016189261
 31
0.0
  0
LINE
  5
3A5
330
398
100
AcDbEntity
  8
SLD-0
100
AcDbLine
 10
84.3651526571
 20
177.6843287535
 30
0.0
 11
88.3651526571
 21
177.6843287535
 31
0.0
  0
LINE
  5
3A6
330
398
100
AcDbEntity
  8
SLD-0
100
AcDbLine
 10
88.3651526571
 20
177.6843287535
 30
0.0
 11
88.3651526571
 21
144.9016189261
 31
0.0
  0
LINE
  5
3A7
330
398
100
AcDbEntity
  8
SLD-0
100
AcDbLine
 10
88.3651526571
 20
131.3991552003
 30
0.0
 11
88.3651526571
 21
144.9016189261
 31
0.0
  0
MTEXT
  5
3A8
330
398
100
AcDbEntity
  8
SLD-0
100
AcDbMText
 10
63.370795365
 20
184.7334079515
 30
0.0
 40
4.7625
 41
0.0
 71
     1
 72
     1
  1
 
  7
SLDTEXTSTYLE0
 73
     1
 44
1.0
  0
MTEXT
  5
3A9
330
398
100
AcDbEntity
  8
SLD-0
100
AcDbMText
 10
66.2635731544
 20
184.7334084172
 30
0.0
 40
4.7625
 41
0.0
 71
     1
 72
     1
  1
13.5
  7
SLDTEXTSTYLE0
 73
     1
 44
1.0
  0
MTEXT
  5
3AA
330
398
100
AcDbEntity
  8
SLD-0
100
AcDbMText
 10
68.0230524424
 20
176.200596064
 30
0.0
 40
4.7625
 41
0.0
 71
     1
 72
     1
  1
.53
  7
SLDTEXTSTYLE0
 73
     1
 44
1.0
  0
MTEXT
  5
3AB
330
398
100
AcDbEntity
  8
SLD-0
100
AcDbMText
 10
79.7132266719
 20
184.7334079515
 30
0.0
 40
4.7625
 41
0.0
 71
     1
 72
     1
  1
 
  7
SLDTEXTSTYLE0
 73
     1
 44
1.0
  0
ENDBLK
  5
39A
330
398
100
AcDbEntity
  8
0
100
AcDbBlockEnd
  0
BLOCK
  5
3AE
330
3AD
100
AcDbEntity
  8
0
100
AcDbBlockBegin
  2
_D_15
 70
     0
 10
0.0
 20
0.0
 30
0.0
  3
_D_15
  1

  0
SOLID
  5
3B0
330
3AD
100
AcDbEntity
  8
SLD-0
100
AcDbTrace
 10
138.0826945982
 20
78.3089747334
 30
0.0
 11
142.0826945982
 21
77.8089747334
 31
0.0
 12
142.0826945982
 22
78.8089747334
 32
0.0
 13
142.0826945982
 23
78.8089747334
 33
0.0
  0
SOLID
  5
3B1
330
3AD
100
AcDbEntity
  8
SLD-0
100
AcDbTrace
 10
208.0826945982
 20
78.3089747334
 30
0.0
 11
204.0826945982
 21
78.8089747334
 31
0.0
 12
204.0826945982
 22
77.8089747334
 32
0.0
 13
204.0826945982
 23
77.8089747334
 33
0.0
  0
LINE
  5
3B2
330
3AD
100
AcDbEntity
  8
SLD-0
100
AcDbLine
 10
166.9267222292
 20
78.3089756647
 30
0.0
 11
165.4781284283
 21
78.3089756647
 31
0.0
  0
LINE
  5
3B3
330
3AD
100
AcDbEntity
  8
SLD-0
100
AcDbLine
 10
165.4781284283
 20
78.3089756647
 30
0.0
 11
165.4781284283
 21
70.7418922016
 31
0.0
  0
LINE
  5
3B4
330
3AD
100
AcDbEntity
  8
SLD-0
100
AcDbLine
 10
165.4781284283
 20
70.7418922016
 30
0.0
 11
166.9267222292
 21
70.7418922016
 31
0.0
  0
LINE
  5
3B5
330
3AD
100
AcDbEntity
  8
SLD-0
100
AcDbLine
 10
179.2386669672
 20
78.3089756647
 30
0.0
 11
180.6872607681
 21
78.3089756647
 31
0.0
  0
LINE
  5
3B6
330
3AD
100
AcDbEntity
  8
SLD-0
100
AcDbLine
 10
180.6872607681
 20
78.3089756647
 30
0.0
 11
180.6872607681
 21
70.7418922016
 31
0.0
  0
LINE
  5
3B7
330
3AD
100
AcDbEntity
  8
SLD-0
100
AcDbLine
 10
180.6872607681
 20
70.7418922016
 30
0.0
 11
179.2386669672
 21
70.7418922016
 31
0.0
  0
LINE
  5
3B8
330
3AD
100
AcDbEntity
  8
SLD-0
100
AcDbLine
 10
138.0826945982
 20
115.4252710697
 30
0.0
 11
138.0826945982
 21
76.7849747334
 31
0.0
  0
LINE
  5
3B9
330
3AD
100
AcDbEntity
  8
SLD-0
100
AcDbLine
 10
208.0826945982
 20
115.4252710697
 30
0.0
 11
208.0826945982
 21
76.7849747334
 31
0.0
  0
LINE
  5
3BA
330
3AD
100
AcDbEntity
  8
SLD-0
100
AcDbLine
 10
138.0826945982
 20
78.3089747334
 30
0.0
 11
161.3088464704
 21
78.3089747334
 31
0.0
  0
LINE
  5
3BB
330
3AD
100
AcDbEntity
  8
SLD-0
100
AcDbLine
 10
208.0826945982
 20
78.3089747334
 30
0.0
 11
184.8565427259
 21
78.3089747334
 31
0.0
  0
MTEXT
  5
3BC
330
3AD
100
AcDbEntity
  8
SLD-0
100
AcDbMText
 10
162.2744651518
 20
85.3580539314
 30
0.0
 40
4.7625
 41
0.0
 71
     1
 72
     1
  1
 
  7
SLDTEXTSTYLE0
 73
     1
 44
1.0
  0
MTEXT
  5
3BD
330
3AD
100
AcDbEntity
  8
SLD-0
100
AcDbMText
 10
166.9267217635
 20
85.3580543971
 30
0.0
 40
4.7625
 41
0.0
 71
     1
 72
     1
  1
70.0
  7
SLDTEXTSTYLE0
 73
     1
 44
1.0
  0
MTEXT
  5
3BE
330
3AD
100
AcDbEntity
  8
SLD-0
100
AcDbMText
 10
166.9267222292
 20
76.8252420438
 30
0.0
 40
4.7625
 41
0.0
 71
     1
 72
     1
  1
2.76
  7
SLDTEXTSTYLE0
 73
     1
 44
1.0
  0
MTEXT
  5
3BF
330
3AD
100
AcDbEntity
  8
SLD-0
100
AcDbMText
 10
182.1358541033
 20
85.3580539314
 30
0.0
 40
4.7625
 41
0.0
 71
     1
 72
     1
  1
 
  7
SLDTEXTSTYLE0
 73
     1
 44
1.0
  0
ENDBLK
  5
3AF
330
3AD
100
AcDbEntity
  8
0
100
AcDbBlockEnd
  0
BLOCK
  5
3C2
330
3C1
100
AcDbEntity
  8
0
100
AcDbBlockBegin
  2
_D_16
 70
     0
 10
0.0
 20
0.0
 30
0.0
  3
_D_16
  1

  0
SOLID
  5
3C4
330
3C1
100
AcDbEntity
  8
SLD-0
100
AcDbTrace
 10
258.5826945982
 20
124.4492710697
 30
0.0
 11
259.0826945982
 21
128.4492710697
 31
0.0
 12
258.0826945982
 22
128.4492710697
 32
0.0
 13
258.0826945982
 23
128.4492710697
 33
0.0
  0
SOLID
  5
3C5
330
3C1
100
AcDbEntity
  8
SLD-0
100
AcDbTrace
 10
258.5826945982
 20
144.9016189261
 30
0.0
 11
258.0826945982
 21
140.9016189261
 31
0.0
 12
259.0826945982
 22
140.9016189261
 32
0.0
 13
259.0826945982
 23
140.9016189261
 33
0.0
  0
LINE
  5
3C6
330
3C1
100
AcDbEntity
  8
SLD-0
100
AcDbLine
 10
275.7586133118
 20
177.6843296848
 30
0.0
 11
274.310019511
 21
177.6843296848
 31
0.0
  0
LINE
  5
3C7
330
3C1
100
AcDbEntity
  8
SLD-0
100
AcDbLine
 10
274.310019511
 20
177.6843296848
 30
0.0
 11
274.310019511
 21
170.1172462218
 31
0.0
  0
LINE
  5
3C8
330
3C1
100
AcDbEntity
  8
SLD-0
100
AcDbLine
 10
274.310019511
 20
170.1172462218
 30
0.0
 11
275.7586133118
 21
170.1172462218
 31
0.0
  0
LINE
  5
3C9
330
3C1
100
AcDbEntity
  8
SLD-0
100
AcDbLine
 10
284.5515994739
 20
177.6843296848
 30
0.0
 11
286.0001932747
 21
177.6843296848
 31
0.0
  0
LINE
  5
3CA
330
3C1
100
AcDbEntity
  8
SLD-0
100
AcDbLine
 10
286.0001932747
 20
177.6843296848
 30
0.0
 11
286.0001932747
 21
170.1172462218
 31
0.0
  0
LINE
  5
3CB
330
3C1
100
AcDbEntity
  8
SLD-0
100
AcDbLine
 10
286.0001932747
 20
170.1172462218
 30
0.0
 11
284.5515994739
 21
170.1172462218
 31
0.0
  0
LINE
  5
3CC
330
3C1
100
AcDbEntity
  8
SLD-0
100
AcDbLine
 10
217.1066945982
 20
124.4492710697
 30
0.0
 11
260.1066945982
 21
124.4492710697
 31
0.0
  0
LINE
  5
3CD
330
3C1
100
AcDbEntity
  8
SLD-0
100
AcDbLine
 10
234.6066945982
 20
144.9016189261
 30
0.0
 11
260.1066945982
 21
144.9016189261
 31
0.0
  0
LINE
  5
3CE
330
3C1
100
AcDbEntity
  8
SLD-0
100
AcDbLine
 10
262.5826945982
 20
177.6843287535
 30
0.0
 11
258.5826945982
 21
177.6843287535
 31
0.0
  0
LINE
  5
3CF
330
3C1
100
AcDbEntity
  8
SLD-0
100
AcDbLine
 10
258.5826945982
 20
177.6843287535
 30
0.0
 11
258.5826945982
 21
144.9016189261
 31
0.0
  0
LINE
  5
3D0
330
3C1
100
AcDbEntity
  8
SLD-0
100
AcDbLine
 10
258.5826945982
 20
124.4492710697
 30
0.0
 11
258.5826945982
 21
144.9016189261
 31
0.0
  0
MTEXT
  5
3D1
330
3C1
100
AcDbEntity
  8
SLD-0
100
AcDbMText
 10
265.4795506421
 20
184.7334079515
 30
0.0
 40
4.7625
 41
0.0
 71
     1
 72
     1
  1
2X
  7
SLDTEXTSTYLE0
 73
     1
 44
1.0
  0
MTEXT
  5
3D2
330
3C1
100
AcDbEntity
  8
SLD-0
100
AcDbMText
 10
273.9991340238
 20
184.7334084172
 30
0.0
 40
4.7625
 41
0.0
 71
     1
 72
     1
  1
20.5
  7
SLDTEXTSTYLE0
 73
     1
 44
1.0
  0
MTEXT
  5
3D3
330
3C1
100
AcDbEntity
  8
SLD-0
100
AcDbMText
 10
275.7586133118
 20
176.200596064
 30
0.0
 40
4.7625
 41
0.0
 71
     1
 72
     1
  1
.81
  7
SLDTEXTSTYLE0
 73
     1
 44
1.0
  0
ENDBLK
  5
3C3
330
3C1
100
AcDbEntity
  8
0
100
AcDbBlockEnd
  0
BLOCK
  5
3D8
330
3D7
100
AcDbEntity
  8
0
100
AcDbBlockBegin
  2
SW_SYMBOL_MOD_CL
 70
     0
 10
0.0
 20
0.0
 30
0.0
  3
SW_SYMBOL_MOD_CL
  1

  0
MTEXT
  5
3DA
330
3D7
100
AcDbEntity
  8
SLD-0
 62
     0
100
AcDbMText
 10
800.0
 20
1200.0
 30
0.0
 40
1565.749235474
 41
0.0
 71
     5
 72
     1
  1
C
  7
SLDTEXTSTYLE0
 73
     1
 44
1.0
  0
MTEXT
  5
3DB
330
3D7
100
AcDbEntity
  8
SLD-0
 62
     0
100
AcDbMText
 10
1200.0
 20
600.0
 30
0.0
 40
1565.749235474
 41
0.0
 71
     5
 72
     1
  1
L
  7
SLDTEXTSTYLE0
 73
     1
 44
1.0
  0
ENDBLK
  5
3D9
330
3D7
100
AcDbEntity
  8
0
100
AcDbBlockEnd
  0
BLOCK
  5
3E0
330
3DF
100
AcDbEntity
  8
0
100
AcDbBlockBegin
  2
SW_CENTERMARKSYMBOL_0
 70
     0
 10
0.0
 20
0.0
 30
0.0
  3
SW_CENTERMARKSYMBOL_0
  1

  0
LINE
  5
3E2
330
3DF
100
AcDbEntity
  8
SLD-0
 62
     0
100
AcDbLine
 10
0.0
 20
0.0
 30
0.0
 11
0.0
 21
2.0
 31
0.0
  0
LINE
  5
3E3
330
3DF
100
AcDbEntity
  8
SLD-0
 62
     0
100
AcDbLine
 10
0.0
 20
0.0
 30
0.0
 11
-2.0
 21
0.0
 31
0.0
  0
LINE
  5
3E4
330
3DF
100
AcDbEntity
  8
SLD-0
 62
     0
100
AcDbLine
 10
0.0
 20
0.0
 30
0.0
 11
0.0
 21
-2.0
 31
0.0
  0
LINE
  5
3E5
330
3DF
100
AcDbEntity
  8
SLD-0
 62
     0
100
AcDbLine
 10
0.0
 20
0.0
 30
0.0
 11
2.0
 21
0.0
 31
0.0
  0
LINE
  5
3E6
330
3DF
100
AcDbEntity
  8
SLD-0
 62
     0
100
AcDbLine
 10
0.0
 20
4.0
 30
0.0
 11
0.0
 21
4.5
 31
0.0
  0
LINE
  5
3E7
330
3DF
100
AcDbEntity
  8
SLD-0
 62
     0
100
AcDbLine
 10
-4.0
 20
0.0
 30
0.0
 11
-4.5
 21
0.0
 31
0.0
  0
LINE
  5
3E8
330
3DF
100
AcDbEntity
  8
SLD-0
 62
     0
100
AcDbLine
 10
0.0
 20
-4.0
 30
0.0
 11
0.0
 21
-4.5
 31
0.0
  0
LINE
  5
3E9
330
3DF
100
AcDbEntity
  8
SLD-0
 62
     0
100
AcDbLine
 10
4.0
 20
0.0
 30
0.0
 11
4.5
 21
0.0
 31
0.0
  0
ENDBLK
  5
3E1
330
3DF
100
AcDbEntity
  8
0
100
AcDbBlockEnd
  0
BLOCK
  5
3EC
330
3EB
100
AcDbEntity
  8
0
100
AcDbBlockBegin
  2
SW_CENTERMARKSYMBOL_1
 70
     0
 10
0.0
 20
0.0
 30
0.0
  3
SW_CENTERMARKSYMBOL_1
  1

  0
LINE
  5
3EE
330
3EB
100
AcDbEntity
  8
SLD-0
 62
     0
100
AcDbLine
 10
0.0
 20
0.0
 30
0.0
 11
0.0
 21
2.0
 31
0.0
  0
LINE
  5
3EF
330
3EB
100
AcDbEntity
  8
SLD-0
 62
     0
100
AcDbLine
 10
0.0
 20
0.0
 30
0.0
 11
-2.0
 21
0.0
 31
0.0
  0
LINE
  5
3F0
330
3EB
100
AcDbEntity
  8
SLD-0
 62
     0
100
AcDbLine
 10
0.0
 20
0.0
 30
0.0
 11
0.0
 21
-2.0
 31
0.0
  0
LINE
  5
3F1
330
3EB
100
AcDbEntity
  8
SLD-0
 62
     0
100
AcDbLine
 10
0.0
 20
0.0
 30
0.0
 11
2.0
 21
0.0
 31
0.0
  0
LINE
  5
3F2
330
3EB
100
AcDbEntity
  8
SLD-0
 62
     0
100
AcDbLine
 10
0.0
 20
4.0
 30
0.0
 11
0.0
 21
4.5
 31
0.0
  0
LINE
  5
3F3
330
3EB
100
AcDbEntity
  8
SLD-0
 62
     0
100
AcDbLine
 10
-4.0
 20
0.0
 30
0.0
 11
-4.5
 21
0.0
 31
0.0
  0
LINE
  5
3F4
330
3EB
100
AcDbEntity
  8
SLD-0
 62
     0
100
AcDbLine
 10
0.0
 20
-4.0
 30
0.0
 11
0.0
 21
-4.5
 31
0.0
  0
LINE
  5
3F5
330
3EB
100
AcDbEntity
  8
SLD-0
 62
     0
100
AcDbLine
 10
4.0
 20
0.0
 30
0.0
 11
4.5
 21
0.0
 31
0.0
  0
ENDBLK
  5
3ED
330
3EB
100
AcDbEntity
  8
0
100
AcDbBlockEnd
  0
BLOCK
  5
3F8
330
3F7
100
AcDbEntity
  8
0
100
AcDbBlockBegin
  2
SW_CENTERMARKSYMBOL_2
 70
     0
 10
0.0
 20
0.0
 30
0.0
  3
SW_CENTERMARKSYMBOL_2
  1

  0
LINE
  5
3FA
330
3F7
100
AcDbEntity
  8
SLD-0
 62
     0
100
AcDbLine
 10
0.0
 20
0.0
 30
0.0
 11
0.0
 21
2.0
 31
0.0
  0
LINE
  5
3FB
330
3F7
100
AcDbEntity
  8
SLD-0
 62
     0
100
AcDbLine
 10
0.0
 20
0.0
 30
0.0
 11
-2.0
 21
0.0
 31
0.0
  0
LINE
  5
3FC
330
3F7
100
AcDbEntity
  8
SLD-0
 62
     0
100
AcDbLine
 10
0.0
 20
0.0
 30
0.0
 11
0.0
 21
-2.0
 31
0.0
  0
LINE
  5
3FD
330
3F7
100
AcDbEntity
  8
SLD-0
 62
     0
100
AcDbLine
 10
0.0
 20
0.0
 30
0.0
 11
2.0
 21
0.0
 31
0.0
  0
LINE
  5
3FE
330
3F7
100
AcDbEntity
  8
SLD-0
 62
     0
100
AcDbLine
 10
0.0
 20
4.0
 30
0.0
 11
0.0
 21
7.5
 31
0.0
  0
LINE
  5
3FF
330
3F7
100
AcDbEntity
  8
SLD-0
 62
     0
100
AcDbLine
 10
-4.0
 20
0.0
 30
0.0
 11
-7.5
 21
0.0
 31
0.0
  0
LINE
  5
400
330
3F7
100
AcDbEntity
  8
SLD-0
 62
     0
100
AcDbLine
 10
0.0
 20
-4.0
 30
0.0
 11
0.0
 21
-7.5
 31
0.0
  0
LINE
  5
401
330
3F7
100
AcDbEntity
  8
SLD-0
 62
     0
100
AcDbLine
 10
4.0
 20
0.0
 30
0.0
 11
7.5
 21
0.0
 31
0.0
  0
ENDBLK
  5
3F9
330
3F7
100
AcDbEntity
  8
0
100
AcDbBlockEnd
  0
BLOCK
  5
404
330
403
100
AcDbEntity
  8
0
100
AcDbBlockBegin
  2
SW_CENTERMARKSYMBOL_3
 70
     0
 10
0.0
 20
0.0
 30
0.0
  3
SW_CENTERMARKSYMBOL_3
  1

  0
LINE
  5
406
330
403
100
AcDbEntity
  8
SLD-0
 62
     0
100
AcDbLine
 10
0.0
 20
0.0
 30
0.0
 11
0.0
 21
2.0
 31
0.0
  0
LINE
  5
407
330
403
100
AcDbEntity
  8
SLD-0
 62
     0
100
AcDbLine
 10
0.0
 20
0.0
 30
0.0
 11
-2.0
 21
0.0
 31
0.0
  0
LINE
  5
408
330
403
100
AcDbEntity
  8
SLD-0
 62
     0
100
AcDbLine
 10
0.0
 20
0.0
 30
0.0
 11
0.0
 21
-2.0
 31
0.0
  0
LINE
  5
409
330
403
100
AcDbEntity
  8
SLD-0
 62
     0
100
AcDbLine
 10
0.0
 20
0.0
 30
0.0
 11
2.0
 21
0.0
 31
0.0
  0
LINE
  5
40A
330
403
100
AcDbEntity
  8
SLD-0
 62
     0
100
AcDbLine
 10
0.0
 20
4.0
 30
0.0
 11
0.0
 21
7.5
 31
0.0
  0
LINE
  5
40B
330
403
100
AcDbEntity
  8
SLD-0
 62
     0
100
AcDbLine
 10
-4.0
 20
0.0
 30
0.0
 11
-7.5
 21
0.0
 31
0.0
  0
LINE
  5
40C
330
403
100
AcDbEntity
  8
SLD-0
 62
     0
100
AcDbLine
 10
0.0
 20
-4.0
 30
0.0
 11
0.0
 21
-7.5
 31
0.0
  0
LINE
  5
40D
330
403
100
AcDbEntity
  8
SLD-0
 62
     0
100
AcDbLine
 10
4.0
 20
0.0
 30
0.0
 11
7.5
 21
0.0
 31
0.0
  0
ENDBLK
  5
405
330
403
100
AcDbEntity
  8
0
100
AcDbBlockEnd
  0
BLOCK
  5
461
330
460
100
AcDbEntity
  8
0
100
AcDbBlockBegin
  2
_D_17
 70
     0
 10
0.0
 20
0.0
 30
0.0
  3
_D_17
  1

  0
SOLID
  5
463
330
460
100
AcDbEntity
  8
SLD-0
100
AcDbTrace
 10
54.2006811991
 20
319.4486231266
 30
0.0
 11
58.2006811991
 21
318.9486231266
 31
0.0
 12
58.2006811991
 22
319.9486231266
 32
0.0
 13
58.2006811991
 23
319.9486231266
 33
0.0
  0
SOLID
  5
464
330
460
100
AcDbEntity
  8
SLD-0
100
AcDbTrace
 10
290.7743870233
 20
319.4486231266
 30
0.0
 11
286.7743870233
 21
319.9486231266
 31
0.0
 12
286.7743870233
 22
318.9486231266
 32
0.0
 13
286.7743870233
 23
318.9486231266
 33
0.0
  0
LINE
  5
465
330
460
100
AcDbEntity
  8
SLD-0
100
AcDbLine
 10
166.3315617422
 20
319.4486240579
 30
0.0
 11
164.8829679413
 21
319.4486240579
 31
0.0
  0
LINE
  5
466
330
460
100
AcDbEntity
  8
SLD-0
100
AcDbLine
 10
164.8829679413
 20
319.4486240579
 30
0.0
 11
164.8829679413
 21
311.8815405948
 31
0.0
  0
LINE
  5
467
330
460
100
AcDbEntity
  8
SLD-0
100
AcDbLine
 10
164.8829679413
 20
311.8815405948
 30
0.0
 11
166.3315617422
 21
311.8815405948
 31
0.0
  0
LINE
  5
468
330
460
100
AcDbEntity
  8
SLD-0
100
AcDbLine
 10
178.6435064802
 20
319.4486240579
 30
0.0
 11
180.0921002811
 21
319.4486240579
 31
0.0
  0
LINE
  5
469
330
460
100
AcDbEntity
  8
SLD-0
100
AcDbLine
 10
180.0921002811
 20
319.4486240579
 30
0.0
 11
180.0921002811
 21
311.8815405948
 31
0.0
  0
LINE
  5
46A
330
460
100
AcDbEntity
  8
SLD-0
100
AcDbLine
 10
180.0921002811
 20
311.8815405948
 30
0.0
 11
178.6435064802
 21
311.8815405948
 31
0.0
  0
LINE
  5
46B
330
460
100
AcDbEntity
  8
SLD-0
100
AcDbLine
 10
54.2006811991
 20
274.0543178314
 30
0.0
 11
54.2006811991
 21
320.9726231266
 31
0.0
  0
LINE
  5
46C
330
460
100
AcDbEntity
  8
SLD-0
100
AcDbLine
 10
290.7743870233
 20
274.0543178314
 30
0.0
 11
290.7743870233
 21
320.9726231266
 31
0.0
  0
LINE
  5
46D
330
460
100
AcDbEntity
  8
SLD-0
100
AcDbLine
 10
54.2006811991
 20
319.4486231266
 30
0.0
 11
160.7136859834
 21
319.4486231266
 31
0.0
  0
LINE
  5
46E
330
460
100
AcDbEntity
  8
SLD-0
100
AcDbLine
 10
290.7743870233
 20
319.4486231266
 30
0.0
 11
184.2613822389
 21
319.4486231266
 31
0.0
  0
MTEXT
  5
46F
330
460
100
AcDbEntity
  8
SLD-0
100
AcDbMText
 10
161.6793046648
 20
326.4977023246
 30
0.0
 40
4.7625
 41
0.0
 71
     1
 72
     1
  1
 
  7
SLDTEXTSTYLE0
 73
     1
 44
1.0
  0
MTEXT
  5
470
330
460
100
AcDbEntity
  8
SLD-0
100
AcDbMText
 10
164.5720824541
 20
326.4977027902
 30
0.0
 40
4.7625
 41
0.0
 71
     1
 72
     1
  1
236.6
  7
SLDTEXTSTYLE0
 73
     1
 44
1.0
  0
MTEXT
  5
471
330
460
100
AcDbEntity
  8
SLD-0
100
AcDbMText
 10
166.3315617422
 20
317.964890437
 30
0.0
 40
4.7625
 41
0.0
 71
     1
 72
     1
  1
9.31
  7
SLDTEXTSTYLE0
 73
     1
 44
1.0
  0
MTEXT
  5
472
330
460
100
AcDbEntity
  8
SLD-0
100
AcDbMText
 10
181.5406936163
 20
326.4977023246
 30
0.0
 40
4.7625
 41
0.0
 71
     1
 72
     1
  1
 
  7
SLDTEXTSTYLE0
 73
     1
 44
1.0
  0
ENDBLK
  5
462
330
460
100
AcDbEntity
  8
0
100
AcDbBlockEnd
  0
BLOCK
  5
475
330
474
100
AcDbEntity
  8
0
100
AcDbBlockBegin
  2
_D_18
 70
     0
 10
0.0
 20
0.0
 30
0.0
  3
_D_18
  1

  0
SOLID
  5
477
330
474
100
AcDbEntity
  8
SLD-0
100
AcDbTrace
 10
318.8411698525
 20
255.5303178314
 30
0.0
 11
319.3411698525
 21
259.5303178314
 31
0.0
 12
318.3411698525
 22
259.5303178314
 32
0.0
 13
318.3411698525
 23
259.5303178314
 33
0.0
  0
SOLID
  5
478
330
474
100
AcDbEntity
  8
SLD-0
100
AcDbTrace
 10
318.8411698525
 20
272.5303178314
 30
0.0
 11
318.3411698525
 21
268.5303178314
 31
0.0
 12
319.3411698525
 22
268.5303178314
 32
0.0
 13
319.3411698525
 23
268.5303178314
 33
0.0
  0
LINE
  5
479
330
474
100
AcDbEntity
  8
SLD-0
100
AcDbLine
 10
330.3902829739
 20
294.8591487909
 30
0.0
 11
328.941689173
 21
294.8591487909
 31
0.0
  0
LINE
  5
47A
330
474
100
AcDbEntity
  8
SLD-0
100
AcDbLine
 10
328.941689173
 20
294.8591487909
 30
0.0
 11
328.941689173
 21
287.2920653278
 31
0.0
  0
LINE
  5
47B
330
474
100
AcDbEntity
  8
SLD-0
100
AcDbLine
 10
328.941689173
 20
287.2920653278
 30
0.0
 11
330.3902829739
 21
287.2920653278
 31
0.0
  0
LINE
  5
47C
330
474
100
AcDbEntity
  8
SLD-0
100
AcDbLine
 10
339.1832691359
 20
294.8591487909
 30
0.0
 11
340.6318629368
 21
294.8591487909
 31
0.0
  0
LINE
  5
47D
330
474
100
AcDbEntity
  8
SLD-0
100
AcDbLine
 10
340.6318629368
 20
294.8591487909
 30
0.0
 11
340.6318629368
 21
287.2920653278
 31
0.0
  0
LINE
  5
47E
330
474
100
AcDbEntity
  8
SLD-0
100
AcDbLine
 10
340.6318629368
 20
287.2920653278
 30
0.0
 11
339.1832691359
 21
287.2920653278
 31
0.0
  0
LINE
  5
47F
330
474
100
AcDbEntity
  8
SLD-0
100
AcDbLine
 10
179.0665341112
 20
255.5303178314
 30
0.0
 11
320.3651698525
 21
255.5303178314
 31
0.0
  0
LINE
  5
480
330
474
100
AcDbEntity
  8
SLD-0
100
AcDbLine
 10
292.2983870233
 20
272.5303178314
 30
0.0
 11
320.3651698525
 21
272.5303178314
 31
0.0
  0
LINE
  5
481
330
474
100
AcDbEntity
  8
SLD-0
100
AcDbLine
 10
322.8411698525
 20
294.8591478595
 30
0.0
 11
318.8411698525
 21
294.8591478595
 31
0.0
  0
LINE
  5
482
330
474
100
AcDbEntity
  8
SLD-0
100
AcDbLine
 10
318.8411698525
 20
294.8591478595
 30
0.0
 11
318.8411698525
 21
272.5303178314
 31
0.0
  0
LINE
  5
483
330
474
100
AcDbEntity
  8
SLD-0
100
AcDbLine
 10
318.8411698525
 20
255.5303178314
 30
0.0
 11
318.8411698525
 21
272.5303178314
 31
0.0
  0
MTEXT
  5
484
330
474
100
AcDbEntity
  8
SLD-0
100
AcDbMText
 10
325.7380258965
 20
301.9082270575
 30
0.0
 40
4.7625
 41
0.0
 71
     1
 72
     1
  1
 
  7
SLDTEXTSTYLE0
 73
     1
 44
1.0
  0
MTEXT
  5
485
330
474
100
AcDbEntity
  8
SLD-0
100
AcDbMText
 10
328.6308036858
 20
301.9082275232
 30
0.0
 40
4.7625
 41
0.0
 71
     1
 72
     1
  1
17.0
  7
SLDTEXTSTYLE0
 73
     1
 44
1.0
  0
MTEXT
  5
486
330
474
100
AcDbEntity
  8
SLD-0
100
AcDbMText
 10
330.3902829739
 20
293.37541517
 30
0.0
 40
4.7625
 41
0.0
 71
     1
 72
     1
  1
.67
  7
SLDTEXTSTYLE0
 73
     1
 44
1.0
  0
MTEXT
  5
487
330
474
100
AcDbEntity
  8
SLD-0
100
AcDbMText
 10
342.0804572033
 20
301.9082270575
 30
0.0
 40
4.7625
 41
0.0
 71
     1
 72
     1
  1
 
  7
SLDTEXTSTYLE0
 73
     1
 44
1.0
  0
ENDBLK
  5
476
330
474
100
AcDbEntity
  8
0
100
AcDbBlockEnd
  0
BLOCK
  5
48F
330
48E
100
AcDbEntity
  8
0
100
AcDbBlockBegin
  2
SW_CENTERMARKSYMBOL_4
 70
     0
 10
0.0
 20
0.0
 30
0.0
  3
SW_CENTERMARKSYMBOL_4
  1

  0
LINE
  5
491
330
48E
100
AcDbEntity
  8
SLD-0
 62
     0
100
AcDbLine
 10
0.0
 20
0.0
 30
0.0
 11
0.0
 21
2.0
 31
0.0
  0
LINE
  5
492
330
48E
100
AcDbEntity
  8
SLD-0
 62
     0
100
AcDbLine
 10
0.0
 20
0.0
 30
0.0
 11
-2.0
 21
0.0
 31
0.0
  0
LINE
  5
493
330
48E
100
AcDbEntity
  8
SLD-0
 62
     0
100
AcDbLine
 10
0.0
 20
0.0
 30
0.0
 11
0.0
 21
-2.0
 31
0.0
  0
LINE
  5
494
330
48E
100
AcDbEntity
  8
SLD-0
 62
     0
100
AcDbLine
 10
0.0
 20
0.0
 30
0.0
 11
2.0
 21
0.0
 31
0.0
  0
LINE
  5
495
330
48E
100
AcDbEntity
  8
SLD-0
 62
     0
100
AcDbLine
 10
0.0
 20
4.0
 30
0.0
 11
0.0
 21
5.055
 31
0.0
  0
LINE
  5
496
330
48E
100
AcDbEntity
  8
SLD-0
 62
     0
100
AcDbLine
 10
-4.0
 20
0.0
 30
0.0
 11
-5.055
 21
0.0
 31
0.0
  0
LINE
  5
497
330
48E
100
AcDbEntity
  8
SLD-0
 62
     0
100
AcDbLine
 10
0.0
 20
-4.0
 30
0.0
 11
0.0
 21
-5.055
 31
0.0
  0
LINE
  5
498
330
48E
100
AcDbEntity
  8
SLD-0
 62
     0
100
AcDbLine
 10
4.0
 20
0.0
 30
0.0
 11
5.055
 21
0.0
 31
0.0
  0
ENDBLK
  5
490
330
48E
100
AcDbEntity
  8
0
100
AcDbBlockEnd
  0
ENDSEC
  0
SECTION
  2
ENTITIES
  0
LINE
  5
68
330
1F
100
AcDbEntity
  8
SLD-0
 62
     7
100
AcDbLine
 10
13.0
 20
545.8
 30
0.0
 11
850.6
 21
545.8
 31
0.0
  0
LINE
  5
69
330
1F
100
AcDbEntity
  8
0
  6
Continuous
 62
     7
370
    18
100
AcDbLine
 10
13.0
 20
36.0
 30
0.0
 11
850.6
 21
36.0
 31
0.0
  0
LINE
  5
6A
330
1F
100
AcDbEntity
  8
0
  6
CENTER
 62
     7
370
    18
100
AcDbLine
 10
366.9102516261
 20
17.8535393558
 30
0.0
 11
376.2532816249
 21
17.8535393558
 31
0.0
  0
LINE
  5
6B
330
1F
100
AcDbEntity
  8
0
  6
Continuous
 62
     7
370
    18
100
AcDbLine
 10
367.8560246098
 20
16.5835393558
 30
0.0
 11
375.4760246098
 21
15.3135393558
 31
0.0
  0
LINE
  5
6C
330
1F
100
AcDbEntity
  8
0
  6
Continuous
 62
     7
370
    18
100
AcDbLine
 10
367.8560246098
 20
19.1235393558
 30
0.0
 11
375.4760246098
 21
20.3935393558
 31
0.0
  0
LINE
  5
6D
330
1F
100
AcDbEntity
  8
0
  6
CENTER
 62
     7
370
    18
100
AcDbLine
 10
359.4841846098
 20
17.8535393558
 30
0.0
 11
366.0088790379
 21
17.8535393558
 31
0.0
  0
LINE
  5
6E
330
1F
100
AcDbEntity
  8
0
  6
CENTER
 62
     7
370
    18
100
AcDbLine
 10
362.7465318239
 20
14.5577954402
 30
0.0
 11
362.7465318239
 21
21.1492832714
 31
0.0
  0
LINE
  5
6F
330
1F
100
AcDbEntity
  8
0
  6
Continuous
 62
     7
370
    18
100
AcDbLine
 10
367.8560246098
 20
19.1235393558
 30
0.0
 11
367.8560246098
 21
16.5835393558
 31
0.0
  0
LINE
  5
70
330
1F
100
AcDbEntity
  8
0
  6
Continuous
 62
     7
370
    18
100
AcDbLine
 10
375.4760246098
 20
20.3935393558
 30
0.0
 11
375.4760246098
 21
15.3135393558
 31
0.0
  0
CIRCLE
  5
71
330
1F
100
AcDbEntity
  8
0
  6
Continuous
 62
     7
370
    18
100
AcDbCircle
 10
362.7465318239
 20
17.8535393558
 30
0.0
 40
2.539999999999801
  0
CIRCLE
  5
72
330
1F
100
AcDbEntity
  8
0
  6
Continuous
 62
     7
370
    18
100
AcDbCircle
 10
362.7465318239
 20
17.8535393558
 30
0.0
 40
1.269999999999877
  0
MTEXT
  5
74
330
1F
100
AcDbEntity
  8
0
  6
Continuous
 62
     7
370
     0
100
AcDbMText
 10
24.8301332294
 20
533.4737408686
 30
0.0
 40
4.7625
 41
0.0
 71
     1
 72
     1
  1
NOTES: UNLESS OTHERWISE SPECIFIED
  7
SLDTEXTSTYLE0
 73
     1
 44
1.0
  0
MTEXT
  5
75
330
1F
100
AcDbEntity
  8
0
  6
Continuous
 62
     7
370
     0
100
AcDbMText
 10
44.8301327824
 20
525.1237410831
 30
0.0
 40
4.7625
 41
0.0
 71
     1
 72
     1
  1
NET WEIGHT OF CAMERA APPROX. 0.47 KG [1.04 LBS]
  7
SLDTEXTSTYLE0
 73
     1
 44
1.0
  0
MTEXT
  5
76
330
1F
100
AcDbEntity
  8
0
  6
Continuous
 62
     7
370
     0
100
AcDbMText
 10
24.8301332294
 20
525.1237410831
 30
0.0
 40
4.7625
 41
0.0
 71
     1
 72
     1
  1
1.
  7
SLDTEXTSTYLE0
 73
     1
 44
1.0
  0
MTEXT
  5
77
330
1F
100
AcDbEntity
  8
0
  6
Continuous
 62
     7
370
     0
100
AcDbMText
 10
44.8301332294
 20
516.7737412977
 30
0.0
 40
4.7625
 41
0.0
 71
     1
 72
     1
  1
CAMERA AND BRACKET APPROX. 0.67 KG [1.48 LB].
  7
SLDTEXTSTYLE0
 73
     1
 44
1.0
  0
MTEXT
  5
78
330
1F
100
AcDbEntity
  8
0
  6
Continuous
 62
     7
370
     0
100
AcDbMText
 10
44.8301327824
 20
508.4237415123
 30
0.0
 40
4.7625
 41
0.0
 71
     1
 72
     1
  1
PARTS ARE SYMMETRICAL ABOUT CENTER LINES UNLESS OTHERWISE NOTED.
  7
SLDTEXTSTYLE0
 73
     1
 44
1.0
  0
MTEXT
  5
79
330
1F
100
AcDbEntity
  8
0
  6
Continuous
 62
     7
370
     0
100
AcDbMText
 10
24.8301332294
 20
508.4237415123
 30
0.0
 40
4.7625
 41
0.0
 71
     1
 72
     1
  1
2.
  7
SLDTEXTSTYLE0
 73
     1
 44
1.0
  0
MTEXT
  5
7A
330
1F
100
AcDbEntity
  8
0
  6
Continuous
 62
     7
370
     0
100
AcDbMText
 10
295.5043019013
 20
28.9819567757
 30
0.0
 40
3.7041666667
 41
0.0
 71
     2
 72
     1
  1
00PW4
  7
SLDTEXTSTYLE0
 73
     1
 44
1.0
  0
MTEXT
  5
7B
330
1F
100
AcDbEntity
  8
0
  6
Continuous
 62
     7
370
     0
100
AcDbMText
 10
453.4011705876
 20
17.7884262976
 30
0.0
 40
3.7041666667
 41
0.0
 71
     1
 72
     1
  1
T.GOSSARD
  7
SLDTEXTSTYLE0
 73
     1
 44
1.0
  0
MTEXT
  5
7C
330
1F
100
AcDbEntity
  8
0
  6
Continuous
 62
     7
370
     0
100
AcDbMText
 10
323.1288533613
 20
33.0777444155
 30
0.0
 40
3.175
 41
0.0
 71
     1
 72
     1
  1
UNLESS  OTHERWISE  SPECIFIED
  7
SLDTEXTSTYLE0
 73
     1
 44
1.0
  0
MTEXT
  5
7D
330
1F
100
AcDbEntity
  8
0
  6
Continuous
 62
     7
370
     0
100
AcDbMText
 10
323.1288533613
 20
28.8444111333
 30
0.0
 40
3.175
 41
0.0
 71
     1
 72
     1
  1
DIMENSIONS  ARE  IN  MM [IN]
  7
SLDTEXTSTYLE0
 73
     1
 44
1.0
  0
MTEXT
  5
7E
330
1F
100
AcDbEntity
  8
0
  6
Continuous
 62
     7
370
     0
100
AcDbMText
 10
785.8795289483
 20
17.9849245354
 30
0.0
 40
3.7041666667
 41
0.0
 71
     2
 72
     1
  1
1:2
  7
SLDTEXTSTYLE0
 73
     1
 44
1.0
  0
MTEXT
  5
7F
330
1F
100
AcDbEntity
  8
0
  6
Continuous
 62
     7
370
     0
100
AcDbMText
 10
327.9605285881
 20
19.6918719363
 30
0.0
 40
3.175
 41
0.0
 71
     1
 72
     1
  1
PROJECTION
  7
SLDTEXTSTYLE0
 73
     1
 44
1.0
  0
MTEXT
  5
80
330
1F
100
AcDbEntity
  8
0
  6
Continuous
 62
     7
370
     0
100
AcDbMText
 10
425.5151766137
 20
21.8087727956
 30
0.0
 40
3.175
 41
0.0
 71
     1
 72
     1
  1
%%p
  7
SLDTEXTSTYLE0
 73
     1
 44
1.0
  0
MTEXT
  5
81
330
1F
100
AcDbEntity
  8
0
  6
Continuous
 62
     7
370
     0
100
AcDbMText
 10
428.5420099058
 20
21.8087727956
 30
0.0
 40
3.175
 41
0.0
 71
     1
 72
     1
  1
1
  7
SLDTEXTSTYLE0
 73
     1
 44
1.0
  0
MTEXT
  5
82
330
1F
100
AcDbEntity
  8
0
  6
Continuous
 62
     7
370
     0
100
AcDbMText
 10
430.8879821346
 20
21.8087727956
 30
0.0
 40
3.175
 41
0.0
 71
     1
 72
     1
  1
%%d
  7
SLDTEXTSTYLE0
 73
     1
 44
1.0
  0
MTEXT
  5
83
330
1F
100
AcDbEntity
  8
0
  6
Continuous
 62
     7
370
     0
100
AcDbMText
 10
394.0737550472
 20
21.8087727956
 30
0.0
 40
3.175
 41
0.0
 71
     1
 72
     1
  1
.X 
  7
SLDTEXTSTYLE0
 73
     1
 44
1.0
  0
MTEXT
  5
84
330
1F
100
AcDbEntity
  8
0
  6
Continuous
 62
     7
370
     0
100
AcDbMText
 10
398.9891256531
 20
21.8087727956
 30
0.0
 40
3.175
 41
0.0
 71
     1
 72
     1
  1
%%p
  7
SLDTEXTSTYLE0
 73
     1
 44
1.0
  0
MTEXT
  5
85
330
1F
100
AcDbEntity
  8
0
  6
Continuous
 62
     7
370
     0
100
AcDbMText
 10
402.0159584795
 20
21.8087727956
 30
0.0
 40
3.175
 41
0.0
 71
     1
 72
     1
  1
 3
  7
SLDTEXTSTYLE0
 73
     1
 44
1.0
  0
MTEXT
  5
86
330
1F
100
AcDbEntity
  8
0
  6
Continuous
 62
     7
370
     0
100
AcDbMText
 10
394.0737550472
 20
17.5754395134
 30
0.0
 40
3.175
 41
0.0
 71
     1
 72
     1
  1
.XX 
  7
SLDTEXTSTYLE0
 73
     1
 44
1.0
  0
MTEXT
  5
87
330
1F
100
AcDbEntity
  8
0
  6
Continuous
 62
     7
370
     0
100
AcDbMText
 10
401.5644030039
 20
17.5754395134
 30
0.0
 40
3.175
 41
0.0
 71
     1
 72
     1
  1
%%p
  7
SLDTEXTSTYLE0
 73
     1
 44
1.0
  0
MTEXT
  5
88
330
1F
100
AcDbEntity
  8
0
  6
Continuous
 62
     7
370
     0
100
AcDbMText
 10
682.5449585783
 20
27.0566654201
 30
0.0
 40
6.35
 41
0.0
 71
     2
 72
     1
  1
VIDEO, NC-90-G2
  7
SLDTEXTSTYLE0
 73
     1
 44
1.0
  0
MTEXT
  5
89
330
1F
100
AcDbEntity
  8
0
  6
Continuous
 62
     7
370
     0
100
AcDbMText
 10
394.1291861843
 20
33.0777444155
 30
0.0
 40
3.175
 41
0.0
 71
     1
 72
     1
  1
TOLERANCES  ARE:
  7
SLDTEXTSTYLE0
 73
     1
 44
1.0
  0
MTEXT
  5
8A
330
1F
100
AcDbEntity
  8
0
  6
Continuous
 62
     7
370
     0
100
AcDbMText
 10
394.1291861843
 20
28.8444111333
 30
0.0
 40
3.175
 41
0.0
 71
     1
 72
     1
  1
DECIMALS          ANGLES
  7
SLDTEXTSTYLE0
 73
     1
 44
1.0
  0
MTEXT
  5
8B
330
1F
100
AcDbEntity
  8
0
  6
Continuous
 62
     7
370
     0
100
AcDbMText
 10
507.2368872533
 20
21.8062403245
 30
0.0
 40
2.6458333333
 41
0.0
 71
     1
 72
     1
  1
MFG ENGINEER
  7
SLDTEXTSTYLE0
 73
     1
 44
1.0
  0
MTEXT
  5
8C
330
1F
100
AcDbEntity
  8
0
  6
Continuous
 62
     7
370
     0
100
AcDbMText
 10
453.4011705876
 20
21.8062403245
 30
0.0
 40
2.6458333333
 41
0.0
 71
     1
 72
     1
  1
MECH ENGINEER
  7
SLDTEXTSTYLE0
 73
     1
 44
1.0
  0
MTEXT
  5
8E
330
1F
100
AcDbEntity
  8
0
  6
Continuous
 62
     7
370
     0
100
AcDbMText
 10
770.9809949308
 20
17.5597523616
 30
0.0
 40
2.6458333333
 41
0.0
 71
     1
 72
     1
  1
SCALE:  
  7
SLDTEXTSTYLE1
 73
     1
 44
1.0
  0
MTEXT
  5
8F
330
1F
100
AcDbEntity
  8
SLD-0
 62
     7
100
AcDbMText
 10
770.8270341986
 20
27.7753595768
 30
0.0
 40
6.35
 41
0.0
 71
     1
 72
     1
  1
FG-901662-2D
  7
SLDTEXTSTYLE0
 73
     1
 44
1.0
  0
MTEXT
  5
90
330
1F
100
AcDbEntity
  8
0
  6
Continuous
 62
     7
370
     0
100
AcDbMText
 10
843.7692246236
 20
27.8523399428
 30
0.0
 40
6.35
 41
0.0
 71
     2
 72
     1
  1
A
  7
SLDTEXTSTYLE0
 73
     1
 44
1.0
  0
MTEXT
  5
91
330
1F
100
AcDbEntity
  8
0
  6
Continuous
 62
     7
370
     0
100
AcDbMText
 10
841.5970786686
 20
17.9849245354
 30
0.0
 40
3.7041666667
 41
0.0
 71
     2
 72
     1
  1
1  OF  1
  7
SLDTEXTSTYLE0
 73
     1
 44
1.0
  0
MTEXT
  5
92
330
1F
100
AcDbEntity
  8
0
  6
Continuous
 62
     7
370
     0
100
AcDbMText
 10
770.9809949308
 20
32.8518608785
 30
0.0
 40
2.6458333333
 41
0.0
 71
     1
 72
     1
  1
DRAWING NUMBER
  7
SLDTEXTSTYLE0
 73
     1
 44
1.0
  0
MTEXT
  5
93
330
1F
100
AcDbEntity
  8
SLD-0
 62
     7
100
AcDbMText
 10
507.2368872533
 20
32.8184112811
 30
0.0
 40
2.6458333333
 41
0.0
 71
     1
 72
     1
  1
TECH DIRECTOR
  7
SLDTEXTSTYLE0
 73
     1
 44
1.0
  0
MTEXT
  5
94
330
1F
100
AcDbEntity
  8
SLD-0
 62
     7
100
AcDbMText
 10
453.4011705876
 20
32.8184112811
 30
0.0
 40
2.6458333333
 41
0.0
 71
     1
 72
     1
  1
DRAWN BY
  7
SLDTEXTSTYLE0
 73
     1
 44
1.0
  0
MTEXT
  5
95
330
1F
100
AcDbEntity
  8
SLD-0
 62
     7
100
AcDbMText
 10
453.4011705876
 20
29.0353427065
 30
0.0
 40
3.7041666667
 41
0.0
 71
     1
 72
     1
  1
K.CASTRO
  7
SLDTEXTSTYLE0
 73
     1
 44
1.0
  0
MTEXT
  5
96
330
1F
100
AcDbEntity
  8
SLD-0
 62
     7
100
AcDbMText
 10
507.2368872533
 20
17.7884262976
 30
0.0
 40
3.7041666667
 41
0.0
 71
     1
 72
     1
  1
C.ROJAS
  7
SLDTEXTSTYLE0
 73
     1
 44
1.0
  0
MTEXT
  5
97
330
1F
100
AcDbEntity
  8
SLD-0
 62
     7
100
AcDbMText
 10
507.2368872533
 20
29.0353427065
 30
0.0
 40
3.7041666667
 41
0.0
 71
     1
 72
     1
  1
J.DALLAS
  7
SLDTEXTSTYLE0
 73
     1
 44
1.0
  0
MTEXT
  5
99
330
1F
100
AcDbEntity
  8
0
  6
Continuous
 62
     7
370
     0
100
AcDbMText
 10
219.2539871701
 20
29.8969311813
 30
0.0
 40
2.1166666667
 41
0.0
 71
     2
 72
     1
  1
THIS DOCUMENT CONTAINS CONFIDENTIAL OR PROPRIETARY INFORMATION WHICH 
  7
SLDTEXTSTYLE2
 73
     1
 44
1.0
  0
MTEXT
  5
9A
330
1F
100
AcDbEntity
  8
0
  6
Continuous
 62
     7
370
     0
100
AcDbMText
 10
219.4368646347
 20
27.0747089932
 30
0.0
 40
2.1166666667
 41
0.0
 71
     2
 72
     1
  1
IS THE PROPERTY OF QSC, LLC THAT MAY NOT BE DISCLOSED, REPRODUCED OR 
  7
SLDTEXTSTYLE2
 73
     1
 44
1.0
  0
MTEXT
  5
9B
330
1F
100
AcDbEntity
  8
0
  6
Continuous
 62
     7
370
     0
100
AcDbMText
 10
219.3957803042
 20
24.2524868051
 30
0.0
 40
2.1166666667
 41
0.0
 71
     2
 72
     1
  1
USED WITHOUT EXPRESS WRITTEN CONSENT FROM QSC, LLC. NO PORTION OF THIS 
  7
SLDTEXTSTYLE2
 73
     1
 44
1.0
  0
MTEXT
  5
9C
330
1F
100
AcDbEntity
  8
0
  6
Continuous
 62
     7
370
     0
100
AcDbMText
 10
219.325223306
 20
21.4302646169
 30
0.0
 40
2.1166666667
 41
0.0
 71
     2
 72
     1
  1
DOCUMENT MAY BE REPRODUCED, REDISTRIBUTED, OR OTHERWISE DISCLOSED TO 
  7
SLDTEXTSTYLE2
 73
     1
 44
1.0
  0
MTEXT
  5
9E
330
1F
100
AcDbEntity
  8
0
  6
Continuous
 62
     7
370
     0
100
AcDbMText
 10
218.97644348
 20
18.6080424288
 30
0.0
 40
2.1166666667
 41
0.0
 71
     2
 72
     1
  1
ANY THIRD PARTY WITHOUT QSC\U+2019S WRITTEN PERMISSION.
  7
SLDTEXTSTYLE3
 73
     1
 44
1.0
  0
MTEXT
  5
9F
330
1F
100
AcDbEntity
  8
0
  6
Continuous
 62
     7
370
     0
100
AcDbMText
 10
820.2888488759
 20
17.4944348222
 30
0.0
 40
2.6458333333
 41
0.0
 71
     1
 72
     1
  1
SHEET:
  7
SLDTEXTSTYLE0
 73
     1
 44
1.0
  0
MTEXT
  5
A0
330
1F
100
AcDbEntity
  8
SLD-0
100
AcDbMText
 10
97.8307203839
 20
30.5931483324
 30
0.0
 40
4.2333333333
 41
0.0
 71
     1
 72
     1
  1
QSC, LLC
  7
SLDTEXTSTYLE0
 73
     1
 44
1.0
  0
MTEXT
  5
A1
330
1F
100
AcDbEntity
  8
0
  6
Continuous
 62
     7
370
     0
100
AcDbMText
 10
844.0018372523
 20
32.9050913038
 30
0.0
 40
2.6458333333
 41
0.0
 71
     2
 72
     1
  1
REV
  7
SLDTEXTSTYLE0
 73
     1
 44
1.0
  0
MTEXT
  5
A2
330
1F
100
AcDbEntity
  8
SLD-0
 62
     7
100
AcDbMText
 10
560.546153547
 20
32.8184112811
 30
0.0
 40
2.6458333333
 41
0.0
 71
     1
 72
     1
  1
REV BY
  7
SLDTEXTSTYLE0
 73
     1
 44
1.0
  0
MTEXT
  5
A3
330
1F
100
AcDbEntity
  8
SLD-0
 62
     7
100
AcDbMText
 10
560.546153547
 20
29.0353427065
 30
0.0
 40
3.7041666667
 41
0.0
 71
     1
 72
     1
  1
KC
  7
SLDTEXTSTYLE0
 73
     1
 44
1.0
  0
MTEXT
  5
A4
330
1F
100
AcDbEntity
  8
SLD-0
 62
     7
100
AcDbMText
 10
560.546153547
 20
17.7884262976
 30
0.0
 40
3.7041666667
 41
0.0
 71
     1
 72
     1
  1
10-SEP-2025
  7
SLDTEXTSTYLE0
 73
     1
 44
1.0
  0
MTEXT
  5
A5
330
1F
100
AcDbEntity
  8
0
  6
Continuous
 62
     7
370
     0
100
AcDbMText
 10
560.546153547
 20
21.8062403245
 30
0.0
 40
2.6458333333
 41
0.0
 71
     1
 72
     1
  1
REV DATE
  7
SLDTEXTSTYLE0
 73
     1
 44
1.0
  0
MTEXT
  5
A6
330
1F
100
AcDbEntity
  8
SLD-0
100
AcDbMText
 10
295.5471677433
 20
22.2629071355
 30
0.0
 40
2.6458333333
 41
0.0
 71
     2
 72
     1
  1
FORM
  7
SLDTEXTSTYLE0
 73
     1
 44
1.0
  0
MTEXT
  5
A7
330
1F
100
AcDbEntity
  8
0
  6
Continuous
 62
     7
370
     0
100
AcDbMText
 10
295.7722622144
 20
18.1918883612
 30
0.0
 40
3.7041666667
 41
0.0
 71
     2
 72
     1
  1
QOS40169 C
  7
SLDTEXTSTYLE0
 73
     1
 44
1.0
  0
MTEXT
  5
A8
330
1F
100
AcDbEntity
  8
SLD-0
100
AcDbMText
 10
98.4427247375
 20
18.4600960709
 30
0.0
 40
3.175
 41
0.0
 71
     1
 72
     1
  1
COSTA MESA, CA 92626 USA
  7
SLDTEXTSTYLE0
 73
     1
 44
1.0
  0
MTEXT
  5
A9
330
1F
100
AcDbEntity
  8
SLD-0
100
AcDbMText
 10
98.2987012991
 20
23.8772967061
 30
0.0
 40
3.175
 41
0.0
 71
     1
 72
     1
  1
1675 MACARTHUR BLVD
  7
SLDTEXTSTYLE0
 73
     1
 44
1.0
  0
MTEXT
  5
AA
330
1F
100
AcDbEntity
  8
SLD-0
 62
     7
100
AcDbMText
 10
295.6823598987
 20
33.1439750107
 30
0.0
 40
2.6458333333
 41
0.0
 71
     2
 72
     1
  1
CAGE CODE
  7
SLDTEXTSTYLE0
 73
     1
 44
1.0
  0
LINE
  5
AB
330
1F
100
AcDbEntity
  8
0
  6
Continuous
 62
     7
370
    25
100
AcDbLine
 10
824.6653261486
 20
396.9102580994
 30
0.0
 11
578.2477729211
 21
396.9102580994
 31
0.0
  0
LINE
  5
AC
330
1F
100
AcDbEntity
  8
0
  6
Continuous
 62
     7
370
    25
100
AcDbLine
 10
578.2477729211
 20
367.9102580994
 30
0.0
 11
824.6653261486
 21
367.9102580994
 31
0.0
  0
ARC
  5
AD
330
1F
100
AcDbEntity
  8
0
  6
Continuous
 62
     7
370
    25
100
AcDbCircle
 10
610.1029137935
 20
382.4102580994
 30
0.0
 40
35.00000000000018
100
AcDbArc
 50
155.5256574372
 51
204.4743425628
  0
LINE
  5
AE
330
1F
100
AcDbEntity
  8
0
  6
Continuous
 62
     7
370
    25
100
AcDbLine
 10
727.8253607373
 20
396.2682580994
 30
0.0
 11
675.0877383324
 21
396.2682580994
 31
0.0
  0
ARC
  5
AF
330
1F
100
AcDbEntity
  8
0
  6
Continuous
 62
     7
370
    25
100
AcDbCircle
 10
681.7214994549
 20
382.4102580994
 30
0.0
 40
15.36394970799707
100
AcDbArc
 50
115.5802247826
 51
244.4197752174
  0
LINE
  5
B0
330
1F
100
AcDbEntity
  8
0
  6
Continuous
 62
     7
370
    25
100
AcDbLine
 10
675.0877383324
 20
368.5522580994
 30
0.0
 11
727.8253607373
 21
368.5522580994
 31
0.0
  0
CIRCLE
  5
B1
330
1F
100
AcDbEntity
  8
0
  6
Continuous
 62
     7
370
    25
100
AcDbCircle
 10
811.4342624046
 20
372.2602580994
 30
0.0
 40
1.0
  0
CIRCLE
  5
B2
330
1F
100
AcDbEntity
  8
0
  6
Continuous
 62
     7
370
    25
100
AcDbCircle
 10
746.4342624046
 20
372.2602580994
 30
0.0
 40
1.0
  0
ARC
  5
B3
330
1F
100
AcDbEntity
  8
0
  6
Continuous
 62
     7
370
    25
100
AcDbCircle
 10
792.8101852762
 20
382.4102580994
 30
0.0
 40
35.00000000000008
100
AcDbArc
 50
335.5256574372
 51
24.4743425628
  0
CIRCLE
  5
B4
330
1F
100
AcDbEntity
  8
0
  6
Continuous
 62
     7
370
    25
100
AcDbCircle
 10
591.4342624046
 20
372.2602580994
 30
0.0
 40
1.0
  0
ARC
  5
B5
330
1F
100
AcDbEntity
  8
0
  6
Continuous
 62
     7
370
    25
100
AcDbCircle
 10
721.1915996149
 20
382.4102580994
 30
0.0
 40
15.36394970799712
100
AcDbArc
 50
295.5802247826
 51
64.4197752174
  0
CIRCLE
  5
B6
330
1F
100
AcDbEntity
  8
0
  6
Continuous
 62
     7
370
    25
100
AcDbCircle
 10
656.4342624046
 20
372.2602580994
 30
0.0
 40
1.0
  0
SPLINE
  5
B7
330
1F
100
AcDbEntity
  8
0
  6
Continuous
 62
     7
370
    25
100
AcDbSpline
210
0.0
220
0.0
230
1.0
 70
     8
 71
     3
 72
    22
 73
    18
 74
     0
 42
0.00000001
 43
0.00000001
 40
0.0
 40
0.0
 40
0.0
 40
0.0
 40
0.1249999999999999
 40
0.1249999999999999
 40
0.2499999999999999
 40
0.2499999999999999
 40
0.3749999999999999
 40
0.3749999999999999
 40
0.4999999999999999
 40
0.4999999999999999
 40
0.6249999999999999
 40
0.6249999999999999
 40
0.7499999999999999
 40
0.7499999999999999
 40
0.8749999999999999
 40
0.8749999999999999
 40
1.0
 40
1.0
 40
1.0
 40
1.0
 10
582.2163312776325
 20
362.9102580993537
 30
0.0
 10
582.1305223288764
 20
362.9102580993537
 30
0.0
 10
582.0211772770211
 20
362.9489264386546
 30
0.0
 10
581.7645931451815
 20
363.0921292135214
 30
0.0
 10
581.6155465370431
 20
363.1984722306725
 30
0.0
 10
581.296666946094
 20
363.4645755423185
 30
0.0
 10
581.1261890285613
 20
363.6243276036822
 30
0.0
 10
580.767831812507
 20
363.9943256445439
 30
0.0
 10
580.5827900042078
 20
364.2018055602394
 30
0.0
 10
580.2092152233897
 20
364.6541595414419
 30
0.0
 10
580.0190093231503
 20
364.9010798675171
 30
0.0
 10
579.6394795468665
 20
365.4307795081568
 30
0.0
 10
579.4531253695179
 20
365.7092590450704
 30
0.0
 10
579.0886838350157
 20
366.2941160156197
 30
0.0
 10
578.910122048134
 20
366.6013314651979
 30
0.0
 10
578.56485684801
 20
367.243721441572
 30
0.0
 10
578.4013995241351
 20
367.5727548524538
 30
0.0
 10
578.2477729211432
 20
367.9102580993537
 30
0.0
  0
SPLINE
  5
B8
330
1F
100
AcDbEntity
  8
0
  6
Continuous
 62
     7
370
    25
100
AcDbSpline
210
0.0
220
0.0
230
1.0
 70
     8
 71
     3
 72
    24
 73
    20
 74
     0
 42
0.00000001
 43
0.00000001
 40
0.0
 40
0.0
 40
0.0
 40
0.0
 40
0.1249999999999992
 40
0.1249999999999992
 40
0.2499999999999989
 40
0.2499999999999989
 40
0.3749999999999987
 40
0.3749999999999987
 40
0.4999999999999984
 40
0.4999999999999984
 40
0.6249999999999982
 40
0.6249999999999982
 40
0.6874999999999992
 40
0.6874999999999992
 40
0.7500000000000002
 40
0.7500000000000002
 40
0.8750000000000001
 40
0.8750000000000001
 40
1.0
 40
1.0
 40
1.0
 40
1.0
 10
824.6653261485948
 20
367.9102580993537
 30
0.0
 10
824.511537224706
 20
367.5723982486577
 30
0.0
 10
824.3490440511137
 20
367.2455153646543
 30
0.0
 10
824.0084364959727
 20
366.6111926345023
 30
0.0
 10
823.8294169783801
 20
366.3023544668317
 30
0.0
 10
823.4604466174006
 20
365.7098094639738
 30
0.0
 10
823.2736699717615
 20
365.4309530774902
 30
0.0
 10
822.8972238647638
 20
364.9053517829058
 30
0.0
 10
822.7060444451889
 20
364.6568387648237
 30
0.0
 10
822.3302596859336
 20
364.2016831215516
 30
0.0
 10
822.1470224851045
 20
363.996373432875
 30
0.0
 10
821.8814084918591
 20
363.7217817646859
 30
0.0
 10
821.7944237146485
 20
363.6358546517867
 30
0.0
 10
821.624146899183
 20
363.4757724187228
 30
0.0
 10
821.5404190380239
 20
363.4012632287034
 30
0.0
 10
821.2996487971744
 20
363.1999881403009
 30
0.0
 10
821.153141425561
 20
363.095154874808
 30
0.0
 10
820.8945823103726
 20
362.9499849956865
 30
0.0
 10
820.7826038651405
 20
362.9102580993537
 30
0.0
 10
820.6967677921056
 20
362.9102580993537
 30
0.0
  0
SPLINE
  5
B9
330
1F
100
AcDbEntity
  8
0
  6
Continuous
 62
     7
370
    25
100
AcDbSpline
210
0.0
220
0.0
230
1.0
 70
     8
 71
     3
 72
    24
 73
    20
 74
     0
 42
0.00000001
 43
0.00000001
 40
0.0
 40
0.0
 40
0.0
 40
0.0
 40
0.1249999999999992
 40
0.1249999999999992
 40
0.2499999999999989
 40
0.2499999999999989
 40
0.3749999999999987
 40
0.3749999999999987
 40
0.4999999999999984
 40
0.4999999999999984
 40
0.6249999999999982
 40
0.6249999999999982
 40
0.6874999999999992
 40
0.6874999999999992
 40
0.7500000000000002
 40
0.7500000000000002
 40
0.8750000000000001
 40
0.8750000000000001
 40
1.0
 40
1.0
 40
1.0
 40
1.0
 10
578.2477729211432
 20
396.9102580993537
 30
0.0
 10
578.4015618450321
 20
397.2481179500497
 30
0.0
 10
578.5640550186245
 20
397.5750008340531
 30
0.0
 10
578.9046625737653
 20
398.209323564205
 30
0.0
 10
579.083682091358
 20
398.5181617318756
 30
0.0
 10
579.4526524523375
 20
399.1107067347335
 30
0.0
 10
579.6394290979766
 20
399.3895631212171
 30
0.0
 10
580.0158752049743
 20
399.9151644158015
 30
0.0
 10
580.2070546245492
 20
400.1636774338837
 30
0.0
 10
580.5828393838045
 20
400.6188330771557
 30
0.0
 10
580.7660765846337
 20
400.8241427658323
 30
0.0
 10
581.031690577879
 20
401.0987344340214
 30
0.0
 10
581.1186753550895
 20
401.1846615469206
 30
0.0
 10
581.2889521705551
 20
401.3447437799845
 30
0.0
 10
581.3726800317141
 20
401.419252970004
 30
0.0
 10
581.6134502725636
 20
401.6205280584064
 30
0.0
 10
581.7599576441771
 20
401.7253613238993
 30
0.0
 10
582.0185167593654
 20
401.8705312030208
 30
0.0
 10
582.1304952045975
 20
401.9102580993537
 30
0.0
 10
582.2163312776325
 20
401.9102580993537
 30
0.0
  0
SPLINE
  5
BA
330
1F
100
AcDbEntity
  8
0
  6
Continuous
 62
     7
370
    25
100
AcDbSpline
210
0.0
220
0.0
230
1.0
 70
     8
 71
     3
 72
    22
 73
    18
 74
     0
 42
0.00000001
 43
0.00000001
 40
0.0
 40
0.0
 40
0.0
 40
0.0
 40
0.1249999999999999
 40
0.1249999999999999
 40
0.2499999999999999
 40
0.2499999999999999
 40
0.3749999999999999
 40
0.3749999999999999
 40
0.4999999999999999
 40
0.4999999999999999
 40
0.6249999999999999
 40
0.6249999999999999
 40
0.7499999999999999
 40
0.7499999999999999
 40
0.8749999999999999
 40
0.8749999999999999
 40
1.0
 40
1.0
 40
1.0
 40
1.0
 10
820.6967677921056
 20
401.9102580993537
 30
0.0
 10
820.7825767408616
 20
401.9102580993537
 30
0.0
 10
820.8919217927169
 20
401.8715897600527
 30
0.0
 10
821.1485059245566
 20
401.7283869851859
 30
0.0
 10
821.297552532695
 20
401.6220439680349
 30
0.0
 10
821.6164321236441
 20
401.3559406563888
 30
0.0
 10
821.7869100411767
 20
401.1961885950251
 30
0.0
 10
822.145267257231
 20
400.8261905541635
 30
0.0
 10
822.3303090655302
 20
400.6187106384679
 30
0.0
 10
822.7038838463483
 20
400.1663566572655
 30
0.0
 10
822.8940897465877
 20
399.9194363311902
 30
0.0
 10
823.2736195228716
 20
399.3897366905505
 30
0.0
 10
823.4599737002202
 20
399.1112571536369
 30
0.0
 10
823.8244152347224
 20
398.5264001830877
 30
0.0
 10
824.0029770216041
 20
398.2191847335095
 30
0.0
 10
824.3482422217281
 20
397.5767947571354
 30
0.0
 10
824.511699545603
 20
397.2477613462535
 30
0.0
 10
824.6653261485948
 20
396.9102580993537
 30
0.0
  0
ARC
  5
BB
330
1F
100
AcDbEntity
  8
0
  6
Continuous
 62
     7
370
    25
100
AcDbCircle
 10
721.1915996149
 20
382.4102580994
 30
0.0
 40
13.86394970799712
100
AcDbArc
 50
296.9532604522
 51
63.0467395478
  0
SPLINE
  5
BC
330
1F
100
AcDbEntity
  8
0
  6
Continuous
 62
     7
370
    25
100
AcDbSpline
210
0.0
220
0.0
230
1.0
 70
     8
 71
     3
 72
     8
 73
     4
 74
     0
 42
0.00000001
 43
0.00000001
 40
0.0
 40
0.0
 40
0.0
 40
0.0
 40
0.0021499574821332
 40
0.0021499574821332
 40
0.0021499574821332
 40
0.0021499574821332
 10
727.8253607373291
 20
396.2682580993537
 30
0.0
 10
727.7117760455981
 20
395.7679135605485
 30
0.0
 10
727.5953563559469
 20
395.2678852025251
 30
0.0
 10
727.4756220134503
 20
394.7682580993537
 30
0.0
  0
SPLINE
  5
BD
330
1F
100
AcDbEntity
  8
0
  6
Continuous
 62
     7
370
    25
100
AcDbSpline
210
0.0
220
0.0
230
1.0
 70
     8
 71
     3
 72
     8
 73
     4
 74
     0
 42
0.00000001
 43
0.00000001
 40
0.0
 40
0.0
 40
0.0
 40
0.0
 40
0.0021499574821332
 40
0.0021499574821332
 40
0.0021499574821332
 40
0.0021499574821332
 10
727.8253607373291
 20
368.5522580993537
 30
0.0
 10
727.7117760455981
 20
369.0526026381589
 30
0.0
 10
727.5953563559469
 20
369.5526309961823
 30
0.0
 10
727.4756220134504
 20
370.0522580993537
 30
0.0
  0
LINE
  5
BE
330
1F
100
AcDbEntity
  8
0
  6
Continuous
 62
     7
370
    25
100
AcDbLine
 10
727.4756220135
 20
394.7682580994
 30
0.0
 11
710.1335495349
 21
394.7682580994
 31
0.0
  0
LINE
  5
BF
330
1F
100
AcDbEntity
  8
0
  6
Continuous
 62
     7
370
    25
100
AcDbLine
 10
710.1335495349
 20
394.7682580994
 30
0.0
 11
692.7795495349
 21
394.7682580994
 31
0.0
  0
LINE
  5
C0
330
1F
100
AcDbEntity
  8
0
  6
Continuous
 62
     7
370
    25
100
AcDbLine
 10
692.7795495349
 20
394.7682580994
 30
0.0
 11
675.4374770563
 21
394.7682580994
 31
0.0
  0
SPLINE
  5
C1
330
1F
100
AcDbEntity
  8
0
  6
Continuous
 62
     7
370
    25
100
AcDbSpline
210
0.0
220
0.0
230
1.0
 70
     8
 71
     3
 72
     8
 73
     4
 74
     0
 42
0.00000001
 43
0.00000001
 40
0.0
 40
0.0
 40
0.0
 40
0.0
 40
0.0021499574821332
 40
0.0021499574821332
 40
0.0021499574821332
 40
0.0021499574821332
 10
675.4374770562878
 20
394.7682580993537
 30
0.0
 10
675.3177427137911
 20
395.2678852025251
 30
0.0
 10
675.2013230241399
 20
395.7679135605485
 30
0.0
 10
675.087738332409
 20
396.2682580993537
 30
0.0
  0
LINE
  5
C2
330
1F
100
AcDbEntity
  8
0
  6
Continuous
 62
     7
370
    25
100
AcDbLine
 10
675.4374770563
 20
370.0522580994
 30
0.0
 11
692.7795495349
 21
370.0522580994
 31
0.0
  0
LINE
  5
C3
330
1F
100
AcDbEntity
  8
0
  6
Continuous
 62
     7
370
    25
100
AcDbLine
 10
692.7795495349
 20
370.0522580994
 30
0.0
 11
710.1335495349
 21
370.0522580994
 31
0.0
  0
LINE
  5
C4
330
1F
100
AcDbEntity
  8
0
  6
Continuous
 62
     7
370
    25
100
AcDbLine
 10
710.1335495349
 20
370.0522580994
 30
0.0
 11
727.4756220135
 21
370.0522580994
 31
0.0
  0
SPLINE
  5
C5
330
1F
100
AcDbEntity
  8
0
  6
Continuous
 62
     7
370
    25
100
AcDbSpline
210
0.0
220
0.0
230
1.0
 70
     8
 71
     3
 72
     8
 73
     4
 74
     0
 42
0.00000001
 43
0.00000001
 40
0.0
 40
0.0
 40
0.0
 40
0.0
 40
0.0021499574821332
 40
0.0021499574821332
 40
0.0021499574821332
 40
0.0021499574821332
 10
675.087738332409
 20
368.5522580993537
 30
0.0
 10
675.2013230241399
 20
369.0526026381589
 30
0.0
 10
675.3177427137911
 20
369.5526309961823
 30
0.0
 10
675.4374770562878
 20
370.0522580993537
 30
0.0
  0
ARC
  5
C6
330
1F
100
AcDbEntity
  8
0
  6
Continuous
 62
     7
370
    25
100
AcDbCircle
 10
681.7214994549
 20
382.4102580994
 30
0.0
 40
13.86394970799701
100
AcDbArc
 50
116.9532604522
 51
243.0467395478
  0
ARC
  5
C7
330
1F
100
AcDbEntity
  8
0
  6
Continuous
 62
     7
370
    25
100
AcDbCircle
 10
701.6317946572
 20
382.4102580994
 30
0.0
 40
15.00000000000003
100
AcDbArc
 50
304.5262436376
 51
55.4737563624
  0
ARC
  5
C8
330
1F
100
AcDbEntity
  8
0
  6
Continuous
 62
     7
370
    25
100
AcDbCircle
 10
701.2813044125
 20
382.4102580994
 30
0.0
 40
15.00000000000003
100
AcDbArc
 50
124.5262436376
 51
235.4737563624
  0
ARC
  5
C9
330
1F
100
AcDbEntity
  8
0
  6
Continuous
 62
     7
370
    25
100
AcDbCircle
 10
700.8315446488
 20
382.4102580994
 30
0.0
 40
14.47972215688361
100
AcDbArc
 50
301.4089485081
 51
58.5910514919
  0
ARC
  5
CA
330
1F
100
AcDbEntity
  8
0
  6
Continuous
 62
     7
370
    25
100
AcDbCircle
 10
702.0815544209
 20
382.4102580994
 30
0.0
 40
14.47972215688355
100
AcDbArc
 50
121.4089485081
 51
238.5910514919
  0
ARC
  5
CB
330
1F
100
AcDbEntity
  8
0
  6
Continuous
 62
     7
370
    25
100
AcDbCircle
 10
701.3935075366
 20
382.4102580994
 30
0.0
 40
12.73194369619966
100
AcDbArc
 50
283.9207331476
 51
76.0792668524
  0
ARC
  5
CC
330
1F
100
AcDbEntity
  8
0
  6
Continuous
 62
     7
370
    25
100
AcDbCircle
 10
701.5195915331
 20
382.4102580994
 30
0.0
 40
12.73194369619966
100
AcDbArc
 50
103.9207331476
 51
256.0792668524
  0
CIRCLE
  5
CD
330
1F
100
AcDbEntity
  8
0
  6
Continuous
 62
     7
370
    25
100
AcDbCircle
 10
701.4565495349
 20
382.4102580994
 30
0.0
 40
10.19999999999993
  0
CIRCLE
  5
CE
330
1F
100
AcDbEntity
  8
0
  6
Continuous
 62
     7
370
    25
100
AcDbCircle
 10
701.4565495349
 20
382.4102580994
 30
0.0
 40
6.479396467004904
  0
ELLIPSE
  5
CF
330
1F
100
AcDbEntity
  8
0
  6
Continuous
 62
     7
370
    25
100
AcDbEllipse
 10
582.1029768268
 20
400.5482580994
 30
0.0
 11
1.70068374901814
 21
3.980236214541208
 31
0.0
210
0.0
220
0.0
230
1.0
 40
0.2335174701
 41
0.0994486858578995
 42
0.9951134797156859
  0
LINE
  5
D0
330
1F
100
AcDbEntity
  8
0
  6
Continuous
 62
     7
370
    25
100
AcDbLine
 10
819.210122243
 20
404.5482580994
 30
0.0
 11
583.7029768268
 21
404.5482580994
 31
0.0
  0
ELLIPSE
  5
D1
330
1F
100
AcDbEntity
  8
0
  6
Continuous
 62
     7
370
    25
100
AcDbEllipse
 10
820.810122243
 20
400.5482580994
 30
0.0
 11
-1.700683749018026
 21
3.980236214541208
 31
0.0
210
0.0
220
0.0
230
1.0
 40
0.2335174701
 41
5.288071827463997
 42
6.183736621321859
  0
LINE
  5
D2
330
1F
100
AcDbEntity
  8
0
  6
Continuous
 62
     7
370
    25
100
AcDbLine
 10
820.9038366652
 20
400.5482580994
 30
0.0
 11
582.0092624046
 21
400.5482580994
 31
0.0
  0
ELLIPSE
  5
D3
330
1F
100
AcDbEntity
  8
0
  6
Continuous
 62
     7
370
    25
100
AcDbEllipse
 10
583.1029768268
 20
400.5482580994
 30
0.0
 11
0.0
 21
4.0
 31
0.0
210
0.0
220
0.0
230
1.0
 40
0.2734286055
 41
0.8956647938579148
 42
1.570796326794897
  0
ELLIPSE
  5
D4
330
1F
100
AcDbEntity
  8
0
  6
Continuous
 62
     7
370
    25
100
AcDbEllipse
 10
819.810122243
 20
400.5482580994
 30
0.0
 11
0.0
 21
4.0
 31
0.0
210
0.0
220
0.0
230
1.0
 40
0.2734286055
 41
4.712388980384693
 42
5.387520513321745
  0
LINE
  5
D5
330
1F
100
AcDbEntity
  8
0
  6
Continuous
 62
     7
370
    25
100
AcDbLine
 10
820.9038366652
 20
396.9102580994
 30
0.0
 11
582.0092624046
 21
396.9102580994
 31
0.0
  0
LINE
  5
D6
330
1F
100
AcDbEntity
  8
0
  6
Continuous
 62
     7
370
    25
100
AcDbLine
 10
582.0092624046
 20
396.9102580994
 30
0.0
 11
582.0092624046
 21
400.5482580994
 31
0.0
  0
LINE
  5
D7
330
1F
100
AcDbEntity
  8
0
  6
Continuous
 62
     7
370
    25
100
AcDbLine
 10
820.9038366652
 20
396.9102580994
 30
0.0
 11
820.9038366652
 21
400.5482580994
 31
0.0
  0
LINE
  5
D8
330
1F
100
AcDbEntity
  8
0
  6
Continuous
 62
     7
370
    25
100
AcDbLine
 10
820.9038366652
 20
367.9102580994
 30
0.0
 11
582.0092624046
 21
367.9102580994
 31
0.0
  0
LINE
  5
D9
330
1F
100
AcDbEntity
  8
0
  6
Continuous
 62
     7
370
    25
100
AcDbLine
 10
820.9038366652
 20
367.9102580994
 30
0.0
 11
820.9038366652
 21
364.2722580994
 31
0.0
  0
LINE
  5
DA
330
1F
100
AcDbEntity
  8
0
  6
Continuous
 62
     7
370
    25
100
AcDbLine
 10
820.9038366652
 20
364.2722580994
 30
0.0
 11
582.0092624046
 21
364.2722580994
 31
0.0
  0
LINE
  5
DB
330
1F
100
AcDbEntity
  8
0
  6
Continuous
 62
     7
370
    25
100
AcDbLine
 10
582.0092624046
 20
367.9102580994
 30
0.0
 11
582.0092624046
 21
364.2722580994
 31
0.0
  0
ELLIPSE
  5
DC
330
1F
100
AcDbEntity
  8
0
  6
Continuous
 62
     7
370
    25
100
AcDbEllipse
 10
820.810122243
 20
364.2722580994
 30
0.0
 11
1.70068374901814
 21
3.980236214541152
 31
0.0
210
0.0
220
0.0
230
1.0
 40
0.2335174701
 41
3.241041339447808
 42
4.13670613330557
  0
LINE
  5
DD
330
1F
100
AcDbEntity
  8
0
  6
Continuous
 62
     7
370
    25
100
AcDbLine
 10
819.210122243
 20
360.2722580994
 30
0.0
 11
583.7029768268
 21
360.2722580994
 31
0.0
  0
ELLIPSE
  5
DE
330
1F
100
AcDbEntity
  8
0
  6
Continuous
 62
     7
370
    25
100
AcDbEllipse
 10
582.1029768268
 20
364.2722580994
 30
0.0
 11
-1.70068374901814
 21
3.980236214541152
 31
0.0
210
0.0
220
0.0
230
1.0
 40
0.2335174701
 41
2.14647917387415
 42
3.042143967731863
  0
ELLIPSE
  5
DF
330
1F
100
AcDbEntity
  8
0
  6
Continuous
 62
     7
370
    25
100
AcDbEllipse
 10
819.810122243
 20
364.2722580994
 30
0.0
 11
0.0
 21
4.0
 31
0.0
210
0.0
220
0.0
230
1.0
 40
0.2734286055
 41
4.037257447447719
 42
4.712388980384693
  0
ELLIPSE
  5
E0
330
1F
100
AcDbEntity
  8
0
  6
Continuous
 62
     7
370
    25
100
AcDbEllipse
 10
583.1029768268
 20
364.2722580994
 30
0.0
 11
0.0
 21
4.0
 31
0.0
210
0.0
220
0.0
230
1.0
 40
0.2734286055
 41
1.570796326794897
 42
2.24592785973194
  0
LINE
  5
E1
330
1F
100
AcDbEntity
  8
0
  6
Continuous
 62
     7
370
    25
100
AcDbLine
 10
668.9565495349
 20
357.1222580994
 30
0.0
 11
663.9565495349
 21
357.1222580994
 31
0.0
  0
LINE
  5
E2
330
1F
100
AcDbEntity
  8
0
  6
Continuous
 62
     7
370
    25
100
AcDbLine
 10
663.9565495349
 20
357.1222580994
 30
0.0
 11
663.9565495349
 21
360.2722580994
 31
0.0
  0
LINE
  5
E3
330
1F
100
AcDbEntity
  8
0
  6
Continuous
 62
     7
370
    25
100
AcDbLine
 10
733.9565495349
 20
357.1222580994
 30
0.0
 11
668.9565495349
 21
357.1222580994
 31
0.0
  0
LINE
  5
E4
330
1F
100
AcDbEntity
  8
0
  6
Continuous
 62
     7
370
    25
100
AcDbLine
 10
738.9565495349
 20
357.1222580994
 30
0.0
 11
738.9565495349
 21
360.2722580994
 31
0.0
  0
LINE
  5
E5
330
1F
100
AcDbEntity
  8
0
  6
Continuous
 62
     7
370
    25
100
AcDbLine
 10
738.9565495349
 20
357.1222580994
 30
0.0
 11
733.9565495349
 21
357.1222580994
 31
0.0
  0
LINE
  5
E6
330
1F
100
AcDbEntity
  8
0
  6
Continuous
 62
     7
370
    25
100
AcDbLine
 10
721.4565495349
 20
356.0222580994
 30
0.0
 11
681.4565495349
 21
356.0222580994
 31
0.0
  0
LINE
  5
E7
330
1F
100
AcDbEntity
  8
0
  6
Continuous
 62
     7
370
    25
100
AcDbLine
 10
721.4565495349
 20
356.0222580994
 30
0.0
 11
721.4565495349
 21
357.1222580994
 31
0.0
  0
LINE
  5
E8
330
1F
100
AcDbEntity
  8
0
  6
Continuous
 62
     7
370
    25
100
AcDbLine
 10
681.4565495349
 20
356.0222580994
 30
0.0
 11
681.4565495349
 21
357.1222580994
 31
0.0
  0
LINE
  5
E9
330
1F
100
AcDbEntity
  8
0
  6
Continuous
 62
     7
370
    25
100
AcDbLine
 10
721.4565495349
 20
357.1222580994
 30
0.0
 11
681.4565495349
 21
357.1222580994
 31
0.0
  0
LINE
  5
EA
330
1F
100
AcDbEntity
  8
0
  6
Continuous
 62
     7
370
    25
100
AcDbLine
 10
668.9565495349
 20
357.1222580994
 30
0.0
 11
668.9565495349
 21
360.2722580994
 31
0.0
  0
LINE
  5
EB
330
1F
100
AcDbEntity
  8
0
  6
Continuous
 62
     7
370
    25
100
AcDbLine
 10
733.9565495349
 20
357.1222580994
 30
0.0
 11
733.9565495349
 21
360.2722580994
 31
0.0
  0
DIMENSION
  5
EC
330
1F
100
AcDbEntity
  8
SLD-0
100
AcDbDimension
  2
_D
 10
827.8101852762
 20
431.5220120822
 30
0.0
 11
701.4565495349
 21
431.5220120822
 31
0.0
 70
   160
  1
<>
 71
     2
 42
-1.0
  3
SLDDIMSTYLE0
100
AcDbAlignedDimension
 13
575.1029137935
 23
382.4102580994
 33
0.0
 14
827.8101852762
 24
382.4102580994
 34
0.0
100
AcDbRotatedDimension
  0
MTEXT
  5
101
330
1F
100
AcDbEntity
  8
SLD-0
100
AcDbMText
 10
700.1986745036
 20
329.7039634361
 30
0.0
 40
4.7625
 41
0.0
 71
     2
 72
     1
  1
STANDALONE CAMERA
  7
SLDTEXTSTYLE0
 73
     1
 44
1.0
  0
MTEXT
  5
102
330
1F
100
AcDbEntity
  8
SLD-0
100
AcDbMText
 10
571.4842645194
 20
343.2346809201
 30
0.0
 40
4.7625
 41
0.0
 71
     1
 72
     1
  1
4X MICROPHONES
  7
SLDTEXTSTYLE0
 73
     1
 44
1.0
  0
LEADER
  5
104
330
1F
100
AcDbEntity
  8
SLD-0
100
AcDbLeader
  3
SLDDIMSTYLE1
 76
     3
 10
656.0629434309
 20
371.3317527306
 30
0.0
 10
632.1423739974
 20
340.8716891186
 30
0.0
 10
628.1423739974
 20
340.8716891186
 30
0.0
  0
LINE
  5
105
330
1F
100
AcDbEntity
  8
0
  6
Continuous
 62
     7
370
    25
100
AcDbLine
 10
637.1565495349
 20
94.6194710879
 30
0.0
 11
641.4565495349
 21
94.6194710879
 31
0.0
  0
LINE
  5
106
330
1F
100
AcDbEntity
  8
0
  6
Continuous
 62
     7
370
    25
100
AcDbLine
 10
761.4565495349
 20
94.6194710879
 30
0.0
 11
765.7565495349
 21
94.6194710879
 31
0.0
  0
LINE
  5
107
330
1F
100
AcDbEntity
  8
0
  6
Continuous
 62
     7
370
    25
100
AcDbLine
 10
824.6653261486
 20
189.6554710879
 30
0.0
 11
578.2477729211
 21
189.6554710879
 31
0.0
  0
LINE
  5
108
330
1F
100
AcDbEntity
  8
0
  6
Continuous
 62
     7
370
    25
100
AcDbLine
 10
578.2477729211
 20
160.6554710879
 30
0.0
 11
824.6653261486
 21
160.6554710879
 31
0.0
  0
ARC
  5
109
330
1F
100
AcDbEntity
  8
0
  6
Continuous
 62
     7
370
    25
100
AcDbCircle
 10
721.1915996149
 20
175.1554710879
 30
0.0
 40
15.36394970799707
100
AcDbArc
 50
295.5802247826
 51
64.4197752174
  0
LINE
  5
10A
330
1F
100
AcDbEntity
  8
0
  6
Continuous
 62
     7
370
    25
100
AcDbLine
 10
727.8253607373
 20
189.0134710879
 30
0.0
 11
675.0877383324
 21
189.0134710879
 31
0.0
  0
ARC
  5
10B
330
1F
100
AcDbEntity
  8
0
  6
Continuous
 62
     7
370
    25
100
AcDbCircle
 10
681.7214994549
 20
175.1554710879
 30
0.0
 40
15.36394970799705
100
AcDbArc
 50
115.5802247826
 51
244.4197752174
  0
LINE
  5
10C
330
1F
100
AcDbEntity
  8
0
  6
Continuous
 62
     7
370
    25
100
AcDbLine
 10
675.0877383324
 20
161.2974710879
 30
0.0
 11
727.8253607373
 21
161.2974710879
 31
0.0
  0
CIRCLE
  5
10D
330
1F
100
AcDbEntity
  8
0
  6
Continuous
 62
     7
370
    25
100
AcDbCircle
 10
656.4342624046
 20
165.0054710879
 30
0.0
 40
1.0
  0
ARC
  5
10E
330
1F
100
AcDbEntity
  8
0
  6
Continuous
 62
     7
370
    25
100
AcDbCircle
 10
610.1029137935
 20
175.1554710879
 30
0.0
 40
35.00000000000016
100
AcDbArc
 50
155.5256574372
 51
204.4743425628
  0
ARC
  5
10F
330
1F
100
AcDbEntity
  8
0
  6
Continuous
 62
     7
370
    25
100
AcDbCircle
 10
792.8101852762
 20
175.1554710879
 30
0.0
 40
35.00000000000005
100
AcDbArc
 50
335.5256574372
 51
24.4743425628
  0
CIRCLE
  5
110
330
1F
100
AcDbEntity
  8
0
  6
Continuous
 62
     7
370
    25
100
AcDbCircle
 10
746.4342624046
 20
165.0054710879
 30
0.0
 40
1.0
  0
CIRCLE
  5
111
330
1F
100
AcDbEntity
  8
0
  6
Continuous
 62
     7
370
    25
100
AcDbCircle
 10
591.4342624046
 20
165.0054710879
 30
0.0
 40
1.0
  0
CIRCLE
  5
112
330
1F
100
AcDbEntity
  8
0
  6
Continuous
 62
     7
370
    25
100
AcDbCircle
 10
811.4342624046
 20
165.0054710879
 30
0.0
 40
1.0
  0
SPLINE
  5
113
330
1F
100
AcDbEntity
  8
0
  6
Continuous
 62
     7
370
    25
100
AcDbSpline
210
0.0
220
0.0
230
1.0
 70
     8
 71
     3
 72
    22
 73
    18
 74
     0
 42
0.00000001
 43
0.00000001
 40
0.0
 40
0.0
 40
0.0
 40
0.0
 40
0.1249999999999999
 40
0.1249999999999999
 40
0.2499999999999999
 40
0.2499999999999999
 40
0.3749999999999999
 40
0.3749999999999999
 40
0.4999999999999999
 40
0.4999999999999999
 40
0.6249999999999999
 40
0.6249999999999999
 40
0.7499999999999999
 40
0.7499999999999999
 40
0.8749999999999999
 40
0.8749999999999999
 40
1.0
 40
1.0
 40
1.0
 40
1.0
 10
582.2163312776325
 20
155.655471087871
 30
0.0
 10
582.1305223288764
 20
155.655471087871
 30
0.0
 10
582.0211772770211
 20
155.6941394271719
 30
0.0
 10
581.7645931451815
 20
155.8373422020388
 30
0.0
 10
581.6155465370431
 20
155.9436852191898
 30
0.0
 10
581.296666946094
 20
156.2097885308358
 30
0.0
 10
581.1261890285613
 20
156.3695405921995
 30
0.0
 10
580.767831812507
 20
156.7395386330612
 30
0.0
 10
580.5827900042078
 20
156.9470185487567
 30
0.0
 10
580.2092152233897
 20
157.3993725299592
 30
0.0
 10
580.0190093231503
 20
157.6462928560344
 30
0.0
 10
579.6394795468665
 20
158.1759924966741
 30
0.0
 10
579.4531253695179
 20
158.4544720335877
 30
0.0
 10
579.0886838350157
 20
159.039329004137
 30
0.0
 10
578.910122048134
 20
159.3465444537152
 30
0.0
 10
578.56485684801
 20
159.9889344300893
 30
0.0
 10
578.4013995241351
 20
160.3179678409711
 30
0.0
 10
578.2477729211432
 20
160.655471087871
 30
0.0
  0
SPLINE
  5
114
330
1F
100
AcDbEntity
  8
0
  6
Continuous
 62
     7
370
    25
100
AcDbSpline
210
0.0
220
0.0
230
1.0
 70
     8
 71
     3
 72
    24
 73
    20
 74
     0
 42
0.00000001
 43
0.00000001
 40
0.0
 40
0.0
 40
0.0
 40
0.0
 40
0.1249999999999992
 40
0.1249999999999992
 40
0.2499999999999989
 40
0.2499999999999989
 40
0.3749999999999987
 40
0.3749999999999987
 40
0.4999999999999984
 40
0.4999999999999984
 40
0.6249999999999982
 40
0.6249999999999982
 40
0.6874999999999992
 40
0.6874999999999992
 40
0.7500000000000002
 40
0.7500000000000002
 40
0.8750000000000001
 40
0.8750000000000001
 40
1.0
 40
1.0
 40
1.0
 40
1.0
 10
824.6653261485948
 20
160.655471087871
 30
0.0
 10
824.511537224706
 20
160.317611237175
 30
0.0
 10
824.3490440511137
 20
159.9907283531716
 30
0.0
 10
824.0084364959727
 20
159.3564056230196
 30
0.0
 10
823.8294169783801
 20
159.047567455349
 30
0.0
 10
823.4604466174006
 20
158.4550224524912
 30
0.0
 10
823.2736699717615
 20
158.1761660660075
 30
0.0
 10
822.8972238647638
 20
157.6505647714231
 30
0.0
 10
822.7060444451889
 20
157.402051753341
 30
0.0
 10
822.3302596859336
 20
156.946896110069
 30
0.0
 10
822.1470224851045
 20
156.7415864213923
 30
0.0
 10
821.8814084918591
 20
156.4669947532032
 30
0.0
 10
821.7944237146485
 20
156.381067640304
 30
0.0
 10
821.624146899183
 20
156.2209854072402
 30
0.0
 10
821.5404190380239
 20
156.1464762172207
 30
0.0
 10
821.2996487971744
 20
155.9452011288182
 30
0.0
 10
821.153141425561
 20
155.8403678633253
 30
0.0
 10
820.8945823103726
 20
155.6951979842038
 30
0.0
 10
820.7826038651405
 20
155.655471087871
 30
0.0
 10
820.6967677921056
 20
155.655471087871
 30
0.0
  0
SPLINE
  5
115
330
1F
100
AcDbEntity
  8
0
  6
Continuous
 62
     7
370
    25
100
AcDbSpline
210
0.0
220
0.0
230
1.0
 70
     8
 71
     3
 72
    24
 73
    20
 74
     0
 42
0.00000001
 43
0.00000001
 40
0.0
 40
0.0
 40
0.0
 40
0.0
 40
0.1249999999999992
 40
0.1249999999999992
 40
0.2499999999999989
 40
0.2499999999999989
 40
0.3749999999999987
 40
0.3749999999999987
 40
0.4999999999999984
 40
0.4999999999999984
 40
0.6249999999999982
 40
0.6249999999999982
 40
0.6874999999999992
 40
0.6874999999999992
 40
0.7500000000000002
 40
0.7500000000000002
 40
0.8750000000000001
 40
0.8750000000000001
 40
1.0
 40
1.0
 40
1.0
 40
1.0
 10
578.2477729211432
 20
189.655471087871
 30
0.0
 10
578.4015618450321
 20
189.9933309385669
 30
0.0
 10
578.5640550186245
 20
190.3202138225704
 30
0.0
 10
578.9046625737653
 20
190.9545365527223
 30
0.0
 10
579.083682091358
 20
191.2633747203929
 30
0.0
 10
579.4526524523375
 20
191.8559197232508
 30
0.0
 10
579.6394290979766
 20
192.1347761097344
 30
0.0
 10
580.0158752049743
 20
192.6603774043188
 30
0.0
 10
580.2070546245492
 20
192.908890422401
 30
0.0
 10
580.5828393838045
 20
193.364046065673
 30
0.0
 10
580.7660765846337
 20
193.5693557543496
 30
0.0
 10
581.031690577879
 20
193.8439474225387
 30
0.0
 10
581.1186753550895
 20
193.9298745354379
 30
0.0
 10
581.2889521705551
 20
194.0899567685018
 30
0.0
 10
581.3726800317141
 20
194.1644659585213
 30
0.0
 10
581.6134502725636
 20
194.3657410469237
 30
0.0
 10
581.7599576441771
 20
194.4705743124166
 30
0.0
 10
582.0185167593654
 20
194.6157441915381
 30
0.0
 10
582.1304952045975
 20
194.655471087871
 30
0.0
 10
582.2163312776325
 20
194.6554710878709
 30
0.0
  0
SPLINE
  5
116
330
1F
100
AcDbEntity
  8
0
  6
Continuous
 62
     7
370
    25
100
AcDbSpline
210
0.0
220
0.0
230
1.0
 70
     8
 71
     3
 72
    22
 73
    18
 74
     0
 42
0.00000001
 43
0.00000001
 40
0.0
 40
0.0
 40
0.0
 40
0.0
 40
0.1249999999999999
 40
0.1249999999999999
 40
0.2499999999999999
 40
0.2499999999999999
 40
0.3749999999999999
 40
0.3749999999999999
 40
0.4999999999999999
 40
0.4999999999999999
 40
0.6249999999999999
 40
0.6249999999999999
 40
0.7499999999999999
 40
0.7499999999999999
 40
0.8749999999999999
 40
0.8749999999999999
 40
1.0
 40
1.0
 40
1.0
 40
1.0
 10
820.6967677921056
 20
194.6554710878709
 30
0.0
 10
820.7825767408616
 20
194.655471087871
 30
0.0
 10
820.8919217927169
 20
194.61680274857
 30
0.0
 10
821.1485059245566
 20
194.4735999737032
 30
0.0
 10
821.297552532695
 20
194.3672569565522
 30
0.0
 10
821.6164321236441
 20
194.1011536449061
 30
0.0
 10
821.7869100411767
 20
193.9414015835424
 30
0.0
 10
822.145267257231
 20
193.5714035426808
 30
0.0
 10
822.3303090655302
 20
193.3639236269852
 30
0.0
 10
822.7038838463483
 20
192.9115696457828
 30
0.0
 10
822.8940897465877
 20
192.6646493197075
 30
0.0
 10
823.2736195228716
 20
192.1349496790678
 30
0.0
 10
823.4599737002202
 20
191.8564701421542
 30
0.0
 10
823.8244152347224
 20
191.2716131716049
 30
0.0
 10
824.0029770216041
 20
190.9643977220267
 30
0.0
 10
824.3482422217281
 20
190.3220077456526
 30
0.0
 10
824.511699545603
 20
189.9929743347708
 30
0.0
 10
824.6653261485948
 20
189.655471087871
 30
0.0
  0
ARC
  5
117
330
1F
100
AcDbEntity
  8
0
  6
Continuous
 62
     7
370
    25
100
AcDbCircle
 10
721.1915996149
 20
175.1554710879
 30
0.0
 40
13.86394970799709
100
AcDbArc
 50
296.9532604522
 51
63.0467395478
  0
SPLINE
  5
118
330
1F
100
AcDbEntity
  8
0
  6
Continuous
 62
     7
370
    25
100
AcDbSpline
210
0.0
220
0.0
230
1.0
 70
     8
 71
     3
 72
     8
 73
     4
 74
     0
 42
0.00000001
 43
0.00000001
 40
0.0
 40
0.0
 40
0.0
 40
0.0
 40
0.0021499574821332
 40
0.0021499574821332
 40
0.0021499574821332
 40
0.0021499574821332
 10
727.8253607373291
 20
189.013471087871
 30
0.0
 10
727.7117760455981
 20
188.5131265490657
 30
0.0
 10
727.5953563559469
 20
188.0130981910424
 30
0.0
 10
727.4756220134503
 20
187.513471087871
 30
0.0
  0
SPLINE
  5
119
330
1F
100
AcDbEntity
  8
0
  6
Continuous
 62
     7
370
    25
100
AcDbSpline
210
0.0
220
0.0
230
1.0
 70
     8
 71
     3
 72
     8
 73
     4
 74
     0
 42
0.00000001
 43
0.00000001
 40
0.0
 40
0.0
 40
0.0
 40
0.0
 40
0.0021499574821332
 40
0.0021499574821332
 40
0.0021499574821332
 40
0.0021499574821332
 10
727.8253607373291
 20
161.297471087871
 30
0.0
 10
727.7117760455981
 20
161.7978156266762
 30
0.0
 10
727.5953563559469
 20
162.2978439846996
 30
0.0
 10
727.4756220134504
 20
162.797471087871
 30
0.0
  0
LINE
  5
11A
330
1F
100
AcDbEntity
  8
0
  6
Continuous
 62
     7
370
    25
100
AcDbLine
 10
727.4756220135
 20
187.5134710879
 30
0.0
 11
710.1335495349
 21
187.5134710879
 31
0.0
  0
LINE
  5
11B
330
1F
100
AcDbEntity
  8
0
  6
Continuous
 62
     7
370
    25
100
AcDbLine
 10
710.1335495349
 20
187.5134710879
 30
0.0
 11
692.7795495349
 21
187.5134710879
 31
0.0
  0
LINE
  5
11C
330
1F
100
AcDbEntity
  8
0
  6
Continuous
 62
     7
370
    25
100
AcDbLine
 10
692.7795495349
 20
187.5134710879
 30
0.0
 11
675.4374770563
 21
187.5134710879
 31
0.0
  0
SPLINE
  5
11D
330
1F
100
AcDbEntity
  8
0
  6
Continuous
 62
     7
370
    25
100
AcDbSpline
210
0.0
220
0.0
230
1.0
 70
     8
 71
     3
 72
     8
 73
     4
 74
     0
 42
0.00000001
 43
0.00000001
 40
0.0
 40
0.0
 40
0.0
 40
0.0
 40
0.0021499574821332
 40
0.0021499574821332
 40
0.0021499574821332
 40
0.0021499574821332
 10
675.4374770562878
 20
187.513471087871
 30
0.0
 10
675.3177427137911
 20
188.0130981910424
 30
0.0
 10
675.2013230241399
 20
188.5131265490657
 30
0.0
 10
675.087738332409
 20
189.013471087871
 30
0.0
  0
LINE
  5
11E
330
1F
100
AcDbEntity
  8
0
  6
Continuous
 62
     7
370
    25
100
AcDbLine
 10
675.4374770563
 20
162.7974710879
 30
0.0
 11
692.7795495349
 21
162.7974710879
 31
0.0
  0
LINE
  5
11F
330
1F
100
AcDbEntity
  8
0
  6
Continuous
 62
     7
370
    25
100
AcDbLine
 10
692.7795495349
 20
162.7974710879
 30
0.0
 11
710.1335495349
 21
162.7974710879
 31
0.0
  0
LINE
  5
120
330
1F
100
AcDbEntity
  8
0
  6
Continuous
 62
     7
370
    25
100
AcDbLine
 10
710.1335495349
 20
162.7974710879
 30
0.0
 11
727.4756220135
 21
162.7974710879
 31
0.0
  0
SPLINE
  5
121
330
1F
100
AcDbEntity
  8
0
  6
Continuous
 62
     7
370
    25
100
AcDbSpline
210
0.0
220
0.0
230
1.0
 70
     8
 71
     3
 72
     8
 73
     4
 74
     0
 42
0.00000001
 43
0.00000001
 40
0.0
 40
0.0
 40
0.0
 40
0.0
 40
0.0021499574821332
 40
0.0021499574821332
 40
0.0021499574821332
 40
0.0021499574821332
 10
675.087738332409
 20
161.2974710878709
 30
0.0
 10
675.2013230241399
 20
161.7978156266762
 30
0.0
 10
675.3177427137911
 20
162.2978439846996
 30
0.0
 10
675.4374770562878
 20
162.797471087871
 30
0.0
  0
ARC
  5
122
330
1F
100
AcDbEntity
  8
0
  6
Continuous
 62
     7
370
    25
100
AcDbCircle
 10
681.7214994549
 20
175.1554710879
 30
0.0
 40
13.86394970799701
100
AcDbArc
 50
116.9532604522
 51
243.0467395478
  0
ARC
  5
123
330
1F
100
AcDbEntity
  8
0
  6
Continuous
 62
     7
370
    25
100
AcDbCircle
 10
701.6317946572
 20
175.1554710879
 30
0.0
 40
15.00000000000001
100
AcDbArc
 50
304.5262436376
 51
55.4737563624
  0
ARC
  5
124
330
1F
100
AcDbEntity
  8
0
  6
Continuous
 62
     7
370
    25
100
AcDbCircle
 10
701.2813044125
 20
175.1554710879
 30
0.0
 40
15.00000000000001
100
AcDbArc
 50
124.5262436376
 51
235.4737563624
  0
ARC
  5
125
330
1F
100
AcDbEntity
  8
0
  6
Continuous
 62
     7
370
    25
100
AcDbCircle
 10
700.8315446488
 20
175.1554710879
 30
0.0
 40
14.47972215688359
100
AcDbArc
 50
301.4089485081
 51
58.5910514919
  0
ARC
  5
126
330
1F
100
AcDbEntity
  8
0
  6
Continuous
 62
     7
370
    25
100
AcDbCircle
 10
702.0815544209
 20
175.1554710879
 30
0.0
 40
14.47972215688353
100
AcDbArc
 50
121.4089485081
 51
238.5910514919
  0
ARC
  5
127
330
1F
100
AcDbEntity
  8
0
  6
Continuous
 62
     7
370
    25
100
AcDbCircle
 10
701.5195915331
 20
175.1554710879
 30
0.0
 40
12.73194369619963
100
AcDbArc
 50
103.9207331476
 51
256.0792668524
  0
ARC
  5
128
330
1F
100
AcDbEntity
  8
0
  6
Continuous
 62
     7
370
    25
100
AcDbCircle
 10
701.3935075366
 20
175.1554710879
 30
0.0
 40
12.73194369619963
100
AcDbArc
 50
283.9207331476
 51
76.0792668524
  0
CIRCLE
  5
129
330
1F
100
AcDbEntity
  8
0
  6
Continuous
 62
     7
370
    25
100
AcDbCircle
 10
701.4565495349
 20
175.1554710879
 30
0.0
 40
10.19999999999993
  0
CIRCLE
  5
12A
330
1F
100
AcDbEntity
  8
0
  6
Continuous
 62
     7
370
    25
100
AcDbCircle
 10
701.4565495349
 20
175.1554710879
 30
0.0
 40
6.479396467004904
  0
LINE
  5
12B
330
1F
100
AcDbEntity
  8
0
  6
Continuous
 62
     7
370
    25
100
AcDbLine
 10
820.9038366652
 20
193.2934710879
 30
0.0
 11
582.0092624046
 21
193.2934710879
 31
0.0
  0
LINE
  5
12C
330
1F
100
AcDbEntity
  8
0
  6
Continuous
 62
     7
370
    25
100
AcDbLine
 10
820.9038366652
 20
189.6554710879
 30
0.0
 11
582.0092624046
 21
189.6554710879
 31
0.0
  0
LINE
  5
12D
330
1F
100
AcDbEntity
  8
0
  6
Continuous
 62
     7
370
    25
100
AcDbLine
 10
820.9038366652
 20
189.6554710879
 30
0.0
 11
820.9038366652
 21
193.2934710879
 31
0.0
  0
LINE
  5
12E
330
1F
100
AcDbEntity
  8
0
  6
Continuous
 62
     7
370
    25
100
AcDbLine
 10
582.0092624046
 20
189.6554710879
 30
0.0
 11
582.0092624046
 21
193.2934710879
 31
0.0
  0
ELLIPSE
  5
12F
330
1F
100
AcDbEntity
  8
0
  6
Continuous
 62
     7
370
    25
100
AcDbEllipse
 10
582.1029768268
 20
193.2934710879
 30
0.0
 11
1.70068374901814
 21
3.980236214541179
 31
0.0
210
0.0
220
0.0
230
1.0
 40
0.2335174701
 41
0.0994486858578997
 42
0.9951134797156859
  0
LINE
  5
130
330
1F
100
AcDbEntity
  8
0
  6
Continuous
 62
     7
370
    25
100
AcDbLine
 10
819.210122243
 20
197.2934710879
 30
0.0
 11
583.7029768268
 21
197.2934710879
 31
0.0
  0
ELLIPSE
  5
131
330
1F
100
AcDbEntity
  8
0
  6
Continuous
 62
     7
370
    25
100
AcDbEllipse
 10
820.810122243
 20
193.2934710879
 30
0.0
 11
-1.700683749018026
 21
3.980236214541179
 31
0.0
210
0.0
220
0.0
230
1.0
 40
0.2335174701
 41
5.288071827464002
 42
6.183736621321859
  0
ELLIPSE
  5
132
330
1F
100
AcDbEntity
  8
0
  6
Continuous
 62
     7
370
    25
100
AcDbEllipse
 10
819.810122243
 20
193.2934710879
 30
0.0
 11
0.0
 21
4.0
 31
0.0
210
0.0
220
0.0
230
1.0
 40
0.2734286055
 41
4.712388980384693
 42
5.387520513321738
  0
ELLIPSE
  5
133
330
1F
100
AcDbEntity
  8
0
  6
Continuous
 62
     7
370
    25
100
AcDbEllipse
 10
583.1029768268
 20
193.2934710879
 30
0.0
 11
0.0
 21
4.0
 31
0.0
210
0.0
220
0.0
230
1.0
 40
0.2734286055
 41
0.8956647938579204
 42
1.570796326794897
  0
LINE
  5
134
330
1F
100
AcDbEntity
  8
0
  6
Continuous
 62
     7
370
    25
100
AcDbLine
 10
820.9038366652
 20
160.6554710879
 30
0.0
 11
582.0092624046
 21
160.6554710879
 31
0.0
  0
LINE
  5
135
330
1F
100
AcDbEntity
  8
0
  6
Continuous
 62
     7
370
    25
100
AcDbLine
 10
820.9038366652
 20
160.6554710879
 30
0.0
 11
820.9038366652
 21
157.0174710879
 31
0.0
  0
LINE
  5
136
330
1F
100
AcDbEntity
  8
0
  6
Continuous
 62
     7
370
    25
100
AcDbLine
 10
820.9038366652
 20
157.0174710879
 30
0.0
 11
582.0092624046
 21
157.0174710879
 31
0.0
  0
LINE
  5
137
330
1F
100
AcDbEntity
  8
0
  6
Continuous
 62
     7
370
    25
100
AcDbLine
 10
582.0092624046
 20
160.6554710879
 30
0.0
 11
582.0092624046
 21
157.0174710879
 31
0.0
  0
ELLIPSE
  5
138
330
1F
100
AcDbEntity
  8
0
  6
Continuous
 62
     7
370
    25
100
AcDbEllipse
 10
819.810122243
 20
157.0174710879
 30
0.0
 11
0.0
 21
4.0
 31
0.0
210
0.0
220
0.0
230
1.0
 40
0.2734286055
 41
4.03725744744773
 42
4.712388980384693
  0
ELLIPSE
  5
139
330
1F
100
AcDbEntity
  8
0
  6
Continuous
 62
     7
370
    25
100
AcDbEllipse
 10
820.810122243
 20
157.0174710879
 30
0.0
 11
1.70068374901814
 21
3.980236214541208
 31
0.0
210
0.0
220
0.0
230
1.0
 40
0.2335174701
 41
3.241041339447762
 42
4.136706133305552
  0
LINE
  5
13A
330
1F
100
AcDbEntity
  8
0
  6
Continuous
 62
     7
370
    25
100
AcDbLine
 10
819.210122243
 20
153.0174710879
 30
0.0
 11
583.7029768268
 21
153.0174710879
 31
0.0
  0
ELLIPSE
  5
13B
330
1F
100
AcDbEntity
  8
0
  6
Continuous
 62
     7
370
    25
100
AcDbEllipse
 10
582.1029768268
 20
157.0174710879
 30
0.0
 11
-1.70068374901814
 21
3.980236214541208
 31
0.0
210
0.0
220
0.0
230
1.0
 40
0.2335174701
 41
2.14647917387415
 42
3.042143967731904
  0
ELLIPSE
  5
13C
330
1F
100
AcDbEntity
  8
0
  6
Continuous
 62
     7
370
    25
100
AcDbEllipse
 10
583.1029768268
 20
157.0174710879
 30
0.0
 11
0.0
 21
4.0
 31
0.0
210
0.0
220
0.0
230
1.0
 40
0.2734286055
 41
1.570796326794897
 42
2.245927859731929
  0
LINE
  5
13D
330
1F
100
AcDbEntity
  8
0
  6
Continuous
 62
     7
370
    25
100
AcDbLine
 10
761.4565495349
 20
142.0174710879
 30
0.0
 11
641.4565495349
 21
142.0174710879
 31
0.0
  0
LINE
  5
13E
330
1F
100
AcDbEntity
  8
0
  6
Continuous
 62
     7
370
    25
100
AcDbLine
 10
641.4565495349
 20
153.0174710879
 30
0.0
 11
641.4565495349
 21
142.0174710879
 31
0.0
  0
LINE
  5
13F
330
1F
100
AcDbEntity
  8
0
  6
Continuous
 62
     7
370
    25
100
AcDbLine
 10
761.4565495349
 20
153.0174710879
 30
0.0
 11
761.4565495349
 21
142.0174710879
 31
0.0
  0
LINE
  5
140
330
1F
100
AcDbEntity
  8
0
  6
Continuous
 62
     7
370
    25
100
AcDbLine
 10
637.1565495349
 20
100.2194710879
 30
0.0
 11
641.4565495349
 21
100.2194710879
 31
0.0
  0
LINE
  5
141
330
1F
100
AcDbEntity
  8
0
  6
Continuous
 62
     7
370
    25
100
AcDbLine
 10
637.1565495349
 20
153.0174710879
 30
0.0
 11
637.1565495349
 21
100.2194710879
 31
0.0
  0
LINE
  5
142
330
1F
100
AcDbEntity
  8
0
  6
Continuous
 62
     7
370
    25
100
AcDbLine
 10
641.4565495349
 20
142.0174710879
 30
0.0
 11
641.4565495349
 21
107.7219348136
 31
0.0
  0
LINE
  5
143
330
1F
100
AcDbEntity
  8
0
  6
Continuous
 62
     7
370
    25
100
AcDbLine
 10
637.1565495349
 20
100.2194710879
 30
0.0
 11
637.1565495349
 21
94.6194710879
 31
0.0
  0
LINE
  5
144
330
1F
100
AcDbEntity
  8
0
  6
Continuous
 62
     7
370
    25
100
AcDbLine
 10
765.7565495349
 20
153.0174710879
 30
0.0
 11
765.7565495349
 21
100.2194710879
 31
0.0
  0
LINE
  5
145
330
1F
100
AcDbEntity
  8
0
  6
Continuous
 62
     7
370
    25
100
AcDbLine
 10
765.7565495349
 20
100.2194710879
 30
0.0
 11
761.4565495349
 21
100.2194710879
 31
0.0
  0
LINE
  5
146
330
1F
100
AcDbEntity
  8
0
  6
Continuous
 62
     7
370
    25
100
AcDbLine
 10
761.4565495349
 20
142.0174710879
 30
0.0
 11
761.4565495349
 21
107.7219348136
 31
0.0
  0
LINE
  5
147
330
1F
100
AcDbEntity
  8
0
  6
Continuous
 62
     7
370
    25
100
AcDbLine
 10
765.7565495349
 20
100.2194710879
 30
0.0
 11
765.7565495349
 21
94.6194710879
 31
0.0
  0
LINE
  5
148
330
1F
100
AcDbEntity
  8
0
  6
Continuous
 62
     7
370
    25
100
AcDbLine
 10
761.4565495349
 20
107.7219348136
 30
0.0
 11
641.4565495349
 21
107.7219348136
 31
0.0
  0
LINE
  5
149
330
1F
100
AcDbEntity
  8
0
  6
Continuous
 62
     7
370
    25
100
AcDbLine
 10
761.4565495349
 20
107.7219348136
 30
0.0
 11
761.4565495349
 21
92.7170073621
 31
0.0
  0
LINE
  5
14A
330
1F
100
AcDbEntity
  8
0
  6
Continuous
 62
     7
370
    25
100
AcDbLine
 10
761.4565495349
 20
92.7170073621
 30
0.0
 11
641.4565495349
 21
92.7170073621
 31
0.0
  0
LINE
  5
14B
330
1F
100
AcDbEntity
  8
0
  6
Continuous
 62
     7
370
    25
100
AcDbLine
 10
641.4565495349
 20
107.7219348136
 30
0.0
 11
641.4565495349
 21
92.7170073621
 31
0.0
  0
MTEXT
  5
14C
330
1F
100
AcDbEntity
  8
SLD-0
100
AcDbMText
 10
701.732190212
 20
65.5572443382
 30
0.0
 40
4.7625
 41
0.0
 71
     2
 72
     1
  1
CAMERA WITH MOUNTING BRACKET
  7
SLDTEXTSTYLE0
 73
     1
 44
1.0
  0
LINE
  5
14D
330
1F
100
AcDbEntity
  8
0
  6
PHANTOM
 62
     7
370
    35
100
AcDbLine
 10
797.6267790352
 20
77.5085646666
 30
0.0
 11
607.1192906907
 21
77.5085646666
 31
0.0
  0
LINE
  5
14E
330
1F
100
AcDbEntity
  8
0
  6
Continuous
 62
     7
370
    35
100
AcDbLine
 10
797.6267790352
 20
77.5085646666
 30
0.0
 11
797.6267790352
 21
90.2085646666
 31
0.0
  0
SOLID
  5
14F
330
1F
100
AcDbEntity
  8
0
  6
Continuous
 62
     7
370
    35
100
AcDbTrace
 10
797.6267790352
 20
90.2085646666
 30
0.0
 11
796.1027790352
 21
84.1125646666
 31
0.0
 12
799.1507790352
 22
84.1125646666
 32
0.0
 13
799.1507790352
 23
84.1125646666
 33
0.0
  0
LINE
  5
150
330
1F
100
AcDbEntity
  8
0
  6
Continuous
 62
     7
370
    35
100
AcDbLine
 10
607.1192906907
 20
77.5085646666
 30
0.0
 11
607.1192906907
 21
90.2085646666
 31
0.0
  0
SOLID
  5
151
330
1F
100
AcDbEntity
  8
0
  6
Continuous
 62
     7
370
    35
100
AcDbTrace
 10
607.1192906907
 20
90.2085646666
 30
0.0
 11
605.5952906907
 21
84.1125646666
 31
0.0
 12
608.6432906907
 22
84.1125646666
 32
0.0
 13
608.6432906907
 23
84.1125646666
 33
0.0
  0
MTEXT
  5
152
330
1F
100
AcDbEntity
  8
0
  6
Continuous
 62
     7
100
AcDbMText
 10
794.4950427715
 20
100.2927554359
 30
0.0
 40
6.35
 41
0.0
 71
     1
 72
     1
  1
A
  7
SLDTEXTSTYLE0
 73
     1
 44
1.0
  0
MTEXT
  5
153
330
1F
100
AcDbEntity
  8
0
  6
Continuous
 62
     7
100
AcDbMText
 10
603.987554427
 20
100.2927554359
 30
0.0
 40
6.35
 41
0.0
 71
     1
 72
     1
  1
A
  7
SLDTEXTSTYLE0
 73
     1
 44
1.0
  0
LINE
  5
154
330
1F
100
AcDbEntity
  8
0
  6
Continuous
 62
     7
370
    25
100
AcDbLine
 10
415.9924398533
 20
389.5352580994
 30
0.0
 11
415.2424398533
 21
389.5352580994
 31
0.0
  0
LINE
  5
155
330
1F
100
AcDbEntity
  8
0
  6
Continuous
 62
     7
370
    25
100
AcDbLine
 10
415.2424398533
 20
381.5352580994
 30
0.0
 11
415.9924398533
 21
381.5352580994
 31
0.0
  0
LINE
  5
156
330
1F
100
AcDbEntity
  8
0
  6
Continuous
 62
     7
370
    25
100
AcDbLine
 10
415.9924398533
 20
401.9102580994
 30
0.0
 11
415.9924398533
 21
362.9102580994
 31
0.0
  0
SPLINE
  5
157
330
1F
100
AcDbEntity
  8
0
  6
Continuous
 62
     7
370
    25
100
AcDbSpline
210
0.0
220
0.0
230
1.0
 70
    24
 71
     3
 72
    10
 73
     6
 74
     0
 42
0.00000001
 43
0.00000001
 40
0.0
 40
0.0
 40
0.0
 40
0.0
 40
0.5
 40
0.5
 40
1.0
 40
1.0
 40
1.0
 40
1.0
 10
415.9924398532729
 20
401.9102580993537
 30
0.0
 10
422.0373547178958
 20
401.9102580993537
 30
0.0
 10
428.1099158857335
 20
401.9102580993537
 30
0.0
 10
440.2825529395244
 20
401.9102580993537
 30
0.0
 10
446.3832397789932
 20
401.9102580993537
 30
0.0
 10
452.4924398532729
 20
401.9102580993537
 30
0.0
  0
SPLINE
  5
158
330
1F
100
AcDbEntity
  8
0
  6
Continuous
 62
     7
370
    25
100
AcDbSpline
210
0.0
220
0.0
230
1.0
 70
     8
 71
     3
 72
    24
 73
    20
 74
     0
 42
0.00000001
 43
0.00000001
 40
0.0
 40
0.0
 40
0.0
 40
0.0
 40
0.1249999999999992
 40
0.1249999999999992
 40
0.2499999999999989
 40
0.2499999999999989
 40
0.3749999999999987
 40
0.3749999999999987
 40
0.4999999999999984
 40
0.4999999999999984
 40
0.6249999999999982
 40
0.6249999999999982
 40
0.6874999999999992
 40
0.6874999999999992
 40
0.7500000000000002
 40
0.7500000000000002
 40
0.8750000000000001
 40
0.8750000000000001
 40
1.0
 40
1.0
 40
1.0
 40
1.0
 10
457.4924398532728
 20
396.9102580993537
 30
0.0
 10
457.4924398532728
 20
397.2481179500497
 30
0.0
 10
457.4585996760748
 20
397.5750008340531
 30
0.0
 10
457.3315570462098
 20
398.209323564205
 30
0.0
 10
457.2376810260415
 20
398.5181617318756
 30
0.0
 10
456.9936278833678
 20
399.1107067347335
 30
0.0
 10
456.8458084076624
 20
399.3895631212171
 30
0.0
 10
456.5010941400824
 20
399.9151644158015
 30
0.0
 10
456.3023964391379
 20
400.1636774338837
 30
0.0
 10
455.8609674524608
 20
400.6188330771557
 30
0.0
 10
455.6202967297717
 20
400.8241427658323
 30
0.0
 10
455.2277938430734
 20
401.0987344340214
 30
0.0
 10
455.0916700632502
 20
401.1846615469206
 30
0.0
 10
454.8080087391649
 20
401.3447437799845
 30
0.0
 10
454.6596238497307
 20
401.419252970004
 30
0.0
 10
454.2024813103905
 20
401.6205280584064
 30
0.0
 10
453.8829033022828
 20
401.7253613238993
 30
0.0
 10
453.209585865671
 20
401.8705312030208
 30
0.0
 10
452.8543286899304
 20
401.9102580993537
 30
0.0
 10
452.4924398532729
 20
401.9102580993537
 30
0.0
  0
LINE
  5
159
330
1F
100
AcDbEntity
  8
0
  6
Continuous
 62
     7
370
    25
100
AcDbLine
 10
457.4924398533
 20
396.9102580994
 30
0.0
 11
457.4924398533
 21
367.9102580994
 31
0.0
  0
SPLINE
  5
15A
330
1F
100
AcDbEntity
  8
0
  6
Continuous
 62
     7
370
    25
100
AcDbSpline
210
0.0
220
0.0
230
1.0
 70
     8
 71
     3
 72
    22
 73
    18
 74
     0
 42
0.00000001
 43
0.00000001
 40
0.0
 40
0.0
 40
0.0
 40
0.0
 40
0.1249999999999999
 40
0.1249999999999999
 40
0.2499999999999999
 40
0.2499999999999999
 40
0.3749999999999999
 40
0.3749999999999999
 40
0.4999999999999999
 40
0.4999999999999999
 40
0.6249999999999999
 40
0.6249999999999999
 40
0.7499999999999999
 40
0.7499999999999999
 40
0.8749999999999999
 40
0.8749999999999999
 40
1.0
 40
1.0
 40
1.0
 40
1.0
 10
452.4924398532729
 20
362.9102580993537
 30
0.0
 10
452.854214332722
 20
362.9102580993537
 30
0.0
 10
453.2014647944305
 20
362.9489264386546
 30
0.0
 10
453.8719913217393
 20
363.0921292135214
 30
0.0
 10
454.1979459672275
 20
363.1984722306725
 30
0.0
 10
454.804491708036
 20
363.4645755423185
 30
0.0
 10
455.0876986322249
 20
363.6243276036822
 30
0.0
 10
455.6181463898533
 20
363.9943256445439
 30
0.0
 10
455.8609293448844
 20
364.2018055602394
 30
0.0
 10
456.2999539860273
 20
364.6541595414419
 30
0.0
 10
456.4980900992466
 20
364.9010798675171
 30
0.0
 10
456.8458951981484
 20
365.4307795081568
 30
0.0
 10
456.9930734357095
 20
365.7092590450704
 30
0.0
 10
457.2346106900834
 20
366.2941160156197
 30
0.0
 10
457.3291811938977
 20
366.6013314651979
 30
0.0
 10
457.4586340312673
 20
367.243721441572
 30
0.0
 10
457.4924398532728
 20
367.5727548524538
 30
0.0
 10
457.4924398532728
 20
367.9102580993537
 30
0.0
  0
SPLINE
  5
15B
330
1F
100
AcDbEntity
  8
0
  6
Continuous
 62
     7
370
    25
100
AcDbSpline
210
0.0
220
0.0
230
1.0
 70
    24
 71
     3
 72
    10
 73
     6
 74
     0
 42
0.00000001
 43
0.00000001
 40
0.0
 40
0.0
 40
0.0
 40
0.0
 40
0.5
 40
0.5
 40
1.0
 40
1.0
 40
1.0
 40
1.0
 10
452.4924398532728
 20
362.9102580993537
 30
0.0
 10
446.381895822514
 20
362.9102580993537
 30
0.0
 10
440.28031212608
 20
362.9102580993537
 30
0.0
 10
428.1073742288777
 20
362.9102580993537
 30
0.0
 10
422.0353806958104
 20
362.9102580993537
 30
0.0
 10
415.9924398532729
 20
362.9102580993537
 30
0.0
  0
LINE
  5
15C
330
1F
100
AcDbEntity
  8
0
  6
Continuous
 62
     7
370
    25
100
AcDbLine
 10
415.2424398533
 20
385.5352580994
 30
0.0
 11
415.2424398533
 21
389.5352580994
 31
0.0
  0
LINE
  5
15D
330
1F
100
AcDbEntity
  8
0
  6
Continuous
 62
     7
370
    25
100
AcDbLine
 10
415.2424398533
 20
381.5352580994
 30
0.0
 11
415.2424398533
 21
385.5352580994
 31
0.0
  0
LINE
  5
15E
330
1F
100
AcDbEntity
  8
0
  6
Continuous
 62
     7
370
    25
100
AcDbLine
 10
457.4924398533
 20
396.9102580994
 30
0.0
 11
457.4924398533
 21
400.5482580994
 31
0.0
  0
LINE
  5
15F
330
1F
100
AcDbEntity
  8
0
  6
Continuous
 62
     7
370
    25
100
AcDbLine
 10
415.9924398533
 20
403.0482580994
 30
0.0
 11
415.9924398533
 21
401.9102580994
 31
0.0
  0
LINE
  5
160
330
1F
100
AcDbEntity
  8
0
  6
Continuous
 62
     7
370
    25
100
AcDbLine
 10
415.9924398533
 20
403.0482580994
 30
0.0
 11
456.6149388525
 21
403.0482580994
 31
0.0
  0
ARC
  5
161
330
1F
100
AcDbEntity
  8
0
  6
Continuous
 62
     7
370
    25
100
AcDbCircle
 10
453.4924398533
 20
400.5482580994
 30
0.0
 40
3.999999999999952
100
AcDbArc
 50
0.0
 51
38.6821874535
  0
LINE
  5
162
330
1F
100
AcDbEntity
  8
0
  6
Continuous
 62
     7
370
    25
100
AcDbLine
 10
416.5114019291
 20
404.5482580994
 30
0.0
 11
415.9924398533
 21
403.0482580994
 31
0.0
  0
LINE
  5
163
330
1F
100
AcDbEntity
  8
0
  6
Continuous
 62
     7
370
    25
100
AcDbLine
 10
416.5114019291
 20
404.5482580994
 30
0.0
 11
453.4924398533
 21
404.5482580994
 31
0.0
  0
ARC
  5
164
330
1F
100
AcDbEntity
  8
0
  6
Continuous
 62
     7
370
    25
100
AcDbCircle
 10
453.4924398533
 20
400.5482580994
 30
0.0
 40
4.0
100
AcDbArc
 50
38.6821874535
 51
90.0
  0
LINE
  5
165
330
1F
100
AcDbEntity
  8
0
  6
Continuous
 62
     7
370
    25
100
AcDbLine
 10
415.9924398533
 20
361.7722580994
 30
0.0
 11
456.6149388525
 21
361.7722580994
 31
0.0
  0
LINE
  5
166
330
1F
100
AcDbEntity
  8
0
  6
Continuous
 62
     7
370
    25
100
AcDbLine
 10
415.9924398533
 20
361.7722580994
 30
0.0
 11
415.9924398533
 21
362.9102580994
 31
0.0
  0
LINE
  5
167
330
1F
100
AcDbEntity
  8
0
  6
Continuous
 62
     7
370
    25
100
AcDbLine
 10
457.4924398533
 20
367.9102580994
 30
0.0
 11
457.4924398533
 21
364.2722580994
 31
0.0
  0
ARC
  5
168
330
1F
100
AcDbEntity
  8
0
  6
Continuous
 62
     7
370
    25
100
AcDbCircle
 10
453.4924398533
 20
364.2722580994
 30
0.0
 40
3.999999999999988
100
AcDbArc
 50
321.3178125465
 51
0.0
  0
LINE
  5
169
330
1F
100
AcDbEntity
  8
0
  6
Continuous
 62
     7
370
    25
100
AcDbLine
 10
416.5114019291
 20
360.2722580994
 30
0.0
 11
453.4924398533
 21
360.2722580994
 31
0.0
  0
LINE
  5
16A
330
1F
100
AcDbEntity
  8
0
  6
Continuous
 62
     7
370
    25
100
AcDbLine
 10
416.5114019291
 20
360.2722580994
 30
0.0
 11
415.9924398533
 21
361.7722580994
 31
0.0
  0
ARC
  5
16B
330
1F
100
AcDbEntity
  8
0
  6
Continuous
 62
     7
370
    25
100
AcDbCircle
 10
453.4924398533
 20
364.2722580994
 30
0.0
 40
4.000000000000057
100
AcDbArc
 50
270.0
 51
321.3178125465
  0
LINE
  5
16C
330
1F
100
AcDbEntity
  8
0
  6
Continuous
 62
     7
370
    25
100
AcDbLine
 10
410.1174398533
 20
399.9102580994
 30
0.0
 11
415.9924398533
 21
399.9102580994
 31
0.0
  0
LINE
  5
16D
330
1F
100
AcDbEntity
  8
0
  6
Continuous
 62
     7
370
    25
100
AcDbLine
 10
415.9924398533
 20
364.9102580994
 30
0.0
 11
410.1174398533
 21
364.9102580994
 31
0.0
  0
ARC
  5
16E
330
1F
100
AcDbEntity
  8
0
  6
Continuous
 62
     7
370
    25
100
AcDbCircle
 10
436.0741345581
 20
382.4102580994
 30
0.0
 40
34.99999999999999
100
AcDbArc
 50
157.975687163
 51
202.024312837
  0
ARC
  5
16F
330
1F
100
AcDbEntity
  8
0
  6
Continuous
 62
     7
370
    25
100
AcDbCircle
 10
410.1174398533
 20
392.9102580994
 30
0.0
 40
6.999999999999976
100
AcDbArc
 50
90.0
 51
157.975687163
  0
ARC
  5
170
330
1F
100
AcDbEntity
  8
0
  6
Continuous
 62
     7
370
    25
100
AcDbCircle
 10
410.1174398533
 20
371.9102580994
 30
0.0
 40
7.000000000000057
100
AcDbArc
 50
202.024312837
 51
270.0
  0
LINE
  5
171
330
1F
100
AcDbEntity
  8
0
  6
Continuous
 62
     7
370
    25
100
AcDbLine
 10
420.9924398533
 20
357.1222580994
 30
0.0
 11
420.9924398533
 21
360.2722580994
 31
0.0
  0
LINE
  5
172
330
1F
100
AcDbEntity
  8
0
  6
Continuous
 62
     7
370
    25
100
AcDbLine
 10
425.9924398533
 20
357.1222580994
 30
0.0
 11
420.9924398533
 21
357.1222580994
 31
0.0
  0
LINE
  5
173
330
1F
100
AcDbEntity
  8
0
  6
Continuous
 62
     7
370
    25
100
AcDbLine
 10
435.9924398533
 20
357.1222580994
 30
0.0
 11
425.9924398533
 21
357.1222580994
 31
0.0
  0
LINE
  5
174
330
1F
100
AcDbEntity
  8
0
  6
Continuous
 62
     7
370
    25
100
AcDbLine
 10
440.9924398533
 20
357.1222580994
 30
0.0
 11
440.9924398533
 21
360.2722580994
 31
0.0
  0
LINE
  5
175
330
1F
100
AcDbEntity
  8
0
  6
Continuous
 62
     7
370
    25
100
AcDbLine
 10
440.9924398533
 20
357.1222580994
 30
0.0
 11
435.9924398533
 21
357.1222580994
 31
0.0
  0
LINE
  5
176
330
1F
100
AcDbEntity
  8
0
  6
Continuous
 62
     7
370
    25
100
AcDbLine
 10
440.9924398533
 20
356.0222580994
 30
0.0
 11
440.9924398533
 21
357.1222580994
 31
0.0
  0
LINE
  5
177
330
1F
100
AcDbEntity
  8
0
  6
Continuous
 62
     7
370
    25
100
AcDbLine
 10
440.9924398533
 20
356.0222580994
 30
0.0
 11
420.9924398533
 21
356.0222580994
 31
0.0
  0
LINE
  5
178
330
1F
100
AcDbEntity
  8
0
  6
Continuous
 62
     7
370
    25
100
AcDbLine
 10
420.9924398533
 20
356.0222580994
 30
0.0
 11
420.9924398533
 21
357.1222580994
 31
0.0
  0
LINE
  5
179
330
1F
100
AcDbEntity
  8
0
  6
Continuous
 62
     7
370
    25
100
AcDbLine
 10
425.9924398533
 20
357.1222580994
 30
0.0
 11
425.9924398533
 21
360.2722580994
 31
0.0
  0
LINE
  5
17A
330
1F
100
AcDbEntity
  8
0
  6
Continuous
 62
     7
370
    25
100
AcDbLine
 10
435.9924398533
 20
357.1222580994
 30
0.0
 11
435.9924398533
 21
360.2722580994
 31
0.0
  0
DIMENSION
  5
17B
330
1F
100
AcDbEntity
  8
SLD-0
100
AcDbDimension
  2
_D_1
 10
383.2461178432
 20
364.9102580994
 30
0.0
 11
383.2461178432
 21
382.4102580994
 31
0.0
 70
   160
  1
<>
 71
     2
 42
-1.0
  3
SLDDIMSTYLE2
100
AcDbAlignedDimension
 13
410.1174398533
 23
399.9102580994
 33
0.0
 14
410.1174398533
 24
364.9102580994
 34
0.0
 50
90.0
100
AcDbRotatedDimension
  0
DIMENSION
  5
190
330
1F
100
AcDbEntity
  8
SLD-0
100
AcDbDimension
  2
_D_2
 10
475.167075948
 20
360.2722580994
 30
0.0
 11
475.167075948
 21
382.4102580994
 31
0.0
 70
   160
  1
<>
 71
     2
 42
-1.0
  3
SLDDIMSTYLE0
100
AcDbAlignedDimension
 13
453.4924398533
 23
404.5482580994
 33
0.0
 14
453.4924398533
 24
360.2722580994
 34
0.0
 50
90.0
100
AcDbRotatedDimension
  0
DIMENSION
  5
1A4
330
1F
100
AcDbEntity
  8
SLD-0
100
AcDbDimension
  2
_D_3
 10
501.4924398533
 20
404.5482580994
 30
0.0
 11
501.4924398533
 21
380.2852580994
 31
0.0
 70
   160
  1
<>
 71
     2
 42
-1.0
  3
SLDDIMSTYLE0
100
AcDbAlignedDimension
 13
440.9924398533
 23
356.0222580994
 33
0.0
 14
453.4924398533
 24
404.5482580994
 34
0.0
 50
90.0
100
AcDbRotatedDimension
  0
LINE
  5
1B8
330
1F
100
AcDbEntity
  8
0
  6
Continuous
 62
     7
370
    25
100
AcDbLine
 10
450.5673093182
 20
182.2804710879
 30
0.0
 11
449.8173093182
 21
182.2804710879
 31
0.0
  0
LINE
  5
1B9
330
1F
100
AcDbEntity
  8
0
  6
Continuous
 62
     7
370
    25
100
AcDbLine
 10
449.8173093182
 20
174.2804710879
 30
0.0
 11
450.5673093182
 21
174.2804710879
 31
0.0
  0
LINE
  5
1BA
330
1F
100
AcDbEntity
  8
0
  6
Continuous
 62
     7
370
    25
100
AcDbLine
 10
450.5673093182
 20
194.6554710879
 30
0.0
 11
450.5673093182
 21
155.6554710879
 31
0.0
  0
SPLINE
  5
1BB
330
1F
100
AcDbEntity
  8
0
  6
Continuous
 62
     7
370
    25
100
AcDbSpline
210
0.0
220
0.0
230
1.0
 70
    24
 71
     3
 72
    10
 73
     6
 74
     0
 42
0.00000001
 43
0.00000001
 40
0.0
 40
0.0
 40
0.0
 40
0.0
 40
0.5
 40
0.5
 40
1.0
 40
1.0
 40
1.0
 40
1.0
 10
450.567309318171
 20
194.6554710878709
 30
0.0
 10
456.612224182794
 20
194.6554710878709
 30
0.0
 10
462.6847853506317
 20
194.655471087871
 30
0.0
 10
474.8574224044227
 20
194.6554710878709
 30
0.0
 10
480.9581092438914
 20
194.655471087871
 30
0.0
 10
487.0673093181711
 20
194.6554710878709
 30
0.0
  0
SPLINE
  5
1BC
330
1F
100
AcDbEntity
  8
0
  6
Continuous
 62
     7
370
    25
100
AcDbSpline
210
0.0
220
0.0
230
1.0
 70
     8
 71
     3
 72
    24
 73
    20
 74
     0
 42
0.00000001
 43
0.00000001
 40
0.0
 40
0.0
 40
0.0
 40
0.0
 40
0.1249999999999992
 40
0.1249999999999992
 40
0.2499999999999989
 40
0.2499999999999989
 40
0.3749999999999987
 40
0.3749999999999987
 40
0.4999999999999984
 40
0.4999999999999984
 40
0.6249999999999982
 40
0.6249999999999982
 40
0.6874999999999992
 40
0.6874999999999992
 40
0.7500000000000002
 40
0.7500000000000002
 40
0.8750000000000001
 40
0.8750000000000001
 40
1.0
 40
1.0
 40
1.0
 40
1.0
 10
492.0673093181711
 20
189.655471087871
 30
0.0
 10
492.0673093181711
 20
189.9933309385669
 30
0.0
 10
492.033469140973
 20
190.3202138225704
 30
0.0
 10
491.906426511108
 20
190.9545365527223
 30
0.0
 10
491.8125504909397
 20
191.2633747203929
 30
0.0
 10
491.5684973482661
 20
191.8559197232508
 30
0.0
 10
491.4206778725606
 20
192.1347761097344
 30
0.0
 10
491.0759636049806
 20
192.6603774043188
 30
0.0
 10
490.8772659040361
 20
192.908890422401
 30
0.0
 10
490.435836917359
 20
193.364046065673
 30
0.0
 10
490.1951661946699
 20
193.5693557543496
 30
0.0
 10
489.8026633079716
 20
193.8439474225387
 30
0.0
 10
489.6665395281483
 20
193.9298745354379
 30
0.0
 10
489.3828782040631
 20
194.0899567685018
 30
0.0
 10
489.2344933146289
 20
194.1644659585213
 30
0.0
 10
488.7773507752887
 20
194.3657410469237
 30
0.0
 10
488.4577727671809
 20
194.4705743124166
 30
0.0
 10
487.7844553305692
 20
194.6157441915381
 30
0.0
 10
487.4291981548287
 20
194.655471087871
 30
0.0
 10
487.0673093181711
 20
194.6554710878709
 30
0.0
  0
LINE
  5
1BD
330
1F
100
AcDbEntity
  8
0
  6
Continuous
 62
     7
370
    25
100
AcDbLine
 10
492.0673093182
 20
189.6554710879
 30
0.0
 11
492.0673093182
 21
160.6554710879
 31
0.0
  0
SPLINE
  5
1BE
330
1F
100
AcDbEntity
  8
0
  6
Continuous
 62
     7
370
    25
100
AcDbSpline
210
0.0
220
0.0
230
1.0
 70
     8
 71
     3
 72
    22
 73
    18
 74
     0
 42
0.00000001
 43
0.00000001
 40
0.0
 40
0.0
 40
0.0
 40
0.0
 40
0.1249999999999999
 40
0.1249999999999999
 40
0.2499999999999999
 40
0.2499999999999999
 40
0.3749999999999999
 40
0.3749999999999999
 40
0.4999999999999999
 40
0.4999999999999999
 40
0.6249999999999999
 40
0.6249999999999999
 40
0.7499999999999999
 40
0.7499999999999999
 40
0.8749999999999999
 40
0.8749999999999999
 40
1.0
 40
1.0
 40
1.0
 40
1.0
 10
487.0673093181711
 20
155.655471087871
 30
0.0
 10
487.4290837976202
 20
155.655471087871
 30
0.0
 10
487.7763342593287
 20
155.6941394271719
 30
0.0
 10
488.4468607866375
 20
155.8373422020388
 30
0.0
 10
488.7728154321257
 20
155.9436852191898
 30
0.0
 10
489.3793611729342
 20
156.2097885308358
 30
0.0
 10
489.662568097123
 20
156.3695405921995
 30
0.0
 10
490.1930158547515
 20
156.7395386330612
 30
0.0
 10
490.4357988097826
 20
156.9470185487567
 30
0.0
 10
490.8748234509255
 20
157.3993725299592
 30
0.0
 10
491.0729595641449
 20
157.6462928560344
 30
0.0
 10
491.4207646630466
 20
158.1759924966741
 30
0.0
 10
491.5679429006078
 20
158.4544720335877
 30
0.0
 10
491.8094801549816
 20
159.039329004137
 30
0.0
 10
491.9040506587959
 20
159.3465444537152
 30
0.0
 10
492.0335034961655
 20
159.9889344300893
 30
0.0
 10
492.0673093181711
 20
160.3179678409711
 30
0.0
 10
492.0673093181711
 20
160.655471087871
 30
0.0
  0
SPLINE
  5
1BF
330
1F
100
AcDbEntity
  8
0
  6
Continuous
 62
     7
370
    25
100
AcDbSpline
210
0.0
220
0.0
230
1.0
 70
    24
 71
     3
 72
    10
 73
     6
 74
     0
 42
0.00000001
 43
0.00000001
 40
0.0
 40
0.0
 40
0.0
 40
0.0
 40
0.5
 40
0.5
 40
1.0
 40
1.0
 40
1.0
 40
1.0
 10
487.067309318171
 20
155.655471087871
 30
0.0
 10
480.9567652874122
 20
155.655471087871
 30
0.0
 10
474.8551815909782
 20
155.655471087871
 30
0.0
 10
462.6822436937759
 20
155.655471087871
 30
0.0
 10
456.6102501607086
 20
155.655471087871
 30
0.0
 10
450.5673093181711
 20
155.655471087871
 30
0.0
  0
LINE
  5
1C0
330
1F
100
AcDbEntity
  8
0
  6
Continuous
 62
     7
370
    25
100
AcDbLine
 10
449.8173093182
 20
178.2804710879
 30
0.0
 11
449.8173093182
 21
182.2804710879
 31
0.0
  0
LINE
  5
1C1
330
1F
100
AcDbEntity
  8
0
  6
Continuous
 62
     7
370
    25
100
AcDbLine
 10
449.8173093182
 20
174.2804710879
 30
0.0
 11
449.8173093182
 21
178.2804710879
 31
0.0
  0
LINE
  5
1C2
330
1F
100
AcDbEntity
  8
0
  6
Continuous
 62
     7
370
    25
100
AcDbLine
 10
492.0673093182
 20
189.6554710879
 30
0.0
 11
492.0673093182
 21
193.2934710879
 31
0.0
  0
LINE
  5
1C3
330
1F
100
AcDbEntity
  8
0
  6
Continuous
 62
     7
370
    25
100
AcDbLine
 10
450.5673093182
 20
195.7934710879
 30
0.0
 11
450.5673093182
 21
194.6554710879
 31
0.0
  0
LINE
  5
1C4
330
1F
100
AcDbEntity
  8
0
  6
Continuous
 62
     7
370
    25
100
AcDbLine
 10
450.5673093182
 20
195.7934710879
 30
0.0
 11
491.1898083174
 21
195.7934710879
 31
0.0
  0
ARC
  5
1C5
330
1F
100
AcDbEntity
  8
0
  6
Continuous
 62
     7
370
    25
100
AcDbCircle
 10
488.0673093182
 20
193.2934710879
 30
0.0
 40
4.0
100
AcDbArc
 50
0.0
 51
38.6821874535
  0
LINE
  5
1C6
330
1F
100
AcDbEntity
  8
0
  6
Continuous
 62
     7
370
    25
100
AcDbLine
 10
451.086271394
 20
197.2934710879
 30
0.0
 11
450.5673093182
 21
195.7934710879
 31
0.0
  0
LINE
  5
1C7
330
1F
100
AcDbEntity
  8
0
  6
Continuous
 62
     7
370
    25
100
AcDbLine
 10
451.086271394
 20
197.2934710879
 30
0.0
 11
488.0673093182
 21
197.2934710879
 31
0.0
  0
ARC
  5
1C8
330
1F
100
AcDbEntity
  8
0
  6
Continuous
 62
     7
370
    25
100
AcDbCircle
 10
488.0673093182
 20
193.2934710879
 30
0.0
 40
3.999999999999979
100
AcDbArc
 50
38.6821874535
 51
90.0
  0
LINE
  5
1C9
330
1F
100
AcDbEntity
  8
0
  6
Continuous
 62
     7
370
    25
100
AcDbLine
 10
450.5673093182
 20
154.5174710879
 30
0.0
 11
491.1898083174
 21
154.5174710879
 31
0.0
  0
LINE
  5
1CA
330
1F
100
AcDbEntity
  8
0
  6
Continuous
 62
     7
370
    25
100
AcDbLine
 10
450.5673093182
 20
154.5174710879
 30
0.0
 11
450.5673093182
 21
155.6554710879
 31
0.0
  0
LINE
  5
1CB
330
1F
100
AcDbEntity
  8
0
  6
Continuous
 62
     7
370
    25
100
AcDbLine
 10
492.0673093182
 20
160.6554710879
 30
0.0
 11
492.0673093182
 21
157.0174710879
 31
0.0
  0
ARC
  5
1CC
330
1F
100
AcDbEntity
  8
0
  6
Continuous
 62
     7
370
    25
100
AcDbCircle
 10
488.0673093182
 20
157.0174710879
 30
0.0
 40
4.0
100
AcDbArc
 50
321.3178125465
 51
0.0
  0
LINE
  5
1CD
330
1F
100
AcDbEntity
  8
0
  6
Continuous
 62
     7
370
    25
100
AcDbLine
 10
451.086271394
 20
153.0174710879
 30
0.0
 11
488.0673093182
 21
153.0174710879
 31
0.0
  0
LINE
  5
1CE
330
1F
100
AcDbEntity
  8
0
  6
Continuous
 62
     7
370
    25
100
AcDbLine
 10
451.086271394
 20
153.0174710879
 30
0.0
 11
450.5673093182
 21
154.5174710879
 31
0.0
  0
ARC
  5
1CF
330
1F
100
AcDbEntity
  8
0
  6
Continuous
 62
     7
370
    25
100
AcDbCircle
 10
488.0673093182
 20
157.0174710879
 30
0.0
 40
4.0
100
AcDbArc
 50
270.0
 51
321.3178125465
  0
LINE
  5
1D0
330
1F
100
AcDbEntity
  8
0
  6
Continuous
 62
     7
370
    25
100
AcDbLine
 10
487.3450705484
 20
142.0174710879
 30
0.0
 11
484.5673093182
 21
142.0174710879
 31
0.0
  0
LINE
  5
1D1
330
1F
100
AcDbEntity
  8
0
  6
Continuous
 62
     7
370
    25
100
AcDbLine
 10
484.5673093182
 20
142.0174710879
 30
0.0
 11
484.5673093182
 21
146.7151791159
 31
0.0
  0
LINE
  5
1D2
330
1F
100
AcDbEntity
  8
0
  6
Continuous
 62
     7
370
    25
100
AcDbLine
 10
437.7169046392
 20
160.1196385393
 30
0.0
 11
450.081155245
 21
160.1196385393
 31
0.0
  0
LINE
  5
1D3
330
1F
100
AcDbEntity
  8
0
  6
Continuous
 62
     7
370
    25
100
AcDbLine
 10
450.081155245
 20
160.1196385393
 30
0.0
 11
450.3673093182
 21
154.5174710879
 31
0.0
  0
LINE
  5
1D4
330
1F
100
AcDbEntity
  8
0
  6
Continuous
 62
     7
370
    25
100
AcDbLine
 10
450.3673093182
 20
154.5174710879
 30
0.0
 11
450.5673093182
 21
154.5174710879
 31
0.0
  0
LINE
  5
1D5
330
1F
100
AcDbEntity
  8
0
  6
Continuous
 62
     7
370
    25
100
AcDbLine
 10
486.7757484972
 20
153.0174710879
 30
0.0
 11
487.3450705484
 21
142.0174710879
 31
0.0
  0
LINE
  5
1D6
330
1F
100
AcDbEntity
  8
0
  6
Continuous
 62
     7
370
    25
100
AcDbLine
 10
484.5673093182
 20
146.7151791159
 30
0.0
 11
449.7245221054
 21
146.7151791159
 31
0.0
  0
LINE
  5
1D7
330
1F
100
AcDbEntity
  8
0
  6
Continuous
 62
     7
370
    25
100
AcDbLine
 10
438.5245221054
 20
146.7151791159
 30
0.0
 11
437.0139684568
 21
146.7151791159
 31
0.0
  0
LINE
  5
1D8
330
1F
100
AcDbEntity
  8
0
  6
Continuous
 62
     7
370
    25
100
AcDbLine
 10
437.0139684568
 20
146.7151791159
 30
0.0
 11
437.7169046392
 21
160.1196385393
 31
0.0
  0
ARC
  5
1D9
330
1F
100
AcDbEntity
  8
0
  6
Continuous
 62
     7
370
    25
100
AcDbCircle
 10
444.6923093182
 20
164.6554710879
 30
0.0
 40
7.000000000000029
100
AcDbArc
 50
202.024312837
 51
220.3891800962
  0
LINE
  5
1DA
330
1F
100
AcDbEntity
  8
0
  6
Continuous
 62
     7
370
    25
100
AcDbLine
 10
444.6923093182
 20
192.6554710879
 30
0.0
 11
450.5673093182
 21
192.6554710879
 31
0.0
  0
LINE
  5
1DB
330
1F
100
AcDbEntity
  8
0
  6
Continuous
 62
     7
370
    25
100
AcDbLine
 10
450.5673093182
 20
157.6554710879
 30
0.0
 11
450.2070228773
 21
157.6554710879
 31
0.0
  0
ARC
  5
1DC
330
1F
100
AcDbEntity
  8
0
  6
Continuous
 62
     7
370
    25
100
AcDbCircle
 10
444.6923093182
 20
185.6554710879
 30
0.0
 40
7.00000000000004
100
AcDbArc
 50
90.0
 51
157.975687163
  0
ARC
  5
1DD
330
1F
100
AcDbEntity
  8
0
  6
Continuous
 62
     7
370
    25
100
AcDbCircle
 10
470.649004023
 20
175.1554710879
 30
0.0
 40
35.0
100
AcDbArc
 50
157.975687163
 51
202.024312837
  0
LINE
  5
1DE
330
1F
100
AcDbEntity
  8
0
  6
Continuous
 62
     7
370
    25
100
AcDbLine
 10
449.7245221054
 20
153.4194710879
 30
0.0
 11
449.7245221054
 21
100.2194710879
 31
0.0
  0
ARC
  5
1DF
330
1F
100
AcDbEntity
  8
0
  6
Continuous
 62
     7
370
    25
100
AcDbCircle
 10
444.1245221054
 20
100.2194710879
 30
0.0
 40
5.600000000000023
100
AcDbArc
 50
180.0
 51
360.0
  0
LINE
  5
1E0
330
1F
100
AcDbEntity
  8
0
  6
Continuous
 62
     7
370
    25
100
AcDbLine
 10
438.5245221054
 20
100.2194710879
 30
0.0
 11
438.5245221054
 21
153.4194710879
 31
0.0
  0
ARC
  5
1E1
330
1F
100
AcDbEntity
  8
0
  6
Continuous
 62
     7
370
    25
100
AcDbCircle
 10
444.1245221054
 20
153.4194710879
 30
0.0
 40
5.60000000000008
100
AcDbArc
 50
0.0
 51
180.0
  0
LINE
  5
1E2
330
1F
100
AcDbEntity
  8
0
  6
Continuous
 62
     7
370
    25
100
AcDbLine
 10
475.8885221054
 20
92.7170073621
 30
0.0
 11
445.5716379747
 21
92.7170073621
 31
0.0
  0
LINE
  5
1E3
330
1F
100
AcDbEntity
  8
0
  6
Continuous
 62
     7
370
    25
100
AcDbLine
 10
449.7245221054
 20
107.7219348136
 30
0.0
 11
475.8885221054
 21
107.7219348136
 31
0.0
  0
ARC
  5
1E4
330
1F
100
AcDbEntity
  8
0
  6
Continuous
 62
     7
370
    25
100
AcDbCircle
 10
475.8885221054
 20
100.2194710879
 30
0.0
 40
7.502463725756527
100
AcDbArc
 50
270.0
 51
90.0
  0
ARC
  5
1E5
330
1F
100
AcDbEntity
  8
0
  6
Continuous
 62
     7
370
    25
100
AcDbCircle
 10
445.5716379747
 20
100.2194710879
 30
0.0
 40
7.502463725756527
100
AcDbArc
 50
159.9354815273
 51
270.0
  0
LINE
  5
1E6
330
1F
100
AcDbEntity
  8
SLD-0
100
AcDbLine
 10
449.7245221054
 20
153.4194710879
 30
0.0
 11
449.7245221054
 21
100.2194710879
 31
0.0
  0
LINE
  5
1E7
330
1F
100
AcDbEntity
  8
SLD-0
100
AcDbLine
 10
438.5245221054
 20
100.2194710879
 30
0.0
 11
438.5245221054
 21
153.4194710879
 31
0.0
  0
LINE
  5
1E8
330
1F
100
AcDbEntity
  8
SLD-0
  6
CENTERX2
100
AcDbLine
 10
390.9245221054
 20
159.0194710879
 30
0.0
 11
444.1245221054
 21
159.0194710879
 31
0.0
  0
LINE
  5
1E9
330
1F
100
AcDbEntity
  8
SLD-0
  6
CENTERX2
100
AcDbLine
 10
444.1245221054
 20
147.8194710879
 30
0.0
 11
390.9245221054
 21
147.8194710879
 31
0.0
  0
LINE
  5
1EA
330
1F
100
AcDbEntity
  8
SLD-0
  6
CENTERX2
100
AcDbLine
 10
398.4269848151
 20
151.9723552185
 30
0.0
 11
398.4269848151
 21
121.6554713537
 31
0.0
  0
LINE
  5
1EB
330
1F
100
AcDbEntity
  8
SLD-0
  6
CENTERX2
100
AcDbLine
 10
383.4220583796
 20
121.6554710879
 30
0.0
 11
383.4220583796
 21
151.9801645355
 31
0.0
  0
ARC
  5
1EC
330
1F
100
AcDbEntity
  8
SLD-0
  6
CENTERX2
100
AcDbCircle
 10
444.1245221054
 20
153.4194710879
 30
0.0
 40
5.599999999999994
100
AcDbArc
 50
270.0
 51
90.0
  0
ARC
  5
1ED
330
1F
100
AcDbEntity
  8
SLD-0
100
AcDbCircle
 10
444.1245221054
 20
153.4194710879
 30
0.0
 40
5.600000000000023
100
AcDbArc
 50
0.0
 51
180.0
  0
ARC
  5
1EE
330
1F
100
AcDbEntity
  8
SLD-0
  6
CENTERX2
100
AcDbCircle
 10
390.9245221054
 20
153.4194710879
 30
0.0
 40
5.599999999999994
100
AcDbArc
 50
90.0
 51
270.0
  0
ARC
  5
1EF
330
1F
100
AcDbEntity
  8
SLD-0
  6
CENTERX2
100
AcDbCircle
 10
390.924518041
 20
151.9723552185
 30
0.0
 40
7.502464741846836
100
AcDbArc
 50
360.0
 51
179.9403607933
  0
ARC
  5
1F0
330
1F
100
AcDbEntity
  8
SLD-0
  6
CENTERX2
100
AcDbCircle
 10
390.9245221054
 20
121.6554710879
 30
0.0
 40
7.502463725756518
100
AcDbArc
 50
180.0
 51
0.0000020298
  0
DIMENSION
  5
1F1
330
1F
100
AcDbEntity
  8
SLD-0
100
AcDbDimension
  2
_D_4
 10
383.4220583796
 20
217.2934710879
 30
0.0
 11
437.7446838489
 21
217.2934710879
 31
0.0
 70
   160
  1
<>
 71
     2
 42
-1.0
  3
SLDDIMSTYLE0
100
AcDbAlignedDimension
 13
492.0673093182
 23
189.6554710879
 33
0.0
 14
383.4220583796
 24
151.9801645355
 34
0.0
100
AcDbRotatedDimension
  0
DIMENSION
  5
205
330
1F
100
AcDbEntity
  8
SLD-0
100
AcDbDimension
  2
_D_5
 10
484.5673093182
 20
72.7170073621
 30
0.0
 11
441.4971470666
 21
72.7170073621
 31
0.0
 70
   160
  1
<>
 71
     2
 42
-1.0
  3
SLDDIMSTYLE0
100
AcDbAlignedDimension
 13
398.4269848151
 23
121.6554713537
 33
0.0
 14
484.5673093182
 24
142.0174710879
 34
0.0
 50
0.0
100
AcDbRotatedDimension
  0
DIMENSION
  5
219
330
1F
100
AcDbEntity
  8
SLD-0
100
AcDbDimension
  2
_D_6
 10
515.9186488767
 20
146.7151791159
 30
0.0
 11
515.9186488767
 21
172.0043251019
 31
0.0
 70
   160
  1
<>
 71
     2
 42
-1.0
  3
SLDDIMSTYLE0
100
AcDbAlignedDimension
 13
488.0673093182
 23
197.2934710879
 33
0.0
 14
484.5673093182
 24
146.7151791159
 34
0.0
 50
90.0
100
AcDbRotatedDimension
  0
DIMENSION
  5
22D
330
1F
100
AcDbEntity
  8
SLD-0
100
AcDbDimension
  2
_D_7
 10
515.9186488767
 20
107.7219348136
 30
0.0
 11
515.9186488767
 21
127.2185569647
 31
0.0
 70
   160
  1
<>
 71
     2
 42
-1.0
  3
SLDDIMSTYLE2
100
AcDbAlignedDimension
 13
484.5673093182
 23
146.7151791159
 33
0.0
 14
475.8885221054
 24
107.7219348136
 34
0.0
 50
90.0
100
AcDbRotatedDimension
  0
CIRCLE
  5
241
330
1F
100
AcDbEntity
  8
0
  6
Continuous
 62
     7
370
    25
100
AcDbCircle
 10
118.5875341112
 20
385.5352580994
 30
0.0
 40
4.0
  0
SPLINE
  5
242
330
1F
100
AcDbEntity
  8
0
  6
Continuous
 62
     7
370
    25
100
AcDbSpline
210
0.0
220
0.0
230
1.0
 70
     8
 71
     3
 72
    22
 73
    18
 74
     0
 42
0.00000001
 43
0.00000001
 40
0.0
 40
0.0
 40
0.0
 40
0.0
 40
0.1249999999999999
 40
0.1249999999999999
 40
0.2499999999999999
 40
0.2499999999999999
 40
0.3749999999999999
 40
0.3749999999999999
 40
0.4999999999999999
 40
0.4999999999999999
 40
0.6249999999999999
 40
0.6249999999999999
 40
0.7499999999999999
 40
0.7499999999999999
 40
0.8749999999999999
 40
0.8749999999999999
 40
1.0
 40
1.0
 40
1.0
 40
1.0
 10
53.24731585393658
 20
401.9102580993537
 30
0.0
 10
53.16150690518044
 20
401.9102580993537
 30
0.0
 10
53.05216185332529
 20
401.8715897600527
 30
0.0
 10
52.79557772148555
 20
401.7283869851859
 30
0.0
 10
52.64653111334709
 20
401.6220439680349
 30
0.0
 10
52.32765152239803
 20
401.3559406563888
 30
0.0
 10
52.15717360486537
 20
401.1961885950251
 30
0.0
 10
51.7988163888111
 20
400.8261905541635
 30
0.0
 10
51.61377458051193
 20
400.6187106384679
 30
0.0
 10
51.24019979969384
 20
400.1663566572655
 30
0.0
 10
51.04999389945434
 20
399.9194363311902
 30
0.0
 10
50.67046412317051
 20
399.3897366905505
 30
0.0
 10
50.48410994582192
 20
399.1112571536369
 30
0.0
 10
50.11966841131975
 20
398.5264001830877
 30
0.0
 10
49.94110662443806
 20
398.2191847335095
 30
0.0
 10
49.59584142431397
 20
397.5767947571354
 30
0.0
 10
49.43238410043909
 20
397.2477613462535
 30
0.0
 10
49.27875749744739
 20
396.9102580993537
 30
0.0
  0
SPLINE
  5
243
330
1F
100
AcDbEntity
  8
0
  6
Continuous
 62
     7
370
    25
100
AcDbSpline
210
0.0
220
0.0
230
1.0
 70
    24
 71
     3
 72
    10
 73
     6
 74
     0
 42
0.00000001
 43
0.00000001
 40
0.0
 40
0.0
 40
0.0
 40
0.0
 40
0.5
 40
0.5
 40
1.0
 40
1.0
 40
1.0
 40
1.0
 10
53.24731585393658
 20
401.9102580993537
 30
0.0
 10
54.69667004941674
 20
401.9102580993537
 30
0.0
 10
56.17962837410924
 20
401.9102580993537
 30
0.0
 10
59.25891533330083
 20
401.9102580993537
 30
0.0
 10
60.85284626650819
 20
401.9102580993537
 30
0.0
 10
62.55573411260951
 20
401.9102580993537
 30
0.0
  0
ARC
  5
244
330
1F
100
AcDbEntity
  8
0
  6
Continuous
 62
     7
370
    25
100
AcDbCircle
 10
81.1338983698
 20
382.4102580994
 30
0.0
 40
26.93321717078468
100
AcDbArc
 50
133.6131951532
 51
226.3868048468
  0
SPLINE
  5
245
330
1F
100
AcDbEntity
  8
0
  6
Continuous
 62
     7
370
    25
100
AcDbSpline
210
0.0
220
0.0
230
1.0
 70
    24
 71
     3
 72
    10
 73
     6
 74
     0
 42
0.00000001
 43
0.00000001
 40
0.0
 40
0.0
 40
0.0
 40
0.0
 40
0.5
 40
0.5
 40
1.0
 40
1.0
 40
1.0
 40
1.0
 10
62.55573411260954
 20
362.9102580993537
 30
0.0
 10
60.85228999129308
 20
362.9102580993537
 30
0.0
 10
59.25825610651734
 20
362.9102580993537
 30
0.0
 10
56.17907782551625
 20
362.9102580993537
 30
0.0
 10
54.69635127764253
 20
362.9102580993537
 30
0.0
 10
53.24731585393656
 20
362.9102580993537
 30
0.0
  0
SPLINE
  5
246
330
1F
100
AcDbEntity
  8
0
  6
Continuous
 62
     7
370
    25
100
AcDbSpline
210
0.0
220
0.0
230
1.0
 70
     8
 71
     3
 72
    24
 73
    20
 74
     0
 42
0.00000001
 43
0.00000001
 40
0.0
 40
0.0
 40
0.0
 40
0.0
 40
0.1249999999999992
 40
0.1249999999999992
 40
0.2499999999999989
 40
0.2499999999999989
 40
0.3749999999999987
 40
0.3749999999999987
 40
0.4999999999999984
 40
0.4999999999999984
 40
0.6249999999999982
 40
0.6249999999999982
 40
0.6874999999999992
 40
0.6874999999999992
 40
0.7500000000000002
 40
0.7500000000000002
 40
0.8750000000000001
 40
0.8750000000000001
 40
1.0
 40
1.0
 40
1.0
 40
1.0
 10
49.27875749744739
 20
367.9102580993537
 30
0.0
 10
49.43254642133621
 20
367.5723982486577
 30
0.0
 10
49.59503959492847
 20
367.2455153646543
 30
0.0
 10
49.93564715006941
 20
366.6111926345023
 30
0.0
 10
50.11466666766205
 20
366.3023544668317
 30
0.0
 10
50.4836370286415
 20
365.7098094639738
 30
0.0
 10
50.67041367428065
 20
365.4309530774902
 30
0.0
 10
51.04685978127844
 20
364.9053517829058
 30
0.0
 10
51.23803920085325
 20
364.6568387648237
 30
0.0
 10
51.61382396010855
 20
364.2016831215516
 30
0.0
 10
51.79706116093769
 20
363.996373432875
 30
0.0
 10
52.062675154183
 20
363.7217817646859
 30
0.0
 10
52.14965993139364
 20
363.6358546517867
 30
0.0
 10
52.31993674685917
 20
363.4757724187228
 30
0.0
 10
52.40366460801821
 20
363.4012632287034
 30
0.0
 10
52.64443484886772
 20
363.1999881403009
 30
0.0
 10
52.79094222048117
 20
363.095154874808
 30
0.0
 10
53.0495013356695
 20
362.9499849956865
 30
0.0
 10
53.16147978090169
 20
362.9102580993537
 30
0.0
 10
53.24731585393656
 20
362.9102580993537
 30
0.0
  0
ARC
  5
247
330
1F
100
AcDbEntity
  8
0
  6
Continuous
 62
     7
370
    25
100
AcDbCircle
 10
81.1338983698
 20
382.4102580994
 30
0.0
 40
35.00000000000003
100
AcDbArc
 50
155.5256574372
 51
204.4743425628
  0
ARC
  5
248
330
1F
100
AcDbEntity
  8
0
  6
Continuous
 62
     7
370
    25
100
AcDbCircle
 10
263.8411698525
 20
382.4102580994
 30
0.0
 40
26.93321717078472
100
AcDbArc
 50
313.6131951532
 51
46.3868048468
  0
CIRCLE
  5
249
330
1F
100
AcDbEntity
  8
0
  6
Continuous
 62
     7
370
    25
100
AcDbCircle
 10
108.585657459
 20
385.3887288853
 30
0.0
 40
1.0
  0
LINE
  5
24A
330
1F
100
AcDbEntity
  8
0
  6
Continuous
 62
     7
370
    25
100
AcDbLine
 10
237.6675341112
 20
370.5502580994
 30
0.0
 11
253.9675341112
 21
370.5502580994
 31
0.0
  0
LINE
  5
24B
330
1F
100
AcDbEntity
  8
0
  6
Continuous
 62
     7
370
    25
100
AcDbLine
 10
253.9675341112
 20
370.5502580994
 30
0.0
 11
253.9675341112
 21
387.7502580994
 31
0.0
  0
LINE
  5
24C
330
1F
100
AcDbEntity
  8
0
  6
Continuous
 62
     7
370
    25
100
AcDbLine
 10
253.9675341112
 20
387.7502580994
 30
0.0
 11
237.6675341112
 21
387.7502580994
 31
0.0
  0
LINE
  5
24D
330
1F
100
AcDbEntity
  8
0
  6
Continuous
 62
     7
370
    25
100
AcDbLine
 10
237.6675341112
 20
387.7502580994
 30
0.0
 11
237.6675341112
 21
370.5502580994
 31
0.0
  0
LINE
  5
24E
330
1F
100
AcDbEntity
  8
0
  6
Continuous
 62
     7
370
    25
100
AcDbLine
 10
62.5557341126
 20
401.9102580994
 30
0.0
 11
282.4193341097
 21
401.9102580994
 31
0.0
  0
LINE
  5
24F
330
1F
100
AcDbEntity
  8
0
  6
Continuous
 62
     7
370
    25
100
AcDbLine
 10
282.4193341097
 20
362.9102580994
 30
0.0
 11
62.5557341126
 21
362.9102580994
 31
0.0
  0
LINE
  5
250
330
1F
100
AcDbEntity
  8
0
  6
Continuous
 62
     7
370
    25
100
AcDbLine
 10
253.8175341112
 20
370.9002580994
 30
0.0
 11
253.8175341112
 21
387.4002580994
 31
0.0
  0
LINE
  5
251
330
1F
100
AcDbEntity
  8
0
  6
Continuous
 62
     7
370
    25
100
AcDbLine
 10
237.8175341112
 20
370.9002580994
 30
0.0
 11
253.8175341112
 21
370.9002580994
 31
0.0
  0
LINE
  5
252
330
1F
100
AcDbEntity
  8
0
  6
Continuous
 62
     7
370
    25
100
AcDbLine
 10
239.2925341112
 20
375.9002580994
 30
0.0
 11
252.2925341112
 21
375.9002580994
 31
0.0
  0
LINE
  5
253
330
1F
100
AcDbEntity
  8
0
  6
Continuous
 62
     7
370
    25
100
AcDbLine
 10
252.2925341112
 20
375.9002580994
 30
0.0
 11
252.2925341112
 21
384.4002580994
 31
0.0
  0
LINE
  5
254
330
1F
100
AcDbEntity
  8
0
  6
Continuous
 62
     7
370
    25
100
AcDbLine
 10
252.2925341112
 20
384.4002580994
 30
0.0
 11
248.7925341112
 21
384.4002580994
 31
0.0
  0
LINE
  5
255
330
1F
100
AcDbEntity
  8
0
  6
Continuous
 62
     7
370
    25
100
AcDbLine
 10
248.7925341112
 20
384.4002580994
 30
0.0
 11
248.7925341112
 21
385.4002580994
 31
0.0
  0
LINE
  5
256
330
1F
100
AcDbEntity
  8
0
  6
Continuous
 62
     7
370
    25
100
AcDbLine
 10
248.7925341112
 20
385.4002580994
 30
0.0
 11
247.612320211
 21
385.4002580994
 31
0.0
  0
LINE
  5
257
330
1F
100
AcDbEntity
  8
0
  6
Continuous
 62
     7
370
    25
100
AcDbLine
 10
247.612320211
 20
385.4002580994
 30
0.0
 11
247.612320211
 21
386.4002580994
 31
0.0
  0
LINE
  5
258
330
1F
100
AcDbEntity
  8
0
  6
Continuous
 62
     7
370
    25
100
AcDbLine
 10
247.612320211
 20
386.4002580994
 30
0.0
 11
243.7925341112
 21
386.4002580994
 31
0.0
  0
LINE
  5
259
330
1F
100
AcDbEntity
  8
0
  6
Continuous
 62
     7
370
    25
100
AcDbLine
 10
243.7925341112
 20
386.4002580994
 30
0.0
 11
243.7925341112
 21
385.4002580994
 31
0.0
  0
LINE
  5
25A
330
1F
100
AcDbEntity
  8
0
  6
Continuous
 62
     7
370
    25
100
AcDbLine
 10
243.7925341112
 20
385.4002580994
 30
0.0
 11
242.7925341112
 21
385.4002580994
 31
0.0
  0
LINE
  5
25B
330
1F
100
AcDbEntity
  8
0
  6
Continuous
 62
     7
370
    25
100
AcDbLine
 10
242.7925341112
 20
385.4002580994
 30
0.0
 11
242.7925341112
 21
384.4002580994
 31
0.0
  0
LINE
  5
25C
330
1F
100
AcDbEntity
  8
0
  6
Continuous
 62
     7
370
    25
100
AcDbLine
 10
242.7925341112
 20
384.4002580994
 30
0.0
 11
239.2925341112
 21
384.4002580994
 31
0.0
  0
LINE
  5
25D
330
1F
100
AcDbEntity
  8
0
  6
Continuous
 62
     7
370
    25
100
AcDbLine
 10
239.2925341112
 20
384.4002580994
 30
0.0
 11
239.2925341112
 21
375.9002580994
 31
0.0
  0
LINE
  5
25E
330
1F
100
AcDbEntity
  8
0
  6
Continuous
 62
     7
370
    25
100
AcDbLine
 10
253.8175341112
 20
387.4002580994
 30
0.0
 11
237.8175341112
 21
387.4002580994
 31
0.0
  0
LINE
  5
25F
330
1F
100
AcDbEntity
  8
0
  6
Continuous
 62
     7
370
    25
100
AcDbLine
 10
237.8175341112
 20
387.4002580994
 30
0.0
 11
237.8175341112
 21
370.9002580994
 31
0.0
  0
SPLINE
  5
260
330
1F
100
AcDbEntity
  8
0
  6
Continuous
 62
     7
370
    25
100
AcDbSpline
210
0.0
220
0.0
230
1.0
 70
     8
 71
     3
 72
    24
 73
    20
 74
     0
 42
0.00000001
 43
0.00000001
 40
0.0
 40
0.0
 40
0.0
 40
0.0
 40
0.1249999999999992
 40
0.1249999999999992
 40
0.2499999999999989
 40
0.2499999999999989
 40
0.3749999999999987
 40
0.3749999999999987
 40
0.4999999999999984
 40
0.4999999999999984
 40
0.6249999999999982
 40
0.6249999999999982
 40
0.6874999999999992
 40
0.6874999999999992
 40
0.7500000000000002
 40
0.7500000000000002
 40
0.8750000000000001
 40
0.8750000000000001
 40
1.0
 40
1.0
 40
1.0
 40
1.0
 10
295.6963107248988
 20
396.9102580993537
 30
0.0
 10
295.54252180101
 20
397.2481179500497
 30
0.0
 10
295.3800286274177
 20
397.5750008340531
 30
0.0
 10
295.0394210722768
 20
398.209323564205
 30
0.0
 10
294.8604015546841
 20
398.5181617318756
 30
0.0
 10
294.4914311937047
 20
399.1107067347335
 30
0.0
 10
294.3046545480655
 20
399.3895631212171
 30
0.0
 10
293.9282084410677
 20
399.9151644158015
 30
0.0
 10
293.737029021493
 20
400.1636774338837
 30
0.0
 10
293.3612442622376
 20
400.6188330771557
 30
0.0
 10
293.1780070614085
 20
400.8241427658323
 30
0.0
 10
292.9123930681632
 20
401.0987344340214
 30
0.0
 10
292.8254082909526
 20
401.1846615469206
 30
0.0
 10
292.6551314754871
 20
401.3447437799845
 30
0.0
 10
292.571403614328
 20
401.419252970004
 30
0.0
 10
292.3306333734785
 20
401.6205280584064
 30
0.0
 10
292.184126001865
 20
401.7253613238993
 30
0.0
 10
291.9255668866767
 20
401.8705312030208
 30
0.0
 10
291.8135884414445
 20
401.9102580993537
 30
0.0
 10
291.7277523684097
 20
401.9102580993537
 30
0.0
  0
ARC
  5
261
330
1F
100
AcDbEntity
  8
0
  6
Continuous
 62
     7
370
    25
100
AcDbCircle
 10
263.8411698525
 20
382.4102580994
 30
0.0
 40
34.99999999999997
100
AcDbArc
 50
335.5256574372
 51
24.4743425628
  0
SPLINE
  5
262
330
1F
100
AcDbEntity
  8
0
  6
Continuous
 62
     7
370
    25
100
AcDbSpline
210
0.0
220
0.0
230
1.0
 70
     8
 71
     3
 72
    22
 73
    18
 74
     0
 42
0.00000001
 43
0.00000001
 40
0.0
 40
0.0
 40
0.0
 40
0.0
 40
0.1249999999999999
 40
0.1249999999999999
 40
0.2499999999999999
 40
0.2499999999999999
 40
0.3749999999999999
 40
0.3749999999999999
 40
0.4999999999999999
 40
0.4999999999999999
 40
0.6249999999999999
 40
0.6249999999999999
 40
0.7499999999999999
 40
0.7499999999999999
 40
0.8749999999999999
 40
0.8749999999999999
 40
1.0
 40
1.0
 40
1.0
 40
1.0
 10
291.7277523684097
 20
362.9102580993537
 30
0.0
 10
291.8135613171657
 20
362.9102580993537
 30
0.0
 10
291.9229063690209
 20
362.9489264386546
 30
0.0
 10
292.1794905008607
 20
363.0921292135214
 30
0.0
 10
292.3285371089991
 20
363.1984722306725
 30
0.0
 10
292.6474166999482
 20
363.4645755423185
 30
0.0
 10
292.8178946174808
 20
363.6243276036822
 30
0.0
 10
293.176251833535
 20
363.9943256445439
 30
0.0
 10
293.3612936418343
 20
364.2018055602394
 30
0.0
 10
293.7348684226523
 20
364.6541595414419
 30
0.0
 10
293.9250743228918
 20
364.9010798675171
 30
0.0
 10
294.3046040991757
 20
365.4307795081568
 30
0.0
 10
294.4909582765243
 20
365.7092590450704
 30
0.0
 10
294.8553998110264
 20
366.2941160156197
 30
0.0
 10
295.0339615979081
 20
366.6013314651979
 30
0.0
 10
295.3792267980322
 20
367.243721441572
 30
0.0
 10
295.5426841219071
 20
367.5727548524538
 30
0.0
 10
295.6963107248988
 20
367.9102580993537
 30
0.0
  0
SPLINE
  5
263
330
1F
100
AcDbEntity
  8
0
  6
Continuous
 62
     7
370
    25
100
AcDbSpline
210
0.0
220
0.0
230
1.0
 70
    24
 71
     3
 72
    10
 73
     6
 74
     0
 42
0.00000001
 43
0.00000001
 40
0.0
 40
0.0
 40
0.0
 40
0.0
 40
0.5
 40
0.5
 40
1.0
 40
1.0
 40
1.0
 40
1.0
 10
282.4193341097367
 20
401.9102580993537
 30
0.0
 10
284.1227782310531
 20
401.9102580993537
 30
0.0
 10
285.7168121158288
 20
401.9102580993537
 30
0.0
 10
288.7959903968299
 20
401.9102580993537
 30
0.0
 10
290.2787169447037
 20
401.9102580993537
 30
0.0
 10
291.7277523684097
 20
401.9102580993537
 30
0.0
  0
SPLINE
  5
264
330
1F
100
AcDbEntity
  8
0
  6
Continuous
 62
     7
370
    25
100
AcDbSpline
210
0.0
220
0.0
230
1.0
 70
    24
 71
     3
 72
    10
 73
     6
 74
     0
 42
0.00000001
 43
0.00000001
 40
0.0
 40
0.0
 40
0.0
 40
0.0
 40
0.5
 40
0.5
 40
1.0
 40
1.0
 40
1.0
 40
1.0
 10
291.7277523684097
 20
362.9102580993537
 30
0.0
 10
290.2783981729294
 20
362.9102580993537
 30
0.0
 10
288.795439848237
 20
362.9102580993537
 30
0.0
 10
285.7161528890454
 20
362.9102580993537
 30
0.0
 10
284.122221955838
 20
362.9102580993537
 30
0.0
 10
282.4193341097367
 20
362.9102580993537
 30
0.0
  0
LINE
  5
265
330
1F
100
AcDbEntity
  8
0
  6
Continuous
 62
     7
370
    25
100
AcDbLine
 10
64.3875341112
 20
403.0482580994
 30
0.0
 11
53.2801808559
 21
403.0482580994
 31
0.0
  0
ELLIPSE
  5
266
330
1F
100
AcDbEntity
  8
0
  6
Continuous
 62
     7
370
    25
100
AcDbEllipse
 10
53.1339614031
 20
400.5482580994
 30
0.0
 11
1.700683749018104
 21
3.980236214541208
 31
0.0
210
0.0
220
0.0
230
1.0
 40
0.2335174701
 41
0.0994486858577829
 42
0.9951134797156546
  0
LINE
  5
267
330
1F
100
AcDbEntity
  8
0
  6
Continuous
 62
     7
370
    25
100
AcDbLine
 10
64.8456350344
 20
404.5482580994
 30
0.0
 11
54.7339614031
 21
404.5482580994
 31
0.0
  0
LINE
  5
268
330
1F
100
AcDbEntity
  8
0
  6
Continuous
 62
     7
370
    25
100
AcDbLine
 10
64.3875341112
 20
403.0482580994
 30
0.0
 11
64.8456350344
 21
404.5482580994
 31
0.0
  0
LINE
  5
269
330
1F
100
AcDbEntity
  8
0
  6
Continuous
 62
     7
370
    25
100
AcDbLine
 10
64.3875341112
 20
401.9102580994
 30
0.0
 11
64.3875341112
 21
403.0482580994
 31
0.0
  0
ELLIPSE
  5
26A
330
1F
100
AcDbEntity
  8
0
  6
Continuous
 62
     7
370
    25
100
AcDbEllipse
 10
54.1339614031
 20
400.5482580994
 30
0.0
 11
-1.421085471520200E-14
 21
4.0
 31
0.0
210
0.0
220
0.0
230
1.0
 40
0.2734286055
 41
0.895664793857862
 42
1.234051106685152
  0
LINE
  5
26B
330
1F
100
AcDbEntity
  8
0
  6
Continuous
 62
     7
370
    25
100
AcDbLine
 10
64.3875341112
 20
403.0482580994
 30
0.0
 11
280.5875341112
 21
403.0482580994
 31
0.0
  0
LINE
  5
26C
330
1F
100
AcDbEntity
  8
0
  6
Continuous
 62
     7
370
    25
100
AcDbLine
 10
64.8456350344
 20
404.5482580994
 30
0.0
 11
280.1294331879
 21
404.5482580994
 31
0.0
  0
LINE
  5
26D
330
1F
100
AcDbEntity
  8
0
  6
Continuous
 62
     7
370
    25
100
AcDbLine
 10
280.1294331879
 20
404.5482580994
 30
0.0
 11
280.5875341112
 21
403.0482580994
 31
0.0
  0
LINE
  5
26E
330
1F
100
AcDbEntity
  8
0
  6
Continuous
 62
     7
370
    25
100
AcDbLine
 10
280.5875341112
 20
403.0482580994
 30
0.0
 11
280.5875341112
 21
401.9102580994
 31
0.0
  0
LINE
  5
26F
330
1F
100
AcDbEntity
  8
0
  6
Continuous
 62
     7
370
    25
100
AcDbLine
 10
64.3875341112
 20
401.9102580994
 30
0.0
 11
280.5875341112
 21
401.9102580994
 31
0.0
  0
LINE
  5
270
330
1F
100
AcDbEntity
  8
0
  6
Continuous
 62
     7
370
    25
100
AcDbLine
 10
280.5875341112
 20
403.0482580994
 30
0.0
 11
291.6948873665
 21
403.0482580994
 31
0.0
  0
LINE
  5
271
330
1F
100
AcDbEntity
  8
0
  6
Continuous
 62
     7
370
    25
100
AcDbLine
 10
280.1294331879
 20
404.5482580994
 30
0.0
 11
290.2411068193
 21
404.5482580994
 31
0.0
  0
ELLIPSE
  5
272
330
1F
100
AcDbEntity
  8
0
  6
Continuous
 62
     7
370
    25
100
AcDbEllipse
 10
291.8411068193
 20
400.5482580994
 30
0.0
 11
-1.700683749018083
 21
3.980236214541208
 31
0.0
210
0.0
220
0.0
230
1.0
 40
0.2335174701
 41
5.288071827463973
 42
6.18373662132185
  0
ELLIPSE
  5
273
330
1F
100
AcDbEntity
  8
0
  6
Continuous
 62
     7
370
    25
100
AcDbEllipse
 10
290.8411068193
 20
400.5482580994
 30
0.0
 11
0.0
 21
4.0
 31
0.0
210
0.0
220
0.0
230
1.0
 40
0.2734286055
 41
5.055134926095711
 42
5.387520513321752
  0
LINE
  5
274
330
1F
100
AcDbEntity
  8
0
  6
Continuous
 62
     7
370
    25
100
AcDbLine
 10
64.3875341112
 20
362.9102580994
 30
0.0
 11
64.3875341112
 21
361.7722580994
 31
0.0
  0
LINE
  5
275
330
1F
100
AcDbEntity
  8
0
  6
Continuous
 62
     7
370
    25
100
AcDbLine
 10
64.3875341112
 20
361.7722580994
 30
0.0
 11
53.2801808559
 21
361.7722580994
 31
0.0
  0
ELLIPSE
  5
276
330
1F
100
AcDbEntity
  8
0
  6
Continuous
 62
     7
370
    25
100
AcDbEllipse
 10
54.1339614031
 20
364.2722580994
 30
0.0
 11
1.421085471520200E-14
 21
4.0
 31
0.0
210
0.0
220
0.0
230
1.0
 40
0.2734286055
 41
1.916615499555183
 42
2.24592785973195
  0
LINE
  5
277
330
1F
100
AcDbEntity
  8
0
  6
Continuous
 62
     7
370
    25
100
AcDbLine
 10
64.8456350344
 20
360.2722580994
 30
0.0
 11
54.7339614031
 21
360.2722580994
 31
0.0
  0
ELLIPSE
  5
278
330
1F
100
AcDbEntity
  8
0
  6
Continuous
 62
     7
370
    25
100
AcDbEllipse
 10
53.1339614031
 20
364.2722580994
 30
0.0
 11
-1.700683749018111
 21
3.98023621454115
 31
0.0
210
0.0
220
0.0
230
1.0
 40
0.2335174701
 41
2.146479173874119
 42
3.042143967731959
  0
LINE
  5
279
330
1F
100
AcDbEntity
  8
0
  6
Continuous
 62
     7
370
    25
100
AcDbLine
 10
64.3875341112
 20
361.7722580994
 30
0.0
 11
64.8456350344
 21
360.2722580994
 31
0.0
  0
LINE
  5
27A
330
1F
100
AcDbEntity
  8
0
  6
Continuous
 62
     7
370
    25
100
AcDbLine
 10
233.4875341112
 20
361.7722580994
 30
0.0
 11
280.5875341112
 21
361.7722580994
 31
0.0
  0
LINE
  5
27B
330
1F
100
AcDbEntity
  8
0
  6
Continuous
 62
     7
370
    25
100
AcDbLine
 10
233.4875341112
 20
361.7722580994
 30
0.0
 11
111.4875341112
 21
361.7722580994
 31
0.0
  0
LINE
  5
27C
330
1F
100
AcDbEntity
  8
0
  6
Continuous
 62
     7
370
    25
100
AcDbLine
 10
64.3875341112
 20
361.7722580994
 30
0.0
 11
111.4875341112
 21
361.7722580994
 31
0.0
  0
LINE
  5
27D
330
1F
100
AcDbEntity
  8
0
  6
Continuous
 62
     7
370
    25
100
AcDbLine
 10
280.5875341112
 20
361.7722580994
 30
0.0
 11
280.5875341112
 21
362.9102580994
 31
0.0
  0
LINE
  5
27E
330
1F
100
AcDbEntity
  8
0
  6
Continuous
 62
     7
370
    25
100
AcDbLine
 10
64.3875341112
 20
362.9102580994
 30
0.0
 11
280.5875341112
 21
362.9102580994
 31
0.0
  0
LINE
  5
27F
330
1F
100
AcDbEntity
  8
0
  6
Continuous
 62
     7
370
    25
100
AcDbLine
 10
111.4875341112
 20
360.2722580994
 30
0.0
 11
111.4875341112
 21
361.7722580994
 31
0.0
  0
LINE
  5
280
330
1F
100
AcDbEntity
  8
0
  6
Continuous
 62
     7
370
    25
100
AcDbLine
 10
64.8456350344
 20
360.2722580994
 30
0.0
 11
111.4875341112
 21
360.2722580994
 31
0.0
  0
LINE
  5
281
330
1F
100
AcDbEntity
  8
0
  6
Continuous
 62
     7
370
    25
100
AcDbLine
 10
280.1294331879
 20
360.2722580994
 30
0.0
 11
280.5875341112
 21
361.7722580994
 31
0.0
  0
LINE
  5
282
330
1F
100
AcDbEntity
  8
0
  6
Continuous
 62
     7
370
    25
100
AcDbLine
 10
233.4875341112
 20
360.2722580994
 30
0.0
 11
280.1294331879
 21
360.2722580994
 31
0.0
  0
LINE
  5
283
330
1F
100
AcDbEntity
  8
0
  6
Continuous
 62
     7
370
    25
100
AcDbLine
 10
233.4875341112
 20
361.7722580994
 30
0.0
 11
233.4875341112
 21
360.2722580994
 31
0.0
  0
LINE
  5
284
330
1F
100
AcDbEntity
  8
0
  6
Continuous
 62
     7
370
    25
100
AcDbLine
 10
280.1294331879
 20
360.2722580994
 30
0.0
 11
290.2411068193
 21
360.2722580994
 31
0.0
  0
LINE
  5
285
330
1F
100
AcDbEntity
  8
0
  6
Continuous
 62
     7
370
    25
100
AcDbLine
 10
280.5875341112
 20
361.7722580994
 30
0.0
 11
291.6948873665
 21
361.7722580994
 31
0.0
  0
ELLIPSE
  5
286
330
1F
100
AcDbEntity
  8
0
  6
Continuous
 62
     7
370
    25
100
AcDbEllipse
 10
291.8411068193
 20
364.2722580994
 30
0.0
 11
1.70068374901814
 21
3.980236214541152
 31
0.0
210
0.0
220
0.0
230
1.0
 40
0.2335174701
 41
3.241041339447742
 42
4.13670613330547
  0
ELLIPSE
  5
287
330
1F
100
AcDbEntity
  8
0
  6
Continuous
 62
     7
370
    25
100
AcDbEllipse
 10
290.8411068193
 20
364.2722580994
 30
0.0
 11
0.0
 21
4.0
 31
0.0
210
0.0
220
0.0
230
1.0
 40
0.2734286055
 41
4.037257447447661
 42
4.377734404167932
  0
LINE
  5
288
330
1F
100
AcDbEntity
  8
0
  6
Continuous
 62
     7
370
    25
100
AcDbLine
 10
111.4875341112
 20
360.2722580994
 30
0.0
 11
134.9875341112
 21
360.2722580994
 31
0.0
  0
LINE
  5
289
330
1F
100
AcDbEntity
  8
0
  6
Continuous
 62
     7
370
    25
100
AcDbLine
 10
209.9875341112
 20
360.2722580994
 30
0.0
 11
233.4875341112
 21
360.2722580994
 31
0.0
  0
LINE
  5
28A
330
1F
100
AcDbEntity
  8
0
  6
Continuous
 62
     7
370
    25
100
AcDbLine
 10
68.8875341112
 20
369.2852580994
 30
0.0
 11
68.8875341112
 21
395.5352580994
 31
0.0
  0
LINE
  5
28B
330
1F
100
AcDbEntity
  8
0
  6
Continuous
 62
     7
370
    25
100
AcDbLine
 10
105.0875341112
 20
369.2852580994
 30
0.0
 11
105.0875341112
 21
395.5352580994
 31
0.0
  0
LINE
  5
28C
330
1F
100
AcDbEntity
  8
0
  6
Continuous
 62
     7
370
    25
100
AcDbLine
 10
68.8875341112
 20
364.9102580994
 30
0.0
 11
105.0875341112
 21
364.9102580994
 31
0.0
  0
LINE
  5
28D
330
1F
100
AcDbEntity
  8
0
  6
Continuous
 62
     7
370
    25
100
AcDbLine
 10
105.0875341112
 20
364.9102580994
 30
0.0
 11
105.0875341112
 21
369.2852580994
 31
0.0
  0
LINE
  5
28E
330
1F
100
AcDbEntity
  8
0
  6
Continuous
 62
     7
370
    25
100
AcDbLine
 10
68.8875341112
 20
364.9102580994
 30
0.0
 11
68.8875341112
 21
369.2852580994
 31
0.0
  0
LINE
  5
28F
330
1F
100
AcDbEntity
  8
0
  6
Continuous
 62
     7
370
    25
100
AcDbLine
 10
68.8875341112
 20
399.9102580994
 30
0.0
 11
105.0875341112
 21
399.9102580994
 31
0.0
  0
LINE
  5
290
330
1F
100
AcDbEntity
  8
0
  6
Continuous
 62
     7
370
    25
100
AcDbLine
 10
105.0875341112
 20
395.5352580994
 30
0.0
 11
105.0875341112
 21
399.9102580994
 31
0.0
  0
LINE
  5
291
330
1F
100
AcDbEntity
  8
0
  6
Continuous
 62
     7
370
    25
100
AcDbLine
 10
68.8875341112
 20
395.5352580994
 30
0.0
 11
68.8875341112
 21
399.9102580994
 31
0.0
  0
LINE
  5
292
330
1F
100
AcDbEntity
  8
0
  6
Continuous
 62
     7
370
    25
100
AcDbLine
 10
139.9875341112
 20
357.1222580994
 30
0.0
 11
134.9875341112
 21
357.1222580994
 31
0.0
  0
LINE
  5
293
330
1F
100
AcDbEntity
  8
0
  6
Continuous
 62
     7
370
    25
100
AcDbLine
 10
134.9875341112
 20
357.1222580994
 30
0.0
 11
134.9875341112
 21
361.7722580994
 31
0.0
  0
LINE
  5
294
330
1F
100
AcDbEntity
  8
0
  6
Continuous
 62
     7
370
    25
100
AcDbLine
 10
204.9875341112
 20
357.1222580994
 30
0.0
 11
139.9875341112
 21
357.1222580994
 31
0.0
  0
LINE
  5
295
330
1F
100
AcDbEntity
  8
0
  6
Continuous
 62
     7
370
    25
100
AcDbLine
 10
209.9875341112
 20
357.1222580994
 30
0.0
 11
209.9875341112
 21
361.7722580994
 31
0.0
  0
LINE
  5
296
330
1F
100
AcDbEntity
  8
0
  6
Continuous
 62
     7
370
    25
100
AcDbLine
 10
209.9875341112
 20
357.1222580994
 30
0.0
 11
204.9875341112
 21
357.1222580994
 31
0.0
  0
LINE
  5
297
330
1F
100
AcDbEntity
  8
0
  6
Continuous
 62
     7
370
    25
100
AcDbLine
 10
192.4875341112
 20
356.0222580994
 30
0.0
 11
192.4875341112
 21
357.1222580994
 31
0.0
  0
LINE
  5
298
330
1F
100
AcDbEntity
  8
0
  6
Continuous
 62
     7
370
    25
100
AcDbLine
 10
192.4875341112
 20
356.0222580994
 30
0.0
 11
152.4875341112
 21
356.0222580994
 31
0.0
  0
LINE
  5
299
330
1F
100
AcDbEntity
  8
0
  6
Continuous
 62
     7
370
    25
100
AcDbLine
 10
152.4875341112
 20
356.0222580994
 30
0.0
 11
152.4875341112
 21
357.1222580994
 31
0.0
  0
LINE
  5
29A
330
1F
100
AcDbEntity
  8
0
  6
Continuous
 62
     7
370
    25
100
AcDbLine
 10
192.4875341112
 20
357.1222580994
 30
0.0
 11
152.4875341112
 21
357.1222580994
 31
0.0
  0
LINE
  5
29B
330
1F
100
AcDbEntity
  8
0
  6
Continuous
 62
     7
370
    25
100
AcDbLine
 10
68.8875341112
 20
369.2852580994
 30
0.0
 11
105.0875341112
 21
369.2852580994
 31
0.0
  0
LINE
  5
29C
330
1F
100
AcDbEntity
  8
0
  6
Continuous
 62
     7
370
    25
100
AcDbLine
 10
68.8875341112
 20
395.5352580994
 30
0.0
 11
105.0875341112
 21
395.5352580994
 31
0.0
  0
LINE
  5
29D
330
1F
100
AcDbEntity
  8
0
  6
Continuous
 62
     7
370
    25
100
AcDbLine
 10
139.9875341112
 20
357.1222580994
 30
0.0
 11
139.9875341112
 21
361.7722580994
 31
0.0
  0
LINE
  5
29E
330
1F
100
AcDbEntity
  8
0
  6
Continuous
 62
     7
370
    25
100
AcDbLine
 10
204.9875341112
 20
357.1222580994
 30
0.0
 11
204.9875341112
 21
361.7722580994
 31
0.0
  0
MTEXT
  5
29F
330
1F
100
AcDbEntity
  8
SLD-0
100
AcDbMText
 10
148.0702732085
 20
427.6903432986
 30
0.0
 40
4.7625
 41
0.0
 71
     1
 72
     1
  1
ID
  7
SLDTEXTSTYLE0
 73
     1
 44
1.0
  0
LEADER
  5
2A6
330
1F
100
AcDbEntity
  8
SLD-0
100
AcDbLeader
  3
SLDDIMSTYLE3
 76
     3
 10
119.190047626
 20
385.9641586852
 30
0.0
 10
142.8632478632
 20
425.3649736118
 30
0.0
 10
146.8632478632
 20
425.3649736118
 30
0.0
  0
MTEXT
  5
2A7
330
1F
100
AcDbEntity
  8
SLD-0
100
AcDbMText
 10
65.7181903606
 20
427.6903432986
 30
0.0
 40
4.7625
 41
0.0
 71
     1
 72
     1
  1
RESET
  7
SLDTEXTSTYLE0
 73
     1
 44
1.0
  0
LEADER
  5
2A8
330
1F
100
AcDbEntity
  8
SLD-0
100
AcDbLeader
  3
SLDDIMSTYLE1
 76
     3
 10
108.4326490807
 20
386.3769537768
 30
0.0
 10
87.1042248945
 20
425.3649736118
 30
0.0
 10
83.1042248945
 20
425.3649736118
 30
0.0
  0
MTEXT
  5
2A9
330
1F
100
AcDbEntity
  8
SLD-0
100
AcDbMText
 10
265.8374347722
 20
427.6903432986
 30
0.0
 40
4.7625
 41
0.0
 71
     1
 72
     1
  1
LAN/POE
  7
SLDTEXTSTYLE0
 73
     1
 44
1.0
  0
LEADER
  5
2AA
330
1F
100
AcDbEntity
  8
SLD-0
100
AcDbLeader
  3
SLDDIMSTYLE1
 76
     3
 10
245.9399082429
 20
387.7502580994
 30
0.0
 10
260.811965812
 20
425.3649736118
 30
0.0
 10
264.811965812
 20
425.3649736118
 30
0.0
  0
LINE
  5
2AB
330
1F
100
AcDbEntity
  8
0
  6
Continuous
 62
     7
370
    25
100
AcDbLine
 10
291.3695475103
 20
112.0779424131
 30
0.0
 11
299.4363303395
 21
153.5779424131
 31
0.0
  0
LINE
  5
2AC
330
1F
100
AcDbEntity
  8
0
  6
Continuous
 62
     7
370
    25
100
AcDbLine
 10
46.7290588568
 20
153.5779424131
 30
0.0
 11
54.7958416861
 21
112.0779424131
 31
0.0
  0
LINE
  5
2AD
330
1F
100
AcDbEntity
  8
0
  6
Continuous
 62
     7
370
    25
100
AcDbLine
 10
240.4826945982
 20
97.1596371179
 30
0.0
 11
276.6826945982
 21
97.1596371179
 31
0.0
  0
LINE
  5
2AE
330
1F
100
AcDbEntity
  8
0
  6
Continuous
 62
     7
370
    25
100
AcDbLine
 10
233.0826945982
 20
144.9016189261
 30
0.0
 11
113.0826945982
 21
144.9016189261
 31
0.0
  0
LINE
  5
2AF
330
1F
100
AcDbEntity
  8
0
  6
Continuous
 62
     7
370
    25
100
AcDbLine
 10
113.0826945982
 20
99.5798073439
 30
0.0
 11
233.0826945982
 21
99.5798073439
 31
0.0
  0
LINE
  5
2B0
330
1F
100
AcDbEntity
  8
0
  6
Continuous
 62
     7
370
    25
100
AcDbLine
 10
63.1508945996
 20
112.0779424131
 30
0.0
 11
64.9826945982
 21
112.0779424131
 31
0.0
  0
LINE
  5
2B1
330
1F
100
AcDbEntity
  8
0
  6
Continuous
 62
     7
370
    25
100
AcDbLine
 10
281.1826945982
 20
112.0779424131
 30
0.0
 11
283.0144945967
 21
112.0779424131
 31
0.0
  0
SPLINE
  5
2B2
330
1F
100
AcDbEntity
  8
0
  6
Continuous
 62
     7
370
    25
100
AcDbSpline
210
0.0
220
0.0
230
1.0
 70
     8
 71
     3
 72
    10
 73
     6
 74
     0
 42
0.00000001
 43
0.00000001
 40
0.0
 40
0.0
 40
0.0
 40
0.0
 40
0.5
 40
0.5
 40
1.0
 40
1.0
 40
1.0
 40
1.0
 10
53.84247634093109
 20
148.5779424131018
 30
0.0
 10
55.29183053641123
 20
142.467398382343
 30
0.0
 10
56.77478886110375
 20
136.365814685909
 30
0.0
 10
59.85407582029532
 20
124.1928767887067
 30
0.0
 10
61.44800675350266
 20
118.1208832556394
 30
0.0
 10
63.150894599604
 20
112.0779424131018
 30
0.0
  0
SPLINE
  5
2B3
330
1F
100
AcDbEntity
  8
0
  6
Continuous
 62
     7
370
    25
100
AcDbSpline
210
0.0
220
0.0
230
1.0
 70
     8
 71
     3
 72
    10
 73
     6
 74
     0
 42
0.00000001
 43
0.00000001
 40
0.0
 40
0.0
 40
0.0
 40
0.0
 40
0.5
 40
0.5
 40
1.0
 40
1.0
 40
1.0
 40
1.0
 10
283.0144945967312
 20
112.0779424131018
 30
0.0
 10
284.7179387180476
 20
118.1228572777247
 30
0.0
 10
286.3119726028233
 20
124.1954184455625
 30
0.0
 10
289.3911508838244
 20
136.3680554993533
 30
0.0
 10
290.8738774316982
 20
142.4687423388222
 30
0.0
 10
292.3229128554041
 20
148.5779424131018
 30
0.0
  0
LINE
  5
2B4
330
1F
100
AcDbEntity
  8
0
  6
Continuous
 62
     7
370
    25
100
AcDbLine
 10
283.0144945967
 20
112.0779424131
 30
0.0
 11
291.3695475103
 21
112.0779424131
 31
0.0
  0
SPLINE
  5
2B5
330
1F
100
AcDbEntity
  8
0
  6
Continuous
 62
     7
370
    25
100
AcDbSpline
210
0.0
220
0.0
230
1.0
 70
     8
 71
     3
 72
    24
 73
    20
 74
     0
 42
0.00000001
 43
0.00000001
 40
0.0
 40
0.0
 40
0.0
 40
0.0
 40
0.1249999999999992
 40
0.1249999999999992
 40
0.2499999999999989
 40
0.2499999999999989
 40
0.3749999999999987
 40
0.3749999999999987
 40
0.4999999999999984
 40
0.4999999999999984
 40
0.6249999999999982
 40
0.6249999999999982
 40
0.6874999999999992
 40
0.6874999999999992
 40
0.7500000000000002
 40
0.7500000000000002
 40
0.8750000000000001
 40
0.8750000000000001
 40
1.0
 40
1.0
 40
1.0
 40
1.0
 10
296.2914712118933
 20
153.5779424131018
 30
0.0
 10
296.1376822880045
 20
153.5779424131018
 30
0.0
 10
295.9751891144122
 20
153.5441022359037
 30
0.0
 10
295.6345815592713
 20
153.4170596060388
 30
0.0
 10
295.4555620416787
 20
153.3231835858704
 30
0.0
 10
295.0865916806992
 20
153.0791304431968
 30
0.0
 10
294.8998150350601
 20
152.9313109674914
 30
0.0
 10
294.5233689280623
 20
152.5865966999114
 30
0.0
 10
294.3321895084874
 20
152.3878989989668
 30
0.0
 10
293.9564047492321
 20
151.9464700122898
 30
0.0
 10
293.773167548403
 20
151.7057992896007
 30
0.0
 10
293.5075535551577
 20
151.3132964029024
 30
0.0
 10
293.4205687779471
 20
151.1771726230791
 30
0.0
 10
293.2502919624815
 20
150.8935112989939
 30
0.0
 10
293.1665641013225
 20
150.7451264095597
 30
0.0
 10
292.925793860473
 20
150.2879838702194
 30
0.0
 10
292.7792864888596
 20
149.9684058621117
 30
0.0
 10
292.5207273736712
 20
149.2950884255
 30
0.0
 10
292.408748928439
 20
148.9398312497594
 30
0.0
 10
292.3229128554041
 20
148.5779424131018
 30
0.0
  0
LINE
  5
2B6
330
1F
100
AcDbEntity
  8
0
  6
Continuous
 62
     7
370
    25
100
AcDbLine
 10
296.2914712119
 20
153.5779424131
 30
0.0
 11
299.4363303395
 21
153.5779424131
 31
0.0
  0
LINE
  5
2B7
330
1F
100
AcDbEntity
  8
0
  6
Continuous
 62
     7
370
    25
100
AcDbLine
 10
46.7290588568
 20
153.5779424131
 30
0.0
 11
49.8739179844
 21
153.5779424131
 31
0.0
  0
SPLINE
  5
2B8
330
1F
100
AcDbEntity
  8
0
  6
Continuous
 62
     7
370
    25
100
AcDbSpline
210
0.0
220
0.0
230
1.0
 70
     8
 71
     3
 72
    22
 73
    18
 74
     0
 42
0.00000001
 43
0.00000001
 40
0.0
 40
0.0
 40
0.0
 40
0.0
 40
0.1249999999999999
 40
0.1249999999999999
 40
0.2499999999999999
 40
0.2499999999999999
 40
0.3749999999999999
 40
0.3749999999999999
 40
0.4999999999999999
 40
0.4999999999999999
 40
0.6249999999999999
 40
0.6249999999999999
 40
0.7499999999999999
 40
0.7499999999999999
 40
0.8749999999999999
 40
0.8749999999999999
 40
1.0
 40
1.0
 40
1.0
 40
1.0
 10
53.84247634093109
 20
148.5779424131018
 30
0.0
 10
53.75666739217495
 20
148.939716892551
 30
0.0
 10
53.6473223403198
 20
149.2869673542595
 30
0.0
 10
53.39073820848006
 20
149.9574938815683
 30
0.0
 10
53.2416916003416
 20
150.2834485270564
 30
0.0
 10
52.92281200939254
 20
150.8899942678649
 30
0.0
 10
52.75233409185988
 20
151.1732011920538
 30
0.0
 10
52.39397687580562
 20
151.7036489496822
 30
0.0
 10
52.20893506750645
 20
151.9464319047133
 30
0.0
 10
51.83536028668835
 20
152.3854565458562
 30
0.0
 10
51.64515438644884
 20
152.5835926590756
 30
0.0
 10
51.26562461016503
 20
152.9313977579774
 30
0.0
 10
51.07927043281643
 20
153.0785759955385
 30
0.0
 10
50.71482889831426
 20
153.3201132499124
 30
0.0
 10
50.53626711143257
 20
153.4146837537267
 30
0.0
 10
50.19100191130848
 20
153.5441365910962
 30
0.0
 10
50.02754458743361
 20
153.5779424131018
 30
0.0
 10
49.87391798444191
 20
153.5779424131018
 30
0.0
  0
LINE
  5
2B9
330
1F
100
AcDbEntity
  8
0
  6
Continuous
 62
     7
370
    25
100
AcDbLine
 10
54.7958416861
 20
112.0779424131
 30
0.0
 11
63.1508945996
 21
112.0779424131
 31
0.0
  0
LINE
  5
2BA
330
1F
100
AcDbEntity
  8
0
  6
Continuous
 62
     7
370
    25
100
AcDbLine
 10
49.8739179844
 20
153.5779424131
 30
0.0
 11
53.6354074679
 21
153.5779424131
 31
0.0
  0
LINE
  5
2BB
330
1F
100
AcDbEntity
  8
0
  6
Continuous
 62
     7
370
    25
100
AcDbLine
 10
292.5299817285
 20
153.5779424131
 30
0.0
 11
296.2914712119
 21
153.5779424131
 31
0.0
  0
LINE
  5
2BC
330
1F
100
AcDbEntity
  8
0
  6
Continuous
 62
     7
370
    25
100
AcDbLine
 10
280.7245936749
 20
112.596904489
 30
0.0
 11
290.8362673063
 21
149.5779424131
 31
0.0
  0
ELLIPSE
  5
2BD
330
1F
100
AcDbEntity
  8
0
  6
Continuous
 62
     7
370
    25
100
AcDbEllipse
 10
292.4362673063
 20
149.5779424131
 30
0.0
 11
1.273534496398781
 21
3.972485423620554
 31
0.0
210
0.0
220
0.0
230
1.0
 40
0.3677626067
 41
0.7924903378866696
 42
1.688155131744556
  0
LINE
  5
2BE
330
1F
100
AcDbEntity
  8
0
  6
Continuous
 62
     7
370
    25
100
AcDbLine
 10
281.1826945982
 20
112.0779424131
 30
0.0
 11
292.2900478535
 21
152.7004414123
 31
0.0
  0
LINE
  5
2BF
330
1F
100
AcDbEntity
  8
0
  6
Continuous
 62
     7
370
    25
100
AcDbLine
 10
281.1826945982
 20
112.0779424131
 30
0.0
 11
280.7245936749
 21
112.596904489
 31
0.0
  0
LINE
  5
2C0
330
1F
100
AcDbEntity
  8
0
  6
Continuous
 62
     7
370
    25
100
AcDbLine
 10
281.1826945982
 20
112.0779424131
 30
0.0
 11
234.0826945982
 21
112.0779424131
 31
0.0
  0
LINE
  5
2C1
330
1F
100
AcDbEntity
  8
0
  6
Continuous
 62
     7
370
    25
100
AcDbLine
 10
234.0826945982
 20
112.596904489
 30
0.0
 11
234.0826945982
 21
112.0779424131
 31
0.0
  0
LINE
  5
2C2
330
1F
100
AcDbEntity
  8
0
  6
Continuous
 62
     7
370
    25
100
AcDbLine
 10
280.7245936749
 20
112.596904489
 30
0.0
 11
234.0826945982
 21
112.596904489
 31
0.0
  0
LINE
  5
2C3
330
1F
100
AcDbEntity
  8
0
  6
Continuous
 62
     7
370
    25
100
AcDbLine
 10
65.4407955214
 20
112.596904489
 30
0.0
 11
55.3291218901
 21
149.5779424131
 31
0.0
  0
LINE
  5
2C4
330
1F
100
AcDbEntity
  8
0
  6
Continuous
 62
     7
370
    25
100
AcDbLine
 10
290.8362673063
 20
149.5779424131
 30
0.0
 11
55.3291218901
 21
149.5779424131
 31
0.0
  0
LINE
  5
2C5
330
1F
100
AcDbEntity
  8
0
  6
Continuous
 62
     7
370
    25
100
AcDbLine
 10
234.0826945982
 20
149.0779424131
 30
0.0
 11
234.0826945982
 21
112.596904489
 31
0.0
  0
LINE
  5
2C6
330
1F
100
AcDbEntity
  8
0
  6
Continuous
 62
     7
370
    25
100
AcDbLine
 10
234.0826945982
 20
149.0779424131
 30
0.0
 11
112.0826945982
 21
149.0779424131
 31
0.0
  0
LINE
  5
2C7
330
1F
100
AcDbEntity
  8
0
  6
Continuous
 62
     7
370
    25
100
AcDbLine
 10
112.0826945982
 20
149.0779424131
 30
0.0
 11
112.0826945982
 21
112.596904489
 31
0.0
  0
LINE
  5
2C8
330
1F
100
AcDbEntity
  8
0
  6
Continuous
 62
     7
370
    25
100
AcDbLine
 10
112.0826945982
 20
112.596904489
 30
0.0
 11
65.4407955214
 21
112.596904489
 31
0.0
  0
LINE
  5
2C9
330
1F
100
AcDbEntity
  8
0
  6
Continuous
 62
     7
370
    25
100
AcDbLine
 10
65.4407955214
 20
112.596904489
 30
0.0
 11
64.9826945982
 21
112.0779424131
 31
0.0
  0
LINE
  5
2CA
330
1F
100
AcDbEntity
  8
0
  6
Continuous
 62
     7
370
    25
100
AcDbLine
 10
112.0826945982
 20
112.0779424131
 30
0.0
 11
112.0826945982
 21
112.596904489
 31
0.0
  0
LINE
  5
2CB
330
1F
100
AcDbEntity
  8
0
  6
Continuous
 62
     7
370
    25
100
AcDbLine
 10
112.0826945982
 20
112.0779424131
 30
0.0
 11
64.9826945982
 21
112.0779424131
 31
0.0
  0
LINE
  5
2CC
330
1F
100
AcDbEntity
  8
0
  6
Continuous
 62
     7
370
    25
100
AcDbLine
 10
64.9826945982
 20
112.0779424131
 30
0.0
 11
53.8753413429
 21
152.7004414123
 31
0.0
  0
ELLIPSE
  5
2CD
330
1F
100
AcDbEntity
  8
0
  6
Continuous
 62
     7
370
    25
100
AcDbEllipse
 10
53.7291218901
 20
149.5779424131
 30
0.0
 11
-1.273534496398746
 21
3.972485423620555
 31
0.0
210
0.0
220
0.0
230
1.0
 40
0.3677626067
 41
4.595030175435042
 42
5.490694969292916
  0
LINE
  5
2CE
330
1F
100
AcDbEntity
  8
0
  6
Continuous
 62
     7
370
    25
100
AcDbLine
 10
292.5299817285
 20
153.5779424131
 30
0.0
 11
53.6354074679
 21
153.5779424131
 31
0.0
  0
LINE
  5
2CF
330
1F
100
AcDbEntity
  8
0
  6
Continuous
 62
     7
370
    25
100
AcDbLine
 10
292.2900478535
 20
152.7004414123
 30
0.0
 11
292.5299817285
 21
153.5779424131
 31
0.0
  0
LINE
  5
2D0
330
1F
100
AcDbEntity
  8
0
  6
Continuous
 62
     7
370
    25
100
AcDbLine
 10
53.6354074679
 20
153.5779424131
 30
0.0
 11
53.8753413429
 21
152.7004414123
 31
0.0
  0
LINE
  5
2D1
330
1F
100
AcDbEntity
  8
0
  6
Continuous
 62
     7
370
    25
100
AcDbLine
 10
112.0826945982
 20
112.0779424131
 30
0.0
 11
113.0826945982
 21
112.0779424131
 31
0.0
  0
LINE
  5
2D2
330
1F
100
AcDbEntity
  8
0
  6
Continuous
 62
     7
370
    25
100
AcDbLine
 10
233.0826945982
 20
112.0779424131
 30
0.0
 11
234.0826945982
 21
112.0779424131
 31
0.0
  0
LINE
  5
2D3
330
1F
100
AcDbEntity
  8
0
  6
Continuous
 62
     7
370
    25
100
AcDbLine
 10
233.0826945982
 20
148.8557036433
 30
0.0
 11
113.0826945982
 21
148.8557036433
 31
0.0
  0
LINE
  5
2D4
330
1F
100
AcDbEntity
  8
0
  6
Continuous
 62
     7
370
    25
100
AcDbLine
 10
233.0826945982
 20
146.0779424131
 30
0.0
 11
113.0826945982
 21
146.0779424131
 31
0.0
  0
LINE
  5
2D5
330
1F
100
AcDbEntity
  8
0
  6
Continuous
 62
     7
370
    25
100
AcDbLine
 10
113.0826945982
 20
148.8557036433
 30
0.0
 11
113.0826945982
 21
146.0779424131
 31
0.0
  0
LINE
  5
2D6
330
1F
100
AcDbEntity
  8
0
  6
Continuous
 62
     7
370
    25
100
AcDbLine
 10
233.0826945982
 20
148.8557036433
 30
0.0
 11
233.0826945982
 21
146.0779424131
 31
0.0
  0
LINE
  5
2D7
330
1F
100
AcDbEntity
  8
0
  6
Continuous
 62
     7
370
    25
100
AcDbLine
 10
233.0826945982
 20
98.5246015517
 30
0.0
 11
113.0826945982
 21
98.5246015517
 31
0.0
  0
LINE
  5
2D8
330
1F
100
AcDbEntity
  8
0
  6
Continuous
 62
     7
370
    25
100
AcDbLine
 10
113.0826945982
 20
146.0779424131
 30
0.0
 11
113.0826945982
 21
144.9016189261
 31
0.0
  0
LINE
  5
2D9
330
1F
100
AcDbEntity
  8
0
  6
Continuous
 62
     7
370
    25
100
AcDbLine
 10
113.0826945982
 20
99.5798073439
 30
0.0
 11
113.0826945982
 21
98.5246015517
 31
0.0
  0
LINE
  5
2DA
330
1F
100
AcDbEntity
  8
0
  6
Continuous
 62
     7
370
    25
100
AcDbLine
 10
233.0826945982
 20
146.0779424131
 30
0.0
 11
233.0826945982
 21
144.9016189261
 31
0.0
  0
LINE
  5
2DB
330
1F
100
AcDbEntity
  8
0
  6
Continuous
 62
     7
370
    25
100
AcDbLine
 10
233.0826945982
 20
99.5798073439
 30
0.0
 11
233.0826945982
 21
98.5246015517
 31
0.0
  0
LINE
  5
2DC
330
1F
100
AcDbEntity
  8
0
  6
Continuous
 62
     7
370
    25
100
AcDbLine
 10
276.6826945982
 20
106.2029424131
 30
0.0
 11
240.4826945982
 21
106.2029424131
 31
0.0
  0
LINE
  5
2DD
330
1F
100
AcDbEntity
  8
0
  6
Continuous
 62
     7
370
    25
100
AcDbLine
 10
276.6826945982
 20
99.7137687369
 30
0.0
 11
240.4826945982
 21
99.7137687369
 31
0.0
  0
LINE
  5
2DE
330
1F
100
AcDbEntity
  8
0
  6
Continuous
 62
     7
370
    25
100
AcDbLine
 10
240.4826945982
 20
106.2029424131
 30
0.0
 11
240.4826945982
 21
99.7137687369
 31
0.0
  0
LINE
  5
2DF
330
1F
100
AcDbEntity
  8
0
  6
Continuous
 62
     7
370
    25
100
AcDbLine
 10
276.6826945982
 20
106.2029424131
 30
0.0
 11
276.6826945982
 21
99.7137687369
 31
0.0
  0
LINE
  5
2E0
330
1F
100
AcDbEntity
  8
0
  6
Continuous
 62
     7
370
    25
100
AcDbLine
 10
240.4826945982
 20
112.0779424131
 30
0.0
 11
240.4826945982
 21
106.2029424131
 31
0.0
  0
LINE
  5
2E1
330
1F
100
AcDbEntity
  8
0
  6
Continuous
 62
     7
370
    25
100
AcDbLine
 10
276.6826945982
 20
112.0779424131
 30
0.0
 11
276.6826945982
 21
106.2029424131
 31
0.0
  0
LINE
  5
2E2
330
1F
100
AcDbEntity
  8
0
  6
Continuous
 62
     7
370
    25
100
AcDbLine
 10
240.4826945982
 20
99.7137687369
 30
0.0
 11
240.4826945982
 21
97.1596371179
 31
0.0
  0
LINE
  5
2E3
330
1F
100
AcDbEntity
  8
0
  6
Continuous
 62
     7
370
    25
100
AcDbLine
 10
276.6826945982
 20
99.7137687369
 30
0.0
 11
276.6826945982
 21
97.1596371179
 31
0.0
  0
LINE
  5
2E4
330
1F
100
AcDbEntity
  8
0
  6
Continuous
 62
     7
370
    25
100
AcDbLine
 10
108.7826945982
 20
100.0351552003
 30
0.0
 11
113.0826945982
 21
100.0351552003
 31
0.0
  0
LINE
  5
2E5
330
1F
100
AcDbEntity
  8
0
  6
Continuous
 62
     7
370
    25
100
AcDbLine
 10
108.7826945982
 20
111.2351552003
 30
0.0
 11
113.0826945982
 21
111.2351552003
 31
0.0
  0
LINE
  5
2E6
330
1F
100
AcDbEntity
  8
0
  6
Continuous
 62
     7
370
    25
100
AcDbLine
 10
108.7826945982
 20
111.2351552003
 30
0.0
 11
108.7826945982
 21
100.0351552003
 31
0.0
  0
LINE
  5
2E7
330
1F
100
AcDbEntity
  8
0
  6
Continuous
 62
     7
370
    25
100
AcDbLine
 10
237.3826945982
 20
111.2351552003
 30
0.0
 11
233.0826945982
 21
111.2351552003
 31
0.0
  0
LINE
  5
2E8
330
1F
100
AcDbEntity
  8
0
  6
Continuous
 62
     7
370
    25
100
AcDbLine
 10
237.3826945982
 20
111.2351552003
 30
0.0
 11
237.3826945982
 21
100.0351552003
 31
0.0
  0
LINE
  5
2E9
330
1F
100
AcDbEntity
  8
0
  6
Continuous
 62
     7
370
    25
100
AcDbLine
 10
237.3826945982
 20
100.0351552003
 30
0.0
 11
233.0826945982
 21
100.0351552003
 31
0.0
  0
LINE
  5
2EA
330
1F
100
AcDbEntity
  8
0
  6
Continuous
 62
     7
370
    25
100
AcDbLine
 10
233.0826945982
 20
137.3991552003
 30
0.0
 11
113.0826945982
 21
137.3991552003
 31
0.0
  0
LINE
  5
2EB
330
1F
100
AcDbEntity
  8
0
  6
Continuous
 62
     7
370
    25
100
AcDbLine
 10
233.0826945982
 20
107.0822710697
 30
0.0
 11
113.0826945982
 21
107.0822710697
 31
0.0
  0
SPLINE
  5
2EC
330
1F
100
AcDbEntity
  8
0
  6
Continuous
 62
     7
370
    25
100
AcDbSpline
210
0.0
220
0.0
230
1.0
 70
    11
 71
     3
 72
    62
 73
    58
 74
     0
 42
0.00000001
 43
0.00000001
 40
0.0
 40
0.0
 40
0.0
 40
0.0
 40
0.0624999999999997
 40
0.0624999999999997
 40
0.0937499999999994
 40
0.0937499999999994
 40
0.1249999999999992
 40
0.1249999999999992
 40
0.156249999999999
 40
0.156249999999999
 40
0.1874999999999988
 40
0.1874999999999988
 40
0.2187499999999986
 40
0.2187499999999986
 40
0.2499999999999983
 40
0.2499999999999983
 40
0.2812499999999981
 40
0.2812499999999981
 40
0.3124999999999979
 40
0.3124999999999979
 40
0.3437499999999977
 40
0.3437499999999977
 40
0.3749999999999974
 40
0.3749999999999974
 40
0.4062499999999972
 40
0.4062499999999972
 40
0.437499999999997
 40
0.437499999999997
 40
0.4999999999999968
 40
0.4999999999999968
 40
0.562499999999997
 40
0.562499999999997
 40
0.593749999999997
 40
0.593749999999997
 40
0.6249999999999973
 40
0.6249999999999973
 40
0.6562499999999976
 40
0.6562499999999976
 40
0.6874999999999979
 40
0.6874999999999979
 40
0.7187499999999981
 40
0.7187499999999981
 40
0.7499999999999984
 40
0.7499999999999984
 40
0.7812499999999987
 40
0.7812499999999987
 40
0.812499999999999
 40
0.812499999999999
 40
0.8437499999999992
 40
0.8437499999999992
 40
0.8749999999999996
 40
0.8749999999999996
 40
0.9062499999999998
 40
0.9062499999999998
 40
0.9374999999999999
 40
0.9374999999999999
 40
1.0
 40
1.0
 40
1.0
 40
1.0
 10
143.5826945981676
 20
124.449271069679
 30
0.0
 10
143.5826945981676
 20
124.9076044030124
 30
0.0
 10
143.5269612648343
 20
125.426071069679
 30
0.0
 10
143.2805612648343
 20
126.270871069679
 30
0.0
 10
143.1709410316987
 20
126.5631245393588
 30
0.0
 10
142.8820886140747
 20
127.1556423191004
 30
0.0
 10
142.7026945981676
 20
127.4559377363457
 30
0.0
 10
142.2626945981676
 20
128.0426044030124
 30
0.0
 10
142.0018789354417
 20
128.3288920116944
 30
0.0
 10
141.3963869732223
 20
128.8573213605404
 30
0.0
 10
141.0515527296555
 20
129.0992133995522
 30
0.0
 10
140.290307054915
 20
129.5052110927471
 30
0.0
 10
139.8739372017179
 20
129.668955487825
 30
0.0
 10
138.9991443023096
 20
129.8911251130716
 30
0.0
 10
138.5410279315009
 20
129.949271069679
 30
0.0
 10
137.6243612648343
 20
129.949271069679
 30
0.0
 10
137.1662448940256
 20
129.8911251130716
 30
0.0
 10
136.2914519946173
 20
129.668955487825
 30
0.0
 10
135.8750821414202
 20
129.5052110927471
 30
0.0
 10
135.1138364666797
 20
129.0992133995522
 30
0.0
 10
134.7690022231129
 20
128.8573213605403
 30
0.0
 10
134.1635102608936
 20
128.3288920116944
 30
0.0
 10
133.9026945981676
 20
128.0426044030123
 30
0.0
 10
133.4626945981676
 20
127.4559377363457
 30
0.0
 10
133.2833005822605
 20
127.1556423191004
 30
0.0
 10
132.9944481646365
 20
126.5631245393588
 30
0.0
 10
132.8848279315009
 20
126.270871069679
 30
0.0
 10
132.6384279315009
 20
125.426071069679
 30
0.0
 10
132.5826945981676
 20
124.9076044030124
 30
0.0
 10
132.5826945981676
 20
123.9909377363457
 30
0.0
 10
132.6384279315009
 20
123.472471069679
 30
0.0
 10
132.8848279315009
 20
122.627671069679
 30
0.0
 10
132.9944481646365
 20
122.3354175999993
 30
0.0
 10
133.2833005822605
 20
121.7428998202577
 30
0.0
 10
133.4626945981676
 20
121.4426044030124
 30
0.0
 10
133.9026945981676
 20
120.8559377363457
 30
0.0
 10
134.1635102608936
 20
120.5696501276636
 30
0.0
 10
134.7690022231129
 20
120.0412207788177
 30
0.0
 10
135.1138364666797
 20
119.7993287398059
 30
0.0
 10
135.8750821414202
 20
119.393331046611
 30
0.0
 10
136.2914519946173
 20
119.2295866515331
 30
0.0
 10
137.1662448940256
 20
119.0074170262865
 30
0.0
 10
137.6243612648342
 20
118.949271069679
 30
0.0
 10
138.5410279315009
 20
118.949271069679
 30
0.0
 10
138.9991443023096
 20
119.0074170262865
 30
0.0
 10
139.8739372017179
 20
119.2295866515331
 30
0.0
 10
140.290307054915
 20
119.393331046611
 30
0.0
 10
141.0515527296555
 20
119.7993287398059
 30
0.0
 10
141.3963869732223
 20
120.0412207788177
 30
0.0
 10
142.0018789354417
 20
120.5696501276637
 30
0.0
 10
142.2626945981676
 20
120.8559377363457
 30
0.0
 10
142.7026945981676
 20
121.4426044030124
 30
0.0
 10
142.8820886140747
 20
121.7428998202577
 30
0.0
 10
143.1709410316987
 20
122.3354175999993
 30
0.0
 10
143.2805612648342
 20
122.627671069679
 30
0.0
 10
143.5269612648343
 20
123.472471069679
 30
0.0
 10
143.5826945981676
 20
123.9909377363457
 30
0.0
 10
143.5826945981676
 20
124.449271069679
 30
0.0
  0
SPLINE
  5
2ED
330
1F
100
AcDbEntity
  8
0
  6
Continuous
 62
     7
370
    25
100
AcDbSpline
210
0.0
220
0.0
230
1.0
 70
    11
 71
     3
 72
    62
 73
    58
 74
     0
 42
0.00000001
 43
0.00000001
 40
0.0
 40
0.0
 40
0.0
 40
0.0
 40
0.0624999999999998
 40
0.0624999999999998
 40
0.0937499999999996
 40
0.0937499999999996
 40
0.1249999999999993
 40
0.1249999999999993
 40
0.1562499999999991
 40
0.1562499999999991
 40
0.1874999999999989
 40
0.1874999999999989
 40
0.2187499999999987
 40
0.2187499999999987
 40
0.2499999999999984
 40
0.2499999999999984
 40
0.2812499999999982
 40
0.2812499999999982
 40
0.312499999999998
 40
0.312499999999998
 40
0.3437499999999978
 40
0.3437499999999978
 40
0.3749999999999976
 40
0.3749999999999976
 40
0.4062499999999973
 40
0.4062499999999973
 40
0.4374999999999971
 40
0.4374999999999971
 40
0.4999999999999966
 40
0.4999999999999966
 40
0.5624999999999964
 40
0.5624999999999964
 40
0.5937499999999964
 40
0.5937499999999964
 40
0.6249999999999968
 40
0.6249999999999968
 40
0.6562499999999971
 40
0.6562499999999971
 40
0.6874999999999974
 40
0.6874999999999974
 40
0.7187499999999978
 40
0.7187499999999978
 40
0.7499999999999981
 40
0.7499999999999981
 40
0.7812499999999984
 40
0.7812499999999984
 40
0.8124999999999988
 40
0.8124999999999988
 40
0.8437499999999991
 40
0.8437499999999991
 40
0.8749999999999994
 40
0.8749999999999994
 40
0.9062499999999998
 40
0.9062499999999998
 40
0.9374999999999998
 40
0.9374999999999998
 40
1.0
 40
1.0
 40
1.0
 40
1.0
 10
213.5826945981676
 20
124.449271069679
 30
0.0
 10
213.5826945981676
 20
124.9076044030124
 30
0.0
 10
213.5269612648343
 20
125.426071069679
 30
0.0
 10
213.2805612648343
 20
126.270871069679
 30
0.0
 10
213.1709410316987
 20
126.5631245393588
 30
0.0
 10
212.8820886140747
 20
127.1556423191004
 30
0.0
 10
212.7026945981676
 20
127.4559377363457
 30
0.0
 10
212.2626945981676
 20
128.0426044030124
 30
0.0
 10
212.0018789354417
 20
128.3288920116944
 30
0.0
 10
211.3963869732223
 20
128.8573213605404
 30
0.0
 10
211.0515527296555
 20
129.0992133995522
 30
0.0
 10
210.290307054915
 20
129.5052110927471
 30
0.0
 10
209.8739372017179
 20
129.668955487825
 30
0.0
 10
208.9991443023096
 20
129.8911251130716
 30
0.0
 10
208.541027931501
 20
129.949271069679
 30
0.0
 10
207.6243612648343
 20
129.949271069679
 30
0.0
 10
207.1662448940256
 20
129.8911251130716
 30
0.0
 10
206.2914519946173
 20
129.668955487825
 30
0.0
 10
205.8750821414202
 20
129.5052110927471
 30
0.0
 10
205.1138364666797
 20
129.0992133995522
 30
0.0
 10
204.7690022231129
 20
128.8573213605403
 30
0.0
 10
204.1635102608936
 20
128.3288920116944
 30
0.0
 10
203.9026945981676
 20
128.0426044030124
 30
0.0
 10
203.4626945981676
 20
127.4559377363457
 30
0.0
 10
203.2833005822605
 20
127.1556423191004
 30
0.0
 10
202.9944481646365
 20
126.5631245393588
 30
0.0
 10
202.884827931501
 20
126.270871069679
 30
0.0
 10
202.6384279315009
 20
125.426071069679
 30
0.0
 10
202.5826945981676
 20
124.9076044030124
 30
0.0
 10
202.5826945981676
 20
123.9909377363457
 30
0.0
 10
202.6384279315009
 20
123.472471069679
 30
0.0
 10
202.884827931501
 20
122.627671069679
 30
0.0
 10
202.9944481646365
 20
122.3354175999993
 30
0.0
 10
203.2833005822605
 20
121.7428998202577
 30
0.0
 10
203.4626945981676
 20
121.4426044030124
 30
0.0
 10
203.9026945981676
 20
120.8559377363457
 30
0.0
 10
204.1635102608936
 20
120.5696501276636
 30
0.0
 10
204.7690022231129
 20
120.0412207788177
 30
0.0
 10
205.1138364666797
 20
119.7993287398059
 30
0.0
 10
205.8750821414202
 20
119.393331046611
 30
0.0
 10
206.2914519946173
 20
119.2295866515331
 30
0.0
 10
207.1662448940256
 20
119.0074170262865
 30
0.0
 10
207.6243612648343
 20
118.949271069679
 30
0.0
 10
208.5410279315009
 20
118.949271069679
 30
0.0
 10
208.9991443023096
 20
119.0074170262865
 30
0.0
 10
209.8739372017179
 20
119.2295866515331
 30
0.0
 10
210.290307054915
 20
119.393331046611
 30
0.0
 10
211.0515527296555
 20
119.7993287398059
 30
0.0
 10
211.3963869732223
 20
120.0412207788177
 30
0.0
 10
212.0018789354417
 20
120.5696501276637
 30
0.0
 10
212.2626945981676
 20
120.8559377363457
 30
0.0
 10
212.7026945981676
 20
121.4426044030124
 30
0.0
 10
212.8820886140747
 20
121.7428998202577
 30
0.0
 10
213.1709410316987
 20
122.3354175999993
 30
0.0
 10
213.2805612648343
 20
122.627671069679
 30
0.0
 10
213.5269612648343
 20
123.472471069679
 30
0.0
 10
213.5826945981676
 20
123.9909377363457
 30
0.0
 10
213.5826945981676
 20
124.449271069679
 30
0.0
  0
CIRCLE
  5
2EE
330
1F
100
AcDbEntity
  8
0
  6
Continuous
 62
     7
370
    25
100
AcDbCircle
 10
173.0826945982
 20
131.3991552003
 30
0.0
 40
2.500000000000028
  0
CIRCLE
  5
2EF
330
1F
100
AcDbEntity
  8
0
  6
Continuous
 62
     7
370
    25
100
AcDbCircle
 10
173.0826945982
 20
117.3991552003
 30
0.0
 40
2.500000000000028
  0
LINE
  5
2F0
330
1F
100
AcDbEntity
  8
0
  6
Continuous
 62
     7
370
    25
100
AcDbLine
 10
113.0826945982
 20
137.3991552003
 30
0.0
 11
113.0826945982
 21
107.0822710697
 31
0.0
  0
LINE
  5
2F1
330
1F
100
AcDbEntity
  8
0
  6
Continuous
 62
     7
370
    25
100
AcDbLine
 10
233.0826945982
 20
137.3991552003
 30
0.0
 11
233.0826945982
 21
107.0822710697
 31
0.0
  0
LINE
  5
2F2
330
1F
100
AcDbEntity
  8
0
  6
Continuous
 62
     7
370
    25
100
AcDbLine
 10
113.0826945982
 20
144.9016189261
 30
0.0
 11
113.0826945982
 21
137.3991552003
 31
0.0
  0
LINE
  5
2F3
330
1F
100
AcDbEntity
  8
0
  6
Continuous
 62
     7
370
    25
100
AcDbLine
 10
233.0826945982
 20
144.9016189261
 30
0.0
 11
233.0826945982
 21
137.3991552003
 31
0.0
  0
LINE
  5
2F4
330
1F
100
AcDbEntity
  8
0
  6
Continuous
 62
     7
370
    25
100
AcDbLine
 10
113.0826945982
 20
107.0822710697
 30
0.0
 11
113.0826945982
 21
99.5798073439
 31
0.0
  0
LINE
  5
2F5
330
1F
100
AcDbEntity
  8
0
  6
Continuous
 62
     7
370
    25
100
AcDbLine
 10
233.0826945982
 20
107.0822710697
 30
0.0
 11
233.0826945982
 21
99.5798073439
 31
0.0
  0
CIRCLE
  5
2F6
330
1F
100
AcDbEntity
  8
0
  6
Continuous
 62
     7
370
    25
100
AcDbCircle
 10
138.0826945982
 20
124.4492710697
 30
0.0
 40
3.25
  0
CIRCLE
  5
2F7
330
1F
100
AcDbEntity
  8
0
  6
Continuous
 62
     7
370
    25
100
AcDbCircle
 10
208.0826945982
 20
124.4492710697
 30
0.0
 40
3.25
  0
LINE
  5
2F8
330
1F
100
AcDbEntity
  8
0
  6
Continuous
 62
     7
370
    25
100
AcDbLine
 10
292.3229128554
 20
148.5779424131
 30
0.0
 11
291.1628387007
 21
148.5779424131
 31
0.0
  0
LINE
  5
2F9
330
1F
100
AcDbEntity
  8
0
  6
Continuous
 62
     7
370
    25
100
AcDbLine
 10
55.0025504956
 20
148.5779424131
 30
0.0
 11
53.8424763409
 21
148.5779424131
 31
0.0
  0
DIMENSION
  5
2FA
330
1F
100
AcDbEntity
  8
SLD-0
100
AcDbDimension
  2
_D_8
 10
139.7076945982
 20
127.263853632
 30
0.0
 11
62.7206189634
 21
78.3089747334
 31
0.0
 70
   163
  1
2X <> THRU\P{\fGDT;v}%%c 11.0[0.43] {\fGDT;x} 6.0[0.24]\PBOTH SIDES
 71
     1
 42
-1.0
  3
SLDDIMSTYLE4
100
AcDbDiametricDimension
 15
136.4576945982
 25
121.6346885074
 35
0.0
 40
0.0
  0
DIMENSION
  5
330
330
1F
100
AcDbEntity
  8
SLD-0
100
AcDbDimension
  2
_D_9
 10
276.6826945982
 20
78.3089747334
 30
0.0
 11
258.5826945982
 21
78.3089747334
 31
0.0
 70
   160
  1
<>
 71
     2
 42
-1.0
  3
SLDDIMSTYLE5
100
AcDbAlignedDimension
 13
240.4826945982
 23
99.7137687369
 33
0.0
 14
276.6826945982
 24
99.7137687369
 34
0.0
 50
0.0
100
AcDbRotatedDimension
  0
DIMENSION
  5
345
330
1F
100
AcDbEntity
  8
SLD-0
100
AcDbDimension
  2
_D_10
 10
276.6826945982
 20
78.3089747334
 30
0.0
 11
319.4363303395
 21
78.3089747334
 31
0.0
 70
   160
  1
<>
 71
     2
 42
-1.0
  3
SLDDIMSTYLE0
100
AcDbAlignedDimension
 13
299.4363303395
 23
153.5779424131
 33
0.0
 14
276.6826945982
 24
99.7137687369
 34
0.0
 50
0.0
100
AcDbRotatedDimension
  0
DIMENSION
  5
359
330
1F
100
AcDbEntity
  8
SLD-0
100
AcDbDimension
  2
_D_11
 10
317.040322833
 20
112.0779424131
 30
0.0
 11
317.040322833
 21
127.9887703624
 31
0.0
 70
   160
  1
<>
 71
     2
 42
-1.0
  3
SLDDIMSTYLE0
100
AcDbAlignedDimension
 13
276.6826945982
 23
97.1596371179
 33
0.0
 14
291.3695475103
 24
112.0779424131
 34
0.0
 50
90.0
100
AcDbRotatedDimension
  0
DIMENSION
  5
36E
330
1F
100
AcDbEntity
  8
SLD-0
100
AcDbDimension
  2
_D_12
 10
32.8894942907
 20
112.0779424131
 30
0.0
 11
32.8894942907
 21
132.8279424131
 31
0.0
 70
   160
  1
<>
 71
     2
 42
-1.0
  3
SLDDIMSTYLE0
100
AcDbAlignedDimension
 13
46.7290588568
 23
153.5779424131
 33
0.0
 14
54.7958416861
 24
112.0779424131
 34
0.0
 50
90.0
100
AcDbRotatedDimension
  0
DIMENSION
  5
382
330
1F
100
AcDbEntity
  8
SLD-0
100
AcDbDimension
  2
_D_13
 10
155.3203768226
 20
117.3991552003
 30
0.0
 11
155.3203768226
 21
177.6843287535
 31
0.0
 70
   160
  1
<>
 71
     2
 42
-1.0
  3
SLDDIMSTYLE2
100
AcDbAlignedDimension
 13
168.5826945982
 23
131.3991552003
 33
0.0
 14
168.5826945982
 24
117.3991552003
 34
0.0
 50
90.0
100
AcDbRotatedDimension
  0
DIMENSION
  5
397
330
1F
100
AcDbEntity
  8
SLD-0
100
AcDbDimension
  2
_D_14
 10
88.3651526571
 20
144.9016189261
 30
0.0
 11
88.3651526571
 21
177.6843287535
 31
0.0
 70
   160
  1
<>
 71
     2
 42
-1.0
  3
SLDDIMSTYLE0
100
AcDbAlignedDimension
 13
168.5826945982
 23
131.3991552003
 33
0.0
 14
113.0826945982
 24
144.9016189261
 34
0.0
 50
90.0
100
AcDbRotatedDimension
  0
DIMENSION
  5
3AC
330
1F
100
AcDbEntity
  8
SLD-0
100
AcDbDimension
  2
_D_15
 10
208.0826945982
 20
78.3089747334
 30
0.0
 11
173.0826945982
 21
78.3089747334
 31
0.0
 70
   160
  1
<>
 71
     2
 42
-1.0
  3
SLDDIMSTYLE2
100
AcDbAlignedDimension
 13
138.0826945982
 23
116.9492710697
 33
0.0
 14
208.0826945982
 24
116.9492710697
 34
0.0
100
AcDbRotatedDimension
  0
DIMENSION
  5
3C0
330
1F
100
AcDbEntity
  8
SLD-0
100
AcDbDimension
  2
_D_16
 10
258.5826945982
 20
144.9016189261
 30
0.0
 11
258.5826945982
 21
177.6843287535
 31
0.0
 70
   160
  1
2X<>
 71
     2
 42
-1.0
  3
SLDDIMSTYLE0
100
AcDbAlignedDimension
 13
215.5826945982
 23
124.4492710697
 33
0.0
 14
233.0826945982
 24
144.9016189261
 34
0.0
 50
90.0
100
AcDbRotatedDimension
  0
MTEXT
  5
3D4
330
1F
100
AcDbEntity
  8
SLD-0
100
AcDbMText
 10
174.4227814705
 20
59.6968713905
 30
0.0
 40
4.572
 41
0.0
 71
     2
 72
     1
  1
SECTION A-A
  7
SLDTEXTSTYLE0
 73
     1
 44
1.0
  0
MTEXT
  5
3D5
330
1F
100
AcDbEntity
  8
SLD-0
100
AcDbMText
 10
193.7371768275
 20
182.3653866608
 30
0.0
 40
4.7625
 41
0.0
 71
     1
 72
     1
  1
2X 1/4-20 THREAD
  7
SLDTEXTSTYLE0
 73
     1
 44
1.0
  0
LEADER
  5
3D6
330
1F
100
AcDbEntity
  8
SLD-0
100
AcDbLeader
  3
SLDDIMSTYLE1
 76
     3
 10
174.7307474222
 20
133.2790280389
 30
0.0
 10
188.5286935287
 20
180.1879284348
 30
0.0
 10
192.5286935287
 20
180.1879284348
 30
0.0
  0
INSERT
  5
3DC
330
1F
100
AcDbEntity
  8
SLD-0
100
AcDbBlockReference
  2
SW_SYMBOL_MOD_CL
 10
169.01538726
 20
163.3931454714
 30
0.0
 41
0.0030416748
 42
0.0030416748
 43
0.0030416748
  0
MTEXT
  5
3DD
330
1F
100
AcDbEntity
  8
SLD-0
100
AcDbMText
 10
316.7068679674
 20
152.437058227
 30
0.0
 40
4.7625
 41
0.0
 71
     1
 72
     1
  1
HEAT SINK
  7
SLDTEXTSTYLE0
 73
     1
 44
1.0
  0
LEADER
  5
3DE
330
1F
100
AcDbEntity
  8
SLD-0
100
AcDbLeader
  3
SLDDIMSTYLE3
 76
     3
 10
259.813562983
 20
104.1950688795
 30
0.0
 10
311.6056166056
 20
150.3954986424
 30
0.0
 10
315.6056166056
 20
150.3954986424
 30
0.0
  0
INSERT
  5
3EA
330
1F
100
AcDbEntity
  8
SLD-0
100
AcDbBlockReference
  2
SW_CENTERMARKSYMBOL_0
 10
173.0826945982
 20
117.3991552003
 30
0.0
  0
INSERT
  5
3F6
330
1F
100
AcDbEntity
  8
SLD-0
100
AcDbBlockReference
  2
SW_CENTERMARKSYMBOL_1
 10
173.0826945982
 20
131.3991552003
 30
0.0
  0
INSERT
  5
402
330
1F
100
AcDbEntity
  8
SLD-0
100
AcDbBlockReference
  2
SW_CENTERMARKSYMBOL_2
 10
138.0826945982
 20
124.4492710697
 30
0.0
  0
INSERT
  5
40E
330
1F
100
AcDbEntity
  8
SLD-0
100
AcDbBlockReference
  2
SW_CENTERMARKSYMBOL_3
 10
208.0826945982
 20
124.4492710697
 30
0.0
  0
LINE
  5
40F
330
1F
100
AcDbEntity
  8
SLD-0
  6
CENTERX2
370
    18
100
AcDbLine
 10
173.0826945982
 20
158.6691355932
 30
0.0
 11
173.0826945982
 21
91.931569151
 31
0.0
  0
LINE
  5
410
330
1F
100
AcDbEntity
  8
0
  6
Continuous
 62
     7
370
    25
100
AcDbLine
 10
298.8411698525
 20
231.0303178314
 30
0.0
 11
290.7743870233
 21
272.5303178314
 31
0.0
  0
LINE
  5
411
330
1F
100
AcDbEntity
  8
0
  6
Continuous
 62
     7
370
    25
100
AcDbLine
 10
54.2006811991
 20
272.5303178314
 30
0.0
 11
46.1338983698
 21
231.0303178314
 31
0.0
  0
LINE
  5
412
330
1F
100
AcDbEntity
  8
0
  6
Continuous
 62
     7
370
    25
100
AcDbLine
 10
122.5875341112
 20
272.5303178314
 30
0.0
 11
122.5875341112
 21
273.2803178314
 31
0.0
  0
LINE
  5
413
330
1F
100
AcDbEntity
  8
0
  6
Continuous
 62
     7
370
    25
100
AcDbLine
 10
114.5875341112
 20
273.2803178314
 30
0.0
 11
114.5875341112
 21
272.5303178314
 31
0.0
  0
LINE
  5
414
330
1F
100
AcDbEntity
  8
0
  6
Continuous
 62
     7
370
    25
100
AcDbLine
 10
105.0875341112
 20
287.4486231266
 30
0.0
 11
68.8875341112
 21
287.4486231266
 31
0.0
  0
LINE
  5
415
330
1F
100
AcDbEntity
  8
0
  6
Continuous
 62
     7
370
    25
100
AcDbLine
 10
290.7743870233
 20
272.5303178314
 30
0.0
 11
282.4193341097
 21
272.5303178314
 31
0.0
  0
LINE
  5
416
330
1F
100
AcDbEntity
  8
0
  6
Continuous
 62
     7
370
    25
100
AcDbLine
 10
298.8411698525
 20
231.0303178314
 30
0.0
 11
295.6963107249
 21
231.0303178314
 31
0.0
  0
SPLINE
  5
417
330
1F
100
AcDbEntity
  8
0
  6
Continuous
 62
     7
370
    25
100
AcDbSpline
210
0.0
220
0.0
230
1.0
 70
     8
 71
     3
 72
    22
 73
    18
 74
     0
 42
0.00000001
 43
0.00000001
 40
0.0
 40
0.0
 40
0.0
 40
0.0
 40
0.1249999999999999
 40
0.1249999999999999
 40
0.2499999999999999
 40
0.2499999999999999
 40
0.3749999999999999
 40
0.3749999999999999
 40
0.4999999999999999
 40
0.4999999999999999
 40
0.6249999999999999
 40
0.6249999999999999
 40
0.7499999999999999
 40
0.7499999999999999
 40
0.8749999999999999
 40
0.8749999999999999
 40
1.0
 40
1.0
 40
1.0
 40
1.0
 10
291.7277523684097
 20
236.0303178313872
 30
0.0
 10
291.8135613171657
 20
235.668543351938
 30
0.0
 10
291.9229063690209
 20
235.3212928902294
 30
0.0
 10
292.1794905008607
 20
234.6507663629207
 30
0.0
 10
292.3285371089991
 20
234.3248117174325
 30
0.0
 10
292.6474166999482
 20
233.718265976624
 30
0.0
 10
292.8178946174808
 20
233.4350590524351
 30
0.0
 10
293.176251833535
 20
232.9046112948067
 30
0.0
 10
293.3612936418343
 20
232.6618283397756
 30
0.0
 10
293.7348684226523
 20
232.2228036986327
 30
0.0
 10
293.9250743228918
 20
232.0246675854133
 30
0.0
 10
294.3046040991757
 20
231.6768624865116
 30
0.0
 10
294.4909582765243
 20
231.5296842489504
 30
0.0
 10
294.8553998110264
 20
231.2881469945766
 30
0.0
 10
295.0339615979081
 20
231.1935764907622
 30
0.0
 10
295.3792267980322
 20
231.0641236533927
 30
0.0
 10
295.5426841219071
 20
231.0303178313872
 30
0.0
 10
295.6963107248988
 20
231.0303178313872
 30
0.0
  0
SPLINE
  5
418
330
1F
100
AcDbEntity
  8
0
  6
Continuous
 62
     7
370
    25
100
AcDbSpline
210
0.0
220
0.0
230
1.0
 70
     8
 71
     3
 72
    10
 73
     6
 74
     0
 42
0.00000001
 43
0.00000001
 40
0.0
 40
0.0
 40
0.0
 40
0.0
 40
0.5
 40
0.5
 40
1.0
 40
1.0
 40
1.0
 40
1.0
 10
291.7277523684097
 20
236.0303178313872
 30
0.0
 10
290.2783981729294
 20
242.140861862146
 30
0.0
 10
288.795439848237
 20
248.2424455585799
 30
0.0
 10
285.7161528890454
 20
260.4153834557823
 30
0.0
 10
284.122221955838
 20
266.4873769888496
 30
0.0
 10
282.4193341097367
 20
272.5303178313872
 30
0.0
  0
LINE
  5
419
330
1F
100
AcDbEntity
  8
0
  6
Continuous
 62
     7
370
    25
100
AcDbLine
 10
62.5557341126
 20
272.5303178314
 30
0.0
 11
54.2006811991
 21
272.5303178314
 31
0.0
  0
SPLINE
  5
41A
330
1F
100
AcDbEntity
  8
0
  6
Continuous
 62
     7
370
    25
100
AcDbSpline
210
0.0
220
0.0
230
1.0
 70
     8
 71
     3
 72
    10
 73
     6
 74
     0
 42
0.00000001
 43
0.00000001
 40
0.0
 40
0.0
 40
0.0
 40
0.0
 40
0.5
 40
0.5
 40
1.0
 40
1.0
 40
1.0
 40
1.0
 10
62.55573411260954
 20
272.5303178313872
 30
0.0
 10
60.85228999129308
 20
266.4854029667641
 30
0.0
 10
59.25825610651734
 20
260.4128417989264
 30
0.0
 10
56.17907782551625
 20
248.2402047451355
 30
0.0
 10
54.69635127764253
 20
242.1395179056668
 30
0.0
 10
53.24731585393656
 20
236.0303178313871
 30
0.0
  0
SPLINE
  5
41B
330
1F
100
AcDbEntity
  8
0
  6
Continuous
 62
     7
370
    25
100
AcDbSpline
210
0.0
220
0.0
230
1.0
 70
     8
 71
     3
 72
    24
 73
    20
 74
     0
 42
0.00000001
 43
0.00000001
 40
0.0
 40
0.0
 40
0.0
 40
0.0
 40
0.1249999999999992
 40
0.1249999999999992
 40
0.2499999999999989
 40
0.2499999999999989
 40
0.3749999999999987
 40
0.3749999999999987
 40
0.4999999999999984
 40
0.4999999999999984
 40
0.6249999999999982
 40
0.6249999999999982
 40
0.6874999999999992
 40
0.6874999999999992
 40
0.7500000000000002
 40
0.7500000000000002
 40
0.8750000000000001
 40
0.8750000000000001
 40
1.0
 40
1.0
 40
1.0
 40
1.0
 10
49.27875749744739
 20
231.0303178313872
 30
0.0
 10
49.43254642133621
 20
231.0303178313872
 30
0.0
 10
49.59503959492847
 20
231.0641580085852
 30
0.0
 10
49.93564715006941
 20
231.1912006384502
 30
0.0
 10
50.11466666766205
 20
231.2850766586186
 30
0.0
 10
50.4836370286415
 20
231.5291298012921
 30
0.0
 10
50.67041367428065
 20
231.6769492769975
 30
0.0
 10
51.04685978127844
 20
232.0216635445775
 30
0.0
 10
51.23803920085325
 20
232.2203612455221
 30
0.0
 10
51.61382396010855
 20
232.6617902321992
 30
0.0
 10
51.79706116093769
 20
232.9024609548883
 30
0.0
 10
52.062675154183
 20
233.2949638415866
 30
0.0
 10
52.14965993139364
 20
233.4310876214098
 30
0.0
 10
52.31993674685917
 20
233.7147489454951
 30
0.0
 10
52.40366460801821
 20
233.8631338349292
 30
0.0
 10
52.64443484886772
 20
234.3202763742695
 30
0.0
 10
52.79094222048117
 20
234.6398543823772
 30
0.0
 10
53.0495013356695
 20
235.3131718189889
 30
0.0
 10
53.16147978090169
 20
235.6684289947295
 30
0.0
 10
53.24731585393656
 20
236.0303178313871
 30
0.0
  0
LINE
  5
41C
330
1F
100
AcDbEntity
  8
0
  6
Continuous
 62
     7
370
    25
100
AcDbLine
 10
49.2787574974
 20
231.0303178314
 30
0.0
 11
46.1338983698
 21
231.0303178314
 31
0.0
  0
LINE
  5
41D
330
1F
100
AcDbEntity
  8
0
  6
Continuous
 62
     7
370
    25
100
AcDbLine
 10
295.6963107249
 20
231.0303178314
 30
0.0
 11
291.9348212415
 21
231.0303178314
 31
0.0
  0
LINE
  5
41E
330
1F
100
AcDbEntity
  8
0
  6
Continuous
 62
     7
370
    25
100
AcDbLine
 10
53.0402469809
 20
231.0303178314
 30
0.0
 11
49.2787574974
 21
231.0303178314
 31
0.0
  0
LINE
  5
41F
330
1F
100
AcDbEntity
  8
0
  6
Continuous
 62
     7
370
    25
100
AcDbLine
 10
282.4193341097
 20
272.5303178314
 30
0.0
 11
280.5875341112
 21
272.5303178314
 31
0.0
  0
LINE
  5
420
330
1F
100
AcDbEntity
  8
0
  6
Continuous
 62
     7
370
    25
100
AcDbLine
 10
64.3875341112
 20
272.5303178314
 30
0.0
 11
62.5557341126
 21
272.5303178314
 31
0.0
  0
LINE
  5
421
330
1F
100
AcDbEntity
  8
0
  6
Continuous
 62
     7
370
    25
100
AcDbLine
 10
114.5875341112
 20
273.2803178314
 30
0.0
 11
122.5875341112
 21
273.2803178314
 31
0.0
  0
LINE
  5
422
330
1F
100
AcDbEntity
  8
0
  6
Continuous
 62
     7
370
    25
100
AcDbLine
 10
53.0402469809
 20
231.0303178314
 30
0.0
 11
291.9348212415
 21
231.0303178314
 31
0.0
  0
LINE
  5
423
330
1F
100
AcDbEntity
  8
0
  6
Continuous
 62
     7
370
    25
100
AcDbLine
 10
53.2801808559
 20
231.9078188322
 30
0.0
 11
53.0402469809
 21
231.0303178314
 31
0.0
  0
ELLIPSE
  5
424
330
1F
100
AcDbEntity
  8
0
  6
Continuous
 62
     7
370
    25
100
AcDbEllipse
 10
53.1339614031
 20
235.0303178314
 30
0.0
 11
1.273534496398746
 21
3.972485423620555
 31
0.0
210
0.0
220
0.0
230
1.0
 40
0.3677626067
 41
3.934082991476501
 42
4.829747785334342
  0
LINE
  5
425
330
1F
100
AcDbEntity
  8
0
  6
Continuous
 62
     7
370
    25
100
AcDbLine
 10
54.7339614031
 20
235.0303178314
 30
0.0
 11
290.2411068193
 21
235.0303178314
 31
0.0
  0
ELLIPSE
  5
426
330
1F
100
AcDbEntity
  8
0
  6
Continuous
 62
     7
370
    25
100
AcDbEllipse
 10
291.8411068193
 20
235.0303178314
 30
0.0
 11
-1.273534496398781
 21
3.972485423620554
 31
0.0
210
0.0
220
0.0
230
1.0
 40
0.3677626067
 41
1.453437521845242
 42
2.349102315703076
  0
LINE
  5
427
330
1F
100
AcDbEntity
  8
0
  6
Continuous
 62
     7
370
    25
100
AcDbLine
 10
291.9348212415
 20
231.0303178314
 30
0.0
 11
291.6948873665
 21
231.9078188322
 31
0.0
  0
LINE
  5
428
330
1F
100
AcDbEntity
  8
0
  6
Continuous
 62
     7
370
    25
100
AcDbLine
 10
280.1294331879
 20
272.0113557555
 30
0.0
 11
290.2411068193
 21
235.0303178314
 31
0.0
  0
LINE
  5
429
330
1F
100
AcDbEntity
  8
0
  6
Continuous
 62
     7
370
    25
100
AcDbLine
 10
280.1294331879
 20
272.0113557555
 30
0.0
 11
280.5875341112
 21
272.5303178314
 31
0.0
  0
LINE
  5
42A
330
1F
100
AcDbEntity
  8
0
  6
Continuous
 62
     7
370
    25
100
AcDbLine
 10
280.5875341112
 20
272.5303178314
 30
0.0
 11
291.6948873665
 21
231.9078188322
 31
0.0
  0
LINE
  5
42B
330
1F
100
AcDbEntity
  8
0
  6
Continuous
 62
     7
370
    25
100
AcDbLine
 10
64.8456350344
 20
272.0113557555
 30
0.0
 11
54.7339614031
 21
235.0303178314
 31
0.0
  0
LINE
  5
42C
330
1F
100
AcDbEntity
  8
0
  6
Continuous
 62
     7
370
    25
100
AcDbLine
 10
64.3875341112
 20
272.5303178314
 30
0.0
 11
53.2801808559
 21
231.9078188322
 31
0.0
  0
LINE
  5
42D
330
1F
100
AcDbEntity
  8
0
  6
Continuous
 62
     7
370
    25
100
AcDbLine
 10
64.3875341112
 20
272.5303178314
 30
0.0
 11
64.8456350344
 21
272.0113557555
 31
0.0
  0
LINE
  5
42E
330
1F
100
AcDbEntity
  8
0
  6
Continuous
 62
     7
370
    25
100
AcDbLine
 10
64.8456350344
 20
272.0113557555
 30
0.0
 11
111.4875341112
 21
272.0113557555
 31
0.0
  0
LINE
  5
42F
330
1F
100
AcDbEntity
  8
0
  6
Continuous
 62
     7
370
    25
100
AcDbLine
 10
111.4875341112
 20
235.5303178314
 30
0.0
 11
111.4875341112
 21
272.0113557555
 31
0.0
  0
LINE
  5
430
330
1F
100
AcDbEntity
  8
0
  6
Continuous
 62
     7
370
    25
100
AcDbLine
 10
111.4875341112
 20
235.5303178314
 30
0.0
 11
233.4875341112
 21
235.5303178314
 31
0.0
  0
LINE
  5
431
330
1F
100
AcDbEntity
  8
0
  6
Continuous
 62
     7
370
    25
100
AcDbLine
 10
233.4875341112
 20
235.5303178314
 30
0.0
 11
233.4875341112
 21
272.0113557555
 31
0.0
  0
LINE
  5
432
330
1F
100
AcDbEntity
  8
0
  6
Continuous
 62
     7
370
    25
100
AcDbLine
 10
233.4875341112
 20
272.0113557555
 30
0.0
 11
280.1294331879
 21
272.0113557555
 31
0.0
  0
LINE
  5
433
330
1F
100
AcDbEntity
  8
0
  6
Continuous
 62
     7
370
    25
100
AcDbLine
 10
64.3875341112
 20
272.5303178314
 30
0.0
 11
111.4875341112
 21
272.5303178314
 31
0.0
  0
LINE
  5
434
330
1F
100
AcDbEntity
  8
0
  6
Continuous
 62
     7
370
    25
100
AcDbLine
 10
111.4875341112
 20
272.0113557555
 30
0.0
 11
111.4875341112
 21
272.5303178314
 31
0.0
  0
LINE
  5
435
330
1F
100
AcDbEntity
  8
0
  6
Continuous
 62
     7
370
    25
100
AcDbLine
 10
233.4875341112
 20
272.5303178314
 30
0.0
 11
280.5875341112
 21
272.5303178314
 31
0.0
  0
LINE
  5
436
330
1F
100
AcDbEntity
  8
0
  6
Continuous
 62
     7
370
    25
100
AcDbLine
 10
233.4875341112
 20
272.5303178314
 30
0.0
 11
233.4875341112
 21
272.0113557555
 31
0.0
  0
LINE
  5
437
330
1F
100
AcDbEntity
  8
0
  6
Continuous
 62
     7
370
    25
100
AcDbLine
 10
233.4875341112
 20
272.5303178314
 30
0.0
 11
111.4875341112
 21
272.5303178314
 31
0.0
  0
LINE
  5
438
330
1F
100
AcDbEntity
  8
0
  6
Continuous
 62
     7
370
    25
100
AcDbLine
 10
68.8875341112
 20
272.5303178314
 30
0.0
 11
68.8875341112
 21
278.4053178314
 31
0.0
  0
LINE
  5
439
330
1F
100
AcDbEntity
  8
0
  6
Continuous
 62
     7
370
    25
100
AcDbLine
 10
68.8875341112
 20
278.4053178314
 30
0.0
 11
105.0875341112
 21
278.4053178314
 31
0.0
  0
LINE
  5
43A
330
1F
100
AcDbEntity
  8
0
  6
Continuous
 62
     7
370
    25
100
AcDbLine
 10
105.0875341112
 20
272.5303178314
 30
0.0
 11
105.0875341112
 21
278.4053178314
 31
0.0
  0
LINE
  5
43B
330
1F
100
AcDbEntity
  8
0
  6
Continuous
 62
     7
370
    25
100
AcDbLine
 10
68.8875341112
 20
284.8944915076
 30
0.0
 11
105.0875341112
 21
284.8944915076
 31
0.0
  0
LINE
  5
43C
330
1F
100
AcDbEntity
  8
0
  6
Continuous
 62
     7
370
    25
100
AcDbLine
 10
105.0875341112
 20
278.4053178314
 30
0.0
 11
105.0875341112
 21
284.8944915076
 31
0.0
  0
LINE
  5
43D
330
1F
100
AcDbEntity
  8
0
  6
Continuous
 62
     7
370
    25
100
AcDbLine
 10
68.8875341112
 20
278.4053178314
 30
0.0
 11
68.8875341112
 21
284.8944915076
 31
0.0
  0
LINE
  5
43E
330
1F
100
AcDbEntity
  8
0
  6
Continuous
 62
     7
370
    25
100
AcDbLine
 10
105.0875341112
 20
284.8944915076
 30
0.0
 11
105.0875341112
 21
287.4486231266
 31
0.0
  0
LINE
  5
43F
330
1F
100
AcDbEntity
  8
0
  6
Continuous
 62
     7
370
    25
100
AcDbLine
 10
68.8875341112
 20
284.8944915076
 30
0.0
 11
68.8875341112
 21
287.4486231266
 31
0.0
  0
CIRCLE
  5
440
330
1F
100
AcDbEntity
  8
0
  6
Continuous
 62
     7
370
    25
100
AcDbCircle
 10
199.4875341112
 20
260.0303178314
 30
0.0
 40
1.324999999999989
  0
CIRCLE
  5
441
330
1F
100
AcDbEntity
  8
0
  6
Continuous
 62
     7
370
    25
100
AcDbCircle
 10
145.4875341112
 20
260.0303178314
 30
0.0
 40
1.324999999999989
  0
CIRCLE
  5
442
330
1F
100
AcDbEntity
  8
0
  6
Continuous
 62
     7
370
    25
100
AcDbCircle
 10
139.4875341112
 20
260.0103178314
 30
0.0
 40
0.875
  0
CIRCLE
  5
443
330
1F
100
AcDbEntity
  8
0
  6
Continuous
 62
     7
370
    25
100
AcDbCircle
 10
139.4875341112
 20
252.0103178314
 30
0.0
 40
0.875
  0
CIRCLE
  5
444
330
1F
100
AcDbEntity
  8
0
  6
Continuous
 62
     7
370
    25
100
AcDbCircle
 10
205.4875341112
 20
260.0103178314
 30
0.0
 40
0.875
  0
CIRCLE
  5
445
330
1F
100
AcDbEntity
  8
0
  6
Continuous
 62
     7
370
    25
100
AcDbCircle
 10
205.4875341112
 20
252.0103178314
 30
0.0
 40
0.875
  0
LINE
  5
446
330
1F
100
AcDbEntity
  8
0
  6
Continuous
 62
     7
370
    25
100
AcDbLine
 10
134.9875341112
 20
262.5303178314
 30
0.0
 11
134.9875341112
 21
252.5303178314
 31
0.0
  0
ARC
  5
447
330
1F
100
AcDbEntity
  8
0
  6
Continuous
 62
     7
370
    25
100
AcDbCircle
 10
139.9875341112
 20
262.5303178314
 30
0.0
 40
5.0
100
AcDbArc
 50
90.0
 51
180.0
  0
LINE
  5
448
330
1F
100
AcDbEntity
  8
0
  6
Continuous
 62
     7
370
    25
100
AcDbLine
 10
204.9875341112
 20
267.5303178314
 30
0.0
 11
192.4875341112
 21
267.5303178314
 31
0.0
  0
LINE
  5
449
330
1F
100
AcDbEntity
  8
0
  6
Continuous
 62
     7
370
    25
100
AcDbLine
 10
152.4875341112
 20
267.5303178314
 30
0.0
 11
139.9875341112
 21
267.5303178314
 31
0.0
  0
ARC
  5
44A
330
1F
100
AcDbEntity
  8
0
  6
Continuous
 62
     7
370
    25
100
AcDbCircle
 10
204.9875341112
 20
262.5303178314
 30
0.0
 40
5.0
100
AcDbArc
 50
0.0
 51
90.0
  0
LINE
  5
44B
330
1F
100
AcDbEntity
  8
0
  6
Continuous
 62
     7
370
    25
100
AcDbLine
 10
209.9875341112
 20
252.5303178314
 30
0.0
 11
209.9875341112
 21
262.5303178314
 31
0.0
  0
ARC
  5
44C
330
1F
100
AcDbEntity
  8
0
  6
Continuous
 62
     7
370
    25
100
AcDbCircle
 10
204.9875341112
 20
252.5303178314
 30
0.0
 40
5.0
100
AcDbArc
 50
270.0
 51
0.0
  0
ARC
  5
44D
330
1F
100
AcDbEntity
  8
0
  6
Continuous
 62
     7
370
    25
100
AcDbCircle
 10
139.9875341112
 20
252.5303178314
 30
0.0
 40
5.0
100
AcDbArc
 50
180.0
 51
270.0
  0
LINE
  5
44E
330
1F
100
AcDbEntity
  8
0
  6
Continuous
 62
     7
370
    25
100
AcDbLine
 10
139.9875341112
 20
247.5303178314
 30
0.0
 11
152.4875341112
 21
247.5303178314
 31
0.0
  0
LINE
  5
44F
330
1F
100
AcDbEntity
  8
0
  6
Continuous
 62
     7
370
    25
100
AcDbLine
 10
192.4875341112
 20
247.5303178314
 30
0.0
 11
204.9875341112
 21
247.5303178314
 31
0.0
  0
CIRCLE
  5
450
330
1F
100
AcDbEntity
  8
0
  6
Continuous
 62
     7
370
    25
100
AcDbCircle
 10
172.4875341112
 20
255.5303178314
 30
0.0
 40
3.055000000000035
  0
LINE
  5
451
330
1F
100
AcDbEntity
  8
0
  6
Continuous
 62
     7
370
    25
100
AcDbLine
 10
152.4875341112
 20
267.5303178314
 30
0.0
 11
152.4875341112
 21
247.5303178314
 31
0.0
  0
LINE
  5
452
330
1F
100
AcDbEntity
  8
0
  6
Continuous
 62
     7
370
    25
100
AcDbLine
 10
192.4875341112
 20
267.5303178314
 30
0.0
 11
152.4875341112
 21
267.5303178314
 31
0.0
  0
LINE
  5
453
330
1F
100
AcDbEntity
  8
0
  6
Continuous
 62
     7
370
    25
100
AcDbLine
 10
192.4875341112
 20
247.5303178314
 30
0.0
 11
192.4875341112
 21
267.5303178314
 31
0.0
  0
LINE
  5
454
330
1F
100
AcDbEntity
  8
0
  6
Continuous
 62
     7
370
    25
100
AcDbLine
 10
152.4875341112
 20
247.5303178314
 30
0.0
 11
192.4875341112
 21
247.5303178314
 31
0.0
  0
LINE
  5
455
330
1F
100
AcDbEntity
  8
0
  6
Continuous
 62
     7
370
    25
100
AcDbLine
 10
53.2473158539
 20
236.0303178314
 30
0.0
 11
54.4073900086
 21
236.0303178314
 31
0.0
  0
LINE
  5
456
330
1F
100
AcDbEntity
  8
0
  6
Continuous
 62
     7
370
    25
100
AcDbLine
 10
290.5676782137
 20
236.0303178314
 30
0.0
 11
291.7277523684
 21
236.0303178314
 31
0.0
  0
LINE
  5
457
330
1F
100
AcDbEntity
  8
SLD-0
  6
CENTERX2
100
AcDbLine
 10
235.4875341112
 20
267.0019773134
 30
0.0
 11
271.4875341112
 21
267.0019773134
 31
0.0
  0
LINE
  5
458
330
1F
100
AcDbEntity
  8
SLD-0
  6
CENTERX2
100
AcDbLine
 10
235.4875341112
 20
267.0019773134
 30
0.0
 11
235.4875341112
 21
240.4530186106
 31
0.0
  0
LINE
  5
459
330
1F
100
AcDbEntity
  8
SLD-0
  6
CENTERX2
100
AcDbLine
 10
235.4875341112
 20
240.4530186106
 30
0.0
 11
271.4875341112
 21
240.4530186106
 31
0.0
  0
LINE
  5
45A
330
1F
100
AcDbEntity
  8
SLD-0
  6
CENTERX2
100
AcDbLine
 10
271.4875341112
 20
267.0019773134
 30
0.0
 11
271.4875341112
 21
240.4530186106
 31
0.0
  0
LINE
  5
45B
330
1F
100
AcDbEntity
  8
SLD-0
  6
CENTERX2
100
AcDbLine
 10
109.4875341112
 20
267.0019773134
 30
0.0
 11
73.4875341112
 21
267.0019773134
 31
0.0
  0
LINE
  5
45C
330
1F
100
AcDbEntity
  8
SLD-0
  6
CENTERX2
100
AcDbLine
 10
109.4875341112
 20
267.0019773134
 30
0.0
 11
109.4875341112
 21
240.4530186106
 31
0.0
  0
LINE
  5
45D
330
1F
100
AcDbEntity
  8
SLD-0
  6
CENTERX2
100
AcDbLine
 10
109.4875341112
 20
240.4530186106
 30
0.0
 11
73.4875341112
 21
240.4530186106
 31
0.0
  0
LINE
  5
45E
330
1F
100
AcDbEntity
  8
SLD-0
  6
CENTERX2
100
AcDbLine
 10
73.4875341112
 20
267.0019773134
 30
0.0
 11
73.4875341112
 21
240.4530186106
 31
0.0
  0
DIMENSION
  5
45F
330
1F
100
AcDbEntity
  8
SLD-0
100
AcDbDimension
  2
_D_17
 10
290.7743870233
 20
319.4486231266
 30
0.0
 11
172.4875341112
 21
319.4486231266
 31
0.0
 70
   160
  1
<>
 71
     2
 42
-1.0
  3
SLDDIMSTYLE0
100
AcDbAlignedDimension
 13
54.2006811991
 23
272.5303178314
 33
0.0
 14
290.7743870233
 24
272.5303178314
 34
0.0
 50
0.0
100
AcDbRotatedDimension
  0
DIMENSION
  5
473
330
1F
100
AcDbEntity
  8
SLD-0
100
AcDbDimension
  2
_D_18
 10
318.8411698525
 20
272.5303178314
 30
0.0
 11
318.8411698525
 21
294.8591478595
 31
0.0
 70
   160
  1
<>
 71
     2
 42
-1.0
  3
SLDDIMSTYLE2
100
AcDbAlignedDimension
 13
177.5425341112
 23
255.5303178314
 33
0.0
 14
290.7743870233
 24
272.5303178314
 34
0.0
 50
90.0
100
AcDbRotatedDimension
  0
INSERT
  5
488
330
1F
100
AcDbEntity
  8
SLD-0
100
AcDbBlockReference
  2
SW_SYMBOL_MOD_CL
 10
169.1974468005
 20
216.1526019391
 30
0.0
 41
0.0030416748
 42
0.0030416748
 43
0.0030416748
  0
MTEXT
  5
489
330
1F
100
AcDbEntity
  8
SLD-0
100
AcDbMText
 10
95.430829896
 20
217.2316725501
 30
0.0
 40
4.7625
 41
0.0
 71
     1
 72
     1
  1
1/4-20 THREAD
  7
SLDTEXTSTYLE0
 73
     1
 44
1.0
  0
LEADER
  5
48A
330
1F
100
AcDbEntity
  8
SLD-0
100
AcDbLeader
  3
SLDDIMSTYLE1
 76
     3
 10
170.3138529402
 20
253.3836610896
 30
0.0
 10
144.8101952887
 20
214.8643631112
 30
0.0
 10
140.8101952887
 20
214.8643631112
 30
0.0
  0
MTEXT
  5
48B
330
1F
100
AcDbEntity
  8
SLD-0
100
AcDbMText
 10
149.3298946499
 20
299.5402057668
 30
0.0
 40
4.7625
 41
0.0
 71
     1
 72
     1
  1
VENTING AREA
  7
SLDTEXTSTYLE0
 73
     1
 44
1.0
  0
LEADER
  5
48C
330
1F
100
AcDbEntity
  8
SLD-0
100
AcDbLeader
  3
SLDDIMSTYLE1
 76
     3
 10
105.2222185877
 20
267.0019773134
 30
0.0
 10
144.3284493284
 20
297.1598454067
 30
0.0
 10
148.3284493284
 20
297.1598454067
 30
0.0
  0
LEADER
  5
48D
330
1F
100
AcDbEntity
  8
SLD-0
100
AcDbLeader
  3
SLDDIMSTYLE1
 76
     3
 10
239.4348150531
 20
267.0019773134
 30
0.0
 10
199.6956678825
 20
297.1598454067
 30
0.0
 10
195.6956678825
 20
297.1598454067
 30
0.0
  0
INSERT
  5
499
330
1F
100
AcDbEntity
  8
SLD-0
100
AcDbBlockReference
  2
SW_CENTERMARKSYMBOL_4
 10
172.4875341112
 20
255.5303178314
 30
0.0
  0
LINE
  5
49A
330
1F
100
AcDbEntity
  8
SLD-0
  6
CENTERX2
370
    18
100
AcDbLine
 10
172.4875341112
 20
225.1883345982
 30
0.0
 11
172.4875341112
 21
279.0673483496
 31
0.0
  0
LINE
  5
49B
330
1F
100
AcDbEntity
  8
0
  6
Continuous
 62
     7
370
    25
100
AcDbLine
 10
827.8101852762
 20
469.9559556385
 30
0.0
 11
819.743402447
 21
511.4559556385
 31
0.0
  0
LINE
  5
49C
330
1F
100
AcDbEntity
  8
0
  6
Continuous
 62
     7
370
    25
100
AcDbLine
 10
583.1696966228
 20
511.4559556385
 30
0.0
 11
575.1029137935
 21
469.9559556385
 31
0.0
  0
LINE
  5
49D
330
1F
100
AcDbEntity
  8
0
  6
Continuous
 62
     7
370
    25
100
AcDbLine
 10
759.3565495349
 20
511.4559556385
 30
0.0
 11
759.3565495349
 21
512.2059556385
 31
0.0
  0
LINE
  5
49E
330
1F
100
AcDbEntity
  8
0
  6
Continuous
 62
     7
370
    25
100
AcDbLine
 10
751.3565495349
 20
512.2059556385
 30
0.0
 11
751.3565495349
 21
511.4559556385
 31
0.0
  0
LINE
  5
49F
330
1F
100
AcDbEntity
  8
0
  6
Continuous
 62
     7
370
    25
100
AcDbLine
 10
805.0565495349
 20
526.3742609336
 30
0.0
 11
768.8565495349
 21
526.3742609336
 31
0.0
  0
SPLINE
  5
4A0
330
1F
100
AcDbEntity
  8
0
  6
Continuous
 62
     7
370
    25
100
AcDbSpline
210
0.0
220
0.0
230
1.0
 70
     8
 71
     3
 72
    22
 73
    18
 74
     0
 42
0.00000001
 43
0.00000001
 40
0.0
 40
0.0
 40
0.0
 40
0.0
 40
0.1249999999999999
 40
0.1249999999999999
 40
0.2499999999999999
 40
0.2499999999999999
 40
0.3749999999999999
 40
0.3749999999999999
 40
0.4999999999999999
 40
0.4999999999999999
 40
0.6249999999999999
 40
0.6249999999999999
 40
0.7499999999999999
 40
0.7499999999999999
 40
0.8749999999999999
 40
0.8749999999999999
 40
1.0
 40
1.0
 40
1.0
 40
1.0
 10
820.6967677921056
 20
474.9559556384614
 30
0.0
 10
820.7825767408616
 20
474.5941811590122
 30
0.0
 10
820.8919217927169
 20
474.2469306973038
 30
0.0
 10
821.1485059245566
 20
473.5764041699949
 30
0.0
 10
821.297552532695
 20
473.2504495245067
 30
0.0
 10
821.6164321236441
 20
472.6439037836982
 30
0.0
 10
821.7869100411767
 20
472.3606968595094
 30
0.0
 10
822.145267257231
 20
471.830249101881
 30
0.0
 10
822.3303090655302
 20
471.5874661468499
 30
0.0
 10
822.7038838463483
 20
471.148441505707
 30
0.0
 10
822.8940897465877
 20
470.9503053924876
 30
0.0
 10
823.2736195228716
 20
470.6025002935859
 30
0.0
 10
823.4599737002202
 20
470.4553220560247
 30
0.0
 10
823.8244152347224
 20
470.2137848016508
 30
0.0
 10
824.0029770216041
 20
470.1192142978365
 30
0.0
 10
824.3482422217281
 20
469.989761460467
 30
0.0
 10
824.511699545603
 20
469.9559556384614
 30
0.0
 10
824.6653261485948
 20
469.9559556384614
 30
0.0
  0
SPLINE
  5
4A1
330
1F
100
AcDbEntity
  8
0
  6
Continuous
 62
     7
370
    25
100
AcDbSpline
210
0.0
220
0.0
230
1.0
 70
     8
 71
     3
 72
    10
 73
     6
 74
     0
 42
0.00000001
 43
0.00000001
 40
0.0
 40
0.0
 40
0.0
 40
0.0
 40
0.5
 40
0.5
 40
1.0
 40
1.0
 40
1.0
 40
1.0
 10
820.6967677921056
 20
474.9559556384614
 30
0.0
 10
819.2474135966254
 20
481.0664996692202
 30
0.0
 10
817.7644552719329
 20
487.1680833656542
 30
0.0
 10
814.6851683127413
 20
499.3410212628565
 30
0.0
 10
813.0912373795339
 20
505.4130147959238
 30
0.0
 10
811.3883495334327
 20
511.4559556384615
 30
0.0
  0
LINE
  5
4A2
330
1F
100
AcDbEntity
  8
0
  6
Continuous
 62
     7
370
    25
100
AcDbLine
 10
819.743402447
 20
511.4559556385
 30
0.0
 11
811.3883495334
 21
511.4559556385
 31
0.0
  0
LINE
  5
4A3
330
1F
100
AcDbEntity
  8
0
  6
Continuous
 62
     7
370
    25
100
AcDbLine
 10
827.8101852762
 20
469.9559556385
 30
0.0
 11
824.6653261486
 21
469.9559556385
 31
0.0
  0
SPLINE
  5
4A4
330
1F
100
AcDbEntity
  8
0
  6
Continuous
 62
     7
370
    25
100
AcDbSpline
210
0.0
220
0.0
230
1.0
 70
     8
 71
     3
 72
    10
 73
     6
 74
     0
 42
0.00000001
 43
0.00000001
 40
0.0
 40
0.0
 40
0.0
 40
0.0
 40
0.5
 40
0.5
 40
1.0
 40
1.0
 40
1.0
 40
1.0
 10
591.5247495363054
 20
511.4559556384614
 30
0.0
 10
589.821305414989
 20
505.4110407738385
 30
0.0
 10
588.2272715302132
 20
499.3384796060007
 30
0.0
 10
585.1480932492121
 20
487.1658425522098
 30
0.0
 10
583.6653667013385
 20
481.065155712741
 30
0.0
 10
582.2163312776325
 20
474.9559556384614
 30
0.0
  0
SPLINE
  5
4A5
330
1F
100
AcDbEntity
  8
0
  6
Continuous
 62
     7
370
    25
100
AcDbSpline
210
0.0
220
0.0
230
1.0
 70
     8
 71
     3
 72
    24
 73
    20
 74
     0
 42
0.00000001
 43
0.00000001
 40
0.0
 40
0.0
 40
0.0
 40
0.0
 40
0.1249999999999992
 40
0.1249999999999992
 40
0.2499999999999989
 40
0.2499999999999989
 40
0.3749999999999987
 40
0.3749999999999987
 40
0.4999999999999984
 40
0.4999999999999984
 40
0.6249999999999982
 40
0.6249999999999982
 40
0.6874999999999992
 40
0.6874999999999992
 40
0.7500000000000002
 40
0.7500000000000002
 40
0.8750000000000001
 40
0.8750000000000001
 40
1.0
 40
1.0
 40
1.0
 40
1.0
 10
578.2477729211432
 20
469.9559556384614
 30
0.0
 10
578.4015618450321
 20
469.9559556384614
 30
0.0
 10
578.5640550186245
 20
469.9897958156595
 30
0.0
 10
578.9046625737653
 20
470.1168384455244
 30
0.0
 10
579.083682091358
 20
470.2107144656928
 30
0.0
 10
579.4526524523375
 20
470.4547676083664
 30
0.0
 10
579.6394290979766
 20
470.6025870840718
 30
0.0
 10
580.0158752049743
 20
470.9473013516518
 30
0.0
 10
580.2070546245492
 20
471.1459990525964
 30
0.0
 10
580.5828393838045
 20
471.5874280392734
 30
0.0
 10
580.7660765846337
 20
471.8280987619625
 30
0.0
 10
581.031690577879
 20
472.2206016486608
 30
0.0
 10
581.1186753550895
 20
472.3567254284841
 30
0.0
 10
581.2889521705551
 20
472.6403867525694
 30
0.0
 10
581.3726800317141
 20
472.7887716420035
 30
0.0
 10
581.6134502725636
 20
473.2459141813438
 30
0.0
 10
581.7599576441771
 20
473.5654921894515
 30
0.0
 10
582.0185167593654
 20
474.2388096260632
 30
0.0
 10
582.1304952045975
 20
474.5940668018038
 30
0.0
 10
582.2163312776325
 20
474.9559556384614
 30
0.0
  0
LINE
  5
4A6
330
1F
100
AcDbEntity
  8
0
  6
Continuous
 62
     7
370
    25
100
AcDbLine
 10
578.2477729211
 20
469.9559556385
 30
0.0
 11
575.1029137935
 21
469.9559556385
 31
0.0
  0
LINE
  5
4A7
330
1F
100
AcDbEntity
  8
0
  6
Continuous
 62
     7
370
    25
100
AcDbLine
 10
591.5247495363
 20
511.4559556385
 30
0.0
 11
583.1696966228
 21
511.4559556385
 31
0.0
  0
LINE
  5
4A8
330
1F
100
AcDbEntity
  8
0
  6
Continuous
 62
     7
370
    25
100
AcDbLine
 10
811.3883495334
 20
511.4559556385
 30
0.0
 11
809.5565495349
 21
511.4559556385
 31
0.0
  0
LINE
  5
4A9
330
1F
100
AcDbEntity
  8
0
  6
Continuous
 62
     7
370
    25
100
AcDbLine
 10
593.3565495349
 20
511.4559556385
 30
0.0
 11
591.5247495363
 21
511.4559556385
 31
0.0
  0
LINE
  5
4AA
330
1F
100
AcDbEntity
  8
0
  6
Continuous
 62
     7
370
    25
100
AcDbLine
 10
824.6653261486
 20
469.9559556385
 30
0.0
 11
820.9038366652
 21
469.9559556385
 31
0.0
  0
LINE
  5
4AB
330
1F
100
AcDbEntity
  8
0
  6
Continuous
 62
     7
370
    25
100
AcDbLine
 10
582.0092624046
 20
469.9559556385
 30
0.0
 11
578.2477729211
 21
469.9559556385
 31
0.0
  0
LINE
  5
4AC
330
1F
100
AcDbEntity
  8
0
  6
Continuous
 62
     7
370
    25
100
AcDbLine
 10
751.3565495349
 20
512.2059556385
 30
0.0
 11
759.3565495349
 21
512.2059556385
 31
0.0
  0
LINE
  5
4AD
330
1F
100
AcDbEntity
  8
0
  6
Continuous
 62
     7
370
    25
100
AcDbLine
 10
593.3565495349
 20
511.4559556385
 30
0.0
 11
582.2491962796
 21
470.8334566393
 31
0.0
  0
LINE
  5
4AE
330
1F
100
AcDbEntity
  8
0
  6
Continuous
 62
     7
370
    25
100
AcDbLine
 10
593.8146504581
 20
510.9369935626
 30
0.0
 11
593.3565495349
 21
511.4559556385
 31
0.0
  0
LINE
  5
4AF
330
1F
100
AcDbEntity
  8
0
  6
Continuous
 62
     7
370
    25
100
AcDbLine
 10
593.8146504581
 20
510.9369935626
 30
0.0
 11
583.7029768268
 21
473.9559556385
 31
0.0
  0
ELLIPSE
  5
4B0
330
1F
100
AcDbEntity
  8
0
  6
Continuous
 62
     7
370
    25
100
AcDbEllipse
 10
582.1029768268
 20
473.9559556385
 30
0.0
 11
1.273534496398611
 21
3.972485423620583
 31
0.0
210
0.0
220
0.0
230
1.0
 40
0.3677626067
 41
3.934082991476417
 42
4.829747785334339
  0
LINE
  5
4B1
330
1F
100
AcDbEntity
  8
0
  6
Continuous
 62
     7
370
    25
100
AcDbLine
 10
809.5565495349
 20
511.4559556385
 30
0.0
 11
820.6639027902
 21
470.8334566393
 31
0.0
  0
ELLIPSE
  5
4B2
330
1F
100
AcDbEntity
  8
0
  6
Continuous
 62
     7
370
    25
100
AcDbEllipse
 10
820.810122243
 20
473.9559556385
 30
0.0
 11
-1.273534496398611
 21
3.972485423620583
 31
0.0
210
0.0
220
0.0
230
1.0
 40
0.3677626067
 41
1.453437521845262
 42
2.34910231570315
  0
LINE
  5
4B3
330
1F
100
AcDbEntity
  8
0
  6
Continuous
 62
     7
370
    25
100
AcDbLine
 10
809.0984486116
 20
510.9369935626
 30
0.0
 11
819.210122243
 21
473.9559556385
 31
0.0
  0
LINE
  5
4B4
330
1F
100
AcDbEntity
  8
0
  6
Continuous
 62
     7
370
    25
100
AcDbLine
 10
809.5565495349
 20
511.4559556385
 30
0.0
 11
809.0984486116
 21
510.9369935626
 31
0.0
  0
LINE
  5
4B5
330
1F
100
AcDbEntity
  8
0
  6
Continuous
 62
     7
370
    25
100
AcDbLine
 10
809.5565495349
 20
511.4559556385
 30
0.0
 11
593.3565495349
 21
511.4559556385
 31
0.0
  0
LINE
  5
4B6
330
1F
100
AcDbEntity
  8
0
  6
Continuous
 62
     7
370
    25
100
AcDbLine
 10
809.0984486116
 20
510.9369935626
 30
0.0
 11
593.8146504581
 21
510.9369935626
 31
0.0
  0
LINE
  5
4B7
330
1F
100
AcDbEntity
  8
0
  6
Continuous
 62
     7
370
    25
100
AcDbLine
 10
819.210122243
 20
473.9559556385
 30
0.0
 11
583.7029768268
 21
473.9559556385
 31
0.0
  0
LINE
  5
4B8
330
1F
100
AcDbEntity
  8
0
  6
Continuous
 62
     7
370
    25
100
AcDbLine
 10
820.6639027902
 20
470.8334566393
 30
0.0
 11
820.9038366652
 21
469.9559556385
 31
0.0
  0
LINE
  5
4B9
330
1F
100
AcDbEntity
  8
0
  6
Continuous
 62
     7
370
    25
100
AcDbLine
 10
820.9038366652
 20
469.9559556385
 30
0.0
 11
582.0092624046
 21
469.9559556385
 31
0.0
  0
LINE
  5
4BA
330
1F
100
AcDbEntity
  8
0
  6
Continuous
 62
     7
370
    25
100
AcDbLine
 10
582.0092624046
 20
469.9559556385
 30
0.0
 11
582.2491962796
 21
470.8334566393
 31
0.0
  0
LINE
  5
4BB
330
1F
100
AcDbEntity
  8
0
  6
Continuous
 62
     7
370
    25
100
AcDbLine
 10
805.0565495349
 20
523.8201293147
 30
0.0
 11
768.8565495349
 21
523.8201293147
 31
0.0
  0
LINE
  5
4BC
330
1F
100
AcDbEntity
  8
0
  6
Continuous
 62
     7
370
    25
100
AcDbLine
 10
805.0565495349
 20
517.3309556385
 30
0.0
 11
768.8565495349
 21
517.3309556385
 31
0.0
  0
LINE
  5
4BD
330
1F
100
AcDbEntity
  8
0
  6
Continuous
 62
     7
370
    25
100
AcDbLine
 10
805.0565495349
 20
523.8201293147
 30
0.0
 11
805.0565495349
 21
517.3309556385
 31
0.0
  0
LINE
  5
4BE
330
1F
100
AcDbEntity
  8
0
  6
Continuous
 62
     7
370
    25
100
AcDbLine
 10
768.8565495349
 20
523.8201293147
 30
0.0
 11
768.8565495349
 21
517.3309556385
 31
0.0
  0
LINE
  5
4BF
330
1F
100
AcDbEntity
  8
0
  6
Continuous
 62
     7
370
    25
100
AcDbLine
 10
805.0565495349
 20
517.3309556385
 30
0.0
 11
805.0565495349
 21
511.4559556385
 31
0.0
  0
LINE
  5
4C0
330
1F
100
AcDbEntity
  8
0
  6
Continuous
 62
     7
370
    25
100
AcDbLine
 10
768.8565495349
 20
517.3309556385
 30
0.0
 11
768.8565495349
 21
511.4559556385
 31
0.0
  0
LINE
  5
4C1
330
1F
100
AcDbEntity
  8
0
  6
Continuous
 62
     7
370
    25
100
AcDbLine
 10
805.0565495349
 20
526.3742609336
 30
0.0
 11
805.0565495349
 21
523.8201293147
 31
0.0
  0
LINE
  5
4C2
330
1F
100
AcDbEntity
  8
0
  6
Continuous
 62
     7
370
    25
100
AcDbLine
 10
768.8565495349
 20
526.3742609336
 30
0.0
 11
768.8565495349
 21
523.8201293147
 31
0.0
  0
LINE
  5
4C3
330
1F
100
AcDbEntity
  8
0
  6
Continuous
 62
     7
370
    25
100
AcDbLine
 10
582.2163312776
 20
474.9559556385
 30
0.0
 11
583.3764054323
 21
474.9559556385
 31
0.0
  0
LINE
  5
4C4
330
1F
100
AcDbEntity
  8
0
  6
Continuous
 62
     7
370
    25
100
AcDbLine
 10
819.5366936374
 20
474.9559556385
 30
0.0
 11
820.6967677921
 21
474.9559556385
 31
0.0
  0
LINE
  5
4C5
330
1F
100
AcDbEntity
  8
SLD-0
  6
CENTERX2
100
AcDbLine
 10
601.4565495349
 20
506.9559556385
 30
0.0
 11
801.4565495349
 21
506.9559556385
 31
0.0
  0
LINE
  5
4C6
330
1F
100
AcDbEntity
  8
SLD-0
  6
CENTERX2
100
AcDbLine
 10
601.4565495349
 20
506.9559556385
 30
0.0
 11
601.4565495349
 21
496.9559556385
 31
0.0
  0
LINE
  5
4C7
330
1F
100
AcDbEntity
  8
SLD-0
  6
CENTERX2
100
AcDbLine
 10
601.4565495349
 20
496.9559556385
 30
0.0
 11
801.4565495349
 21
496.9559556385
 31
0.0
  0
LINE
  5
4C8
330
1F
100
AcDbEntity
  8
SLD-0
  6
CENTERX2
100
AcDbLine
 10
801.4565495349
 20
506.9559556385
 30
0.0
 11
801.4565495349
 21
496.9559556385
 31
0.0
  0
MTEXT
  5
4C9
330
1F
100
AcDbEntity
  8
SLD-0
100
AcDbMText
 10
623.656358538
 20
531.0212288963
 30
0.0
 40
4.7625
 41
0.0
 71
     1
 72
     1
  1
VENTING AREA
  7
SLDTEXTSTYLE0
 73
     1
 44
1.0
  0
LEADER
  5
4CA
330
1F
100
AcDbEntity
  8
SLD-0
100
AcDbLeader
  3
SLDDIMSTYLE1
 76
     3
 10
683.2755053056
 20
506.9559556385
 30
0.0
 10
673.9325421193
 20
528.6616769085
 30
0.0
 10
669.9325421193
 20
528.6616769085
 30
0.0
  0
OLE2FRAME
  5
4CB
330
1F
100
AcDbEntity
  8
0
100
AcDbOle2Frame
 70
     2
  3
Picture (Enhanced Metafile)
 10
13.2548205311
 20
31.4304871762
 30
0.0
 11
87.6930475626
 21
14.8429632889
 31
0.0
 71
     3
 72
     0
 73
     1
 90
     5760
310
80554E462FD677822A40AE285768346E3F4000000000000000004CF729E45AEC
310
5540AE285768346E3F4000000000000000004CF729E45AEC5540882E5BE298AF
310
2D4000000000000000004E462FD677822A40882E5BE298AF2D40000000000000
310
0000000000000100000000010000010000000100000000000100000000160000
310
D0CF11E0A1B11AE1000000000000000000000000000000003E000300FEFF0900
310
0600000000000000000000000100000001000000000000000010000002000000
310
01000000FEFFFFFF0000000000000000FFFFFFFFFFFFFFFFFFFFFFFFFFFFFFFF
310
FFFFFFFFFFFFFFFFFFFFFFFFFFFFFFFFFFFFFFFFFFFFFFFFFFFFFFFFFFFFFFFF
310
FFFFFFFFFFFFFFFFFFFFFFFFFFFFFFFFFFFFFFFFFFFFFFFFFFFFFFFFFFFFFFFF
310
FFFFFFFFFFFFFFFFFFFFFFFFFFFFFFFFFFFFFFFFFFFFFFFFFFFFFFFFFFFFFFFF
310
FFFFFFFFFFFFFFFFFFFFFFFFFFFFFFFFFFFFFFFFFFFFFFFFFFFFFFFFFFFFFFFF
310
FFFFFFFFFFFFFFFFFFFFFFFFFFFFFFFFFFFFFFFFFFFFFFFFFFFFFFFFFFFFFFFF
310
FFFFFFFFFFFFFFFFFFFFFFFFFFFFFFFFFFFFFFFFFFFFFFFFFFFFFFFFFFFFFFFF
310
FFFFFFFFFFFFFFFFFFFFFFFFFFFFFFFFFFFFFFFFFFFFFFFFFFFFFFFFFFFFFFFF
310
FFFFFFFFFFFFFFFFFFFFFFFFFFFFFFFFFFFFFFFFFFFFFFFFFFFFFFFFFFFFFFFF
310
FFFFFFFFFFFFFFFFFFFFFFFFFFFFFFFFFFFFFFFFFFFFFFFFFFFFFFFFFFFFFFFF
310
FFFFFFFFFFFFFFFFFFFFFFFFFFFFFFFFFFFFFFFFFFFFFFFFFFFFFFFFFFFFFFFF
310
FFFFFFFFFFFFFFFFFFFFFFFFFFFFFFFFFFFFFFFFFFFFFFFFFFFFFFFFFFFFFFFF
310
FFFFFFFFFFFFFFFFFFFFFFFFFFFFFFFFFFFFFFFFFFFFFFFFFFFFFFFFFFFFFFFF
310
FFFFFFFFFFFFFFFFFFFFFFFFFFFFFFFFFFFFFFFFFFFFFFFFFFFFFFFFFFFFFFFF
310
FDFFFFFFFEFFFFFFFEFFFFFF0400000005000000060000000700000008000000
310
09000000FEFFFFFFFFFFFFFFFFFFFFFFFFFFFFFFFFFFFFFFFFFFFFFFFFFFFFFF
310
FFFFFFFFFFFFFFFFFFFFFFFFFFFFFFFFFFFFFFFFFFFFFFFFFFFFFFFFFFFFFFFF
310
FFFFFFFFFFFFFFFFFFFFFFFFFFFFFFFFFFFFFFFFFFFFFFFFFFFFFFFFFFFFFFFF
310
FFFFFFFFFFFFFFFFFFFFFFFFFFFFFFFFFFFFFFFFFFFFFFFFFFFFFFFFFFFFFFFF
310
FFFFFFFFFFFFFFFFFFFFFFFFFFFFFFFFFFFFFFFFFFFFFFFFFFFFFFFFFFFFFFFF
310
FFFFFFFFFFFFFFFFFFFFFFFFFFFFFFFFFFFFFFFFFFFFFFFFFFFFFFFFFFFFFFFF
310
FFFFFFFFFFFFFFFFFFFFFFFFFFFFFFFFFFFFFFFFFFFFFFFFFFFFFFFFFFFFFFFF
310
FFFFFFFFFFFFFFFFFFFFFFFFFFFFFFFFFFFFFFFFFFFFFFFFFFFFFFFFFFFFFFFF
310
FFFFFFFFFFFFFFFFFFFFFFFFFFFFFFFFFFFFFFFFFFFFFFFFFFFFFFFFFFFFFFFF
310
FFFFFFFFFFFFFFFFFFFFFFFFFFFFFFFFFFFFFFFFFFFFFFFFFFFFFFFFFFFFFFFF
310
FFFFFFFFFFFFFFFFFFFFFFFFFFFFFFFFFFFFFFFFFFFFFFFFFFFFFFFFFFFFFFFF
310
FFFFFFFFFFFFFFFFFFFFFFFFFFFFFFFFFFFFFFFFFFFFFFFFFFFFFFFFFFFFFFFF
310
FFFFFFFFFFFFFFFFFFFFFFFFFFFFFFFFFFFFFFFFFFFFFFFFFFFFFFFFFFFFFFFF
310
FFFFFFFFFFFFFFFFFFFFFFFFFFFFFFFFFFFFFFFFFFFFFFFFFFFFFFFFFFFFFFFF
310
FFFFFFFFFFFFFFFFFFFFFFFFFFFFFFFFFFFFFFFFFFFFFFFFFFFFFFFFFFFFFFFF
310
52006F006F007400200045006E00740072007900000000000000000000000000
310
0000000000000000000000000000000000000000000000000000000000000000
310
16000500FFFFFFFFFFFFFFFF020000001903000000000000C000000000000046
310
00000000000000000000000030D1C25D7526DC0103000000400C000000000000
310
01004F006C006500000000000000000000000000000000000000000000000000
310
0000000000000000000000000000000000000000000000000000000000000000
310
0A000200FFFFFFFFFFFFFFFFFFFFFFFF00000000000000000000000000000000
310
0000000000000000000000000000000000000000000000001400000000000000
310
010043006F006D0070004F0062006A0000000000000000000000000000000000
310
0000000000000000000000000000000000000000000000000000000000000000
310
120002010100000003000000FFFFFFFF00000000000000000000000000000000
310
0000000000000000000000000000000000000000010000005800000000000000
310
43004F004E00540045004E005400530000000000000000000000000000000000
310
0000000000000000000000000000000000000000000000000000000000000000
310
12000200FFFFFFFFFFFFFFFFFFFFFFFF00000000000000000000000000000000
310
0000000000000000000000000000000000000000030000007C0B000000000000
310
FEFFFFFF02000000FEFFFFFF0400000005000000060000000700000008000000
310
090000000A0000000B0000000C0000000D0000000E0000000F00000010000000
310
1100000012000000130000001400000015000000160000001700000018000000
310
190000001A0000001B0000001C0000001D0000001E0000001F00000020000000
310
2100000022000000230000002400000025000000260000002700000028000000
310
290000002A0000002B0000002C0000002D0000002E0000002F00000030000000
310
FEFFFFFFFFFFFFFFFFFFFFFFFFFFFFFFFFFFFFFFFFFFFFFFFFFFFFFFFFFFFFFF
310
FFFFFFFFFFFFFFFFFFFFFFFFFFFFFFFFFFFFFFFFFFFFFFFFFFFFFFFFFFFFFFFF
310
FFFFFFFFFFFFFFFFFFFFFFFFFFFFFFFFFFFFFFFFFFFFFFFFFFFFFFFFFFFFFFFF
310
FFFFFFFFFFFFFFFFFFFFFFFFFFFFFFFFFFFFFFFFFFFFFFFFFFFFFFFFFFFFFFFF
310
FFFFFFFFFFFFFFFFFFFFFFFFFFFFFFFFFFFFFFFFFFFFFFFFFFFFFFFFFFFFFFFF
310
FFFFFFFFFFFFFFFFFFFFFFFFFFFFFFFFFFFFFFFFFFFFFFFFFFFFFFFFFFFFFFFF
310
FFFFFFFFFFFFFFFFFFFFFFFFFFFFFFFFFFFFFFFFFFFFFFFFFFFFFFFFFFFFFFFF
310
FFFFFFFFFFFFFFFFFFFFFFFFFFFFFFFFFFFFFFFFFFFFFFFFFFFFFFFFFFFFFFFF
310
FFFFFFFFFFFFFFFFFFFFFFFFFFFFFFFFFFFFFFFFFFFFFFFFFFFFFFFFFFFFFFFF
310
FFFFFFFFFFFFFFFFFFFFFFFFFFFFFFFFFFFFFFFFFFFFFFFFFFFFFFFFFFFFFFFF
310
0100000200000000000000000000000000000000000000000000000000000000
310
0000000000000000000000000000000000000000000000000000000000000000
310
0100FEFF030A0000FFFFFFFF1903000000000000C0000000000000461C000000
310
506963747572652028456E68616E636564204D65746166696C652900FFFFFFFF
310
0E00000000000000F439B2710000000000000000000000000000000000000000
310
0000000000000000000000000000000000000000000000000000000000000000
310
74000000010000006C00000094FFFFFF050100006A0400001B020000D1F2FFFF
310
DC1F0000F1890000CC41000020454D4600000100040B00004200000003000000
310
0D0000005800000000000000000400000003000040010000F000000041006400
310
6F00620065002000530079007300740064006500780000000100000074000000
310
94FFFFFF050100006A0400001B020000D1F2FFFFDC1F0000F1890000CC410000
310
20454D4600000100040B000042000000030000000D0000005800000000000000
310
000400000003000040010000F0000000410064006F0062006500200053007900
310
7300740065006D0073000000110000000C00000008000000120000000C000000
310
010000000A0000001000000000000000000000000C0000001000000000000000
310
000000000900000010000000892B0000C60900000B00000010000000830E0000
310
42030000130000000C0000000200000027000000180000000100000000000000
310
0000000000000000250000000C000000010000005F0000003400000002000000
310
2C000000000000002C0000000000000005000000000000000000000000000000
310
0000000000000000250000000C000000020000003B000000080000001B000000
310
10000000100D00009E0400005800000048010000B70300004B0100006B040000
310
D40100004B000000F30C8E04C80C86048B0C8604DB0B8604DB0B8604DB0B8604
310
7E0B86047E0B77047E0B5D047E0B4204870B3A04960B3504AB0B2D04CF0B2C04
310
090C2C04250D2C04250D2C04250D2C042D0D2C04330D2604330D1F04330DF003
310
330DF003330DF003330DE9032D0DE303250DE303EC0BE303EC0BE303EC0BE303
310
880BE303260BEC03260B5904260B9104390BB104650BC2048C0BD104C70BD304
310
270CD304970CD304970CD304970CD304E30CD304E70CE004E70CFC04E70C1D05
310
E20C3005880C3005410B3005410B3005410B30053A0B3005340B3605340B3D05
310
340B6B05340B6B05340B6B05340B73053A0B7905410B79057F0C79057F0C7905
310
7F0C7905A90C7905D80C7805FD0C6905280D59053F0D37053F0D08053F0DF004
310
3F0DF0043F0DF0043F0DCB042F0DAF04100D9E043D000000080000003C000000
310
080000003E000000180000009F8601009F8601006179FEFF6179FEFF13000000
310
0C000000020000003B000000080000001B00000010000000BE09000079050000
310
58000000D0000000E30200004B010000B1030000D40100002D000000FF097905
310
FF097905FF097905060A79050C0A73050C0A6B050C0AD2040C0AD2040C0AD204
310
090BFA03090BFA03090BFA03120BF2030C0BE303000BE303A60AE303A60AE303
310
A60AE303A30AE303A00AE4039D0AE603DE098B04DE098B04DE098B041F09E603
310
1F09E6031F09E6031C09E4031909E3031609E303BD08E303BD08E303BD08E303
310
B008E303AA08F203B408FA03B009D204B009D204B009D204B0096B05B0096B05
310
B0096B05B0097305B6097905BE0979053D000000080000003C00000008000000
310
3E000000180000009F8601009F8601006179FEFF6179FEFF130000000C000000
310
020000003B000000080000001B000000100000004F0800009E04000058000000
310
48010000210200004B010000D5020000D40100004B00000032088E0407088604
310
CA0786041A0786041A0786041A078604BE068604BE067704BE065D04BE064204
310
C6063A04D5063504EB062D040E072C0448072C0464082C0464082C0464082C04
310
6C082C047208260472081F047208F0037208F0037208F0037208E9036C08E303
310
6408E3032B07E3032B07E3032B07E303C706E3036506EC036506590465069104
310
7806B104A406C204CB06D1040607D3046607D304D607D304D607D304D607D304
310
2308D3042608E0042608FC0426081D0521083005C70730058006300580063005
310
80063005790630057306360573063D0573066B0573066B0573066B0573067305
310
7906790580067905BE077905BE077905BE077905E8077905180878053D086905
310
680859057E0837057E0808057E08F0047E08F0047E08F0047E08CB046E08AF04
310
4F089E043D000000080000003C000000080000003E000000180000009F860100
310
9F8601006179FEFF6179FEFF130000000C000000020000003B00000008000000
310
1B0000001000000000060000D9040000580000007C000000D101000080010000
310
050200009E010000180000008105D9048105D9048105D9047A05D9047405D304
310
7405CB0474058E0474058E0474058E04740587047A0581048105810400068104
310
0006810400068104070681040D0687040D068E040D06CB040D06CB040D06CB04
310
0D06D3040706D9040006D9043D000000080000003C000000080000003E000000
310
180000009F8601009F8601006179FEFF6179FEFF130000000C00000002000000
310
3B000000080000001B000000100000006F040000E303000058000000D0000000
310
EC0000004B010000B5010000E20100002D0000007303E3037303E3037303E303
310
FA02E303C6021104C6027C04C602E004C602E004C602E004C6024B05FA027905
310
7303790518047805180478051804780518049705180497051804970518049E05
310
1E04A4052604A4056404A4056404A4056404A4056B04A40571049E0571049705
310
710478057104780571047805930478059304780593047805BF047805E5046605
310
FD044A05120531051C0510051C05E0041C057C041C057C041C057C041C051104
310
E804E3036F04E3033D000000080000001B00000010000000C0040000F2040000
310
58000000B80000000B0100006301000096010000BB01000027000000C0041505
310
A804300590043005710430057104300571043005710412057104120571041205
310
71040A056B040405640404052604040526040405260404051E04040518040A05
310
1804120518043005180430051804300579033005790330057903300545033005
310
220325052203F2042203690422036904220369042203440431032C0479032C04
310
69042C0469042C0469042C049D042C04C0043604C00469043D00000008000000
310
3C000000080000003E000000180000009F8601009F8601006179FEFF6179FEFF
310
130000000C000000020000003B000000080000001B00000010000000C1000000
310
E504000058000000AC000000E4FFFFFF5C01000041000000C401000024000000
310
C1007E04C1007E04C1007E04C1006C04B8005C04A90054045000200450002004
310
50002004410017042E0017041F002004C6FF5404C6FF5404C6FF5404B7FF5C04
310
AEFF6C04AEFF7E04AEFFE504AEFFE504AEFFE504AEFFF604B7FF0605C6FF0F05
310
1F0042051F0042051F0042052E004B0541004B0550004205A9000F05A9000F05
310
A9000F05B8000605C100F604C100E5043D000000080000003C00000008000000
310
3E000000180000009F8601009F8601006179FEFF6179FEFF130000000C000000
310
020000003B000000080000001B00000010000000EA0000007205000058000000
310
6C01000093FFFFFF03010000920000001E020000540000005400C9055400C905
310
5400C9054200D3052D00D3051C00C90554FF550554FF550554FF550542FF4B05
310
38FF390538FF240538FF3E0438FF3E0438FF3E0438FF2A0442FF170454FF0D04
310
1C009A031C009A031C009A032D0090034200900354009A031C010D041C010D04
310
1C010D042D01170438012A0438013E043801EA043801EA043801EA043801F604
310
3E010105490107059D0137059D0137059D013705A7013D05B3013605B3012B05
310
B3012404B3012404B3012404B301F4039901C7037001AF037B0022037B002203
310
7B00220351000A031E000A03F4FF220300FFAF0300FFAF0300FFAF03D6FEC703
310
BCFEF403BCFE2404BCFE3E05BCFE3E05BCFE3E05BCFE6E05D6FE9B0500FFB305
310
F4FF4006F4FF4006F4FF40061E005806510058067B0040065F01BC055F01BC05
310
5F01BC056901B7056901A8055F01A3050B0172050B0172050B01720501016C05
310
F4006C05EA0072053D000000080000003C000000080000003E00000018000000
310
9F8601009F8601006179FEFF6179FEFF280000000C0000000100000028000000
310
0C000000020000000E0000001400000000000000100000001400000000000000
310
0000000000000000000000000000000000000000000000000000000000000000
310
0000000000000000000000000000000000000000000000000000000000000000
310
0000000000000000000000000000000000000000000000000000000000000000
310
0000000000000000000000000000000000000000000000000000000000000000
310
0000000000000000000000000000000000000000000000000000000000000000
310
0000000000000000000000000000000000000000000000000000000000000000
310
0000000000000000000000000000000000000000000000000000000000000000
310
0000000000000000000000000000000000000000000000000000000000000000
310
0000000000000000000000000000000000000000000000000000000000000000
310
0000000000000000000000000000000000000000000000000000000000000000
310
0000000000000000000000000000000000000000000000000000000000000000
310
0000000000000000000000000000000000000000000000000000000000000000
310
0000000000000000000000000000000000000000000000000000000000000000
310
0000000000000000000000000000000000000000000000000000000000000000
  1
OLE
  0
ENDSEC
  0
SECTION
  2
OBJECTS
  0
DICTIONARY
  5
C
330
0
100
AcDbDictionary
281
     1
  3
ACAD_GROUP
350
D
  3
ACAD_LAYOUT
350
1A
  3
ACAD_MLINESTYLE
350
17
  3
ACAD_PLOTSETTINGS
350
19
  3
ACAD_PLOTSTYLENAME
350
E
  3
ACAD_SCALELIST
350
47
  3
DWGPROPS
350
4CC
  0
DICTIONARY
  5
D
102
{ACAD_REACTORS
330
C
102
}
330
C
100
AcDbDictionary
281
     1
  0
DICTIONARY
  5
1A
102
{ACAD_REACTORS
330
C
102
}
330
C
100
AcDbDictionary
281
     1
  3
Layout1
350
1E
  3
Layout2
350
26
  3
Model
350
22
  0
DICTIONARY
  5
17
102
{ACAD_REACTORS
330
C
102
}
330
C
100
AcDbDictionary
281
     1
  3
Standard
350
18
  0
DICTIONARY
  5
19
102
{ACAD_REACTORS
330
C
102
}
330
C
100
AcDbDictionary
281
     1
  0
ACDBDICTIONARYWDFLT
  5
E
102
{ACAD_REACTORS
330
C
102
}
330
C
100
AcDbDictionary
281
     1
  3
Normal
350
F
100
AcDbDictionaryWithDefault
340
F
  0
DICTIONARY
  5
47
102
{ACAD_REACTORS
330
C
102
}
330
C
100
AcDbDictionary
281
     1
  3
A0
350
48
  3
A1
350
49
  3
A2
350
4A
  3
A3
350
4B
  3
A4
350
4C
  3
A5
350
4D
  3
A6
350
4E
  3
A7
350
4F
  3
A8
350
50
  3
A9
350
51
  3
B0
350
52
  3
B1
350
53
  3
B2
350
54
  3
B3
350
55
  3
B4
350
56
  3
B5
350
57
  3
B6
350
58
  0
XRECORD
  5
4CC
102
{ACAD_REACTORS
330
C
102
}
330
C
100
AcDbXrecord
280
     1
  1
DWGPROPS COOKIE
  2

  3

  4

  6

  7

  8
Kevin.Castro
  9

300
=
301
=
302
=
303
=
304
=
305
=
306
=
307
=
308
=
309
=
 40
0.0
 41
2460934.803744375
 42
2460934.803750486
  1

 90
        0
  0
LAYOUT
  5
1E
102
{ACAD_REACTORS
330
1A
102
}
330
1A
100
AcDbPlotSettings
  1

  2
none_device
  4

  6

 40
0.0
 41
0.0
 42
0.0
 43
0.0
 44
0.0
 45
0.0
 46
0.0
 47
0.0
 48
0.0
 49
0.0
140
0.0
141
0.0
142
1.0
143
1.0
 70
   688
 72
     1
 73
     0
 74
     5
  7

 75
    16
147
1.0
148
0.0
149
0.0
100
AcDbLayout
  1
Layout1
 70
     1
 71
     1
 10
0.0
 20
0.0
 11
420.0
 21
297.0
 12
0.0
 22
0.0
 32
0.0
 14
1.0000000000E+20
 24
1.0000000000E+20
 34
1.0000000000E+20
 15
-1.0000000000E+20
 25
-1.0000000000E+20
 35
-1.0000000000E+20
146
0.0
 13
0.0
 23
0.0
 33
0.0
 16
1.0
 26
0.0
 36
0.0
 17
0.0
 27
1.0
 37
0.0
 76
     0
330
1B
  0
LAYOUT
  5
26
102
{ACAD_REACTORS
330
1A
102
}
330
1A
100
AcDbPlotSettings
  1

  2
none_device
  4

  6

 40
0.0
 41
0.0
 42
0.0
 43
0.0
 44
0.0
 45
0.0
 46
0.0
 47
0.0
 48
0.0
 49
0.0
140
0.0
141
0.0
142
1.0
143
1.0
 70
   688
 72
     1
 73
     0
 74
     5
  7

 75
    16
147
1.0
148
0.0
149
0.0
100
AcDbLayout
  1
Layout2
 70
     1
 71
     2
 10
0.0
 20
0.0
 11
0.0
 21
0.0
 12
0.0
 22
0.0
 32
0.0
 14
0.0
 24
0.0
 34
0.0
 15
0.0
 25
0.0
 35
0.0
146
0.0
 13
0.0
 23
0.0
 33
0.0
 16
1.0
 26
0.0
 36
0.0
 17
0.0
 27
1.0
 37
0.0
 76
     0
330
23
  0
LAYOUT
  5
22
102
{ACAD_REACTORS
330
1A
102
}
330
1A
100
AcDbPlotSettings
  1

  2
none_device
  4
Letter_(8.50_x_11.00_Inches)
  6

 40
6.35
 41
6.35
 42
6.35000508
 43
6.35000508
 44
215.9
 45
279.4
 46
0.0
 47
0.0
 48
0.0
 49
0.0
140
0.0
141
0.0
142
1.0
143
1.0
 70
  1712
 72
     1
 73
     0
 74
     0
  7

 75
     0
147
1.0
148
0.0
149
0.0
100
AcDbLayout
  1
Model
 70
     1
 71
     0
 10
0.0
 20
0.0
 11
863.6
 21
558.8
 12
0.0
 22
0.0
 32
0.0
 14
0.0
 24
0.0
 34
0.0
 15
863.6
 25
558.8
 35
0.0
146
0.0
 13
0.0
 23
0.0
 33
0.0
 16
1.0
 26
0.0
 36
0.0
 17
0.0
 27
1.0
 37
0.0
 76
     0
330
1F
331
29
  0
MLINESTYLE
  5
18
102
{ACAD_REACTORS
330
17
102
}
330
17
100
AcDbMlineStyle
  2
Standard
 70
     0
  3

 62
   256
 51
90.0
 52
90.0
 71
     2
 49
0.5
 62
   256
  6
BYLAYER
 49
-0.5
 62
   256
  6
BYLAYER
  0
ACDBPLACEHOLDER
  5
F
102
{ACAD_REACTORS
330
E
102
}
330
E
  0
SCALE
  5
48
102
{ACAD_REACTORS
330
47
102
}
330
47
100
AcDbScale
 70
     0
300
1:1
140
1.0
141
1.0
290
     1
  0
SCALE
  5
49
102
{ACAD_REACTORS
330
47
102
}
330
47
100
AcDbScale
 70
     0
300
1:2
140
1.0
141
2.0
290
     0
  0
SCALE
  5
4A
102
{ACAD_REACTORS
330
47
102
}
330
47
100
AcDbScale
 70
     0
300
1:4
140
1.0
141
4.0
290
     0
  0
SCALE
  5
4B
102
{ACAD_REACTORS
330
47
102
}
330
47
100
AcDbScale
 70
     0
300
1:5
140
1.0
141
5.0
290
     0
  0
SCALE
  5
4C
102
{ACAD_REACTORS
330
47
102
}
330
47
100
AcDbScale
 70
     0
300
1:8
140
1.0
141
8.0
290
     0
  0
SCALE
  5
4D
102
{ACAD_REACTORS
330
47
102
}
330
47
100
AcDbScale
 70
     0
300
1:10
140
1.0
141
10.0
290
     0
  0
SCALE
  5
4E
102
{ACAD_REACTORS
330
47
102
}
330
47
100
AcDbScale
 70
     0
300
1:16
140
1.0
141
16.0
290
     0
  0
SCALE
  5
4F
102
{ACAD_REACTORS
330
47
102
}
330
47
100
AcDbScale
 70
     0
300
1:20
140
1.0
141
20.0
290
     0
  0
SCALE
  5
50
102
{ACAD_REACTORS
330
47
102
}
330
47
100
AcDbScale
 70
     0
300
1:30
140
1.0
141
30.0
290
     0
  0
SCALE
  5
51
102
{ACAD_REACTORS
330
47
102
}
330
47
100
AcDbScale
 70
     0
300
1:40
140
1.0
141
40.0
290
     0
  0
SCALE
  5
52
102
{ACAD_REACTORS
330
47
102
}
330
47
100
AcDbScale
 70
     0
300
1:50
140
1.0
141
50.0
290
     0
  0
SCALE
  5
53
102
{ACAD_REACTORS
330
47
102
}
330
47
100
AcDbScale
 70
     0
300
1:100
140
1.0
141
100.0
290
     0
  0
SCALE
  5
54
102
{ACAD_REACTORS
330
47
102
}
330
47
100
AcDbScale
 70
     0
300
2:1
140
2.0
141
1.0
290
     0
  0
SCALE
  5
55
102
{ACAD_REACTORS
330
47
102
}
330
47
100
AcDbScale
 70
     0
300
4:1
140
4.0
141
1.0
290
     0
  0
SCALE
  5
56
102
{ACAD_REACTORS
330
47
102
}
330
47
100
AcDbScale
 70
     0
300
8:1
140
8.0
141
1.0
290
     0
  0
SCALE
  5
57
102
{ACAD_REACTORS
330
47
102
}
330
47
100
AcDbScale
 70
     0
300
10:1
140
10.0
141
1.0
290
     0
  0
SCALE
  5
58
102
{ACAD_REACTORS
330
47
102
}
330
47
100
AcDbScale
 70
     0
300
100:1
140
100.0
141
1.0
290
     0
  0
ENDSEC
  0
EOF
